<?xml version="1.0" standalone="no"?>
<!DOCTYPE svg PUBLIC "-//W3C//DTD SVG 1.1//EN" "http://www.w3.org/Graphics/SVG/1.1/DTD/svg11.dtd" >
<svg>
<metadata>
Created by FontForge 20090914 at Sat Mar  2 16:33:22 2019
 By www-data
Copyright (c) 2019 by Creative LAB. All rights reserved.
</metadata>
<defs>
<font id="BlessedScript" horiz-adv-x="370" >
  <font-face 
    font-family="Blessed Script"
    font-weight="400"
    font-stretch="normal"
    units-per-em="1000"
    panose-1="2 0 5 6 4 0 0 2 0 3"
    ascent="750"
    descent="-250"
    x-height="463.999"
    cap-height="657.493"
    bbox="-1005.4 -389.004 1238 1284.99"
    underline-thickness="50"
    underline-position="-50"
    unicode-range="U+000D-U+201E"
  />
<missing-glyph horiz-adv-x="297" 
 />
    <glyph glyph-name=".notdef" horiz-adv-x="297" 
 />
    <glyph glyph-name="NULL" horiz-adv-x="0" 
 />
    <glyph glyph-name="NULL" horiz-adv-x="0" 
 />
    <glyph glyph-name="nonmarkingreturn" unicode="&#xd;" horiz-adv-x="297" 
 />
    <glyph glyph-name="space" unicode=" " horiz-adv-x="297" 
 />
    <glyph glyph-name="exclam" unicode="!" horiz-adv-x="318" 
d="M71 92c13.333 0 24.5 -4.66797 33.5 -14.001s13.5 -19.666 13.5 -30.999c0 -12 -5 -22.833 -15 -32.5s-20.667 -14.5 -32 -14.5c-12.667 -0 -23.667 4.33301 -33 13s-14 20.667 -14 36c0 13.333 4.16699 23.833 12.5 31.5s19.833 11.5 34.5 11.5zM307 649.999
c0.666992 -0.666992 1.00195 -1.33398 1.00195 -2.00098l-26 -79l-34.5 -103l-37 -111.5l-34 -104.5l-26 -81c-7 -22 -11.167 -35.667 -12.5 -41c-2 -5.33301 -8 -9.66602 -18 -12.999s-20 -5 -30 -5c-9.33301 0 -17.333 1.5 -24 4.5s-10 7.83301 -10 14.5
c0 0.666992 0.666992 3.66699 2 9l34 96l20 57l31 91l32.5 92.5l31.5 87c10 27.667 19.667 52.5 29 74.5c5.33301 9.33301 11.166 15.333 17.499 18s13.5 4 21.5 4c6 0 12.333 -0.666992 19 -2c0.666992 0 1.16699 -0.166992 1.5 -0.5s1.16602 -0.5 2.49902 -0.5h5l2 -1z
" />
    <glyph glyph-name="quotedbl" unicode="&#x22;" horiz-adv-x="420" 
d="M234 512c11.333 5.33301 23.334 12.3301 36.001 20.9971s21.667 20.334 27 35.001c-13.333 4.66699 -23.166 11.334 -29.499 20.001s-9.5 17.667 -9.5 27c0 11.333 4.16699 21.333 12.5 30s19.5 13 33.5 13c16 0 28 -4.66699 36 -14s12 -21.333 12 -36
c0 -11.333 -2.5 -23.666 -7.5 -36.999s-12.333 -26.166 -22 -38.499s-21.834 -23.5 -36.501 -33.5s-31.334 -17.667 -50.001 -23c-7.33301 0 -13.333 1.66699 -18 5s-7 7.66602 -7 12.999c0 3.33301 2.16699 6.5 6.5 9.5s9.83301 5.83301 16.5 8.5zM76.001 511.997
c11.333 5.33301 23.5 12.166 36.5 20.499s22.167 20.166 27.5 35.499c-14 4.66699 -24.167 11.334 -30.5 20.001s-9.5 17.667 -9.5 27c0 11.333 4.33301 21.333 13 30s20 13 34 13c15.333 0 26.833 -4.66699 34.5 -14s11.5 -21.333 11.5 -36
c0 -11.333 -2.33301 -23.666 -7 -36.999s-11.834 -26.166 -21.501 -38.499s-21.667 -23.5 -36 -33.5s-31.166 -17.667 -50.499 -23c-7.33301 0 -13.333 1.66699 -18 5s-7 7.66602 -7 12.999c0 3.33301 2.16699 6.5 6.5 9.5s9.83301 5.83301 16.5 8.5z" />
    <glyph glyph-name="numbersign" unicode="#" horiz-adv-x="583" 
d="M476 266c7.33301 0 12.8379 -2.33594 16.5049 -7.00293s5.5 -9.66699 5.5 -15c0 -6 -2 -11.833 -6 -17.5s-9.33301 -8.5 -16 -8.5h-4c-0.666992 0 -1.33398 0.166992 -2.00098 0.5s-1.33398 0.5 -2.00098 0.5c-14 2.66699 -27.5 4.83398 -40.5 6.50098
s-26.167 2.5 -39.5 2.5c-1.33301 -4.66699 -2.83301 -9.33398 -4.5 -14.001s-3.5 -9 -5.5 -13v1c-0.666992 -2 -1.66699 -4.33301 -3 -7s-2.33301 -5 -3 -7c-1.33301 -2.66699 -2.66602 -6 -3.99902 -10l-8 -23c8.66699 -1.33301 16.667 -2 24 -2s15 -0.333008 23 -1
c1.33301 0 3.83301 -0.166992 7.5 -0.5s7.16699 -0.5 10.5 -0.5c8 -0.666992 16.167 -1.16699 24.5 -1.5s17.166 -1.16602 26.499 -2.49902c6 -1.33301 11.167 -4 15.5 -8s6.5 -8.66699 6.5 -14c0 -6.66699 -2 -12.5 -6 -17.5s-9.33301 -7.5 -16 -7.5
c-22.667 2.66699 -44.5 5 -65.5 7s-42.5 3.66699 -64.5 5l-17.5 -48.5l-17.5 -48.5c-5.33301 -9.33301 -13 -14 -23 -14c-6 0 -11.333 1.83301 -16 5.5s-7 8.83398 -7 15.501c0 2 0.666992 5 2 9l31 86c-13.333 0 -25.333 0.5 -36 1.5s-22.334 2.83301 -35.001 5.5l-40 -109
c-4 -9.33301 -11 -14 -21 -14c-6 0 -11.333 1.83301 -16 5.5s-7 8.83398 -7 15.501c0 2 0.666992 5 2 9l35 95l-40.5 4l-40.5 4c-6 0.666992 -10.333 3 -13 7s-4 8.66699 -4 14c0 6 1.83301 11.5 5.5 16.5s9.16699 7.5 16.5 7.5l91 -6c2 4 4.16699 8.83301 6.5 14.5
s4.16602 10.834 5.49902 15.501l8 22l6 16c-20.667 1.33301 -41.334 3.16602 -62.001 5.49902s-41.334 4.16602 -62.001 5.49902c-5.33301 1.33301 -9.16602 3.83301 -11.499 7.5s-3.5 8.16699 -3.5 13.5c0 6 1.83301 11.5 5.5 16.5s9.16699 7.5 16.5 7.5l130 -11l9 24
c2.66699 8.66699 6 18.167 10 28.5s8.33301 19.833 13 28.5s9.33398 16 14.001 22s9 9 13 9c5.33301 0 10.333 -2 15 -6s7 -9 7 -15v-3c0 -1.33301 -0.333008 -2.66602 -1 -3.99902c-6 -16.667 -11 -32 -15 -46l-4 -11c-1.33301 -5.33301 -3 -11 -5 -17l-5 -15l27 -2
c1.33301 0 3 -0.166992 5 -0.5s3.66699 -0.5 5 -0.5c6 -0.666992 11.667 -1.16699 17 -1.5s10.666 -1.16602 15.999 -2.49902c2.66699 6.66699 5 13.5 7 20.5s4.33301 13.5 7 19.5c2.66699 8.66699 6 18 10 28s8 19.167 12 27.5s8 15.166 12 20.499s8 8 12 8
c6 0 11.167 -1.83301 15.5 -5.5s6.5 -8.5 6.5 -14.5c0 -4 -0.333008 -6.66699 -1 -8l-16 -48l-6 -16c-2 -5.33301 -4 -11 -6 -17s-4 -12.667 -6 -20c6 0 12.333 -0.166992 19 -0.5s12.667 -0.833008 18 -1.5s11.5 -1 18.5 -1h18.5zM348.005 233.997
c2 -2 1.66699 -2.99902 -1 -2.99902h-5c-1.33301 0 -2 0.666992 -2 2l2 4c0 1.33301 0.5 2.16602 1.5 2.49902s1.83301 -0.166992 2.5 -1.5zM240.005 167.998c-1.33301 0 -1 -0.333008 1 -1zM242.005 164.998c0 -0.666992 -0.166992 -0.667969 -0.5 -0.000976562
s-0.5 1.33398 -0.5 2.00098h1v-2zM321.005 181.997c3.33301 6.66699 6.33691 13.6641 9.00391 20.9971l7 20c0 2.66699 0.666992 5.33398 2 8.00098c-8 0 -15.667 0.5 -23 1.5s-15 2.16699 -23 3.5c-2.66699 0 -5.16699 0.333008 -7.5 1s-4.83301 1 -7.5 1
s-6.66699 0.666992 -12 2c-2 -7.33301 -4 -15.166 -6 -23.499s-4.66699 -16.166 -8 -23.499l-10 -26c3.33301 -0.666992 7.66602 -1.16699 12.999 -1.5s9.66602 -0.5 12.999 -0.5c1.33301 0 2.66602 -0.166992 3.99902 -0.5s2.66602 -0.5 3.99902 -0.5l28 -3
c2 0 5 -0.666992 9 -2z" />
    <glyph glyph-name="dollar" unicode="$" horiz-adv-x="459" 
d="M109 198c4 4 7.99609 5.99805 11.9961 5.99805c4.66699 0 8.33398 -1.83301 11.001 -5.5s4 -7.5 4 -11.5c0 -4.66699 -1.33301 -8.66699 -4 -12c-10 -8.66699 -17.333 -18.667 -22 -30s-7 -22.666 -7 -33.999c0 -17.333 4.83301 -33 14.5 -47s21.167 -21 34.5 -21
c6 0 13 2.5 21 7.5s15.833 12.333 23.5 22s14.167 21.667 19.5 36s8 30.833 8 49.5c0 8 -0.666992 16.833 -2 26.5s-3 19.834 -5 30.501l-15 -42l-17 -51l-18 -51c-6.66699 -10 -16 -15 -28 -15c-8.66699 4 -13 10 -13 18c0 2.66699 0.666992 5.33398 2 8.00098l28.5 78.5
l28.5 78.5v-1c2 6.66699 4.5 13.834 7.5 21.501l8.5 21.5l4 8c-6 23.333 -11.333 47.333 -16 72s-7 48.667 -7 72c0 22.667 3 42 9 58s14 29 24 39s21.5 17.333 34.5 22s26.167 7 39.5 7h6c0 0.666992 0.333008 1.16699 1 1.5s1 0.833008 1 1.5l3 8
c2 7.33301 5 14.666 9 21.999s9.66699 11 17 11c6 0 11.167 -1.66699 15.5 -5s6.5 -7.66602 6.5 -12.999c0 -4.66699 -1.33301 -10.834 -4 -18.501s-5.33398 -14.167 -8.00098 -19.5c12.667 -8.66699 22.667 -18.834 30 -30.501s11 -24.5 11 -38.5
c0 -15.333 -4.83301 -32.5 -14.5 -51.5s-24.167 -38.5 -43.5 -58.5h1c-1.33301 -2 -3.16602 -3.66699 -5.49902 -5s-4.16602 -2 -5.49902 -2c-4.66699 0 -8.5 1.83301 -11.5 5.5s-4.5 8.16699 -4.5 13.5c0 1.33301 0.166992 2.83301 0.5 4.5s1.5 3.5 3.5 5.5
c17.333 16 30 31.167 38 45.5s12 27.5 12 39.5c0 8.66699 -2.66699 16.5 -8 23.5s-10.666 12.5 -15.999 16.5c-1.33301 -4.66699 -2.66602 -8.66699 -3.99902 -12s-2.33301 -6.66602 -3 -9.99902l-3.5 -13.5c-1 -3.66699 -2.16699 -7.16699 -3.5 -10.5l-12 -34l-18 -51.5
l-19 -50.5c5.33301 -25.333 10.833 -53.166 16.5 -83.499s8.5 -58.166 8.5 -83.499c0 -16.667 -2 -34.667 -6 -54s-10.333 -37.333 -19 -54s-20 -30.5 -34 -41.5s-31 -16.5 -51 -16.5c-14 0 -27.333 2.83301 -40 8.5s-23.667 13.5 -33 23.5s-16.833 21.667 -22.5 35
s-8.5 27.666 -8.5 42.999c0 17.333 3 33.666 9 48.999s15.667 28.666 29 39.999v-1zM293.996 514.998c0.666992 -1.33301 0.666992 -2.33301 0 -3l-6 -3c-2 -2 -3 -1.33301 -3 2l2 7c0 2.66699 1 3 3 1zM244.996 407.998c1.33301 5.33301 2.66699 9.33301 4 12v-13z
M248.997 419.998l15.5 43.002c5.66699 15.333 11.5 29.666 17.5 42.999c-22 -12.667 -33 -36.334 -33 -71.001v-15z" />
    <glyph glyph-name="percent" unicode="%" horiz-adv-x="599" 
d="M188 487c0 11.333 3.00098 22.834 9.00098 34.501s13.333 21.5 22 29.5c-10 -7.33301 -19.5 -16.166 -28.5 -26.499s-16.833 -21.333 -23.5 -33s-11.834 -22.834 -15.501 -33.501s-5.5 -19.334 -5.5 -26.001c0 -8.66699 2.66699 -13 8 -13c4 0 10.5 2.83301 19.5 8.5
s19.167 13.167 30.5 22.5c-10.667 10 -16 22.333 -16 37zM367.001 587.001c2.66699 4 5.83008 8.00098 9.49707 12.001s8.83398 6 15.501 6c5.33301 0 10 -2 14 -6s6 -8.66699 6 -14c0 -4 -0.666992 -7.33301 -2 -10l-103 -299l-97 -269
c-2.66699 -4.66699 -6 -7.66699 -10 -9s-7.66699 -2 -11 -2c-6 0 -11.333 1.66699 -16 5s-7 8 -7 14v4c0 1.33301 0.333008 2.66602 1 3.99902c13.333 32.667 27.166 69.167 41.499 109.5l39.5 113.5l16 45l31 88c5.33301 14.667 9.83301 27.834 13.5 39.501
s8.16699 24.834 13.5 39.501c-13.333 -9.33301 -27.666 -15.666 -42.999 -18.999s-29.666 -5.33301 -42.999 -6c-15.333 -17.333 -30.5 -30 -45.5 -38s-29.5 -12 -43.5 -12c-16.667 0 -30.167 5.5 -40.5 16.5s-15.5 26.5 -15.5 46.5c0 17.333 3 35 9 53s14.333 34.333 25 49
s23.334 26.667 38.001 36s30.667 14 48 14c6 0 13 -0.833008 21 -2.5s12 -7.16699 12 -16.5c0 -2.66699 -0.833008 -5.33398 -2.5 -8.00098s-3.16699 -5.33398 -4.5 -8.00098c4 2 8.66699 3 14 3c10.667 0 18.5 -3.66699 23.5 -11s7.5 -15 7.5 -23
c0 -11.333 -2.5 -23.166 -7.5 -35.499s-9.83301 -22.5 -14.5 -30.5c15.333 1.33301 31 8.16602 47 20.499s29.333 25.166 40 38.499c4.66699 10 8.66699 20.333 12 31s6 20.667 8 30v1zM418.997 152.002c0 10 3.33105 18.999 9.99805 26.999s14.667 14.333 24 19
c-4 -1.33301 -8.5 -3.66602 -13.5 -6.99902s-11.167 -8 -18.5 -14c-17.333 -15.333 -29.666 -31 -36.999 -47s-11 -29.667 -11 -41c0 -10 1.83301 -17 5.5 -21s7.83398 -6 12.501 -6c6 0 14.167 3 24.5 9s20.5 14 30.5 24s18.833 21.667 26.5 35s11.5 27 11.5 41
c0 3.33301 -1.33301 5 -4 5c-5.33301 -2 -10 -5.33301 -14 -10l-11 -13c-5.33301 -10.667 -11.333 -16 -18 -16c-4 0 -8 1.5 -12 4.5s-6 6.5 -6 10.5zM477.995 213.001c-0.666992 -3.33301 -2.00098 -6.00293 -4.00098 -8.00293c1.33301 0.666992 3.33301 1 6 1
c13.333 0 22.833 -3.66699 28.5 -11s8.5 -16.666 8.5 -27.999c0 -13.333 -4.16699 -28.166 -12.5 -44.499s-19 -31.666 -32 -45.999s-27.667 -26.5 -44 -36.5s-32.166 -15 -47.499 -15c-20 0 -34.5 6.5 -43.5 19.5s-13.5 28.5 -13.5 46.5c0 16 3 32.833 9 50.5
s14.5 34 25.5 49s24.5 27.333 40.5 37s33.667 14.5 53 14.5c6 0 12.167 -0.833008 18.5 -2.5s9.5 -7.5 9.5 -17.5c0 -3.33301 -0.666992 -6.33301 -2 -9zM222.994 467.998l1 3c0 -0.666992 0.666992 -1 2 -1s2 -0.666992 2 -2s-0.666992 -2 -2 -2zM217.994 488.998
c0 -2.66699 0.498047 -5.50098 1.49805 -8.50098s2.16699 -5.5 3.5 -7.5c6 8 11.667 17.667 17 29s8 20.666 8 27.999v4c-2 0 -4.66699 -1.33301 -8 -4s-6.66602 -6.16699 -9.99902 -10.5s-6.16602 -9.16602 -8.49902 -14.499s-3.5 -10.666 -3.5 -15.999z" />
    <glyph glyph-name="ampersand" unicode="&#x26;" horiz-adv-x="674" 
d="M381 288c0.666992 0.666992 1.33496 1.00391 2.00195 1.00391c25.333 -14 44.833 -30.167 58.5 -48.5s22.167 -37.166 25.5 -56.499c32 7.33301 58 26.666 78 57.999c7.33301 10.667 15 16 23 16c4 0 7.83301 -1.5 11.5 -4.5s5.5 -7.16699 5.5 -12.5
c0 -2 -0.666992 -5 -2 -9c0 -0.666992 -0.166992 -1.33398 -0.5 -2.00098s-0.5 -1.33398 -0.5 -2.00098c-14.667 -24 -31.834 -42.833 -51.501 -56.5s-40.834 -22.167 -63.501 -25.5c-3.33301 -24.667 -11.5 -46.167 -24.5 -64.5s-28.667 -33.5 -47 -45.5
s-38.166 -21 -59.499 -27s-42.333 -9 -63 -9c-23.333 0 -45.833 3.5 -67.5 10.5s-41 17.333 -58 31s-30.667 30.667 -41 51s-15.5 43.5 -15.5 69.5c0 20.667 3 38.667 9 54s14 29.166 24 41.499s21.833 23.5 35.5 33.5s28.167 19.667 43.5 29
c-6 19.333 -11.167 39.333 -15.5 60s-6.5 41.667 -6.5 63c0 22.667 3 43.5 9 62.5s14.333 35.167 25 48.5s23.334 23.666 38.001 30.999s30.667 11 48 11c14.667 0 28.667 -3.33301 42 -10s25 -15.834 35 -27.501s18 -25.167 24 -40.5s9 -32 9 -50
c0 -34 -11.333 -68.333 -34 -103s-60.334 -64.667 -113.001 -90c20 -26.667 43 -48 69 -64s53 -25.667 81 -29v14c0 15.333 -2.83301 30.5 -8.5 45.5s-14.834 28.167 -27.501 39.5c-0.666992 0.666992 -1 1.33398 -1 2.00098zM263.001 34.0039
c2.66699 -0.666992 5.99707 -1.00195 9.99707 -1.00195c13.333 0 26.833 3 40.5 9s26.334 14.333 38.001 25s22.334 22.834 32.001 36.501s17.167 28.167 22.5 43.5c-32 6 -63.5 18.333 -94.5 37s-56.833 44 -77.5 76c-27.333 -16 -46.666 -33.5 -57.999 -52.5
s-17 -38.167 -17 -57.5c0 -14 3 -27.333 9 -40s13.833 -24.167 23.5 -34.5s20.667 -19.166 33 -26.499s24.833 -12.333 37.5 -15h1zM214.998 410.002c2 -11.333 4.6709 -23.668 8.00391 -37.001s6.66602 -25.666 9.99902 -36.999c16 8 31.667 16.833 47 26.5
s29.166 20.5 41.499 32.5s22.166 25.5 29.499 40.5s11 32.167 11 51.5c0 23.333 -6.16699 41.833 -18.5 55.5s-26.833 20.5 -43.5 20.5c-10.667 0 -21.334 -2.66699 -32.001 -8s-20.167 -13 -28.5 -23s-15 -22.5 -20 -37.5s-7.5 -32.167 -7.5 -51.5c0 -10 1 -21 3 -33z" />
    <glyph glyph-name="quotesingle" unicode="'" horiz-adv-x="327" 
d="M101 505c6.66699 2 14.0029 4.33301 22.0029 7s15.667 6.33398 23 11.001s14.166 10.5 20.499 17.5s11.166 15.167 14.499 24.5c-14 5.33301 -24 12.333 -30 21s-9 18 -9 28c0 11.333 3.66699 21 11 29s17.333 12 30 12c16.667 0 29.334 -4.83301 38.001 -14.5
s13 -22.167 13 -37.5c0 -11.333 -2.5 -23.5 -7.5 -36.5s-12.333 -25.5 -22 -37.5s-21.834 -23 -36.501 -33s-31.334 -17.667 -50.001 -23c-7.33301 0 -13.5 2 -18.5 6s-7.5 8 -7.5 12c0 3.33301 2.66699 7.66602 8 12.999z" />
    <glyph glyph-name="parenleft" unicode="(" horiz-adv-x="302" 
d="M203 33c10.667 0 16.0029 -5.33203 16.0029 -15.999c0 -3.33301 -1.5 -6.83301 -4.5 -10.5s-8.16699 -5.5 -15.5 -5.5c-20 0 -37.167 5.16699 -51.5 15.5s-26 24.333 -35 42s-15.667 38.667 -20 63s-6.5 50.5 -6.5 78.5c0 46 5 94 15 144s23 96 39 138
s34.5 76.667 55.5 104s42.5 41 64.5 41c5.33301 0 12.5 -1.83301 21.5 -5.5s13.5 -9.5 13.5 -17.5c0 -10.667 -5.33301 -16 -16 -16h-4c-1.33301 0 -2.33301 0.333008 -3 1c-9.33301 -1.33301 -19 -8.5 -29 -21.5s-19.833 -30.333 -29.5 -52
s-18.834 -46.334 -27.501 -74.001s-16.334 -56.667 -23.001 -87s-11.834 -60.833 -15.501 -91.5s-5.5 -59.667 -5.5 -87c0 -40.667 4.5 -74.167 13.5 -100.5s24.833 -40.5 47.5 -42.5z" />
    <glyph glyph-name="parenright" unicode=")" horiz-adv-x="200" 
d="M-153 45c8 -3.33301 13.9961 -5.00098 17.9961 -5.00098c16 0 31.667 7.83301 47 23.5s30 36.167 44 61.5s26.833 54 38.5 86s21.834 64.833 30.501 98.5s15.334 66.5 20.001 98.5s7 60.333 7 85c0 20.667 -1.83301 37.334 -5.5 50.001s-9.16699 20.667 -16.5 24
c-4 1.33301 -7 3.5 -9 6.5s-3 6.16699 -3 9.5c0 10 7.33301 15 22 15c22.667 0 39.334 -12.333 50.001 -37s16 -56.334 16 -95.001c0 -29.333 -2.66699 -61.166 -8 -95.499s-13 -68.666 -23 -102.999s-22.167 -67.5 -36.5 -99.5s-30 -60.333 -47 -85
s-35.333 -44.5 -55 -59.5s-40.167 -22.5 -61.5 -22.5c-4 0 -9 0.5 -15 1.5s-11.833 2.5 -17.5 4.5s-10.5 4.66699 -14.5 8s-6 7 -6 11c0 4.66699 1.83301 9.16699 5.5 13.5s8.83398 6.16602 15.501 5.49902h4z" />
    <glyph glyph-name="asterisk" unicode="*" horiz-adv-x="294" 
d="M179 634c2.66699 4 6.33594 6.00098 11.0029 6.00098c3.33301 0 6.66602 -1.66699 9.99902 -5s5 -7.66602 5 -12.999s-1 -9 -3 -11l-19 -15h24c5.33301 0 9.66602 -1.66699 12.999 -5s5 -7.66602 5 -12.999c0 -4.66699 -1.66699 -8.66699 -5 -12s-7.66602 -5 -12.999 -5
h-25c3.33301 -2.66699 6.66602 -5.66699 9.99902 -9s6.66602 -6 9.99902 -8c1.33301 -2.66699 2.16602 -4.66699 2.49902 -6s0.5 -3 0.5 -5c0 -11.333 -5.33301 -17 -16 -17c-4.66699 0 -8 1.66699 -10 5c-3.33301 2 -6.66602 4.5 -9.99902 7.5
s-6.66602 5.83301 -9.99902 8.5v-24c0 -6 -1.83301 -10.5 -5.5 -13.5s-7.5 -4.5 -11.5 -4.5c-11.333 0 -17 6 -17 18v25l-16 -16c-4 -4 -8.33301 -6 -13 -6s-8.66699 1.5 -12 4.5s-5 6.83301 -5 11.5c0 2 0.666992 4.16699 2 6.5s4.66602 6.16602 9.99902 11.499l10 11h-24
c-6 0 -10.667 1.66699 -14 5s-5 7.33301 -5 12c0 5.33301 1.66699 9.66602 5 12.999s8 5 14 5h24l-16 15c-4 3.33301 -6 7.66602 -6 12.999c0 10.667 5.33301 16 16 16c3.33301 0 7 -1.33301 11 -4h-1c0.666992 0 1.16699 -0.333008 1.5 -1s0.833008 -1 1.5 -1l17 -17v25
c0 11.333 5.66699 17 17 17c4 0 7.83301 -1.5 11.5 -4.5s5.5 -7.16699 5.5 -12.5v-25z" />
    <glyph glyph-name="plus" unicode="+" horiz-adv-x="410" 
d="M180 292c0 7.33301 2 13.333 6 18s8.66699 7 14 7s10.333 -2.33301 15 -7s7 -10.667 7 -18v-85h85c7.33301 0 13.166 -1.5 17.499 -4.5s6.5 -9.16699 6.5 -18.5c0 -4.66699 -2.16699 -9 -6.5 -13s-10.166 -6 -17.499 -6h-85v-86c0 -4.66699 -2.33301 -9.33398 -7 -14.001
s-9.66699 -7 -15 -7s-10 2.33301 -14 7s-6 9.33398 -6 14.001v86h-86c-5.33301 0 -10 2 -14 6s-6 8.33301 -6 13c0 9.33301 2 15.5 6 18.5s8.66699 4.5 14 4.5h86v85z" />
    <glyph glyph-name="comma" unicode="," horiz-adv-x="267" 
d="M66 17c15.333 3.33301 30.835 9.33496 46.502 18.002s27.167 22.667 34.5 42c-14 5.33301 -24 12.166 -30 20.499s-9 17.5 -9 27.5c0 11.333 3.66699 21.333 11 30s17.333 13 30 13c16 0 28.167 -5 36.5 -15s12.5 -22.667 12.5 -38c0 -11.333 -2.5 -23.5 -7.5 -36.5
s-12.333 -25.5 -22 -37.5s-21.834 -23 -36.501 -33s-31.667 -17.667 -51 -23c-6.66699 0 -12.334 1.83301 -17.001 5.5s-7 8.16699 -7 13.5s2.66699 9.66602 8 12.999h1z" />
    <glyph glyph-name="hyphen" unicode="-" horiz-adv-x="445" 
d="M91 161c-5.33301 0 -10.333 2.16699 -15 6.5s-7 8.5 -7 12.5c0 9.33301 2.33301 15.5 7 18.5s9.66699 4.5 15 4.5h216c6 0 11 -1.5 15 -4.5s6 -9.16699 6 -18.5c0 -4 -2 -8.16699 -6 -12.5s-9 -6.5 -15 -6.5h-216z" />
    <glyph glyph-name="period" unicode="." horiz-adv-x="356" 
d="M177 91c13.333 0 24.166 -4.66797 32.499 -14.001s12.5 -19.666 12.5 -30.999c0 -13.333 -4.83301 -24.5 -14.5 -33.5s-20.167 -13.5 -31.5 -13.5s-21.5 4.5 -30.5 13.5s-13.5 20.5 -13.5 34.5c0 13.333 3.83301 24 11.5 32s18.834 12 33.501 12z" />
    <glyph glyph-name="slash" unicode="/" horiz-adv-x="415" 
d="M363 666c6 6.66699 13 10 21 10c5.33301 0 10.333 -1.83301 15 -5.5s7 -8.5 7 -14.5c0 -4.66699 -1 -9 -3 -13l-68 -135l-73.5 -151.5l-74.5 -155l-69 -146.5l-54 -113c-2.66699 -4.66699 -6 -8 -10 -10s-8 -3 -12 -3c-5.33301 0 -10.5 1.83301 -15.5 5.5
s-7.5 8.16699 -7.5 13.5c0 4 0.666992 7.33301 2 10c28 52 58.333 112.5 91 181.5l98 210.5l42 89l56.5 120.5c18.333 39 35.5 73.5 51.5 103.5z" />
    <glyph glyph-name="zero" unicode="0" horiz-adv-x="380" 
d="M326 383c-3.33301 48 -11.1689 82.832 -23.502 104.499s-26.5 32.5 -42.5 32.5c-15.333 0 -32.666 -8.83301 -51.999 -26.5s-37.5 -42.5 -54.5 -74.5s-31.333 -70.167 -43 -114.5s-17.5 -93.166 -17.5 -146.499c0 -34.667 4.33301 -64 13 -88s24 -36 46 -36
c20.667 0 39.334 5.83301 56.001 17.5s31.5 27.167 44.5 46.5s24 41 33 65s16.5 48.333 22.5 73s10.5 48.5 13.5 71.5s4.5 43.167 4.5 60.5v15zM68.9971 402.999c21.333 52 47.833 91.999 79.5 119.999s62.5 42 92.5 42c34 0 61.333 -16.833 82 -50.5s31 -86.5 31 -158.5
c0 -54 -6.66699 -103 -20 -147s-30 -81.667 -50 -113s-41.833 -55.5 -65.5 -72.5s-46.167 -25.5 -67.5 -25.5c-34 0 -62.333 16.833 -85 50.5s-34 84.834 -34 153.501c0 34.667 3.5 69.167 10.5 103.5s15.833 66.833 26.5 97.5z" />
    <glyph glyph-name="one" unicode="1" horiz-adv-x="240" 
d="M195 462v0.999023c-1.33301 -7.33301 -2.66602 -13 -3.99902 -17l-4 -12l-29 -111l-31 -117l-31 -109c-10 -34 -19.333 -63 -28 -87v1c0 0.666992 -0.666992 0.333984 -2 -0.999023l-3 -3l-16 -4l-20 -4.5c-7.33301 -1.66699 -13.666 -2.5 -18.999 -2.5
c-12.667 0 -19 4.66699 -19 14v4c0 1.33301 0.333008 2.66602 1 3.99902c11.333 32 23.333 69.667 36 113l38 131l25 87.5l25.5 86c8.33301 27.667 16.666 53.834 24.999 78.501s16.5 46.667 24.5 66c8 10.667 18.667 16 32 16c5.33301 0 11.333 -0.666992 18 -2
c0.666992 0 1.16699 -0.166992 1.5 -0.5s1.16602 -0.5 2.49902 -0.5h5c3.33301 0 5 -2.33301 5 -7z" />
    <glyph glyph-name="two" unicode="2" horiz-adv-x="461" 
d="M417 97c2.66699 1.33301 5.99902 2.00195 9.99902 2.00195c4.66699 0 9 -2 13 -6s6 -8 6 -12c0 -2.66699 -0.666992 -5.33398 -2 -8.00098c-28 -34 -55.667 -57.5 -83 -70.5s-53.666 -19.5 -78.999 -19.5s-49 4.16699 -71 12.5s-42.667 17.833 -62 28.5
c-13.333 -8.66699 -27.5 -15.334 -42.5 -20.001s-29.167 -7 -42.5 -7s-25.666 3.83301 -36.999 11.5s-17 19.834 -17 36.501c2.66699 14.667 10.5 26.167 23.5 34.5s28.167 12.5 45.5 12.5c7.33301 0 14.5 -1.5 21.5 -4.5s13.5 -6.5 19.5 -10.5c24.667 20.667 51 47 79 79
s54 66 78 102s43.833 72.667 59.5 110s23.5 71.666 23.5 102.999c0 25.333 -5.5 44.833 -16.5 58.5s-24.167 20.5 -39.5 20.5c-16.667 0 -34.167 -9.66699 -52.5 -29s-32.833 -48.333 -43.5 -87c-1.33301 -3.33301 -3.5 -6.33301 -6.5 -9s-6.16699 -4 -9.5 -4
c-6 0 -10.833 2.16699 -14.5 6.5s-5.5 9.5 -5.5 15.5c6.66699 24.667 15.834 46.167 27.501 64.5s24.5 33.5 38.5 45.5s28.667 21 44 27s30.333 9 45 9s28.667 -2.66699 42 -8s25 -13.166 35 -23.499s17.833 -23 23.5 -38s8.5 -32.167 8.5 -51.5c0 -22 -4 -45.833 -12 -71.5
s-18.5 -52 -31.5 -79s-28.167 -53.667 -45.5 -80s-35.333 -51.5 -54 -75.5s-37.334 -45.833 -56.001 -65.5s-36 -35.834 -52 -48.501c14.667 -8 30.167 -15.167 46.5 -21.5s33.166 -9.5 50.499 -9.5c20.667 0 42 5.33301 64 16s43.667 29.667 65 57zM100.999 57.002
c0 -1.33301 -0.666016 -2 -1.99902 -2l-6 2c-1.33301 0.666992 -1.83301 1.5 -1.5 2.5s1.16602 1.5 2.49902 1.5l4 2c1.33301 0 2 -0.666992 2 -2zM48 40.002c3.33301 0 8.49902 1.16699 15.499 3.5s15.833 7.16602 26.5 14.499c-7.33301 2 -13.333 3 -18 3
c-9.33301 0 -16.666 -2.16699 -21.999 -6.5s-8 -8.16602 -8 -11.499c0 -2 2 -3 6 -3z" />
    <glyph glyph-name="three" unicode="3" horiz-adv-x="413" 
d="M254 553c-12.667 0 -24.001 -3.66797 -34.001 -11.001s-18.667 -17.333 -26 -30s-13 -27.5 -17 -44.5s-6.33301 -35.167 -7 -54.5l2 -4v-1c0 -4 -1.5 -7.16699 -4.5 -9.5s-5.83301 -3.5 -8.5 -3.5c-10.667 0 -16.667 4.16699 -18 12.5s-2 16.166 -2 23.499v5
c0 27.333 4.5 50.833 13.5 70.5s20.167 36 33.5 49s28.166 22.5 44.499 28.5s31.5 9 45.5 9c16.667 0 32 -3.5 46 -10.5s26 -16.667 36 -29s17.833 -26.666 23.5 -42.999s8.5 -33.833 8.5 -52.5c0 -26 -6.16699 -52.833 -18.5 -80.5s-33.166 -53.5 -62.499 -77.5
c15.333 -14 26.333 -31.167 33 -51.5s10 -41.166 10 -62.499c0 -30.667 -5.33301 -57.667 -16 -81s-24.5 -42.833 -41.5 -58.5s-36 -27.5 -57 -35.5s-42.167 -12 -63.5 -12c-19.333 0 -38.333 3.5 -57 10.5s-35.5 17 -50.5 30s-27.167 29 -36.5 48s-14 40.5 -14 64.5
c0 4 0.166992 10.167 0.5 18.5s1.5 16.666 3.5 24.999s5 15.5 9 21.5s9.33301 9 16 9c8.66699 -4.66699 13 -10 13 -16c0 -4 -0.333008 -8.66699 -1 -14s-1.66699 -9.66602 -3 -12.999c0 -1.33301 -0.166992 -2.33301 -0.5 -3s-0.5 -1.66699 -0.5 -3
c-1.33301 -4.66699 -2.33301 -9.33398 -3 -14.001s-1 -9 -1 -13c0 -16 2.66699 -30.5 8 -43.5s12.5 -24.333 21.5 -34s19.5 -17 31.5 -22s24.667 -7.5 38 -7.5c18 0 34.833 4.83301 50.5 14.5s29.334 22.5 41.001 38.5s20.834 34 27.501 54s10 40 10 60
c0 11.333 -1.16699 22.5 -3.5 33.5s-6.5 21.5 -12.5 31.5c-16 -6.66699 -34.667 -10 -56 -10c-22 0 -39 4.33301 -51 13s-18 19.667 -18 33c0 10 4.5 19.5 13.5 28.5s22.167 13.5 39.5 13.5c13.333 0 26.333 -1.5 39 -4.5s24.667 -6.83301 36 -11.5c17.333 18 31 38 41 60
s15 42 15 60c0 26.667 -6.33301 49.334 -19 68.001s-28.334 28 -47.001 28zM239.999 307.999c0 -1.33301 -0.666016 -2.00098 -1.99902 -2.00098c-2.66699 0 -4.33398 1 -5.00098 3c-0.666992 0.666992 -0.666992 1.33398 0 2.00098l4 3c2 2 3 1.66699 3 -1v-5zM195 296.998
c7.33301 0 13.6689 1.16699 19.002 3.5s10.666 5.5 15.999 9.5c-5.33301 2 -12 3.83301 -20 5.5s-15 2.5 -21 2.5c-5.33301 0 -10 -0.5 -14 -1.5s-6.33301 -2.83301 -7 -5.5c0 -3.33301 1.16699 -5.83301 3.5 -7.5s5.16602 -3 8.49902 -4s6.33301 -1.66699 9 -2
s4.66699 -0.5 6 -0.5z" />
    <glyph glyph-name="four" unicode="4" horiz-adv-x="442" 
d="M428 573c-13.333 -84 -28.5039 -166.499 -45.5039 -247.499l-52.5 -245.5l-7 -30c-1.33301 -6 -2.5 -12.333 -3.5 -19s-2.16699 -13 -3.5 -19c-1.33301 -5.33301 -7 -9.5 -17 -12.5s-19.667 -4.5 -29 -4.5c-10 0 -18.167 1.5 -24.5 4.5s-9.5 8.83301 -9.5 17.5l60 284
h-13.5c-4.33301 0 -8.83301 0.333008 -13.5 1c-1.33301 0 -2.66602 0.166992 -3.99902 0.5s-2.66602 0.5 -3.99902 0.5c-7.33301 0.666992 -15.5 1.16699 -24.5 1.5s-17.167 0.5 -24.5 0.5h-25c-7.33301 0 -14.666 1.33301 -21.999 4
c-21.333 -13.333 -40.833 -23.833 -58.5 -31.5s-33.167 -11.5 -46.5 -11.5c-5.33301 0 -11 0.333008 -17 1s-11.667 2 -17 4s-9.83301 5.16699 -13.5 9.5s-5.5 10.166 -5.5 17.499c0 8.66699 3.5 15.667 10.5 21s15.833 9.66602 26.5 12.999s21.834 5.66602 33.501 6.99902
s22.167 2.33301 31.5 3c4 0.666992 7.83301 1.16699 11.5 1.5s6.16699 0.833008 7.5 1.5c51.333 33.333 94.333 68.833 129 106.5s65.667 77.5 93 119.5c2 2 5.16699 4.33301 9.5 7s9.33301 5.33398 15 8.00098s11.5 4.83398 17.5 6.50098s11.333 2.5 16 2.5
c6 0 11 -1.33301 15 -4s6 -6.66699 6 -12c0 -0.666992 -0.166992 -1.16699 -0.5 -1.5s-0.5 -0.833008 -0.5 -1.5v-3zM90.9961 312.001c0 -1.33301 -0.666992 -2 -2 -2h-5.5c-2.33301 0 -4.83301 -0.333008 -7.5 -1v4c0.666992 0 1.16699 0.333008 1.5 1s0.833008 1 1.5 1h-1
c1.33301 0.666992 2.83301 1.5 4.5 2.5s3.16699 1.83301 4.5 2.5c2 0 3 -0.666992 3 -2zM43.9961 301.001c2.66699 0 6 0.833008 10 2.5l13 5.5c-6.66699 -0.666992 -12.5 -1.5 -17.5 -2.5s-7.5 -2.16699 -7.5 -3.5s0.666992 -2 2 -2zM327.996 452.001
c-16.667 -21.333 -35.667 -41.834 -57 -61.501s-43 -37.167 -65 -52.5c13.333 -1.33301 29.5 -2.16602 48.5 -2.49902s34.5 -0.5 46.5 -0.5z" />
    <glyph glyph-name="five" unicode="5" horiz-adv-x="426" 
d="M21 245c2.66699 5.33301 5.66992 8.5 9.00293 9.5s7.33301 1.5 12 1.5c2.66699 0 5.16699 -1.33301 7.5 -4s3.5 -6 3.5 -10c0 -3.33301 -0.666992 -6.33301 -2 -9c-7.33301 -27.333 -11 -50 -11 -68c0 -42 11.5 -73.5 34.5 -94.5s50.5 -31.5 82.5 -31.5
c20.667 0 40.167 4.66699 58.5 14s34.333 21.833 48 37.5s24.5 33.834 32.5 54.501s12 42.334 12 65.001c0 37.333 -12.833 67 -38.5 89s-64.5 33 -116.5 33l-78 -1c-0.666992 0 -1.5 -0.166992 -2.5 -0.5s-1.83301 -0.5 -2.5 -0.5c-8.66699 0 -13 4.33301 -13 13
c0 3.33301 0.666992 5.66602 2 6.99902l-1 -1l3 12l18 65c7.33301 26 14.833 51.167 22.5 75.5s15 45.166 22 62.499s12.5 26 16.5 26l4 -2l26 -5c1.33301 0 2.66602 -0.333008 3.99902 -1s2.66602 -1 3.99902 -1c23.333 -5.33301 47.333 -10.333 72 -15s48.667 -7 72 -7
c12.667 0 25 0.833008 37 2.5s23.667 4.5 35 8.5v-1l2.5 2.5c1 1 2.16699 1.5 3.5 1.5c5.33301 0 9.16602 -2.16699 11.499 -6.5s3.5 -8.16602 3.5 -11.499c0 -5.33301 -3.83301 -9.83301 -11.5 -13.5s-16.667 -6.66699 -27 -9s-21 -4 -32 -5s-19.833 -1.5 -26.5 -1.5
c-19.333 0 -39.666 1.5 -60.999 4.5s-41.666 6.83301 -60.999 11.5c-2.66699 -11.333 -5.83398 -22.5 -9.50098 -33.5s-7.16699 -22.167 -10.5 -33.5c-0.666992 -2.66699 -1.66699 -5.83398 -3 -9.50098s-2.33301 -6.83398 -3 -9.50098l-11 -35
c-7.33301 -20.667 -14 -41.667 -20 -63l3 4c6.66699 0.666992 14.167 1.16699 22.5 1.5s15.833 0.5 22.5 0.5c26.667 0 52.167 -2.66699 76.5 -8s45.5 -14.333 63.5 -27s32.333 -29 43 -49s16 -44.667 16 -74s-5 -56.5 -15 -81.5s-24 -46.667 -42 -65
s-39.5 -32.666 -64.5 -42.999s-52.833 -15.5 -83.5 -15.5c-28 0 -52.667 4.16699 -74 12.5s-39.333 19.833 -54 34.5s-25.834 31.667 -33.501 51s-11.5 40 -11.5 62c0 14 1.16699 28 3.5 42s5.5 28 9.5 42z" />
    <glyph glyph-name="six" unicode="6" horiz-adv-x="393" 
d="M360 448c-2.66699 32.667 -11 56.8379 -25 72.5049s-30.667 23.5 -50 23.5c-12 0 -24.667 -3.33301 -38 -10s-26.5 -16.667 -39.5 -30s-25.5 -29.833 -37.5 -49.5s-22.333 -42.167 -31 -67.5c7.33301 1.33301 14.666 2.5 21.999 3.5s14.666 1.5 21.999 1.5
c24 0 46.333 -4.33301 67 -13s38.834 -20.834 54.501 -36.501s28 -34.334 37 -56.001s13.5 -45.834 13.5 -72.501c0 -34.667 -5.66699 -65.5 -17 -92.5s-25.833 -49.833 -43.5 -68.5s-37 -32.834 -58 -42.501s-41.167 -14.5 -60.5 -14.5s-38.333 4.16699 -57 12.5
s-35.167 21.333 -49.5 39s-25.833 39.834 -34.5 66.501s-13 58 -13 94c0 50 6.83301 98.167 20.5 144.5s32 87.166 55 122.499s49.333 63.666 79 84.999s60.5 32 92.5 32c16 0 31.5 -3 46.5 -9s28.5 -14.833 40.5 -26.5s21.667 -26.167 29 -43.5s11 -37.333 11 -60
c0 -6.66699 -1.66699 -11.5 -5 -14.5s-7.66602 -4.5 -12.999 -4.5c-8.66699 0 -14.667 4 -18 12v2zM184 358.004c-10 0 -19.5 -1.16797 -28.5 -3.50098s-18.833 -5.5 -29.5 -9.5c-6 -23.333 -10.833 -47.5 -14.5 -72.5s-5.5 -48.833 -5.5 -71.5c0 -16.667 2 -34.5 6 -53.5
s10 -36.667 18 -53s18 -29.833 30 -40.5s25.667 -16 41 -16c14.667 0 29.334 5.33301 44.001 16s27.5 24.5 38.5 41.5s20 35.833 27 56.5s10.5 41.334 10.5 62.001c0 22 -3.83301 42 -11.5 60s-17.834 33.167 -30.501 45.5s-27.167 21.833 -43.5 28.5s-33.5 10 -51.5 10z
" />
    <glyph glyph-name="seven" unicode="7" horiz-adv-x="413" 
d="M24 521c0 16 4.99805 31.1699 14.998 45.5029s24.667 23.166 44 26.499c8 0 17.667 -0.833008 29 -2.5s23.666 -4.16699 36.999 -7.5c0.666992 0 1.33398 -0.166992 2.00098 -0.5s1.66699 -0.5 3 -0.5c22 -5.33301 46.667 -10.333 74 -15s54.333 -7 81 -7
c9.33301 0 18.5 0.333008 27.5 1s18.167 2 27.5 4c4 0 7.83301 -1.83301 11.5 -5.5s5.5 -8.16699 5.5 -13.5v-5c0 -2 -0.333008 -3.33301 -1 -4c-34.667 -34.667 -67.334 -72.5 -98.001 -113.5s-57.667 -83.667 -81 -128s-42.5 -89.5 -57.5 -135.5
s-24.167 -91.333 -27.5 -136c-1.33301 -4.66699 -8.16602 -9.66699 -20.499 -15s-23.833 -8 -34.5 -8c-16.667 0 -25 6 -25 18c0.666992 46 7.5 91.833 20.5 137.5s30.333 90 52 133s46.5 84.5 74.5 124.5s57.667 77.667 89 113l-52.5 8.5
c-17.667 3 -33.167 6.16699 -46.5 9.5c-15.333 3.33301 -29.166 6.16602 -41.499 8.49902s-22.5 3.5 -30.5 3.5c-13.333 0 -22.666 -3.83301 -27.999 -11.5s-9.66602 -15.834 -12.999 -24.501c-2 -6 -4.33301 -11 -7 -15s-6.33398 -6 -11.001 -6
c-10.667 0 -16.667 5.66699 -18 17v4z" />
    <glyph glyph-name="eight" unicode="8" horiz-adv-x="378" 
d="M169 447c0 -14.667 2 -28 6 -40s9.5 -23.333 16.5 -34s15 -20.667 24 -30s18.167 -18.333 27.5 -27l9 -9c18 24 34.667 50 50 78s23 56 23 84s-7.16699 49 -21.5 63s-30.166 21 -47.499 21c-20.667 0 -39.834 -8.66699 -57.501 -26s-27.5 -44 -29.5 -80zM162 323
c1.33301 0 2 -0.666992 2 -2s-0.666992 -2 -2 -2h-4c-1.33301 0 -2 0.666992 -2 2s0.666992 2 2 2h4zM266 150c0 14 -2.99805 28.168 -8.99805 42.501s-13.833 28.5 -23.5 42.5s-20.834 28 -33.501 42s-26 27.333 -40 40c-10.667 -11.333 -20.334 -24 -29.001 -38
s-16 -29 -22 -45s-10.667 -32.167 -14 -48.5s-5 -31.833 -5 -46.5c0 -30.667 6.33301 -56.167 19 -76.5s31.667 -30.5 57 -30.5c12.667 0 25.167 3.16699 37.5 9.5s23 15 32 26s16.333 23.667 22 38s8.5 29.166 8.5 44.499zM359.002 465.001
c0 -13.333 -2.83398 -30.002 -8.50098 -50.002s-14.167 -38 -25.5 -54h1c-7.33301 -14 -15.5 -28 -24.5 -42s-18.5 -26.667 -28.5 -38c17.333 -15.333 29.833 -32.666 37.5 -51.999s11.5 -38.666 11.5 -57.999c0 -21.333 -3.83301 -42.166 -11.5 -62.499
s-18.334 -38.5 -32.001 -54.5s-30 -29 -49 -39s-40.167 -15 -63.5 -15c-24.667 0 -46 4.5 -64 13.5s-33 21 -45 36s-21 32.333 -27 52s-9 40.5 -9 62.5c0 38 7.83301 75.167 23.5 111.5s39.834 66.166 72.501 89.499c-16.667 22.667 -25 47.667 -25 75
c0 26 4.5 48.667 13.5 68s20.333 35.333 34 48s28.834 22.167 45.501 28.5s32.667 9.5 48 9.5c16 0 31.667 -2.83301 47 -8.5s28.833 -14 40.5 -25s21 -24.5 28 -40.5s10.5 -34.333 10.5 -55z" />
    <glyph glyph-name="nine" unicode="9" horiz-adv-x="399" 
d="M55 139c3.33301 -25.333 11.3301 -47.166 23.9971 -65.499s30 -27.5 52 -27.5c20 0 38.333 6.33301 55 19s31.334 28.667 44.001 48s23.667 40.666 33 63.999s17 46 23 68c-8.66699 -3.33301 -18.167 -5.66602 -28.5 -6.99902s-20.166 -2 -29.499 -2
c-22 0 -42.667 3.83301 -62 11.5s-36.166 18.667 -50.499 33s-25.666 32 -33.999 53s-12.5 44.833 -12.5 71.5c0 22 3.83301 44.167 11.5 66.5s18.334 42.5 32.001 60.5s30 32.667 49 44s40.167 17 63.5 17c27.333 0 51 -6 71 -18s36.5 -28.167 49.5 -48.5
s22.667 -43.833 29 -70.5s9.5 -54.667 9.5 -84c0 -50 -6.5 -97.5 -19.5 -142.5s-30.333 -84.333 -52 -118s-46.5 -60.334 -74.5 -80.001s-57 -29.5 -87 -29.5c-14.667 0 -29.834 3 -45.501 9s-29.834 14.5 -42.501 25.5s-23 24.667 -31 41s-12 34.833 -12 55.5
c0 5.33301 2 9.83301 6 13.5s8.66699 5.5 14 5.5c2 0 4.5 -1 7.5 -3s5.5 -4.66699 7.5 -8v-2zM300.997 284c0 -1.33301 -0.666992 -2 -2 -2s-2 0.666992 -2 2l1 3l4 -1zM227.997 267c11.333 0 23 1.83105 35 5.49805s23.333 8.83398 34 15.501
c2 13.333 3.66699 26.833 5 40.5s2 28.167 2 43.5c0 18.667 -1.83301 38.667 -5.5 60s-9.5 41 -17.5 59s-18.5 32.833 -31.5 44.5s-28.833 17.5 -47.5 17.5c-15.333 0 -29.333 -5.33301 -42 -16s-23.5 -23.667 -32.5 -39s-15.833 -31.666 -20.5 -48.999s-7 -32.333 -7 -45
c0 -21.333 3.66699 -40.5 11 -57.5s17 -31.333 29 -43s25.667 -20.667 41 -27s31 -9.5 47 -9.5z" />
    <glyph glyph-name="colon" unicode=":" horiz-adv-x="245" 
d="M109 329c14 0 25.334 -4.83203 34.001 -14.499s13 -20.834 13 -33.501c0 -11.333 -4.33301 -21.833 -13 -31.5s-19.667 -14.5 -33 -14.5c-12 0 -22.667 4 -32 12s-14 19 -14 33c0 13.333 4.66699 24.833 14 34.5s19.666 14.5 30.999 14.5zM109.001 120.001
c14 0 25.334 -4.83203 34.001 -14.499s13 -20.834 13 -33.501c0 -11.333 -4.33301 -21.833 -13 -31.5s-19.667 -14.5 -33 -14.5c-12 0 -22.667 4 -32 12s-14 19 -14 33c0 13.333 4.66699 24.833 14 34.5s19.666 14.5 30.999 14.5z" />
    <glyph glyph-name="semicolon" unicode=";" horiz-adv-x="207" 
d="M93 369c14 0 25.334 -4.83301 34.001 -14.5s13 -21.167 13 -34.5c0 -12 -4.33301 -22.667 -13 -32s-19.667 -14 -33 -14c-12 0 -22.667 4 -32 12s-14 19 -14 33c0 13.333 4.66699 25 14 35s19.666 15 30.999 15zM10.001 8c6.66699 2 13.999 4.50098 21.999 7.50098
s15.833 6.83301 23.5 11.5s14.834 10.334 21.501 17.001s11.667 14.667 15 24c-14.667 5.33301 -25 12.166 -31 20.499s-9 17.833 -9 28.5c0 11.333 3.66699 21.166 11 29.499s17.666 12.5 30.999 12.5c15.333 0 27.333 -5.16699 36 -15.5s13 -23.166 13 -38.499
c0 -11.333 -2.5 -23.5 -7.5 -36.5s-12.333 -25.5 -22 -37.5s-21.667 -22.833 -36 -32.5s-31.166 -17.167 -50.499 -22.5c-7.33301 0 -13.5 2 -18.5 6s-7.5 8 -7.5 12c0 3.33301 2.66699 7.66602 8 12.999z" />
    <glyph glyph-name="less" unicode="&#x3c;" horiz-adv-x="423" 
d="M322 328c7.33301 0 14.6699 -2.16602 22.0029 -6.49902s11 -10.166 11 -17.499c0 -8 -4.33301 -14 -13 -18l-173 -95l25 -17c8 -5.33301 16 -11 24 -17l89 -63c4.66699 -4 7 -8.33301 7 -13s-1.83301 -10 -5.5 -16s-9.83398 -9 -18.501 -9
c-4.66699 0 -8.33398 0.666992 -11.001 2c-18.667 11.333 -37.834 22.166 -57.501 32.499l-58.5 31.5l-56 30l-41 22c-9.33301 9.33301 -14 16.666 -14 21.999c0 7.33301 5 15 15 23z" />
    <glyph glyph-name="equal" unicode="=" horiz-adv-x="443" 
d="M100 84c-4.66699 0 -9.5 2 -14.5 6s-7.5 9 -7.5 15c0 7.33301 2.5 13.333 7.5 18s9.83301 7 14.5 7h213c16.667 0 25 -8.33301 25 -25c0 -6 -2.33301 -11 -7 -15s-10.667 -6 -18 -6h-213zM100 255c-4.66699 0 -9.5 2.16699 -14.5 6.5s-7.5 9.16602 -7.5 14.499
c0 6 2.5 11 7.5 15s9.83301 6 14.5 6h213c7.33301 0 13.333 -2 18 -6s7 -9 7 -15c0 -5.33301 -2.33301 -10.166 -7 -14.499s-10.667 -6.5 -18 -6.5h-213z" />
    <glyph glyph-name="greater" unicode="&#x3e;" horiz-adv-x="443" 
d="M94 53c-2.66699 -1.33301 -5.66406 -2.00098 -8.99707 -2.00098c-10 0 -17.333 4 -22 12c0 6 0.666992 12 2 18s3.66602 9.66699 6.99902 11l176 93l-131 96c-9.33301 4.66699 -14 11.667 -14 21c0 6 2.16699 11.167 6.5 15.5s9.16602 6.5 14.499 6.5
c2 0 4.16699 -0.5 6.5 -1.5s4.16602 -2.16699 5.49902 -3.5l97.5 -50c33 -17.333 65.5 -35.666 97.5 -54.999l22 -14c8 -6 12 -12 12 -18c0 -8.66699 -5.66699 -16.667 -17 -24z" />
    <glyph glyph-name="question" unicode="?" horiz-adv-x="491" 
d="M79 426c0 -5.33301 -1.83398 -9.1709 -5.50098 -11.5039s-7.5 -3.5 -11.5 -3.5s-7.66699 1.16699 -11 3.5s-5 6.16602 -5 11.499c0 32 5.83301 60 17.5 84s26.834 44.167 45.501 60.5s39.667 28.5 63 36.5s47 12 71 12c22.667 0 44.834 -3.66699 66.501 -11
s41 -18.333 58 -33s30.5 -33 40.5 -55s15 -47.667 15 -77c0 -26.667 -3.66699 -51 -11 -73s-17.333 -42.667 -30 -62s-27 -37.666 -43 -54.999l-49 -52c-27.333 -26.667 -52.833 -54.667 -76.5 -84s-40.834 -63.666 -51.501 -102.999c-2 -7.33301 -8.5 -13 -19.5 -17
s-21.833 -6 -32.5 -6c-8 0 -14.667 1.5 -20 4.5s-8 9.16699 -8 18.5c4.66699 22.667 12 43.834 22 63.501s21.5 38.334 34.5 56.001s26.833 34.334 41.5 50.001l44 45.5l46.5 48c15 16 28.333 33 40 51s21 37 28 57s10.5 42 10.5 66c0 20 -3.66699 38.167 -11 54.5
s-17 30.333 -29 42s-25.667 20.667 -41 27s-31.333 9.5 -48 9.5c-17.333 0 -34.5 -4 -51.5 -12s-32.167 -19 -45.5 -33s-24 -30.667 -32 -50s-12 -40.333 -12 -63zM108.999 -20.0049c14.667 0 26.501 -4.83203 35.501 -14.499s13.5 -20.834 13.5 -33.501
c0 -11.333 -4.5 -21.833 -13.5 -31.5s-20.5 -14.5 -34.5 -14.5c-12 0 -22.667 4 -32 12s-14 19 -14 33c0 13.333 4.66699 24.833 14 34.5s19.666 14.5 30.999 14.5z" />
    <glyph glyph-name="at" unicode="@" horiz-adv-x="582" 
d="M271 94c16.667 0 34.666 3.1709 53.999 9.50391s38.5 15.166 57.5 26.499s37 25.166 54 41.499s31.833 34.166 44.5 53.499c2 4.66699 5.66699 7 11 7c4 0 8.16699 -1.5 12.5 -4.5s6.5 -6.83301 6.5 -11.5c0 -2.66699 -1.33301 -5.33398 -4 -8.00098h1
c-12 -22 -27.5 -42 -46.5 -60s-39.833 -33.667 -62.5 -47s-46.5 -23.666 -71.5 -30.999s-49.833 -11 -74.5 -11c-31.333 0 -59.166 6.33301 -83.499 19s-44.666 29.667 -60.999 51s-28.833 46.333 -37.5 75s-13 58.667 -13 90c0 39.333 6.16699 79.166 18.5 119.499
s30 76.833 53 109.5s51 59.334 84 80.001s70.167 31 111.5 31c26.667 0 50.5 -5 71.5 -15s38.667 -23.667 53 -41s25.166 -37.666 32.499 -60.999s11 -48 11 -74c0 -29.333 -4.83301 -59.5 -14.5 -90.5s-25.167 -60.5 -46.5 -88.5s-40.666 -48.833 -57.999 -62.5
s-32.333 -20.5 -45 -20.5c-20.667 0 -31 15.667 -31 47c0 5.33301 0.166992 11.166 0.5 17.499s1.16602 13.166 2.49902 20.499c-10 -4.66699 -20.167 -8.33398 -30.5 -11.001s-20.166 -4 -29.499 -4c-18.667 0 -33.834 6 -45.501 18s-17.5 29.667 -17.5 53
c0 20 4.16699 40 12.5 60s19.666 37.667 33.999 53s30.833 27.833 49.5 37.5s38 14.5 58 14.5c18 0 36.333 -4.33301 55 -13c3.33301 3.33301 7.66602 6 12.999 8s10.666 3 15.999 3c8 0 15.5 -1.83301 22.5 -5.5s10.5 -8.83398 10.5 -15.501
c0 -3.33301 -1.33301 -7.66602 -4 -12.999c-5.33301 -8 -13 -22.333 -23 -43l-31 -66c-10.667 -23.333 -19.834 -45.833 -27.501 -67.5s-11.5 -37.5 -11.5 -47.5v-4c3.33301 0 9.83301 5 19.5 15s22.167 24.667 37.5 44c16.667 23.333 30 50 40 80s15 58 15 84
c0 20 -2.33301 39.167 -7 57.5s-12 34.333 -22 48s-22.667 24.667 -38 33s-33.333 12.5 -54 12.5c-29.333 0 -57.166 -9.33301 -83.499 -28s-49.166 -43 -68.499 -73s-34.666 -64 -45.999 -102s-17 -76.333 -17 -115c0 -24 2.83301 -47 8.5 -69s14.334 -41.667 26.001 -59
s26.5 -31.166 44.5 -41.499s39.333 -15.5 64 -15.5zM368.999 439.004c-5.33301 2.66699 -10.1641 4.83398 -14.4971 6.50098s-8.83301 2.5 -13.5 2.5c-14 0 -27.833 -5.33301 -41.5 -16s-25.834 -23.5 -36.501 -38.5s-19.334 -31 -26.001 -48s-10 -31.833 -10 -44.5
c0 -16.667 6.66699 -25 20 -25c6.66699 0 16.167 2.66699 28.5 8s26.166 13.666 41.499 24.999z" />
    <glyph glyph-name="A" unicode="A" horiz-adv-x="562" 
d="M588 344l-52 -76.998l-57.5 -78.5c-19.667 -25.667 -39.334 -50 -59.001 -73s-38.834 -43 -57.501 -60s-36.334 -30.333 -53.001 -40s-31.667 -13.834 -45 -12.501c-15.333 2.66699 -27.166 10.5 -35.499 23.5s-14.166 28.5 -17.499 46.5s-4.5 37.833 -3.5 59.5
s3 43 6 64s6.5 40.5 10.5 58.5s7.33301 32.333 10 43c-11.333 -12 -23.833 -23.5 -37.5 -34.5s-28.167 -20.333 -43.5 -28s-30.666 -12.834 -45.999 -15.501s-30 -1.66699 -44 3c-28.667 8.66699 -47.834 26 -57.501 52s-11.5 55.667 -5.5 89c4 24 11.833 48.667 23.5 74
s26.167 49.333 43.5 72c14.667 20 31.834 38.167 51.501 54.5s40.667 29.166 63 38.499s46.166 14.833 71.499 16.5s51.666 -1.83301 78.999 -10.5c1.33301 4.66699 2.83301 9 4.5 13l4.5 11c4 8.66699 9 15.167 15 19.5s13 7 21 8s17.333 1 28 0s22.667 -2.5 36 -4.5
c-4 -9.33301 -11.333 -28 -22 -56l-35.5 -98l-40.5 -120.5c-14 -43 -26.167 -84.167 -36.5 -123.5s-18.166 -75 -23.499 -107s-5.83301 -55.833 -1.5 -71.5s14.333 -21.167 30 -16.5s38.834 23.667 69.501 57c15.333 16.667 30.833 35 46.5 55l47 62l45.5 64.5l42 62.5
c4 4 8 6.16699 12 6.5s7.5 -0.5 10.5 -2.5s5 -5.16699 6 -9.5s0.166992 -9.16602 -2.5 -14.499zM257 379.002l33.498 108.998l29.5 90c-17.333 6 -34.666 6.83301 -51.999 2.5s-34 -11.5 -50 -21.5s-30.667 -21.5 -44 -34.5s-24.666 -25.5 -33.999 -37.5
c-20 -25.333 -35.667 -51.666 -47 -78.999s-18.333 -52.333 -21 -75s-0.666992 -41.167 6 -55.5s17.667 -21.5 33 -21.5c16 0 31.667 5 47 15s29.666 21.833 42.999 35.5s24.833 27.334 34.5 41.001s16.834 24.167 21.501 31.5z" />
    <glyph glyph-name="B" unicode="B" horiz-adv-x="443" 
d="M227 205c-34 -14 -63.001 -28.001 -87.001 -42.001s-43.5 -27.167 -58.5 -39.5s-25.833 -23.666 -32.5 -33.999s-10 -18.5 -10 -24.5c0 -12.667 9.33301 -19 28 -19c10.667 0 23.334 3.33301 38.001 10s29.5 16.5 44.5 29.5s29.333 29.5 43 49.5s25.167 43.333 34.5 70z
M461.999 342.999c-22 -19.333 -45.6631 -36.8291 -70.9961 -52.4961s-51.333 -29.834 -78 -42.501c-1.33301 -24 -7.83301 -49.333 -19.5 -76s-26.334 -51.667 -44.001 -75s-37.667 -43.666 -60 -60.999s-44.833 -28.333 -67.5 -33
c-18.667 -3.33301 -37 -2.66602 -55 2.00098s-32.5 12.167 -43.5 22.5s-16.833 22.833 -17.5 37.5s7.33301 30.667 24 48c12.667 13.333 28.667 26.833 48 40.5s38.666 26.167 57.999 37.5s37.666 21 54.999 29s30.333 13.667 39 17c4 36.667 0.166992 62.5 -11.5 77.5
s-26.5 22.167 -44.5 21.5s-37.5 -7.16699 -58.5 -19.5s-39.167 -26.833 -54.5 -43.5c-0.666992 -1.33301 -1.66699 -5.83301 -3 -13.5s-2.83301 -17.334 -4.5 -29.001l-5.5 -38.5l-6 -42c-6.66699 1.33301 -14.834 3.16602 -24.501 5.49902s-18.667 5.33301 -27 9
s-15.5 8 -21.5 13s-8.66699 10.833 -8 17.5c5.33301 31.333 11.333 60.666 18 87.999s13.667 54.333 21 81l10.5 35l10.5 35c11.333 36 23.833 69.833 37.5 101.5s27.834 61.834 42.501 90.501c10 19.333 23 41.666 39 66.999s33.833 51 53.5 77s41.167 51.167 64.5 75.5
s47.666 45.333 72.999 63s51 30.667 77 39s52 9.83301 78 4.5c20 -4.66699 35.333 -12.834 46 -24.501s17.834 -25.667 21.501 -42s4.66699 -33.833 3 -52.5s-5 -37.167 -10 -55.5s-10.833 -35.5 -17.5 -51.5s-13 -29.333 -19 -40c-16 -27.333 -36.333 -53.833 -61 -79.5
s-53.5 -48.834 -86.5 -69.501s-70 -37.5 -111 -50.5s-85.833 -20.167 -134.5 -21.5c-10.667 -22 -19.834 -46.5 -27.501 -73.5l-22.5 -82.5c18.667 16 41.167 29.5 67.5 40.5s52 16.5 77 16.5s47.167 -6.5 66.5 -19.5s31 -35.5 35 -67.5c23.333 12 46 24.833 68 38.5
s42.667 29.167 62 46.5c6 4.66699 12.167 4.5 18.5 -0.5s6.5 -11.833 0.5 -20.5zM128.003 492.003c44 3.33301 84.501 11.168 121.501 23.501s70.667 28 101 47s56.833 40.333 79.5 64s41.334 48.5 56.001 74.5c6 10.667 13.167 27.167 21.5 49.5s14.166 45.333 17.499 69
s2.66602 45.334 -2.00098 65.001s-17 31.834 -37 36.501c-22 5.33301 -44.833 1.33301 -68.5 -12s-47.5 -32.5 -71.5 -57.5s-47.333 -53.833 -70 -86.5s-43.667 -65.834 -63 -99.501s-36.333 -65.834 -51 -96.501s-26 -56.334 -34 -77.001z" />
    <glyph glyph-name="C" unicode="C" horiz-adv-x="463" 
d="M489 339l-91.0049 -125c-30 -40 -59.667 -75.5 -89 -106.5s-58.333 -56.167 -87 -75.5s-56.334 -30 -83.001 -32c-38 -2.66699 -68.667 6.33301 -92 27s-40.333 48.5 -51 83.5s-15.5 74.667 -14.5 119s7.16699 89.166 18.5 134.499c8 32 18.167 63.167 30.5 93.5
s26.833 58.166 43.5 83.499c23.333 36 50 65.167 80 87.5s62.667 32.833 98 31.5c18 -1.33301 35.333 -7.16602 52 -17.499s28 -25.833 34 -46.5c6 -23.333 5.66699 -50.5 -1 -81.5s-23 -62.833 -49 -95.5c-3.33301 -4.66699 -7 -7.16699 -11 -7.5s-7.5 0.666992 -10.5 3
s-5 5.66602 -6 9.99902s0.166992 8.5 3.5 12.5c22.667 33.333 36.834 62.666 42.501 87.999s5.33398 45.333 -0.999023 60s-17.166 23.5 -32.499 26.5s-32.333 -1.5 -51 -13.5c-20 -14 -39.5 -37.667 -58.5 -71s-35.833 -70.666 -50.5 -111.999
s-26.5 -84.166 -35.5 -128.499s-13.333 -84.666 -13 -120.999s6.16602 -66 17.499 -89s29.333 -33.833 54 -32.5s51.334 12.5 80.001 33.5s57.334 47.167 86.001 78.5s56.834 65.5 84.501 102.5l76.5 105.5c2.66699 2.66699 6.33398 4.16699 11.001 4.5
s8.66699 -0.666992 12 -3s5.5 -5.83301 6.5 -10.5s-0.166992 -10 -3.5 -16z" />
    <glyph glyph-name="D" unicode="D" horiz-adv-x="466" 
d="M640 977c-22 -18 -44.335 -40.168 -67.002 -66.501s-45 -55.833 -67 -88.5s-43.5 -68 -64.5 -106s-40.833 -77.333 -59.5 -118c64.667 5.33301 121.334 20 170.001 44s89.5 52.5 122.5 85.5s58.333 67.833 76 104.5s27.834 70.334 30.501 101.001s0 52.834 -8 66.501
s-19 21.167 -33 22.5s-30 -2.33398 -48 -11.001s-35.333 -20 -52 -34zM253.998 500.999c-23.333 6 -45.835 2.33301 -67.502 -11s-41.167 -31.5 -58.5 -54.5s-31.833 -48.167 -43.5 -75.5s-19.167 -51.833 -22.5 -73.5s-1.66602 -38 5.00098 -49s19.667 -11.833 39 -2.5
c25.333 12 50 33.667 74 65c13.333 34 24.833 68 34.5 102s22.834 67 39.501 99zM488.996 347.999l-47.5078 -77.5029l-51.5 -80c-17.333 -26.333 -34.833 -51.333 -52.5 -75s-34.667 -44.5 -51 -62.5s-31.5 -31.833 -45.5 -41.5s-26 -13.834 -36 -12.501
c-20 4 -33.833 15.5 -41.5 34.5s-12 41 -13 66s0.333008 50.667 4 77s7.16699 48.833 10.5 67.5c-24 -22.667 -47.167 -38 -69.5 -46s-42.166 -9.33301 -59.499 -4c-18 4.66699 -31.167 13 -39.5 25s-13.333 26 -15 42s-0.666992 33 3 51s8.83398 35.333 15.501 52
c10.667 26.667 24.834 51.667 42.501 75s38 43 61 59s48 27 75 33s55.5 5.33301 85.5 -2c22 52.667 46.167 105 72.5 157s53.833 100 82.5 144s57.834 82.833 87.501 116.5s58.834 59.167 87.501 76.5c32.667 18.667 61.667 30.334 87 35.001s47 3.66699 65 -3
s32.167 -17.834 42.5 -33.501s16.666 -34.667 18.999 -57s0.333008 -46.666 -6 -72.999s-17.166 -53.5 -32.499 -81.5c-16 -28 -36.167 -55.833 -60.5 -83.5s-53.166 -52.667 -86.499 -75s-71.166 -40.666 -113.499 -54.999s-89.166 -22.166 -140.499 -23.499
c-8 -12 -17.833 -31.833 -29.5 -59.5s-23.834 -58.834 -36.501 -93.501s-25 -71.167 -37 -109.5s-22.167 -74.333 -30.5 -108s-14.166 -63.5 -17.499 -89.5s-2.5 -43.833 2.5 -53.5s15 -9.5 30 0.5s36.167 34 63.5 72c25.333 34.667 51 72.334 77 113.001l76 119
c5.33301 5.33301 11.5 6.33301 18.5 3s8.5 -9.66602 4.5 -18.999z" />
    <glyph glyph-name="E" unicode="E" horiz-adv-x="418" 
d="M93 376c29.333 9.33301 55.835 21.8311 79.502 37.498s44.167 32.5 61.5 50.5s31.333 36.167 42 54.5s17.667 34.833 21 49.5s3.16602 26.334 -0.500977 35.001s-11.5 12.334 -23.5 11.001c-8 -0.666992 -17.333 -5.83398 -28 -15.501s-21.834 -21.667 -33.501 -36
s-23.667 -30.5 -36 -48.5l-35 -53c-11 -17.333 -20.667 -33.666 -29 -48.999s-14.5 -27.333 -18.5 -36zM438.002 347.998l-65.001 -81.999c-24 -30.667 -49.5 -61.167 -76.5 -91.5s-54.667 -58.5 -83 -84.5s-56 -46.167 -83 -60.5s-53 -20.833 -78 -19.5
s-47.5 14.333 -67.5 39c-15.333 18.667 -25.166 40.667 -29.499 66s-5 52.166 -2 80.499s8.66699 57 17 86s18.166 56.5 29.499 82.5c8.66699 20.667 17.5 39.5 26.5 56.5s17.5 32.167 25.5 45.5c19.333 30 39.833 57.5 61.5 82.5s43.334 46 65.001 63
s42.334 29.333 62.001 37s37.167 9.16699 52.5 4.5c17.333 -6 28.5 -17.5 33.5 -34.5s5.83301 -34.833 2.5 -53.5c-4.66699 -26.667 -15.667 -52.167 -33 -76.5s-38 -46.5 -62 -66.5s-49.833 -37 -77.5 -51s-54.167 -24 -79.5 -30
c-25.333 -68 -41.166 -122.833 -47.499 -164.5s-3.83301 -72.167 7.5 -91.5c10 -18 23.667 -27 41 -27s36.666 6.33301 57.999 19s44.166 30 68.499 52s48.833 46.333 73.5 73l73 82.5l67 79.5c3.33301 2.66699 6.83301 4.16699 10.5 4.5s6.5 -0.5 8.5 -2.5
s3.33301 -4.5 4 -7.5s-0.333008 -6.5 -3 -10.5z" />
    <glyph glyph-name="F" unicode="F" horiz-adv-x="288" 
d="M305 345c-47.333 -48 -97.666 -90.6631 -150.999 -127.996s-110 -67.666 -170 -90.999c22 -24 36.5 -52.833 43.5 -86.5s8.66699 -68.834 5 -105.501s-12 -73 -25 -109s-28.667 -68.333 -47 -97s-38.5 -51.834 -60.5 -69.501s-44 -26.5 -66 -26.5
c-18.667 0 -31 10.5 -37 31.5s-7.16699 49.5 -3.5 85.5s11.667 78.167 24 126.5s27.833 99.666 46.5 153.999s39.667 110.166 63 167.499s47.666 113 72.999 167l27 55.5c8.66699 18.333 17.667 36.166 27 53.499c21.333 39.333 42.5 76.166 63.5 110.499
s41.167 64.166 60.5 89.499c17.333 22.667 35.833 40.334 55.5 53.001s38.5 20.667 56.5 24s34.333 2.16602 49 -3.50098s25.834 -15.334 33.501 -29.001s10.667 -31 9 -52s-9.83398 -45.167 -24.501 -72.5c-17.333 -33.333 -46 -65.666 -86 -96.999
s-94.333 -57.666 -163 -78.999l-14 -28l-46.5 -111.5l-49.5 -119.5c51.333 22.667 102 52.167 152 88.5s96 75.5 138 117.5c4 2.66699 7.66699 3.83398 11 3.50098s6 -1.66602 8 -3.99902s3 -5.33301 3 -9s-1.66699 -6.83398 -5 -9.50098zM-27 97.0039
c-20 -50 -37.6699 -96.8281 -53.0029 -140.495s-28.166 -82.834 -38.499 -117.501s-18.166 -64.334 -23.499 -89.001s-8 -42.334 -8 -53.001c0 -13.333 3 -20 9 -20c13.333 3.33301 27.666 13.166 42.999 29.499s30 36.666 44 60.999s26.333 51.333 37 81
s17.834 59.5 21.501 89.5s3.33398 59 -0.999023 87s-14.5 52 -30.5 72zM125.997 456.009c57.333 20.667 102.169 44.5 134.502 71.5s55.166 53.833 68.499 80.5c15.333 29.333 22 53.333 20 72s-9 31 -21 37s-26.833 5 -44.5 -3s-34.834 -24.333 -51.501 -49
c-11.333 -17.333 -22.5 -36.333 -33.5 -57s-21.167 -41 -30.5 -61l-25 -54.5c-7.33301 -16.333 -13 -28.5 -17 -36.5z" />
    <glyph glyph-name="G" unicode="G" horiz-adv-x="441" 
d="M457 339c-30.667 -19.333 -61.332 -35.6641 -91.999 -48.9971s-61.334 -25.333 -92.001 -36l-40 -122c-14.667 -43.333 -30.834 -87 -48.501 -131s-37.334 -86.833 -59.001 -128.5s-45.5 -79.5 -71.5 -113.5c-37.333 -47.333 -75 -80.666 -113 -99.999
s-73.333 -28 -106 -26s-61 13.333 -85 34s-40.667 47.334 -50 80.001s-9.66602 69.834 -0.999023 111.501s29.334 84.5 62.001 128.5c24 33.333 52.667 63.666 86 90.999s69 52 107 74s77 41.5 117 58.5s78.667 31.5 116 43.5c5.33301 14 9.83301 28 13.5 42
s8.16699 28.667 13.5 44c-10 -10.667 -21.333 -20.834 -34 -30.501s-25.667 -17.834 -39 -24.501s-27 -11.167 -41 -13.5s-27.333 -1.5 -40 2.5c-20.667 6.66699 -35.834 18 -45.501 34s-14.5 34.667 -14.5 56c0 25.333 5.66699 52.333 17 81s27.333 55.667 48 81
c14 17.333 29.667 33 47 47s36.333 25.333 57 34s42.334 13.667 65.001 15s46 -2 70 -10l9 31c2 4.66699 6.16699 8 12.5 10s13.833 3.33301 22.5 4s18 1 28 1s19.667 0.333008 29 1l-17.5 -55l-29.5 -91l-36 -110.5l-38 -113.5c25.333 10 51 21 77 33s52.667 26 80 42
c4 2 7.83301 2.66699 11.5 2s6.66699 -2.33398 9 -5.00098s3.33301 -5.83398 3 -9.50098s-2.83301 -7.83398 -7.5 -12.501zM-1.99805 -181.998c18 27.333 35 56.8359 51 88.5029s31.333 64.667 46 99s28.667 69.5 42 105.5s26 72 38 108
c-32.667 -11.333 -66.5 -24.833 -101.5 -40.5s-69.333 -33.667 -103 -54s-65.667 -43 -96 -68s-56.5 -52.167 -78.5 -81.5c-30 -39.333 -50 -77 -60 -113s-12.667 -67.667 -8 -95s15.667 -48.833 33 -64.5s38.333 -22.834 63 -21.501s52.167 12.666 82.5 33.999
s60.833 55.666 91.5 102.999zM237.002 411.005c10 33.333 20.332 65.1699 30.999 95.5029l27 79.5c-16 4.66699 -32 5 -48 1s-31.167 -10.333 -45.5 -19s-27.666 -18.667 -39.999 -30s-22.833 -22.333 -31.5 -33c-18.667 -22.667 -33.167 -45.834 -43.5 -69.501
s-16.5 -45.334 -18.5 -65.001s0 -35.834 6 -48.501s16 -19 30 -19s28.167 4.33301 42.5 13s27.5 19 39.5 31s22.5 24 31.5 36s15.5 21.333 19.5 28z" />
    <glyph glyph-name="H" unicode="H" horiz-adv-x="428" 
d="M451 350l-36.5068 -57.5078l-44 -70.5c-15.667 -24.667 -31.834 -48.667 -48.501 -72s-33 -44 -49 -62c-13.333 -14.667 -26.666 -28.334 -39.999 -41.001s-26.333 -23.167 -39 -31.5s-24.834 -14.166 -36.501 -17.499s-22.5 -2.66602 -32.5 2.00098
c-14 6.66699 -21.833 19.667 -23.5 39s0.666016 42.166 6.99902 68.499s15.5 55 27.5 86l36.5 90.5l35.5 82c11.333 25.333 19.333 45.666 24 60.999c8.66699 27.333 12.834 46.833 12.501 58.5s-3.5 17.5 -9.5 17.5s-14 -4.16699 -24 -12.5s-20.333 -18.5 -31 -30.5
s-21.167 -24.5 -31.5 -37.5s-18.5 -23.833 -24.5 -32.5l-32.5 -49.5c-13 -20.333 -25.167 -41.166 -36.5 -62.499l-34 -85.5c-11.333 -29.667 -21.5 -57.5 -30.5 -83.5s-16 -49 -21 -69s-6.83301 -34 -5.5 -42l-23 7c-8.66699 2.66699 -16.667 6.33398 -24 11.001
s-13 10.5 -17 17.5s-4.66699 15.5 -2 25.5c12.667 46 27.834 94.833 45.501 146.5l56.5 158.5l88.5 224.5c30.333 73.667 67.166 143.834 110.499 210.501c38 60 76.833 108.333 116.5 145s77 63 112 79s66.333 22.333 94 19s48.334 -15.166 62.001 -35.499
s18.834 -48.5 15.501 -84.5s-18 -78.667 -44 -128c-16 -27.333 -36 -54.166 -60 -80.499s-52.167 -50 -84.5 -71s-69.166 -38.167 -110.499 -51.5s-87 -20.666 -137 -21.999c-13.333 -34 -27.333 -67.5 -42 -100.5l-37 -84.5l51.5 71c17.667 23.333 35.167 42 52.5 56
c18 14.667 36.167 23.334 54.5 26.001s34 0.166992 47 -7.5s22.167 -20.167 27.5 -37.5s4 -39 -4 -65c-2 -6.66699 -7 -19.167 -15 -37.5l-28.5 -64l-34 -77c-11.667 -27 -22.167 -52.833 -31.5 -77.5s-16.666 -46.667 -21.999 -66s-6.66602 -33 -3.99902 -41
s9.83398 -9 21.501 -3s29.834 21.667 54.501 47c16 16.667 32.333 36.5 49 59.5s32.667 46.5 48 70.5s29.5 47.167 42.5 69.5s24.5 41.166 34.5 56.499c2.66699 2.66699 5.83398 4.33398 9.50098 5.00098s6.83398 0.333984 9.50098 -0.999023s4.66699 -3.66602 6 -6.99902
s0.666016 -7 -2.00098 -11zM175.993 593.992c45.333 4 86.668 12.6689 124.001 26.002s70.5 29.666 99.5 48.999s54.333 41.166 76 65.499s39.834 49.5 54.501 75.5c10.667 20 19.167 42.333 25.5 67s9 47.334 8 68.001s-6.66699 37 -17 49s-26.5 15 -48.5 9
c-23.333 -6.66699 -46.333 -18.5 -69 -35.5s-44.334 -37.333 -65.001 -61s-40.334 -49.334 -59.001 -77.001s-36 -55.5 -52 -83.5s-30.5 -55.167 -43.5 -81.5s-24.167 -49.833 -33.5 -70.5z" />
    <glyph glyph-name="I" unicode="I" horiz-adv-x="367" 
d="M389 346c-12.667 -16 -27.5 -36.3398 -44.5 -61.0068l-56 -78c-20.333 -27.333 -41.833 -54.5 -64.5 -81.5s-46 -50.5 -70 -70.5s-48.167 -35.333 -72.5 -46s-48.166 -13 -71.499 -7c-22.667 6 -38.334 20.5 -47.001 43.5s-12.334 51.167 -11.001 84.5
s6.5 70.333 15.5 111s19.833 81.667 32.5 123l30.5 93.5c10.333 30.333 20.333 58.166 30 83.499l25 66l15.5 41c2 4.66699 8.66699 7.83398 20 9.50098s22.666 1.66699 33.999 0s20.666 -4.5 27.999 -8.5s8 -9.33301 2 -16c-8 -17.333 -18.5 -42.166 -31.5 -74.499
s-26.667 -68.166 -41 -107.499s-28 -80.166 -41 -122.499s-23.5 -82.166 -31.5 -119.499s-12.167 -70.166 -12.5 -98.499s5.16699 -48.166 16.5 -59.499c11.333 -12 26.5 -13.833 45.5 -5.5s39.333 22.333 61 42s43.834 43.334 66.501 71.001l64.5 82
c20.333 27 38 51.833 53 74.5l32.5 49c3.33301 3.33301 6.83301 5 10.5 5s6.83398 -1 9.50098 -3s4.33398 -4.83301 5.00098 -8.5s-0.333008 -7.5 -3 -11.5z" />
    <glyph glyph-name="J" unicode="J" horiz-adv-x="234" 
d="M258 340c-44 -47.333 -86.8281 -87.1709 -128.495 -119.504s-81.834 -61.166 -120.501 -86.499c-18 -51.333 -37.333 -102.166 -58 -152.499s-42.834 -97.5 -66.501 -141.5s-48.334 -82.833 -74.001 -116.5s-52.167 -58.834 -79.5 -75.501
c-20.667 -13.333 -40.5 -22.833 -59.5 -28.5s-36.833 -8.5 -53.5 -8.5c-36.667 0 -66.167 8.83301 -88.5 26.5s-36.833 39.667 -43.5 66s-5.16699 54.833 4.5 85.5s28.167 59.334 55.5 86.001c20.667 20 43 39.333 67 58s48.333 36.334 73 53.001s49.334 32.167 74.001 46.5
l71 39.5l88 49l12 34l15 43.5l22 65.5l32 100c5.33301 15.333 10.5 32 15.5 50s10.833 37.667 17.5 59c3.33301 9.33301 6.66602 20.166 9.99902 32.499s6.66602 23.5 9.99902 33.5c3.33301 7.33301 13.666 13.5 30.999 18.5s38.333 5.83301 63 2.5l-120 -371
c32.667 23.333 66.334 48.833 101.001 76.5s70 60.5 106 98.5c2.66699 2.66699 6.16699 4 10.5 4s8.16602 -1.16699 11.499 -3.5s5.5 -5.66602 6.5 -9.99902s-0.5 -9.16602 -4.5 -14.499zM-152.995 41.9951l-71.499 -39.001c-23.667 -12.667 -47 -26.5 -70 -41.5
s-45.667 -31.5 -68 -49.5s-44.5 -38.333 -66.5 -61c-29.333 -30 -46 -59.167 -50 -87.5s0.5 -51.166 13.5 -68.499s32.333 -26.833 58 -28.5s54.167 9.16602 85.5 32.499c19.333 14.667 39 35.334 59 62.001s39.5 56.667 58.5 90s37.167 68.833 54.5 106.5
s33.666 75.167 48.999 112.5zM111.006 656.994c14 0 24.333 -4.5 31 -13.5s10 -19 10 -30s-3.33301 -21 -10 -30s-17 -13.5 -31 -13.5c-16 0 -28 4.5 -36 13.5s-12 19 -12 30s4 21 12 30s20 13.5 36 13.5z" />
    <glyph glyph-name="K" unicode="K" horiz-adv-x="430" 
d="M140 536c39.333 11.333 75.3311 25.834 107.998 43.501s61.5 37.167 86.5 58.5s46.333 44 64 68s31.5 48 41.5 72c10 23.333 16.167 46.666 18.5 69.999s-0.166992 41.333 -7.5 54s-20.166 17.5 -38.499 14.5s-43.5 -19.167 -75.5 -48.5
c-20 -18 -39.333 -40.167 -58 -66.5s-36.5 -54.5 -53.5 -84.5s-32.667 -60.667 -47 -92s-27.166 -61 -38.499 -89zM452.998 344.001l-72.998 -113.006c-26.667 -40.667 -53.667 -78.167 -81 -112.5s-54 -62.5 -80 -84.5s-49 -32 -69 -30
c-13.333 1.33301 -25.333 3.83301 -36 7.5s-21.167 10.667 -31.5 21s-20.666 24.833 -30.999 43.5s-21.166 43.334 -32.499 74.001c-2 -5.33301 -4.5 -12.833 -7.5 -22.5l-10 -33l-11.5 -39c-4 -13.667 -7.66699 -26.834 -11 -39.501
c-3.33301 -5.33301 -8.5 -9.16602 -15.5 -11.499s-14.833 -3.83301 -23.5 -4.5s-17.167 -0.666992 -25.5 0s-15.5 1 -21.5 1c17.333 66 34.666 128 51.999 186l55 177l12 36c16.667 50.667 34.667 100.5 54 149.5s40 94.5 62 136.5c27.333 50 55.333 94.167 84 132.5
s56.334 67.833 83.001 88.5c38 30.667 71.167 47.334 99.5 50.001s50.333 -4.16602 66 -20.499s24.167 -39.833 25.5 -70.5s-6.33398 -64.334 -23.001 -101.001c-12 -25.333 -28 -51.166 -48 -77.499s-43.833 -51.166 -71.5 -74.499s-59.334 -44.5 -95.001 -63.5
s-75.5 -33.833 -119.5 -44.5c-8.66699 -21.333 -16.834 -42.833 -24.501 -64.5l-24.5 -67.5c10.667 14 23.834 26.667 39.501 38s32 21.5 49 30.5s34 16.833 51 23.5s32.167 12.334 45.5 17.001c4.66699 -2.66699 8.5 -7.16699 11.5 -13.5s4.5 -13 4.5 -20
s-1.33301 -13.5 -4 -19.5s-7.33398 -10.333 -14.001 -13c-19.333 -10 -40.833 -19.5 -64.5 -28.5s-46 -19.5 -67 -31.5s-38.667 -26.167 -53 -42.5s-21.833 -36.5 -22.5 -60.5c10.667 -10.667 19.5 -23.5 26.5 -38.5s12.667 -30.667 17 -47s8.16602 -32.333 11.499 -48
s7 -29.5 11 -41.5s9.16699 -21.667 15.5 -29s14.5 -10.333 24.5 -9c14 1.33301 31.667 12.333 53 33s44.333 46.5 69 77.5s49.667 65.333 75 103s49 74.5 71 110.5c2 2.66699 5 4.5 9 5.5s7.83301 0.833008 11.5 -0.5s6 -4.16602 7 -8.49902s-0.5 -9.83301 -4.5 -16.5z" />
    <glyph glyph-name="L" unicode="L" horiz-adv-x="389" 
d="M428 891c-26 -13.333 -52.002 -34.832 -78.002 -64.499s-51 -63 -75 -100s-46.167 -75.333 -66.5 -115s-38.166 -75.834 -53.499 -108.501c64 5.33301 119.5 20.5 166.5 45.5s86 54.333 117 88s54 68.667 69 105s22.5 68.5 22.5 96.5c0 20 -4.16699 36.333 -12.5 49
s-21.166 19 -38.499 19c-15.333 0 -32.333 -5 -51 -15zM423.998 339.001l-60.999 -67.001l-71 -74.5l-75 -72.5c-25.333 -23.333 -50.166 -44.166 -74.499 -62.499s-47.5 -33 -69.5 -44s-41.667 -16.5 -59 -16.5c-27.333 0 -46.166 10 -56.499 30s-15.5 45 -15.5 75
c0 18 1.66699 37.667 5 59s7.66602 43.333 12.999 66s11.5 45.167 18.5 67.5s14.167 43.833 21.5 64.5l13 37.5c4 11.667 8.33301 22.5 13 32.5l49 102.5c18.667 37.667 39.334 75.667 62.001 114s47 75.5 73 111.5s53.5 68.167 82.5 96.5s59 51 90 68
s62.833 25.5 95.5 25.5c32 0 56.167 -10.333 72.5 -31s24.5 -47.667 24.5 -81c0 -20.667 -3.83301 -44.167 -11.5 -70.5s-19.334 -53.333 -35.001 -81s-35.5 -54.667 -59.5 -81s-52.333 -50 -85 -71s-69.834 -38.167 -111.501 -51.5s-87.834 -20.666 -138.501 -21.999
c-9.33301 -18 -21 -43.5 -35 -76.5s-27.833 -67.833 -41.5 -104.5s-25.334 -72.5 -35.001 -107.5s-14.5 -63.833 -14.5 -86.5c0 -24.667 6 -37 18 -37c10.667 0 24.5 5.16699 41.5 15.5s36.167 24 57.5 41s43.833 36.5 67.5 58.5l70.5 67.5l67.5 68.5l58.5 62
c4.66699 4.66699 10 7 16 7s11.167 -1.83301 15.5 -5.5s6.5 -8.5 6.5 -14.5c0 -2 -0.166992 -3.83301 -0.5 -5.5s-1.16602 -3.83398 -2.49902 -6.50098z" />
    <glyph glyph-name="M" unicode="M" horiz-adv-x="577" 
d="M604 355c-15.333 -32 -31.8242 -64.502 -49.4912 -97.502s-35.834 -63.5 -54.501 -91.5c-14.667 -22.667 -29.167 -42 -43.5 -58s-27.5 -29 -39.5 -39c-10 -9.33301 -21.167 -17.5 -33.5 -24.5s-23.833 -10.333 -34.5 -10s-19.834 5.16602 -27.501 14.499
s-12.167 25.666 -13.5 48.999c-1.33301 20 1.83398 44.833 9.50098 74.5s17.167 61.334 28.5 95.001l35.5 102c12.333 34.333 23.166 65.833 32.499 94.5c8 26 14.333 49.167 19 69.5s6.33398 34.5 5.00098 42.5s-6.66602 8.16699 -15.999 0.5s-24 -26.5 -44 -56.5
c-15.333 -21.333 -30.5 -45.166 -45.5 -71.499l-43.5 -80c-14 -27 -26.833 -53.167 -38.5 -78.5s-21.5 -47.666 -29.5 -66.999l-14 -33c-14 -38 -25.5 -72.167 -34.5 -102.5s-12.833 -53.5 -11.5 -69.5c-15.333 8.66699 -25.5 21.834 -30.5 39.501s-6.5 38.5 -4.5 62.5
s6.66699 50 14 78s15.833 56.5 25.5 85.5l29.5 86c10 28.333 18.667 54.5 26 78.5c8 25.333 14.167 48 18.5 68s5.5 34 3.5 42s-7.83301 8.33301 -17.5 1s-24.834 -26 -45.501 -56c-11.333 -16.667 -22.833 -34.667 -34.5 -54s-23 -39.166 -34 -59.499
s-21.5 -40.833 -31.5 -61.5l-28 -59l-31.5 -83c-10.333 -27.333 -19.5 -52.833 -27.5 -76.5s-14.167 -44.667 -18.5 -63s-5.83301 -32.833 -4.5 -43.5c-6 2 -12.333 4.33301 -19 7s-12.834 6.5 -18.501 11.5s-10.334 11.167 -14.001 18.5s-5.5 16.333 -5.5 27
c0 18.667 2.66699 39.834 8 63.501s12.166 48.334 20.499 74.001s17.666 52 27.999 79l30.5 80.5l28 74c8.66699 24 16 46.667 22 68c5.33301 18.667 9.5 36.334 12.5 53.001s4.16699 32.667 3.5 48c12.667 0 24 -0.166992 34 -0.5s18.5 -2 25.5 -5s12 -8 15 -15
s3.83301 -16.5 2.5 -28.5c-0.666992 -4 -2.5 -11 -5.5 -21l-9.5 -32l-10 -32.5c-3.33301 -10.333 -5.33301 -17.833 -6 -22.5c14.667 26 29.5 50.5 44.5 73.5s30 42.5 45 58.5s29.667 27.833 44 35.5s27.833 9.16699 40.5 4.5c20.667 -8.66699 31 -28.5 31 -59.5
s-6 -68.5 -18 -112.5c14.667 28 30 54.5 46 79.5s31.833 46.5 47.5 64.5s31.167 31.333 46.5 40s29.666 10.334 42.999 5.00098c17.333 -7.33301 27.333 -22.833 30 -46.5s0.666992 -52 -6 -85s-16.667 -68.667 -30 -107l-40.5 -112.5l-38.5 -101
c-12 -30.667 -20 -54.667 -24 -72c-2.66699 -10.667 -2.66699 -19.334 0 -26.001s8.33398 -8.33398 17.001 -5.00098s20.5 13 35.5 29s33.5 41.667 55.5 77c17.333 27.333 34.166 55.833 50.499 85.5s31.5 59.167 45.5 88.5c1.33301 2.66699 3.66602 4.66699 6.99902 6
s6.66602 1.66602 9.99902 0.999023s6.16602 -2.33398 8.49902 -5.00098s2.83301 -6.33398 1.5 -11.001z" />
    <glyph glyph-name="N" unicode="N" horiz-adv-x="397" 
d="M422 353c-15.333 -32 -31.8359 -64.167 -49.5029 -96.5s-35.5 -62.5 -53.5 -90.5c-15.333 -22 -30.333 -41 -45 -57s-27.667 -29.333 -39 -40c-10.667 -9.33301 -22.167 -17.5 -34.5 -24.5s-24 -10.333 -35 -10s-20.333 5.16602 -28 14.499s-12.167 25.666 -13.5 48.999
c-1.33301 20 1.83398 45 9.50098 75s17.334 61.667 29.001 95l36 101.5c12.333 34.333 23.166 66.166 32.499 95.499c8 26 14.5 49.333 19.5 70s6.83301 35 5.5 43s-6.66602 8.16699 -15.999 0.5s-24.333 -26.834 -45 -57.501
c-15.333 -21.333 -30.833 -45.166 -46.5 -71.499s-30.667 -53 -45 -80s-27.333 -53.167 -39 -78.5s-21.5 -47.666 -29.5 -66.999c-23.333 -60 -40.5 -108 -51.5 -144s-15.5 -61.667 -13.5 -77l-20.5 8c-7 2.66699 -13.5 6.16699 -19.5 10.5s-10.833 9.83301 -14.5 16.5
s-5.5 15.334 -5.5 26.001c0 18.667 2.83301 39.834 8.5 63.501s12.667 48.5 21 74.5s17.833 52.833 28.5 80.5l32 81.5l28.5 75c9 24 16.5 46.667 22.5 68c5.33301 18.667 9.5 36.5 12.5 53.5s4.16699 32.833 3.5 47.5c30 7.33301 51.333 6 64 -4s16.334 -28.667 11.001 -56
c-0.666992 -5.33301 -2.16699 -12.166 -4.5 -20.499s-5.16602 -17.5 -8.49902 -27.5l-10.5 -30.5l-10.5 -29.5c15.333 28.667 31.5 56.334 48.5 83.001s33.833 49.5 50.5 68.5s33 33.167 49 42.5s31 11.333 45 6c18 -7.33301 28.167 -22.833 30.5 -46.5
s0.166016 -52 -6.50098 -85s-16.834 -68.667 -30.501 -107l-41.5 -112.5l-39 -101.5c-12 -31 -20 -55.167 -24 -72.5c-2.66699 -10.667 -2.66699 -19.334 0 -26.001s8.33398 -8.33398 17.001 -5.00098s20.5 13 35.5 29s33.833 41.667 56.5 77
c18 27.333 35.167 55.833 51.5 85.5s31.833 59.167 46.5 88.5c2 4 4.83301 6.5 8.5 7.5s7 1 10 0s5.33301 -3.16699 7 -6.5s1.5 -7.33301 -0.5 -12z" />
    <glyph glyph-name="O" unicode="O" horiz-adv-x="440" 
d="M465 345c-17.333 -26.667 -35.667 -50.501 -55 -71.501s-38.666 -38.5 -57.999 -52.5s-38.333 -24.167 -57 -30.5s-35.667 -8.16602 -51 -5.49902c-11.333 -23.333 -23.833 -46 -37.5 -68s-28.167 -41.667 -43.5 -59s-31.5 -31.333 -48.5 -42s-34.833 -16 -53.5 -16
c-25.333 -0 -44.833 10.833 -58.5 32.5s-22.5 50 -26.5 85s-3.83301 74 0.5 117s12.166 86.167 23.499 129.5c5.33301 21.333 11.5 42.166 18.5 62.499s14.5 39.833 22.5 58.5c12.667 28.667 26.834 54.334 42.501 77.001s32.334 40.167 50.001 52.5s35.667 18.333 54 18
s37.166 -8.83301 56.499 -25.5c2.66699 -2 4.5 -5.5 5.5 -10.5s1.16699 -9.83301 0.5 -14.5s-2.5 -8.16699 -5.5 -10.5s-7.16699 -2.5 -12.5 -0.5c-17.333 5.33301 -34 2.66602 -50 -8.00098s-31 -26.834 -45 -48.501s-26.667 -47.334 -38 -77.001s-21.333 -60.667 -30 -93
s-15.334 -64.833 -20.001 -97.5s-7.16699 -62.5 -7.5 -89.5s1.83398 -50 6.50098 -69s12.334 -31.167 23.001 -36.5c10 -5.33301 22.333 -3.33301 37 6s29 22 43 38s26.833 33 38.5 51s19.5 33.667 23.5 47c-18 10.667 -31.5 25.834 -40.5 45.501s-14.5 41.334 -16.5 65.001
s-0.833008 48.334 3.5 74.001s11 49.667 20 72s20 42 33 59s27.167 28.833 42.5 35.5c12 4.66699 22.5 5 31.5 1s16.333 -11.167 22 -21.5s9.66699 -23 12 -38s2.83301 -30.833 1.5 -47.5c-2 -26.667 -8.33301 -59.5 -19 -98.5s-24.667 -77.833 -42 -116.5
c25.333 0 53.5 11 84.5 33s62.5 57.667 94.5 107c2 2.66699 5 4.33398 9 5.00098s7.66699 0.166992 11 -1.5s5.66602 -4.33398 6.99902 -8.00098s0.666016 -8.5 -2.00098 -14.5zM231.999 232.999c8.66699 16.667 17.1719 36.3369 25.5049 59.0039s15.666 45.667 21.999 69
s10.833 45.666 13.5 66.999s3 39.666 1 54.999c-2.66699 15.333 -8.33398 24.166 -17.001 26.499s-18.334 -1.33398 -29.001 -11.001s-21.334 -24.834 -32.001 -45.501s-19.334 -46 -26.001 -76c-8.66699 -38 -9.16699 -69.667 -1.5 -95s22.167 -41.666 43.5 -48.999z" />
    <glyph glyph-name="P" unicode="P" 
d="M-32 223c-50.667 -13.333 -93.499 -32.833 -128.499 -58.5s-63.5 -54 -85.5 -85s-37.667 -62.667 -47 -95s-13.666 -61.5 -12.999 -87.5c3.33301 -30 10.333 -50.833 21 -62.5s22.667 -17.167 36 -16.5s27.166 6.16699 41.499 16.5s27.166 22.5 38.499 36.5
c15.333 18.667 29.5 42 42.5 70s25.167 57.833 36.5 89.5s21.833 64.167 31.5 97.5zM382.001 346c-25.333 -17.333 -51.3232 -31.001 -77.9902 -41.001s-52.334 -17.667 -77.001 -23c-23.333 -28.667 -46.333 -49 -69 -61s-42.667 -18.5 -60 -19.5s-31.333 2.16699 -42 9.5
s-15.834 16 -15.501 26s7.16602 20.167 20.499 30.5s35 17.833 65 22.5l33 5c14 16.667 25.667 35.834 35 57.501s16 43.834 20 66.501s5.33301 44.334 4 65.001s-6 38.334 -14 53.001s-19.333 25 -34 31s-33.334 5.33301 -56.001 -2
c-7.33301 -28.667 -14.833 -60.834 -22.5 -96.501l-23.5 -109l-24.5 -108.5c-8.33301 -35.333 -16.5 -66.666 -24.5 -93.999c-10 -35.333 -21.333 -69.333 -34 -102s-25.667 -62.667 -39 -90s-27.166 -51.5 -41.499 -72.5s-28.5 -37.833 -42.5 -50.5
c-20 -17.333 -40.833 -30.666 -62.5 -39.999s-41.834 -12.833 -60.501 -10.5s-34.5 11.666 -47.5 27.999s-20.5 41.166 -22.5 74.499c-2 28.667 2.5 61 13.5 97s28.833 71 53.5 105s56.667 64.833 96 92.5s86.666 48.167 141.999 61.5l11.5 52
c4.33301 19.333 9.16602 39.666 14.499 60.999l12 52c4 17.333 7.66699 34 11 50l9.5 44c3 13.333 5.5 25 7.5 35c2.66699 12.667 6 26.334 10 41.001s7.66699 29 11 43c1.33301 6.66699 4.66602 11.667 9.99902 15s11.666 5.66602 18.999 6.99902s15.166 2 23.499 2
s16.5 0.333008 24.5 1c-1.33301 -6.66699 -3.5 -15.167 -6.5 -25.5s-5.83301 -19.5 -8.5 -27.5c32.667 6.66699 60 6.5 82 -0.5s39.333 -18.167 52 -33.5s21.167 -34 25.5 -56s5.66602 -44.833 3.99902 -68.5s-6.16699 -47 -13.5 -70s-16.333 -43.5 -27 -61.5
c21.333 5.33301 42.5 12 63.5 20s41.167 19 60.5 33c6.66699 3.33301 11.667 2.16602 15 -3.50098s2.33301 -10.5 -3 -14.5zM135.011 265.999c-13.333 0.666992 -25.499 -0.832031 -36.499 -4.49902s-19.5 -7.83398 -25.5 -12.501s-9.33301 -9.16699 -10 -13.5
s2.66602 -6.5 9.99902 -6.5c6 0 11.667 1.33301 17 4s10.666 6 15.999 10s10.333 8.16699 15 12.5s9.33398 7.83301 14.001 10.5z" />
    <glyph glyph-name="Q" unicode="Q" horiz-adv-x="393" 
d="M418 347c-32 -40 -66.502 -77.665 -103.502 -112.998s-73.5 -64.666 -109.5 -87.999c13.333 -8.66699 23.833 -25.5 31.5 -50.5s12.334 -54 14.001 -87s0.833984 -67.5 -2.49902 -103.5s-9.33301 -69.667 -18 -101s-19.834 -57.833 -33.501 -79.5
s-29.5 -34.167 -47.5 -37.5c-11.333 -2 -21.666 0.166992 -30.999 6.5s-17.333 17 -24 32s-11.167 34.333 -13.5 58s-1.5 51.5 2.5 83.5c2.66699 27.333 7.33398 60.833 14.001 100.5s14 79.834 22 120.501s16 78.834 24 114.501s15.333 63.5 22 83.5
c-29.333 -25.333 -55.166 -40.333 -77.499 -45s-40.5 -2.16699 -54.5 7.5s-23.833 24.834 -29.5 45.501s-6.83398 44 -3.50098 70c2.66699 18 7.5 36.667 14.5 56s16.833 38 29.5 56c12 18 26 34.5 42 49.5s33.167 27.167 51.5 36.5s38 15.166 59 17.499
s42.5 0.166016 64.5 -6.50098c2 4 3.5 6.83301 4.5 8.5s2.5 5.5 4.5 11.5c1.33301 1.33301 2.83301 3.16602 4.5 5.49902s5 4 10 5s12.5 0.833008 22.5 -0.5s24.333 -4.66602 43 -9.99902c-32 -84 -58.5 -158.5 -79.5 -223.5s-39.5 -124.833 -55.5 -179.5l93 78.5
c31.333 27.667 59.666 59.5 84.999 95.5c2.66699 3.33301 6 5.16602 10 5.49902s7.66699 -0.333984 11 -2.00098s5.5 -4.33398 6.5 -8.00098s0.166992 -7.83398 -2.5 -12.501zM178.998 332.002l33.001 102.501c12.667 38.333 25.667 74.166 39 107.499
c-19.333 5.33301 -38.5 3.16602 -57.5 -6.50098s-37 -23.667 -54 -42s-31.833 -39 -44.5 -62s-21.834 -45.167 -27.501 -66.5s-7.33398 -40.166 -5.00098 -56.499s10.5 -26.5 24.5 -30.5c6 -2 13.333 -1.5 22 1.5s17.5 7.5 26.5 13.5s17.333 12.5 25 19.5
s13.834 13.5 18.501 19.5zM194.999 122.003c-3.33301 -15.333 -6.99805 -35.165 -10.998 -59.498l-12 -74.5l-11 -72c-3.33301 -22.667 -5.66602 -40 -6.99902 -52c-6 -50 -8.16699 -85 -6.5 -105s5.16699 -30.333 10.5 -31c9.33301 -0.666992 18.166 7.33301 26.499 24
s15.666 38 21.999 64s11.166 54.833 14.499 86.5s4.83301 62.167 4.5 91.5s-3 55.666 -8 78.999s-12.5 39.666 -22.5 48.999z" />
    <glyph glyph-name="R" unicode="R" horiz-adv-x="416" 
d="M442 349c-12.667 -23.333 -26.9961 -48.3418 -42.9961 -75.0088l-50 -80.5c-17.333 -27 -35.333 -52.667 -54 -77s-37.167 -45.666 -55.5 -63.999s-36.333 -32.666 -54 -42.999s-34.167 -14.166 -49.5 -11.499c-24.667 3.33301 -41.334 14.5 -50.001 33.5
s-12 42.333 -10 70s7.83301 58.167 17.5 91.5s20.5 66.166 32.5 98.499s24 62.333 36 90s21.333 49.834 28 66.501c6.66699 17.333 9.5 29.666 8.5 36.999s-5.33301 11.833 -13 13.5s-18.5 1.83398 -32.5 0.500977s-30 -2 -48 -2l-75 -148c-3.33301 -4 -7 -6.33301 -11 -7
s-7.83301 -0.166992 -11.5 1.5s-6.33398 4.33398 -8.00098 8.00098s-1.5 7.83398 0.5 12.501c2 2 6.5 9.66699 13.5 23l23 44l23 45l13.5 27c-17.333 1.33301 -31.333 6.33301 -42 15s-18.167 18.834 -22.5 30.501s-5.5 23.834 -3.5 36.501s6.66699 24 14 34
c14 19.333 29.333 30.5 46 33.5s30.834 -0.166992 42.501 -9.5s19.167 -24.166 22.5 -44.499s-0.666992 -43.833 -12 -70.5c13.333 0.666992 29.5 1.66699 48.5 3s37.5 1.33301 55.5 0s33.667 -4.83301 47 -10.5s21 -15.167 23 -28.5
c0.666992 -7.33301 -3.83301 -23 -13.5 -47l-35.5 -84.5l-44.5 -103c-15.667 -36.333 -29 -70 -40 -101s-18 -57.5 -21 -79.5s0.833008 -34.667 11.5 -38c8.66699 -3.33301 19.5 -0.666016 32.5 8.00098s27.167 21.334 42.5 38.001s31.5 36.5 48.5 59.5l51 72.5l49 76
l43.5 71c2 4 5.16699 6.5 9.5 7.5s8.16602 0.666992 11.499 -1s5.66602 -4.33398 6.99902 -8.00098s0.666016 -8.16699 -2.00098 -13.5zM82.0039 528.991c2.66699 7.33301 3.16797 15.498 1.50098 24.498s-4.66699 17.167 -9 24.5s-9.33301 12.833 -15 16.5
s-10.5 4.16699 -14.5 1.5c-6.66699 -5.33301 -9.83398 -11.666 -9.50098 -18.999s2.83301 -14.666 7.5 -21.999s10.5 -13.5 17.5 -18.5s14.167 -7.5 21.5 -7.5z" />
    <glyph glyph-name="S" unicode="S" horiz-adv-x="288" 
d="M309 338c-33.333 -28 -66 -50.998 -98 -68.998s-63.333 -33.667 -94 -47c4.66699 -20.667 8.5 -41.5 11.5 -62.5s4.5 -42.167 4.5 -63.5c0 -28 -3.83301 -54.833 -11.5 -80.5s-20.5 -50.167 -38.5 -73.5c-19.333 -22.667 -42 -39.5 -68 -50.5s-52 -16.5 -78 -16.5
c-21.333 0 -41.333 3 -60 9s-35.334 14.5 -50.001 25.5s-26.167 24 -34.5 39s-12.5 31.5 -12.5 49.5c0 17.333 4.5 35.5 13.5 54.5s23.5 38.5 43.5 58.5s46.167 40.167 78.5 60.5s72.166 40.166 119.499 59.499c-5.33301 24 -11.166 46.833 -17.499 68.5
s-12.166 43.167 -17.499 64.5c-5.33301 22 -9.66602 44 -12.999 66s-5 44 -5 66c0 28 4.16699 54 12.5 78s23.166 44.333 44.499 61c11.333 8 23.666 13.833 36.999 17.5s26.666 5.5 39.999 5.5c16 0 31.333 -2.66699 46 -8s27.334 -13 38.001 -23
s18.334 -22.5 23.001 -37.5s5.33398 -32.167 2.00098 -51.5c-3.33301 -17.333 -10.5 -34.833 -21.5 -52.5s-23.167 -33.5 -36.5 -47.5c-5.33301 -5.33301 -10.5 -8.33301 -15.5 -9s-9.33301 0.166016 -13 2.49902s-5.83398 6 -6.50098 11s1 10.5 5 16.5
c16.667 18.667 29.167 36.5 37.5 53.5s12.5 32.167 12.5 45.5c0 18 -5.66699 32.5 -17 43.5s-24.333 16.5 -39 16.5c-19.333 0 -36.833 -9.33301 -52.5 -28s-23.5 -49.667 -23.5 -93c0 -12 0.833008 -24.333 2.5 -37s4.5 -27.834 8.5 -45.501s9.5 -39 16.5 -64l26.5 -92.5
c30 13.333 59.833 28.5 89.5 45.5s59.5 37.167 89.5 60.5c4.66699 2.66699 9.5 3.83398 14.5 3.50098s8.66699 -2 11 -5s3.33301 -6.66699 3 -11s-2.83301 -8.83301 -7.5 -13.5zM44 191.002c-41.333 -16.667 -75.998 -33.5 -103.998 -50.5s-50.833 -33.833 -68.5 -50.5
s-30.334 -32.5 -38.001 -47.5s-11.5 -28.833 -11.5 -41.5c0 -12 2.83301 -22.833 8.5 -32.5s13 -18 22 -25s19.5 -12.5 31.5 -16.5s24.333 -6 37 -6c17.333 0 35.166 4.66699 53.499 14s34.166 22.666 47.499 39.999c11.333 18.667 19.5 37.834 24.5 57.501
s7.5 39.5 7.5 59.5c0 13.333 -0.666992 28.5 -2 45.5s-3.66602 33.167 -6.99902 48.5z" />
    <glyph glyph-name="T" unicode="T" horiz-adv-x="387" 
d="M422 338c-15.333 -19.333 -33.6709 -41.165 -55.0039 -65.498s-44.166 -49 -68.499 -74s-49.5 -49.333 -75.5 -73s-51.667 -44.667 -77 -63s-49.5 -33.166 -72.5 -44.499s-43.5 -17 -61.5 -17c-21.333 0 -38.666 8.33301 -51.999 25s-20.333 45 -21 85
c0 18.667 1.16699 37.334 3.5 56.001s6 38 11 58s11.333 41.333 19 64s16.834 47.667 27.501 75l40.5 99l49 114l50 112l43.5 93c-36 6 -71.833 11.333 -107.5 16s-69.5 7 -101.5 7c-39.333 0 -74.666 -5 -105.999 -15s-57.666 -28 -78.999 -54
c-5.33301 -7.33301 -10.833 -12 -16.5 -14s-10.5 -2 -14.5 0s-6.83301 5.5 -8.5 10.5s-0.833984 10.5 2.49902 16.5c24 35.333 54.5 59.666 91.5 72.999s77.833 20 122.5 20c36.667 0 74.834 -2.66699 114.501 -8s79.5 -11.333 119.5 -18l22 44h-1c3.33301 12 19 18 47 18
c6.66699 0 14 -0.333008 22 -1s15.333 -1.33398 22 -2.00098c2.66699 -1.33301 4.66699 -2.83301 6 -4.5s1 -4.83398 -1 -9.50098l-32 -57c18.667 -2 37.5 -3.83301 56.5 -5.5s36.833 -2.5 53.5 -2.5c43.333 0 81.5 6 114.5 18s58.833 35 77.5 69
c2.66699 5.33301 6 8.66602 10 9.99902s7.66699 1.33301 11 0s6.16602 -3.5 8.49902 -6.5s3.5 -6.16699 3.5 -9.5c-10 -22.667 -22.5 -41.667 -37.5 -57s-32 -27.5 -51 -36.5s-39.667 -15.333 -62 -19s-45.833 -5.5 -70.5 -5.5c-21.333 0 -42.833 0.833008 -64.5 2.5
s-43.834 4.16699 -66.501 7.5l-52.5 -103.5l-57.5 -120c-19.333 -41.667 -38 -84 -56 -127s-34.167 -84.333 -48.5 -124s-25.666 -76.5 -33.999 -110.5s-12.5 -62.667 -12.5 -86c0 -31.333 9.66699 -47 29 -47c12 0 27.167 5.16699 45.5 15.5s38 24.166 59 41.499
s42.833 37 65.5 59l67 68l62.5 68.5l51.5 60.5c4.66699 4.66699 9.83398 7.33398 15.501 8.00098s10.667 -0.5 15 -3.5s7.16602 -7.16699 8.49902 -12.5s0 -11.333 -4 -18z" />
    <glyph glyph-name="U" unicode="U" horiz-adv-x="500" 
d="M524 346l-45.502 -77.001l-50 -78.5c-17 -25.667 -34.333 -50 -52 -73s-34.667 -43 -51 -60s-31.833 -30.333 -46.5 -40s-27.667 -13.834 -39 -12.501c-15.333 2 -26.666 9.5 -33.999 22.5s-12.333 28.333 -15 46s-3.5 36 -2.5 55s2.16699 35.167 3.5 48.5
c2 20 5.5 41.333 10.5 64s11 45.334 18 68.001s14.5 44.5 22.5 65.5s15.667 39.833 23 56.5l-32.5 -58l-42.5 -72.5c-15.333 -25.667 -31.5 -51.167 -48.5 -76.5s-33.667 -48.5 -50 -69.5s-32 -38.167 -47 -51.5s-27.833 -21 -38.5 -23c-15.333 -2 -25.833 4.66699 -31.5 20
s-8.33398 36.5 -8.00098 63.5s3.5 58 9.5 93s13.667 70.833 23 107.5c8 30.667 16.5 61.167 25.5 91.5s17.833 58.166 26.5 83.499s17 47.166 25 65.499s14.667 31.5 20 39.5c2.66699 0 7.5 0.166992 14.5 0.5s14.333 -0.166992 22 -1.5s14.334 -3.83301 20.001 -7.5
s9.16699 -9.5 10.5 -17.5l-62 -177c-20 -58 -37.167 -110 -51.5 -156s-24.666 -83 -30.999 -111s-6.5 -42 -0.5 -42s16 8 30 24s30.333 37.5 49 64.5s38.667 58 60 93s42.333 71.333 63 109s40.167 75.334 58.5 113.001s33.833 72.5 46.5 104.5c4 4.66699 9 7.5 15 8.5
s12.667 1.33301 20 1s15.5 -1.16602 24.5 -2.49902s18.167 -1.66602 27.5 -0.999023c-6 -12.667 -13.5 -31 -22.5 -55l-29.5 -81.5l-32.5 -97c-11 -34.333 -21.333 -68.333 -31 -102s-18.167 -65.834 -25.5 -96.501s-12.333 -57.334 -15 -80.001s-2.5 -40.334 0.5 -53.001
s9.5 -17.667 19.5 -15s24.333 13.834 43 33.501s42.667 50.5 72 92.5l57 86c18.667 29.333 35.667 58 51 86c1.33301 2.66699 4 4.33398 8 5.00098s7.83301 0.333984 11.5 -0.999023s6.16699 -3.83301 7.5 -7.5s0.333008 -8.5 -3 -14.5z" />
    <glyph glyph-name="V" unicode="V" horiz-adv-x="448" 
d="M469 342c-20.667 -16 -41.501 -28.666 -62.501 -37.999s-41 -14.333 -60 -15s-36.5 3.5 -52.5 12.5s-29.333 23.5 -40 43.5c-6 -9.33301 -15 -24.333 -27 -45l-41 -69.5l-49 -79c-17.333 -27 -34.666 -51.5 -51.999 -73.5s-33.833 -39.833 -49.5 -53.5
s-29.167 -19.834 -40.5 -18.501c-18.667 1.33301 -30.667 14 -36 38s-6.5 53.5 -3.5 88.5s8.83301 73.167 17.5 114.5s17.667 80.333 27 117l23.5 85l14.5 52c5.33301 20.667 11.833 42 19.5 64l19.5 57c6 8.66699 12.833 14.5 20.5 17.5s15.834 4.5 24.501 4.5
s17.5 -1 26.5 -3s17.833 -3.33301 26.5 -4c-6 -14 -15 -37.167 -27 -69.5s-24.833 -68.833 -38.5 -109.5l-41 -127.5c-13.667 -44.333 -25.334 -85.5 -35.001 -123.5s-16.5 -70.333 -20.5 -97s-2.66699 -42.667 4 -48c4 -4 11.833 0 23.5 12s25.167 28.833 40.5 50.5
l49 72.5l49 77.5c15.333 25 28.5 47.333 39.5 67s18.5 32.834 22.5 39.501c-7.33301 28 -10.5 59 -9.5 93s6.16699 66.667 15.5 98c9.33301 32.667 20 58.167 32 76.5s23.667 30.333 35 36s21.666 5.66699 30.999 0s16.333 -15.667 21 -30s6.33398 -32.333 5.00098 -54
s-7.33301 -45.834 -18 -72.501c-4 -10 -9.33301 -21.5 -16 -34.5l-21.5 -40l-22.5 -41l-20 -38.5c6 -22 15.333 -37.333 28 -46s27 -12.5 43 -11.5s33 5.83301 51 14.5s35.667 19.667 53 33c4 2.66699 8.16699 3.66699 12.5 3s7.83301 -2.16699 10.5 -4.5s4 -5.33301 4 -9
s-2 -7.5 -6 -11.5zM261.999 421.001l32.498 56.998c11.667 21.333 21.834 43 30.501 65c10.667 26.667 16.334 48.834 17.001 66.501s-1.83301 28.5 -7.5 32.5s-13.667 -0.166992 -24 -12.5s-21.5 -35.166 -33.5 -68.499c-7.33301 -22 -12.333 -45.5 -15 -70.5
s-2.66699 -48.167 0 -69.5z" />
    <glyph glyph-name="W" unicode="W" horiz-adv-x="667" 
d="M684 343c-18 -18 -37.0039 -34.0039 -57.0039 -48.0039s-39.667 -24 -59 -30s-38 -7 -56 -3s-34.333 15.333 -49 34l-47 -66.5c-15.333 -22.333 -30.333 -43.166 -45 -62.499l-34 -43c-12 -14.667 -24.167 -27.5 -36.5 -38.5s-24.333 -19.333 -36 -25
s-21.834 -6.5 -30.501 -2.5c-13.333 5.33301 -21.333 18 -24 38s-2.66699 42.333 0 67s6.5 48.834 11.5 72.501l11.5 54.5l-30.5 -56.5c-11 -20.333 -22.5 -40.5 -34.5 -60.5s-24.333 -39 -37 -57s-25 -33.333 -37 -46c-7.33301 -8 -17.166 -17.333 -29.499 -28
s-25 -19 -38 -25s-25.833 -8.16699 -38.5 -6.5s-23 10.834 -31 27.501c-6.66699 12.667 -9.83398 31 -9.50098 55s2.83301 50.667 7.5 80s11 60.5 19 93.5s16.667 65.5 26 97.5l21 70.5l18 61.5l36 113c2.66699 5.33301 7.33398 9.66602 14.001 12.999
s14.334 5.5 23.001 6.5s18 1.33301 28 1s19.667 -1.5 29 -3.5l-78 -230.5c-22.667 -69.667 -41.167 -129.667 -55.5 -180s-23.833 -90.166 -28.5 -119.499s-3.33398 -46 3.99902 -50c8 -4.66699 19.5 -0.666992 34.5 12s31.667 31.167 50 55.5s37.833 53.333 58.5 87
s40.834 69.834 60.501 108.501s38 78.5 55 119.5s31.5 80.5 43.5 118.5c0.666992 6 3.83398 10.5 9.50098 13.5s12.5 5.16699 20.5 6.5s17.167 2 27.5 2h31.5c-9.33301 -21.333 -19.833 -47 -31.5 -77s-23.167 -61.333 -34.5 -94l-32.5 -98
c-10.333 -32.667 -18.833 -62.5 -25.5 -89.5s-11 -49.833 -13 -68.5s-0.333008 -30.334 5 -35.001c17.333 -15.333 74.666 57 171.999 217c-7.33301 16 -11.5 34.5 -12.5 55.5s0.166992 42.333 3.5 64s8.5 42.834 15.5 63.501s15.5 39.167 25.5 55.5s21 29.5 33 39.5
s24.667 15 38 15c19.333 0 31.5 -6.66699 36.5 -20s5.33301 -30 1 -50s-11.666 -42 -21.999 -66s-21.166 -47 -32.499 -69s-21.833 -41 -31.5 -57l-18.5 -31c10 -17.333 22.333 -28 37 -32s30.5 -3.33301 47.5 2s34.333 14.333 52 27s35.167 27 52.5 43
c2.66699 2 5.83398 2.83301 9.50098 2.5s6.66699 -1.5 9 -3.5s3.5 -4.83301 3.5 -8.5s-1.66699 -7.5 -5 -11.5zM462.996 355.996c2.66699 4 6.66797 10.667 12.001 20l18 32.5c6.66699 12.333 13.667 26 21 41s14 30.5 20 46.5c4.66699 10.667 8.83398 21.167 12.501 31.5
s6.16699 19.666 7.5 27.999s1.33301 15 0 20s-4.33301 7.5 -9 7.5c-8 0 -16.167 -3.66699 -24.5 -11s-15.5 -16.666 -21.5 -27.999c-6.66699 -12 -12.834 -26 -18.501 -42s-10.334 -32.5 -14.001 -49.5s-6 -33.833 -7 -50.5s0.166992 -32 3.5 -46z" />
    <glyph glyph-name="X" unicode="X" horiz-adv-x="633" 
d="M658 346c-24 -38.667 -49.0088 -75.8291 -75.0088 -111.496s-52.333 -68.334 -79 -98.001s-53.5 -55.167 -80.5 -76.5s-53.167 -37.333 -78.5 -48c-19.333 -8 -37.833 -11.333 -55.5 -10s-33.667 8.16602 -48 20.499s-27 30.666 -38 54.999s-19.833 55.5 -26.5 93.5
c-38 -55.333 -74.5 -95.5 -109.5 -120.5s-68 -36.5 -99 -34.5s-59.333 16.5 -85 43.5s-47.834 64.833 -66.501 113.5c-1.33301 4.66699 -1 8.83398 1 12.501s4.83301 6.16699 8.5 7.5s7.33398 1.66602 11.001 0.999023s6.16699 -3 7.5 -7
c16.667 -48 35.5 -81.833 56.5 -101.5s42.667 -29 65 -28s44.666 10.833 66.999 29.5s43.833 42.5 64.5 71.5s39.5 61.333 56.5 97s31.333 71.334 43 107.001s19.834 69.167 24.501 100.5s4.66699 57 0 77c-4.66699 22 -11.167 37.5 -19.5 46.5s-17.666 13.167 -27.999 12.5
s-21.166 -4.83398 -32.499 -12.501s-22.5 -16.834 -33.5 -27.501s-20.833 -22 -29.5 -34l-21 -30c-3.33301 -6 -7.16602 -9.83301 -11.499 -11.5s-8.16602 -1.66699 -11.499 0s-5.66602 4.66699 -6.99902 9s-0.666016 9.16602 2.00098 14.499
c18.667 30 37.5 54.833 56.5 74.5s37.5 34.834 55.5 45.501c18 9.33301 36.167 14.5 54.5 15.5s35.333 -2 51 -9s29 -18 40 -33s18.5 -33.5 22.5 -55.5c37.333 44.667 72.5 75.5 105.5 92.5s62.5 23.833 88.5 20.5c25.333 -3.33301 47 -13.166 65 -29.499
s29.667 -35.5 35 -57.5c0.666992 -6 0.166992 -10.333 -1.5 -13s-4 -4.16699 -7 -4.5s-5.83301 0.166992 -8.5 1.5s-4.33398 3.66602 -5.00098 6.99902c-2 16 -8.83301 28.833 -20.5 38.5s-26.667 14.334 -45 14.001s-38.833 -6.5 -61.5 -18.5s-45.667 -31.5 -69 -58.5
s-46.166 -62.5 -68.499 -106.5s-42.166 -98 -59.499 -162c-3.33301 -12.667 -6 -28 -8 -46s-2.66699 -36.333 -2 -55s2.66699 -36.834 6 -54.501s8.5 -32.667 15.5 -45s16.333 -20.833 28 -25.5s25.834 -3.66699 42.501 3c19.333 8 40.833 21.833 64.5 41.5
s48.334 43.667 74.001 72s51.667 60 78 95s51.833 71.5 76.5 109.5c0.666992 2.66699 3.16699 4.5 7.5 5.5s8.33301 1 12 0s6.5 -3.5 8.5 -7.5s1 -9.33301 -3 -16z" />
    <glyph glyph-name="Y" unicode="Y" horiz-adv-x="443" 
d="M457 342c-28.667 -18 -57.832 -33.6689 -87.499 -47.002s-59.5 -25.666 -89.5 -36.999c-12 -37.333 -25.167 -75.333 -39.5 -114s-29.5 -77.167 -45.5 -115.5s-32.833 -75.666 -50.5 -111.999s-35.834 -70.166 -54.501 -101.499c-18.667 -32 -37.834 -59.667 -57.501 -83
s-39.167 -42.5 -58.5 -57.5s-38.333 -26.333 -57 -34s-36 -12.167 -52 -13.5c-24.667 -2 -46.834 2.16699 -66.501 12.5s-36.167 25.333 -49.5 45s-23 42.834 -29 69.501s-7.33301 55.334 -4 86.001s11.5 62.667 24.5 96s32.167 66.333 57.5 99
c26.667 34.667 55.334 63.667 86.001 87s62.834 43.166 96.501 59.499s68.667 30.333 105 42l111.5 34.5l46 154c15.333 49.333 27.666 93 36.999 131l-32.5 -51.5l-42 -63c-15 -21.667 -30.833 -43.334 -47.5 -65.001s-33.167 -40.834 -49.5 -57.501
s-31.666 -30.167 -45.999 -40.5s-27.166 -14.833 -38.499 -13.5c-15.333 1.33301 -24.333 12.833 -27 34.5s-1.66699 47.5 3 77.5c4 26 9.5 53.167 16.5 81.5s13.833 53.5 20.5 75.5l5.5 19.5l8 27.5l9.5 31c3.33301 10.667 6.66602 20.667 9.99902 30
c5.33301 8 12.333 13.333 21 16s17.667 4 27 4s18 -0.833008 26 -2.5s14 -2.5 18 -2.5c-16.667 -38 -32.334 -76.5 -47.001 -115.5s-27 -74.333 -37 -106s-17 -58 -21 -79s-3.66699 -32.5 1 -34.5c4 -2 11.5 2.16699 22.5 12.5s23.833 24.333 38.5 42s30.667 38.5 48 62.5
s34.333 48.833 51 74.5s32.334 51.167 47.001 76.5s27 48.666 37 69.999c2.66699 5.33301 7.33398 8.83301 14.001 10.5s14.5 2.16699 23.5 1.5s18.667 -1.66699 29 -3s20.166 -2.33301 29.499 -3v-1c-4 -12.667 -9.5 -31.667 -16.5 -57l-24.5 -87l-31 -105
c-11.333 -37.333 -23.333 -74 -36 -110c26.667 9.33301 52.5 19.5 77.5 30.5s50.167 24.5 75.5 40.5c4.66699 2.66699 8.66699 3.33398 12 2.00098s5.83301 -3.5 7.5 -6.5s2.16699 -6.16699 1.5 -9.5s-3 -6 -7 -8zM14.002 -168.002
c28.667 56.667 58.6699 119.333 90.0029 188s58 138.334 80 209.001c-34.667 -10.667 -68.334 -21.834 -101.001 -33.501s-64.334 -25.5 -95.001 -41.5s-60 -35.167 -88 -57.5s-55 -49.5 -81 -81.5c-30 -38 -51.167 -78.667 -63.5 -122s-15.833 -84 -10.5 -122
c4 -30 14.333 -55.333 31 -76s37.5 -31.167 62.5 -31.5s52.667 12.167 83 37.5s61.166 69 92.499 131z" />
    <glyph glyph-name="Z" unicode="Z" horiz-adv-x="455" 
d="M182 308c0 -5.33301 4 -4.83301 12 1.5s17.667 15.5 29 27.5c-9.33301 0 -18.5 -2.16699 -27.5 -6.5s-13.5 -11.833 -13.5 -22.5zM477 334l-38.9951 -25.5029l-34 -21c-10.667 -6.33301 -20.834 -12.666 -30.501 -18.999l-29.5 -19.5c-6 -56 -17.667 -107.333 -35 -154
s-38.333 -88.5 -63 -125.5s-52.167 -69.333 -82.5 -97s-61.333 -50.667 -93 -69s-63 -32 -94 -41s-59.5 -13.5 -85.5 -13.5c-36 0 -65.5 8.33301 -88.5 25s-34.5 41.667 -34.5 75c0 18.667 4.66699 40.334 14 65.001c11.333 30 29.166 57.333 53.499 82s52 47.5 83 68.5
s64 40 99 57l101.5 48.5l80.5 38.5c25.667 12.333 48.167 24.5 67.5 36.5c3.33301 21.333 1.33301 42.666 -6 63.999c-4.66699 -5.33301 -10.334 -10.833 -17.001 -16.5s-13.667 -10.5 -21 -14.5s-14.833 -6.83301 -22.5 -8.5s-14.834 -1.83398 -21.501 -0.500977
c-10 3.33301 -17 8.66602 -21 15.999s-6 15 -6 23c0 18.667 6.66699 34 20 46c10.667 8.66699 23.334 14.667 38.001 18s28.667 3.33301 42 0c16.667 25.333 29 50.833 37 76.5s12 49.167 12 70.5c0 22.667 -4 41.334 -12 56.001s-19.667 21.334 -35 20.001
c-24.667 -2.66699 -48 -12.334 -70 -29.001s-42.167 -36.667 -60.5 -60s-34.666 -47.833 -48.999 -73.5s-26.166 -48.5 -35.499 -68.5c-5.33301 -10 -11 -16.5 -17 -19.5s-11.167 -3.83301 -15.5 -2.5s-7.33301 4 -9 8s-0.833984 8.66699 2.49902 14l18 34.5
c8 15.667 17.667 33.334 29 53.001s24.666 40 39.999 61s32.166 40.167 50.499 57.5s38.666 31.833 60.999 43.5s46.166 18.167 71.499 19.5c14 0.666992 26.833 -1.66602 38.5 -6.99902s21.5 -13 29.5 -23s14.333 -21.833 19 -35.5s7 -28.834 7 -45.501
c0 -24 -5 -50.167 -15 -78.5s-27.667 -58.5 -53 -90.5c9.33301 -8 18 -17 26 -27s13.667 -21.667 17 -35c18 12.667 35.5 24 52.5 34l63.5 39c4.66699 2.66699 9.33398 3.33398 14.001 2.00098s8.16699 -3.66602 10.5 -6.99902s3.5 -7.33301 3.5 -12s-2 -9 -6 -13z
M-115.995 -207.003c28 0 60.6689 8 98.002 24s74.166 40.5 110.499 73.5s70 75 101 126s54.5 111.167 70.5 180.5l-50.5 -25.5c-19.667 -9.66699 -38.5 -18.5 -56.5 -26.5l-102.5 -50.5c-35.667 -18.333 -69.5 -37.666 -101.5 -57.999s-60.333 -41.833 -85 -64.5
s-42.334 -46 -53.001 -70c-3.33301 -8.66699 -6 -16.834 -8 -24.501s-3 -14.5 -3 -20.5c0 -21.333 7.5 -37.333 22.5 -48s34.167 -16 57.5 -16z" />
    <glyph glyph-name="bracketleft" unicode="[" 
d="M389 550l-88.4951 -176.502l-84.5 -178.5l-37.5 -80l-37.5 -80c5.33301 -1.33301 10.833 -2.33301 16.5 -3s11.167 -1 16.5 -1c3.33301 0 6.33301 0.333008 9 1h4c1.33301 0 2.5 0.166992 3.5 0.5s2.16699 0.5 3.5 0.5c10.667 0 16 -5.33301 16 -16
c0 -4 -1.5 -7.16699 -4.5 -9.5s-6.66699 -4.16602 -11 -5.49902s-9 -2.16602 -14 -2.49902s-9.16699 -0.5 -12.5 -0.5c-6.66699 0 -13.334 0.333008 -20.001 1s-12.667 1.66699 -18 3c-0.666992 0 -1.16699 0.166992 -1.5 0.5s-0.833008 0.5 -1.5 0.5c-10 2 -19.333 3 -28 3
c-2.66699 0 -7.33398 -0.666992 -14.001 -2c-1.33301 0 -2 -0.166992 -2 -0.5s-0.333008 -0.5 -1 -0.5c-1.33301 -0.666992 -2.83301 -1.16699 -4.5 -1.5s-4.5 -0.5 -8.5 -0.5s-8 2 -12 6s-6 7.66699 -6 11c0 2.66699 0.333008 4.66699 1 6l63 130l62 132l69.5 152l73.5 150
c4 6.66699 9.33301 10 16 10c3.33301 0 7.66602 -1.33301 12.999 -4c7.33301 -5.33301 15.166 -8.83301 23.499 -10.5s16.166 -2.5 23.499 -2.5c6 0 12 1 18 3c2.66699 0 7.33398 0.666992 14.001 2c2.66699 0.666992 6 1 10 1c5.33301 0 9.33301 -2 12 -6s4 -8 4 -12
c0 -5.33301 -2.5 -9.5 -7.5 -12.5s-10.833 -5.16699 -17.5 -6.5s-13.834 -2 -21.501 -2h-18.5v1z" />
    <glyph glyph-name="backslash" unicode="\" horiz-adv-x="367" 
d="M75 709c17.333 -44.667 35.5 -95.501 54.5 -152.501l57.5 -177.5l9 -29l68.5 -206c23 -67.333 45.167 -127 66.5 -179c0.666992 -1.33301 1 -2.66602 1 -3.99902v-3c0 -6 -2.5 -10.5 -7.5 -13.5s-10.167 -4.5 -15.5 -4.5s-10.333 1 -15 3s-7.66699 5.66699 -9 11l-16 49
l-56 165l-63 185l-63.5 182l-56.5 156c-1.33301 4 -2 7.66699 -2 11c0 6.66699 2 11.667 6 15s9 5 15 5c8.66699 0 17 -4 25 -12z" />
    <glyph glyph-name="bracketright" unicode="]" horiz-adv-x="270" 
d="M-159 27c0 5.33301 2.33691 9.5 7.00391 12.5s10.5 5.16699 17.5 6.5s14.333 2 22 2h21.5l124.5 255.5l120.5 258.5c-3.33301 0.666992 -7.16602 1.16699 -11.499 1.5s-8.16602 0.5 -11.499 0.5c-2.66699 0 -7.33398 -0.666992 -14.001 -2
c-0.666992 0 -1.33398 -0.166992 -2.00098 -0.5s-1.33398 -0.5 -2.00098 -0.5c-4 -1.33301 -8.33301 -2 -13 -2s-8.33398 2 -11.001 6s-4 8 -4 12c0 10 4.5 15.833 13.5 17.5s17.167 2.5 24.5 2.5c6.66699 0 13 -0.333008 19 -1s12 -1.66699 18 -3
c5.33301 -1.33301 10.833 -2.33301 16.5 -3s11.167 -1 16.5 -1c1.33301 0 3.5 0.333008 6.5 1s6.16699 1.66699 9.5 3c4.66699 2 10.334 3 17.001 3c5.33301 0 9.83301 -2 13.5 -6s5.5 -8.33301 5.5 -13c0 -3.33301 -0.666992 -5.66602 -2 -6.99902h1
c-15.333 -28.667 -29.833 -57.834 -43.5 -87.501l-38.5 -86.5l-47 -99l-69 -146.5l-72 -144.5c-4 -6 -8.33301 -9 -13 -9c-0.666992 0.666992 -1.66699 1 -3 1c-2.66699 0 -4.33398 0.333008 -5.00098 1h1c-2.66699 1.33301 -4.33398 2 -5.00098 2
c-8.66699 3.33301 -18 6 -28 8s-19.333 3 -28 3c-3.33301 0 -6.33301 -0.166992 -9 -0.5s-5.66699 -0.833008 -9 -1.5s-6.33301 -1.16699 -9 -1.5s-5.33398 -0.5 -8.00098 -0.5c-5.33301 0 -9.5 2.16699 -12.5 6.5s-4.5 8.5 -4.5 12.5z" />
    <glyph glyph-name="asciicircum" unicode="^" horiz-adv-x="288" 
d="M94 449c-4.66699 -8.66699 -11.335 -13 -20.002 -13c-17.333 0 -26 6.33301 -26 19c0 2.66699 0.666992 6 2 10c12.667 28.667 24.5 58.167 35.5 88.5l31.5 90.5c2 5.33301 5.16699 9.33301 9.5 12s8.5 4 12.5 4s8 -1.66699 12 -5s6.66699 -7 8 -11l70 -179
c0 -11.333 -2.33301 -19 -7 -23s-10.667 -6 -18 -6c-11.333 0 -17.666 4.33301 -18.999 13l-11 24l-17 37.5c-5.33301 11.667 -11.666 24.167 -18.999 37.5z" />
    <glyph glyph-name="underscore" unicode="_" horiz-adv-x="564" 
d="M77 -41c-6 0 -11 2.33301 -15 7s-6 9.66699 -6 15c0 7.33301 2 13.5 6 18.5s9 7.5 15 7.5h379c7.33301 0 13.5 -2.5 18.5 -7.5s7.5 -11.167 7.5 -18.5c0 -5.33301 -2.5 -10.333 -7.5 -15s-11.167 -7 -18.5 -7h-379z" />
    <glyph glyph-name="grave" unicode="`" horiz-adv-x="302" 
d="M51 598c0 7.33301 2.5 13.8359 7.5 19.5029s11.5 8.5 19.5 8.5c16.667 0 34.334 -3.5 53.001 -10.5s35.834 -16.5 51.501 -28.5s28.667 -26 39 -42s15.5 -33 15.5 -51c0 -8.66699 -2.83301 -15.167 -8.5 -19.5s-11.5 -6.5 -17.5 -6.5c-10.667 0 -17.667 5.66699 -21 17
c-2.66699 7.33301 -8.83398 13.166 -18.501 17.499s-20.167 8.5 -31.5 12.5c-9.33301 2.66699 -18.833 6 -28.5 10s-18.834 9.16699 -27.501 15.5s-16 14.166 -22 23.499s-9.66699 20.666 -11 33.999z" />
    <glyph glyph-name="a" unicode="a" horiz-adv-x="414" 
d="M285 464c0.666992 -0.666992 0.99707 -1.33105 0.99707 -1.99805c-2.66699 -6 -7.5 -17.833 -14.5 -35.5l-24.5 -63l-29 -78.5c-10 -28 -19.167 -55.333 -27.5 -82s-15.166 -51.667 -20.499 -75s-8 -42 -8 -56c0 -6.66699 0.5 -12 1.5 -16s3.5 -6 7.5 -6
c9.33301 0 21.5 7.16699 36.5 21.5s31.167 32.5 48.5 54.5s35 46 53 72l49.5 74c15 23.333 27.5 43.5 37.5 60.5l18 30.5c4.66699 6.66699 10.334 10 17.001 10c10.667 0 16 -5.33301 16 -16v-3.5c0 -1.66699 -0.666992 -3.5 -2 -5.5
c-3.33301 -6.66699 -11.166 -19.667 -23.499 -39l-44.5 -68c-17.333 -26 -36.5 -53.167 -57.5 -81.5s-42 -54.333 -63 -78s-41.5 -43.167 -61.5 -58.5s-37.333 -23 -52 -23c-17.333 3.33301 -29 13.166 -35 29.499s-9 35.5 -9 57.5c0 19.333 1.5 39 4.5 59
s6.16699 36.667 9.5 50c-14 -12 -29 -22.333 -45 -31s-32 -13 -48 -13c-24 0 -41.833 8.16699 -53.5 24.5s-17.5 35.166 -17.5 56.499c0 20 4.5 41.667 13.5 65s21.5 45.333 37.5 66c17.333 22.667 38.333 41.667 63 57s51.667 23 81 23c7.33301 0 14.833 -0.666992 22.5 -2
l22.5 -4c4 13.333 10 22.5 18 27.5s18.667 7.5 32 7.5c5.33301 0 11 -0.333008 17 -1s12.333 -1.66699 19 -3h6l2 -1zM134.997 272.003v1c2.66699 1.33301 4 1 4 -1h-4zM35.9971 188.003c10 0 20.166 3.50391 30.499 10.5039s20 15.167 29 24.5s17 18.666 24 27.999
s12.167 16.666 15.5 21.999c6.66699 23.333 13.5 45.666 20.5 66.999l18.5 58l3 9c-2.66699 0.666992 -5.16699 1 -7.5 1h-6.5c-10 0 -19.833 -2 -29.5 -6s-19 -9.33301 -28 -16s-17.333 -13.834 -25 -21.501s-14.5 -15.167 -20.5 -22.5c-16 -19.333 -28 -39.833 -36 -61.5
s-12 -40.167 -12 -55.5c0 -11.333 1.83301 -20.333 5.5 -27s9.83398 -10 18.501 -10z" />
    <glyph glyph-name="b" unicode="b" horiz-adv-x="400" 
d="M43 46c8 0 17.502 2.33301 28.502 7s22.333 11.834 34 21.501s22.667 21.834 33 36.501s19.166 32 26.499 52c-25.333 -10.667 -47 -21.334 -65 -32.001s-32.5 -20.834 -43.5 -30.501s-19 -18.167 -24 -25.5s-7.5 -13.333 -7.5 -18c0 -3.33301 1.66699 -6 5 -8
s7.66602 -3 12.999 -3zM-48.998 165c6 36 13.1631 70.502 21.4961 103.502s17.5 64.833 27.5 95.5c20 58.667 42 111.667 66 159c12 22.667 28.333 49.667 49 81s44.334 61.166 71.001 89.499s55.334 52.5 86.001 72.5s61.667 30 93 30c16 0 29.667 -2.5 41 -7.5
s20.5 -11.667 27.5 -20s12 -18 15 -29s4.5 -22.833 4.5 -35.5c0 -34.667 -8 -70.5 -24 -107.5s-39.5 -71 -70.5 -102s-69.167 -56.833 -114.5 -77.5s-97.333 -32.334 -156 -35.001c-6 -13.333 -11.667 -28.333 -17 -45s-10 -33 -14 -49l-4 -15
c15.333 10.667 33 19.5 53 26.5s39 10.5 57 10.5c20.667 0 38.834 -5.5 54.501 -16.5s26.167 -28.833 31.5 -53.5c28 15.333 55.5 33.666 82.5 54.999s49.833 44.333 68.5 69c1.33301 3.33301 3.5 5.5 6.5 6.5s5.5 1.5 7.5 1.5c4.66699 0 8.66699 -1.5 12 -4.5
s5 -6.83301 5 -11.5c0 -3.33301 -1 -6 -3 -8h1c-21.333 -32.667 -47.833 -60.667 -79.5 -84s-64.5 -43.333 -98.5 -60c-2 -22 -8.66699 -45 -20 -69s-25.5 -46 -42.5 -66s-36 -36.667 -57 -50s-41.833 -20 -62.5 -20s-39.334 5.33301 -56.001 16s-25 24.667 -25 42
c0 14 7.66699 28.667 23 44s33.166 30 53.499 44s40.833 26.333 61.5 37s36.334 18 47.001 22v14c0 21.333 -3.66699 36.5 -11 45.5s-16.666 13.5 -27.999 13.5c-14.667 0 -30.5 -5.16699 -47.5 -15.5s-31.5 -22.166 -43.5 -35.499v1
c-0.666992 -2 -1.66699 -8.16699 -3 -18.5s-3 -22.5 -5 -36.5l-7 -45c-1.33301 -2.66699 -3 -4 -5 -4c-6.66699 0.666992 -14.167 2 -22.5 4s-16.166 4.66699 -23.499 8s-13.5 7.33301 -18.5 12s-7.5 10.667 -7.5 18zM374.998 761.002
c-17.333 0 -34.9951 -6.16797 -52.9951 -18.501s-36 -28.5 -54 -48.5s-35.5 -42.667 -52.5 -68s-32.833 -50.666 -47.5 -75.999s-27.834 -49.833 -39.501 -73.5s-20.834 -44.167 -27.501 -61.5c49.333 4.66699 93.666 16 132.999 34s72.666 40.167 99.999 66.5
s48.166 56 62.499 89s21.5 66.5 21.5 100.5c0 15.333 -3 28.5 -9 39.5s-17.333 16.5 -34 16.5z" />
    <glyph glyph-name="c" unicode="c" horiz-adv-x="371" 
d="M371 364c3.33301 5.33301 7.33594 7.99902 12.0029 7.99902c5.33301 0 9.33301 -2 12 -6s4 -8 4 -12c0 -4.66699 -1.33301 -8 -4 -10l-98.5 -128.5c-32.333 -41 -63.833 -77 -94.5 -108s-59.834 -55.667 -87.501 -74s-53.167 -27.5 -76.5 -27.5
c-17.333 0 -32.333 3.83301 -45 11.5s-23 18 -31 31s-14 28.5 -18 46.5s-6 37 -6 57c0 36.667 5.5 73.834 16.5 111.501s26.167 71.167 45.5 100.5c15.333 23.333 33.333 42.333 54 57s43 22 67 22c16.667 -1.33301 31.5 -7.33301 44.5 -18s19.5 -27.667 19.5 -51
c0 -14.667 -2.83301 -30 -8.5 -46s-15.167 -32 -28.5 -48c-4 -4.66699 -8.33301 -7 -13 -7c-4 0 -7.16699 1.5 -9.5 4.5s-3.5 6.5 -3.5 10.5c0 3.33301 1.33301 6.33301 4 9h-1c9.33301 14.667 16.333 28.5 21 41.5s7 23.833 7 32.5c0 20.667 -8.33301 31 -25 31
c-15.333 0 -30.5 -9.5 -45.5 -28.5s-28.5 -42.5 -40.5 -70.5s-21.667 -58.5 -29 -91.5s-11 -63.5 -11 -91.5c0 -22.667 3.66699 -40.5 11 -53.5s17.666 -20.167 30.999 -21.5c31.333 10 62.166 27.833 92.499 53.5s59.5 54.334 87.5 86.001s54.5 63.667 79.5 96
s47.5 60.166 67.5 83.499z" />
    <glyph glyph-name="d" unicode="d" horiz-adv-x="389" 
d="M505 809c-17.333 -14 -35.0029 -31.498 -53.0029 -52.498s-35.833 -44.5 -53.5 -70.5s-35 -54.333 -52 -85s-33.167 -62.334 -48.5 -95.001c54.667 6 101.834 19.667 141.501 41s72.5 46.166 98.5 74.499s45.167 58 57.5 89s18.5 58.5 18.5 82.5
c0 19.333 -3.16699 32.833 -9.5 40.5s-14.166 11.5 -23.499 11.5c-11.333 0 -23.666 -3.5 -36.999 -10.5s-26.333 -15.5 -39 -25.5zM139.997 321.002c5.33301 16.667 10.8369 32.999 16.5039 48.999s12.5 31.667 20.5 47c-2.66699 0.666992 -5.66699 1 -9 1
c-18.667 0 -36.334 -7.16699 -53.001 -21.5s-31.334 -31.666 -44.001 -51.999s-22.834 -41.5 -30.501 -63.5s-11.5 -40.667 -11.5 -56c0 -16.667 4.66699 -25 14 -25s21.166 5.5 35.499 16.5s27.166 24.167 38.499 39.5c4.66699 10.667 8.83398 21.667 12.501 33z
M417.001 348.001l-37.998 -62.998l-46.5 -75c-16.333 -26 -33.333 -51.333 -51 -76s-34.667 -47 -51 -67s-31.833 -36 -46.5 -48s-27.334 -18 -38.001 -18c-10 0 -18.5 3 -25.5 9s-12.5 13.667 -16.5 23s-6.83301 19.833 -8.5 31.5s-2.5 23.167 -2.5 34.5
c0 16 1 32.333 3 49s4.33301 31.667 7 45c-15.333 -12.667 -29.666 -21.334 -42.999 -26.001s-26 -7 -38 -7c-25.333 0 -43 7.33301 -53 22s-15 31.667 -15 51c0 12 1.5 24.333 4.5 37s6.83301 24.834 11.5 36.501s9.66699 22.5 15 32.5s10.333 18.333 15 25
c17.333 24 38.833 45 64.5 63s54.167 27 85.5 27c13.333 0 26.666 -1.66699 39.999 -5c26 60.667 54 117.5 84 170.5s61 99.333 93 139s64.333 70.834 97 93.501s65 34 97 34c27.333 0 48.333 -9 63 -27s22 -41.667 22 -71c0 -27.333 -7.83301 -58.333 -23.5 -93
s-39 -67.834 -70 -99.501s-69.167 -59 -114.5 -82s-98 -36.167 -158 -39.5c-6.66699 -11.333 -14.167 -26.833 -22.5 -46.5s-17 -41.834 -26 -66.501s-18 -50.667 -27 -78s-17 -53.833 -24 -79.5s-12.667 -49.5 -17 -71.5s-6.5 -40 -6.5 -54c0 -15.333 2.66699 -23 8 -23
s13 5.16699 23 15.5s21.5 24 34.5 41s27 36.5 42 58.5l44.5 67.5l43 67.5l37 59c3.33301 4 7 6.33301 11 7s7.66699 0 11 -2s5.66602 -4.83301 6.99902 -8.5s1 -7.83398 -1 -12.501z" />
    <glyph glyph-name="e" unicode="e" 
d="M370 364c4 4.66699 8.16406 6.83496 12.4971 6.50195s7.83301 -1.83301 10.5 -4.5s4.33398 -6 5.00098 -10s-0.666016 -8 -3.99902 -12l-98.5 -128.5c-32.333 -41 -63.666 -77 -93.999 -108s-59.333 -55.667 -87 -74s-53.167 -27.5 -76.5 -27.5
c-17.333 0 -32.333 3.83301 -45 11.5s-23 18 -31 31s-14 28.5 -18 46.5s-6 37 -6 57c0 35.333 5.5 72 16.5 110s26.167 72 45.5 102c15.333 23.333 32.333 42.333 51 57s39 22 61 22c20.667 0 36.167 -6.33301 46.5 -19s15.5 -29.334 15.5 -50.001
c0 -16.667 -3.66699 -34.667 -11 -54s-18.166 -37.666 -32.499 -54.999s-31.666 -32.5 -51.999 -45.5s-43.5 -21.5 -69.5 -25.5c-3.33301 -13.333 -5.33301 -25.833 -6 -37.5s-1 -23.167 -1 -34.5c0 -23.333 3.66699 -42.333 11 -57s17.666 -21.334 30.999 -20.001
c32.667 7.33301 64.167 23.666 94.5 48.999s59.166 54 86.499 86s53 64.833 77 98.5s46.667 62.167 68 85.5zM18.9971 231.001c18 9.33301 33.3311 20.4971 45.998 33.4971s23 26.167 31 39.5s13.833 26.5 17.5 39.5s5.5 24.167 5.5 33.5
c0 10.667 -2.83301 16.334 -8.5 17.001s-11.167 -1.33301 -16.5 -6c-8 -7.33301 -15.667 -17.166 -23 -29.499s-14.166 -25.666 -20.499 -39.999s-12.166 -29.333 -17.499 -45z" />
    <glyph glyph-name="f" unicode="f" horiz-adv-x="276" 
d="M305 348c-48 -62.667 -101.832 -118.668 -161.499 -168.001s-123.5 -87.666 -191.5 -114.999c14 -16.667 23.833 -35.667 29.5 -57s8.5 -44.333 8.5 -69c0 -33.333 -5.16699 -67.5 -15.5 -102.5s-23.833 -66.667 -40.5 -95s-35.334 -51.5 -56.001 -69.5
s-41.334 -27 -62.001 -27c-14 0 -24.333 6.33301 -31 19s-10 30 -10 52c0 32.667 6.33301 74.667 19 126s29.5 106.5 50.5 165.5s45 119.5 72 181.5s54.833 120.333 83.5 175c17.333 34 34.666 65.333 51.999 94s34.333 54.334 51 77.001c18 22 37.333 38.833 58 50.5
s39.667 17.5 57 17.5c19.333 0 35.333 -5.83301 48 -17.5s19 -28.167 19 -49.5c0 -16.667 -4.5 -35.334 -13.5 -56.001s-22.833 -41.167 -41.5 -61.5s-42.667 -40 -72 -59s-64.333 -35.5 -105 -49.5c-1.33301 -2.66699 -3.16602 -6 -5.49902 -10
s-4.16602 -7.33301 -5.49902 -10c-23.333 -52 -46.333 -107 -69 -165l-8 -20c28 14 56.667 31 86 51s57.5 41.5 84.5 64.5s52.667 46.833 77 71.5s45.5 48.667 63.5 72c7.33301 7.33301 13.333 11 18 11c10 0 15 -5.33301 15 -16c0 -3.33301 -1.33301 -7 -4 -11z
M-40.999 -55.001c0 17.333 -1.66504 33.333 -4.99805 48s-9.33301 28.667 -18 42c-16.667 -41.333 -31.334 -80 -44.001 -116s-23.334 -68.333 -32.001 -97s-15.167 -53 -19.5 -73s-6.5 -34.667 -6.5 -44c0 -7.33301 1 -11.333 3 -12c12.667 4 26.167 14.5 40.5 31.5
s27.5 37.333 39.5 61s22 49.5 30 77.5s12 55.333 12 82zM73.0029 356.999c32.667 12.667 60 26.834 82 42.501s39.833 31.5 53.5 47.5s23.5 31.5 29.5 46.5s9 28.5 9 40.5c0 10.667 -2.66699 18.667 -8 24s-11.666 8 -18.999 8c-12.667 0 -25.5 -7 -38.5 -21
s-25.833 -31.333 -38.5 -52s-24.834 -43.334 -36.501 -68.001z" />
    <glyph glyph-name="g" unicode="g" horiz-adv-x="442" 
d="M276 466l-47.4951 -150.501c-14.333 -46.333 -28.833 -90.833 -43.5 -133.5c21.333 8.66699 43.166 18.667 65.499 30s44.5 24.333 66.5 39s43.5 31.334 64.5 50.001s41.167 39.667 60.5 63c3.33301 4.66699 7.66602 7.33398 12.999 8.00098s10.166 0.166992 14.499 -1.5
s7.16602 -4.5 8.49902 -8.5s-0.666992 -8.66699 -6 -14c-24 -28.667 -48.333 -54 -73 -76s-49.667 -41.333 -75 -58s-50.5 -31 -75.5 -43s-49.833 -22.667 -74.5 -32l-10 -27l-31 -92.5c-11.333 -33 -23.833 -66 -37.5 -99s-28.334 -64.833 -44.001 -95.5
s-32.5 -58 -50.5 -82c-28 -37.333 -56.5 -64 -85.5 -80s-56.167 -24 -81.5 -24c-18 0 -34.667 3.5 -50 10.5s-28.5 16.833 -39.5 29.5s-19.667 27.667 -26 45s-9.5 36.333 -9.5 57c0 29.333 5.66699 57.5 17 84.5s26.833 52.5 46.5 76.5s42.5 46.5 68.5 67.5
s53.333 40.167 82 57.5s58 32.833 88 46.5s58.667 25.167 86 34.5c3.33301 8 6.33301 16 9 24s4.66699 16 6 24c-12.667 -12.667 -27.167 -23.167 -43.5 -31.5s-32.5 -12.5 -48.5 -12.5c-23.333 0 -40.833 8.16699 -52.5 24.5s-17.5 35.166 -17.5 56.499
c0 20 4.33301 41.667 13 65s21 45.333 37 66c17.333 22.667 38.333 41.667 63 57s52 23 82 23c14.667 0 29.667 -2 45 -6l5 19c2.66699 7.33301 10 11.833 22 13.5s24.333 2.5 37 2.5h17c3.33301 0 5 -2.33301 5 -7zM-51.9951 -203.001
c28 42.667 52.832 90.832 74.499 144.499s42.167 108.834 61.5 165.501c-38 -14 -77 -32 -117 -54s-76.5 -47.167 -109.5 -75.5s-60 -59.5 -81 -93.5s-31.5 -70 -31.5 -108c0 -27.333 6.16699 -49 18.5 -65s28.833 -24 49.5 -24c18.667 0 39.834 8.5 63.501 25.5
s47.5 45.167 71.5 84.5zM36.0039 187.997c10 0 20.166 3.50098 30.499 10.501s20 15.167 29 24.5s17 18.666 24 27.999s12.167 16.666 15.5 21.999l19.5 62l17.5 55l3 8l3 9c-2 0.666992 -4.16699 1 -6.5 1h-6.5c-10 0 -19.833 -2.16699 -29.5 -6.5
s-19 -9.66602 -28 -15.999s-17.5 -13.5 -25.5 -21.5s-15 -15.333 -21 -22c-15.333 -19.333 -27.333 -39.833 -36 -61.5s-13 -40.167 -13 -55.5c0 -11.333 1.83301 -20.333 5.5 -27s9.83398 -10 18.501 -10z" />
    <glyph glyph-name="h" unicode="h" horiz-adv-x="368" 
d="M79 369c18.667 25.333 37.5 46.5039 56.5 63.5039s39.167 25.5 60.5 25.5c15.333 0 28 -5 38 -15s15 -24 15 -42c0 -12.667 -2.66699 -26.334 -8 -41.001l-24 -56l-26.5 -59c-9.66699 -21.333 -18.667 -42.333 -27 -63s-15.166 -39.5 -20.499 -56.5s-8 -30.167 -8 -39.5
c0 -6 1.33301 -9 4 -9c8 0 18.667 6 32 18s27.666 27.333 42.999 46s31 39.167 47 61.5l45.5 65.5l38 58c11 17.333 18.833 30 23.5 38c1.33301 2.66699 3.5 5 6.5 7s5.83301 3 8.5 3c3.33301 0 6.83301 -1.66699 10.5 -5s5.5 -7.66602 5.5 -12.999
c0 -4.66699 -5.33301 -15.834 -16 -33.501s-24.5 -38.667 -41.5 -63s-36.167 -50 -57.5 -77s-42.5 -51.833 -63.5 -74.5s-41 -41.5 -60 -56.5s-34.5 -22.5 -46.5 -22.5c-14.667 0 -25.334 4.83301 -32.001 14.5s-10 21.5 -10 35.5c0 12 1.66699 25.167 5 39.5
s7.83301 29.333 13.5 45s11.834 31.667 18.501 48l20 48.5l10 23c7.33301 15.333 13.833 30.166 19.5 44.499s10.167 26.5 13.5 36.5s6 19.5 8 28.5s3 15.167 3 18.5c0 6 -1 9 -3 9c-4.66699 0 -11 -3.5 -19 -10.5s-16.167 -15.333 -24.5 -25l-25 -30.5
c-8.33301 -10.667 -14.833 -19.667 -19.5 -27c-7.33301 -9.33301 -16.166 -22.5 -26.499 -39.5l-30.5 -52.5l-26.5 -67c-9 -23.333 -17 -45.5 -24 -66.5s-12.833 -39.667 -17.5 -56s-7 -28.5 -7 -36.5v-4c0 -3.33301 -2 -5 -6 -5c-6 1.33301 -12.5 3.16602 -19.5 5.49902
s-13.5 5.33301 -19.5 9s-11 8.16699 -15 13.5s-6 11.666 -6 18.999v5.5c0 2.33301 0.333008 4.16602 1 5.49902c13.333 44 28.833 92.5 46.5 145.5s37.167 106.5 58.5 160.5c24 61.333 48.5 119.333 73.5 174s48.833 100 71.5 136c22 34.667 44.833 64.667 68.5 90
s47 46.333 70 63s45 29.167 66 37.5s40.167 12.5 57.5 12.5c24.667 0 44.334 -7.5 59.001 -22.5s22 -36.5 22 -64.5c0 -26 -7.16699 -56.667 -21.5 -92s-36.333 -69.166 -66 -101.499s-67.334 -60.333 -113.001 -84s-99.834 -36.5 -162.501 -38.5zM141 505.004
c50 5.33301 94.166 17.6689 132.499 37.002s70.333 42.166 96 68.499s45.167 54.833 58.5 85.5s20 60 20 88c0 14.667 -2.5 27.167 -7.5 37.5s-13.833 15.5 -26.5 15.5c-20 0 -39.667 -6.33301 -59 -19s-37.666 -29.167 -54.999 -49.5s-34 -42.833 -50 -67.5
s-30.667 -49.334 -44 -74.001l-36.5 -69.5c-11 -21.667 -20.5 -39.167 -28.5 -52.5z" />
    <glyph glyph-name="i" unicode="i" horiz-adv-x="213" 
d="M102 411c-3.33301 -6.66699 -8.50098 -18.1631 -15.501 -34.4961l-24 -57c-9 -21.667 -18 -44.834 -27 -69.501s-17.333 -48.834 -25 -72.501s-14 -45.667 -19 -66s-7.5 -36.833 -7.5 -49.5c0 -13.333 3 -20 9 -20s14 5 24 15s20.833 23.167 32.5 39.5
s24.167 34.833 37.5 55.5l39 62.5l36 61l30 51.5l21 37c4.66699 6.66699 10 10 16 10c4 0 7.33301 -1.83301 10 -5.5s4 -7.5 4 -11.5s-0.333008 -6.66699 -1 -8l-27 -50l-31.5 -59l-37.5 -65.5c-13.333 -22.333 -27.166 -44 -41.499 -65s-28.666 -39.5 -42.999 -55.5
s-28.5 -29 -42.5 -39s-27.333 -15 -40 -15c-17.333 0 -29.833 7.16699 -37.5 21.5s-11.5 33.166 -11.5 56.499c0 20.667 2.16699 43.667 6.5 69s10 50.833 17 76.5s14.5 50.667 22.5 75s16 46.166 24 65.499c3.33301 9.33301 6.66602 18 9.99902 26s6.66602 15 9.99902 21
c2.66699 5.33301 6.83398 9 12.501 11s12.167 3 19.5 3s15 -1 23 -3s17 -5.66699 27 -11zM85.999 514.004c12.667 0 22.334 -4.5 29.001 -13.5s10 -18.833 10 -29.5c0 -9.33301 -3.33301 -18.333 -10 -27s-16.334 -13 -29.001 -13c-15.333 0 -26.833 4.33301 -34.5 13
s-11.5 17.667 -11.5 27c0 10.667 3.83301 20.5 11.5 29.5s19.167 13.5 34.5 13.5z" />
    <glyph glyph-name="j" unicode="j" horiz-adv-x="244" 
d="M7 125c37.333 28 75.666 60.999 114.999 98.999s80 84.667 122 140c8 8 14.667 12 20 12c4 0 8 -2 12 -6s6 -8.66699 6 -14c0 -4 -1.66699 -8.66699 -5 -14c-50 -62.667 -100.667 -118.167 -152 -166.5s-97.666 -86.5 -138.999 -114.5
c-21.333 -59.333 -44 -115.833 -68 -169.5s-49.833 -100.667 -77.5 -141s-57.334 -72.5 -89.001 -96.5s-65.5 -36 -101.5 -36c-38.667 0 -68.334 11 -89.001 33s-31 48 -31 78c0 23.333 6.33301 46.166 19 68.499s29.167 44 49.5 65s43.333 40.833 69 59.5
s51.334 35.834 77.001 51.501s50.167 29.667 73.5 42l58 30.5l24 13l11 28c4 10 8.33301 22 13 36l17.5 53l24.5 77.5l34 110.5c2.66699 7.33301 5 14.833 7 22.5s4.33301 15.834 7 24.501c2 6.66699 8.83301 12 20.5 16s25.834 6 42.501 6h10c4 0 7.66699 -0.333008 11 -1
c3.33301 -2 5 -4.33301 5 -7zM-154 -17.001c-24 -12.667 -51.833 -28.334 -83.5 -47.001s-61.5 -39 -89.5 -61s-51.833 -45 -71.5 -69s-29.5 -47.667 -29.5 -71c0 -17.333 5.5 -31.666 16.5 -42.999s25.167 -17 42.5 -17c22 0 44 8.83301 66 26.5s43.5 41.5 64.5 71.5
s41.333 64.667 61 104s38.5 80.333 56.5 123zM77 533.999c13.333 0 23.333 -4.5 30 -13.5s10 -18.833 10 -29.5c0 -9.33301 -3.33301 -18.333 -10 -27s-16.667 -13 -30 -13c-15.333 0 -26.833 4.33301 -34.5 13s-11.5 17.667 -11.5 27c0 10.667 3.83301 20.5 11.5 29.5
s19.167 13.5 34.5 13.5z" />
    <glyph glyph-name="k" unicode="k" horiz-adv-x="383" 
d="M355 788c-19.333 0 -40 -10.167 -62 -30.5s-43.5 -46.166 -64.5 -77.499s-40.833 -65.5 -59.5 -102.5s-35 -72.167 -49 -105.5c42 13.333 79.167 30.833 111.5 52.5s59.5 45 81.5 70s38.667 50.667 50 77s17 51.166 17 74.499c0 12 -2 22 -6 30s-10.333 12 -19 12z
M-106 5c-0.666992 0.666992 -1 1.33594 -1 2.00293l50.5 180.5c17.667 60.333 36.5 119.166 56.5 176.499c16 46 33 90.333 51 133s37 82.167 57 118.5s41 69.166 63 98.499s45.333 54 70 74c19.333 15.333 37.333 26.333 54 33s32 10 46 10c22.667 0 40.167 -8 52.5 -24
s18.5 -37 18.5 -63c0 -24 -7.16699 -51 -21.5 -81s-34.833 -59.833 -61.5 -89.5s-58.834 -57 -96.501 -82s-79.834 -44.167 -126.501 -57.5l-17 -45.5l-9 -24.5c-2 -5.33301 -3.16699 -8.83301 -3.5 -10.5s-0.833008 -3.16699 -1.5 -4.5c10 11.333 21.333 22.5 34 33.5
s25.334 20.667 38.001 29s25.167 15.166 37.5 20.499s23.166 8 32.499 8c10 0 18.333 -3 25 -9s10 -14 10 -24c0 -12 -7.33301 -27.667 -22 -47s-32.667 -38.666 -54 -57.999s-43.666 -37 -66.999 -53s-44 -26.333 -62 -31c12.667 -13.333 22 -29.5 28 -48.5
s11 -37.5 15 -55.5c4.66699 -19.333 9.33398 -35.833 14.001 -49.5s12.334 -20.5 23.001 -20.5c12.667 0 29.667 10.667 51 32s44 48 68 80s48 66.667 72 104l65 104c6 7.33301 11.667 11 17 11s9.66602 -1.5 12.999 -4.5s5 -7.5 5 -13.5v-4.5
c0 -1.66699 -0.333008 -3.16699 -1 -4.5l-22 -34l-40 -63.5l-46 -69c-16 -23 -32.333 -45.167 -49 -66.5s-33 -40.333 -49 -57s-31.5 -30 -46.5 -40s-28.833 -15 -41.5 -15c-11.333 0 -22 1.66699 -32 5s-19.667 9.16602 -29 17.499s-18.5 20 -27.5 35
s-18.167 34.167 -27.5 57.5l-15.5 -51c-5 -16.667 -9.83301 -33.667 -14.5 -51c-4 -7.33301 -10.5 -12 -19.5 -14s-18.833 -3 -29.5 -3h-16.5c-5.66699 0 -10.167 0.333008 -13.5 1l-2 1zM218 408.002c-12 0 -26 -5.33203 -42 -15.999s-32 -23.667 -48 -39
s-30.833 -31.5 -44.5 -48.5s-23.834 -32.167 -30.501 -45.5c13.333 6 29 15.167 47 27.5s35.333 25.666 52 39.999s31.334 28.5 44.001 42.5s21 25.667 25 35c-0.666992 0.666992 -1.16699 1.5 -1.5 2.5s-0.833008 1.5 -1.5 1.5z" />
    <glyph glyph-name="l" unicode="l" horiz-adv-x="338" 
d="M339 748c-21.333 -11.333 -42.8311 -29.333 -64.498 -54s-42.5 -52.5 -62.5 -83.5s-38.833 -63.167 -56.5 -96.5s-32.834 -63.666 -45.501 -90.999c35.333 3.33301 67.666 10.5 96.999 21.5s55.666 24.333 78.999 40s43.5 33 60.5 52s31.333 38.333 43 58
s20.334 39 26.001 58s8.5 36.167 8.5 51.5c0 17.333 -3.33301 31.166 -10 41.499s-17 15.5 -31 15.5c-12 0 -26.667 -4.33301 -44 -13zM338.002 364c2 4 5.00098 7 9.00098 9s7.83301 2.66699 11.5 2s6.66699 -2.83398 9 -6.50098s3.16602 -8.83398 2.49902 -15.501
c-0.666992 -4 -8 -15.5 -22 -34.5s-32 -41.667 -54 -68s-47 -54.166 -75 -83.499s-56 -56.5 -84 -81.5s-54.667 -45.667 -80 -62s-47 -24.5 -65 -24.5c-22.667 0 -38.667 8.66699 -48 26s-14 38.666 -14 63.999c0 20 2.33301 42.333 7 67s10.5 49.5 17.5 74.5
s14.667 49 23 72s16.5 43.5 24.5 61.5c11.333 26 24.833 55 40.5 87s33.167 64.167 52.5 96.5s40 63.833 62 94.5s45.333 57.834 70 81.501s50.167 42.667 76.5 57s53.166 21.5 80.499 21.5c26 0 46 -8.83301 60 -26.5s21 -41.167 21 -70.5
c0 -18 -3.16699 -38.167 -9.5 -60.5s-16.166 -45 -29.499 -68s-30 -45.667 -50 -68s-43.667 -42.166 -71 -59.499s-58.5 -31.5 -93.5 -42.5s-74.167 -17.167 -117.5 -18.5c-8 -16 -18 -38.167 -30 -66.5s-23.833 -58 -35.5 -89s-21.5 -61 -29.5 -90s-12 -52.833 -12 -71.5
c0 -19.333 5.66699 -29 17 -29c10.667 0 25 6.16699 43 18.5s37.833 28.333 59.5 48s44.167 41.667 67.5 66l67 72l58.5 67c17.667 21 31.167 37.833 40.5 50.5z" />
    <glyph glyph-name="m" unicode="m" horiz-adv-x="519" 
d="M105 15c-0.666992 -0.666992 -1.32812 -1.00391 -1.99512 -1.00391c-12.667 6 -21.5 14.167 -26.5 24.5s-7.5 22.5 -7.5 36.5s2 29.333 6 46s9 33.834 15 51.501s12.667 35.334 20 53.001l22 52.5c11.333 24.667 20.833 47.334 28.5 68.001s11.5 36.334 11.5 47.001
c0 3.33301 -0.333008 5 -1 5c-5.33301 0 -14.333 -7 -27 -21s-26.834 -31.167 -42.501 -51.5s-31.334 -42.5 -47.001 -66.5s-28.834 -46 -39.501 -66l-13 -26l-41.5 -91c-12.333 -28 -18.5 -49.667 -18.5 -65v-2l1 -1c0 -3.33301 -2 -5 -6 -5c-6 1.33301 -12 3 -18 5
s-11.667 5 -17 9s-9.66602 8.83301 -12.999 14.5s-5 12.834 -5 21.501c0 14.667 2.16699 30.5 6.5 47.5s10 34.667 17 53s14.833 37.166 23.5 56.499l26 58l23.5 50c7.66699 16 14.167 31.333 19.5 46c11.333 28.667 17 51.667 17 69c0 2.66699 1.66699 4 5 4h16
c17.333 0 31 -1.66699 41 -5s15 -12.666 15 -27.999c0 -9.33301 -2.33301 -18.833 -7 -28.5l-12 -25.5c21.333 28 42.833 51.667 64.5 71s42.167 29 61.5 29c16 0 27.5 -5 34.5 -15s10.5 -22.667 10.5 -38c0 -7.33301 -0.166992 -14 -0.5 -20s-1.5 -13.333 -3.5 -22
c21.333 30 43 55.167 65 75.5s43.667 30.5 65 30.5c16.667 0 28.5 -5 35.5 -15s10.5 -22.667 10.5 -38c0 -14 -2.5 -30 -7.5 -48s-11.333 -36.833 -19 -56.5s-16.334 -39.5 -26.001 -59.5l-27.5 -58c-1.33301 -3.33301 -2.66602 -6.33301 -3.99902 -9
s-2.66602 -5.66699 -3.99902 -9l-25.5 -57.5c-7 -16.333 -10.5 -28.166 -10.5 -35.499c0 -4.66699 2 -7 6 -7c7.33301 0 17 5.5 29 16.5s25.167 25.333 39.5 43s29 37.667 44 60l43 66l37.5 62c11.333 19.667 20 35.834 26 48.501c2.66699 3.33301 5.16699 5.5 7.5 6.5
s5.16602 1.5 8.49902 1.5c4 0 7.83301 -1.16699 11.5 -3.5s5.5 -6.16602 5.5 -11.499v-3c0 -1.33301 -0.333008 -2.66602 -1 -3.99902l-32 -57.5c-12.667 -22.333 -26.834 -45.5 -42.501 -69.5s-32.167 -47.833 -49.5 -71.5s-34.833 -44.834 -52.5 -63.501
s-35.5 -33.834 -53.5 -45.501s-35 -17.5 -51 -17.5c-11.333 0 -21 4.16699 -29 12.5s-12 22.166 -12 41.499c0 12 2 25.667 6 41s9 31.666 15 48.999s13 35.166 21 53.499l24 54.5c12.667 28 23.667 53.833 33 77.5s14 41.167 14 52.5v4
c-6.66699 0 -17.834 -9.5 -33.501 -28.5s-32.834 -41.833 -51.501 -68.5s-36.667 -54.167 -54 -82.5s-31 -51.833 -41 -70.5l-11 -24c-12.667 -24.667 -22.5 -47 -29.5 -67s-10.833 -35.333 -11.5 -46v-5l-1 -2z" />
    <glyph glyph-name="n" unicode="n" horiz-adv-x="354" 
d="M15 436c0 0.666992 0.663086 0.998047 1.99609 0.998047c10 2 19.333 3 28 3c30 0 45 -11.667 45 -35c0 -8.66699 -4.33301 -23.667 -13 -45c20.667 28 42.334 51.833 65.001 71.5s43.667 29.5 63 29.5c16.667 0 28.667 -5 36 -15s11 -22.667 11 -38
c0 -13.333 -2.16699 -28.166 -6.5 -44.499s-10 -33.666 -17 -51.999s-14.833 -37 -23.5 -56l-26 -55.5l-7 -14c-12.667 -26 -23.334 -49 -32.001 -69s-13 -34 -13 -42c0 -4.66699 1.66699 -7 5 -7c8 0 18.167 5.5 30.5 16.5s25.5 25.333 39.5 43s28.667 37.667 44 60l44 66
c14 21.667 26.5 42.334 37.5 62.001l26.5 48.5c2.66699 6.66699 8 10 16 10c4 0 7.66699 -1.16699 11 -3.5s5 -6.16602 5 -11.499v-3c0 -1.33301 -0.333008 -2.66602 -1 -3.99902l-32 -58c-12.667 -22.667 -26.667 -46 -42 -70s-31.833 -48 -49.5 -72
s-35.5 -45.333 -53.5 -64s-35.833 -33.834 -53.5 -45.501s-34.5 -17.5 -50.5 -17.5c-11.333 0 -21.166 4.16699 -29.499 12.5s-12.5 22.166 -12.5 41.499c0 12 2 25.667 6 41s9.16699 31.666 15.5 48.999s13.333 35.166 21 53.499l23.5 54.5
c12.667 28 23.834 53.833 33.501 77.5s14.5 41.167 14.5 52.5v4c-7.33301 0 -19.166 -9.66699 -35.499 -29s-33.833 -42.5 -52.5 -69.5s-36.5 -54.5 -53.5 -82.5s-29.833 -51 -38.5 -69c-19.333 -38.667 -33.666 -70 -42.999 -94s-14 -42.667 -14 -56v-2l1 -1
c0 -2 -0.833008 -3.66699 -2.5 -5s-3.16699 -1.33301 -4.5 0l-8 3c-11.333 3.33301 -22 8.16602 -32 14.499s-15 16.5 -15 30.5c0 12.667 2 26.834 6 42.501s9.33301 32 16 49s14.167 34.5 22.5 52.5l25.5 53l29.5 61c9 19.333 16.5 37.666 22.5 54.999
c4 12.667 7.16699 24.834 9.5 36.501s3.5 22.834 3.5 33.501z" />
    <glyph glyph-name="o" unicode="o" horiz-adv-x="395" 
d="M395 364c2.66699 6 7.33301 9.00195 14 9.00195c4 0 7.83301 -1.83301 11.5 -5.5s5.5 -8.16699 5.5 -13.5c0 -2.66699 -0.666992 -6 -2 -10c-13.333 -30.667 -29.833 -58.834 -49.5 -84.501s-40.334 -47.667 -62.001 -66s-43.667 -32.666 -66 -42.999
s-42.833 -15.5 -61.5 -15.5h-9c-10 -16.667 -21 -33.167 -33 -49.5s-24.833 -30.833 -38.5 -43.5s-28.167 -22.834 -43.5 -30.501s-31 -11.5 -47 -11.5c-14.667 0 -27.167 3.33301 -37.5 10s-18.833 15.834 -25.5 27.501s-11.667 25.334 -15 41.001s-5 32.834 -5 51.501
c0 37.333 6.33301 76.833 19 118.5s29.334 80.167 50.001 115.5c19.333 32 40.666 58.167 63.999 78.5s47.333 30.5 72 30.5c4 0 9.33301 -0.666992 16 -2s13.5 -3.5 20.5 -6.5s13 -6.83301 18 -11.5s7.5 -10.334 7.5 -17.001c0 -4.66699 -1.33301 -8.83398 -4 -12.501
s-6.66699 -5.5 -12 -5.5h-6c-2.66699 0 -4.66699 0.333008 -6 1c-4 1.33301 -6.66699 2 -8 2c-20 0 -39.667 -10.5 -59 -31.5s-36.5 -47 -51.5 -78s-27.167 -64 -36.5 -99s-14 -66.167 -14 -93.5c0 -21.333 2.33301 -38.833 7 -52.5s12.334 -20.5 23.001 -20.5
c8.66699 0 18.334 3.5 29.001 10.5s21.167 15.667 31.5 26s19.833 21.166 28.5 32.499s15 21.333 19 30c-16.667 10 -28.834 24 -36.501 42s-11.5 37 -11.5 57c0 18 2.83301 37 8.5 57s13.5 38.333 23.5 55s21.5 30.5 34.5 41.5s26.833 16.5 41.5 16.5
c15.333 0 27.333 -7 36 -21s13 -31 13 -51c0 -19.333 -4.5 -44.333 -13.5 -75s-21.5 -61.334 -37.5 -92.001c29.333 2.66699 61.833 19.167 97.5 49.5s69.167 76.833 100.5 139.5zM125.999 242.002c0 -30.667 10.999 -50.002 32.999 -58.002
c6.66699 10.667 13.334 23 20.001 37s12.5 28.333 17.5 43s9 29 12 43s4.5 26.667 4.5 38c0 20 -4.66699 30 -14 30c-5.33301 0 -12 -3.16699 -20 -9.5s-16 -15.166 -24 -26.499s-14.833 -25.166 -20.5 -41.499s-8.5 -34.833 -8.5 -55.5z" />
    <glyph glyph-name="p" unicode="p" horiz-adv-x="378" 
d="M103 468c0.666992 0 0.996094 -0.331055 0.996094 -0.998047l-4 -17.5c-1.33301 -5.66699 -3.33301 -12.167 -6 -19.5c12.667 7.33301 26.834 13.5 42.501 18.5s32.167 7.5 49.5 7.5c12.667 0 23.834 -2.5 33.501 -7.5s17.667 -11.333 24 -19s11 -16.334 14 -26.001
s4.5 -19.5 4.5 -29.5c0 -13.333 -2 -27.333 -6 -42s-8.66699 -27.334 -14 -38.001c24.667 6 48.667 14.333 72 25s44.666 25.667 63.999 45c3.33301 3.33301 7 5 11 5s7.66699 -1.5 11 -4.5s5 -6.83301 5 -11.5c0 -4 -1.66699 -7.66699 -5 -11
c-28.667 -26 -59.5 -45.833 -92.5 -59.5s-64.167 -23.834 -93.5 -30.501c-23.333 -28 -47.166 -48.333 -71.499 -61s-45.166 -19 -62.499 -19c-18 0 -32 4.66699 -42 14c-14.667 -64.667 -31.667 -125.167 -51 -181.5s-40.5 -105.5 -63.5 -147.5s-47.333 -75 -73 -99
s-51.5 -36 -77.5 -36s-45.667 11 -59 33s-20 51 -20 87c0 28.667 4.16699 59.667 12.5 93s22.5 65.333 42.5 96s46.833 58.334 80.5 83.001s75.834 43 126.501 55l27 119l17 76l19 81c3.33301 13.333 11 21 23 23s25.667 3.33301 41 4h7c1.33301 0 2.83301 0.166992 4.5 0.5
s3.16699 0.5 4.5 0.5l2 -1zM-233.004 -237.998c12 0 23.999 5.66699 35.999 17s23.5 26.5 34.5 45.5s21.667 41 32 66s20.333 51 30 78s18.5 54.333 26.5 82l22 77.5c-42 -12 -77 -28.5 -105 -49.5s-50.667 -44.333 -68 -70s-29.666 -52.167 -36.999 -79.5
s-11 -53.333 -11 -78c0 -29.333 3.66699 -51.5 11 -66.5s17 -22.5 29 -22.5zM143.995 275.002c13.333 16.667 23.5 34.165 30.5 52.498s10.5 33.833 10.5 46.5c0 13.333 -2.66699 24 -8 32s-13.666 12 -24.999 12c-8 0 -18.333 -3.16699 -31 -9.5
s-26.334 -16.166 -41.001 -29.499c-5.33301 -23.333 -10 -44.666 -14 -63.999s-9 -41 -15 -65c14.667 8 35 14.667 61 20zM106.995 236c-14 -2 -25.8311 -6 -35.498 -12s-14.5 -10.667 -14.5 -14h6c7.33301 0 14.166 2 20.499 6s12.166 8.66699 17.499 14z" />
    <glyph glyph-name="q" unicode="q" horiz-adv-x="364" 
d="M279 456c-27.333 -66.667 -49.8281 -125.996 -67.4951 -177.996l-47.5 -145c20 16 39.667 33.667 59 53s37.5 39.333 54.5 60s32.833 41 47.5 61s27.667 39 39 57c2.66699 6 7.33398 9 14.001 9c4.66699 0 9 -1.5 13 -4.5s6 -7.16699 6 -12.5c0 -3.33301 -1 -7 -3 -11
c-16 -24.667 -33.333 -49.5 -52 -74.5s-38.334 -49 -59.001 -72s-41.834 -44.5 -63.501 -64.5s-43.5 -37.333 -65.5 -52c12 -12.667 21.333 -32.334 28 -59.001s10 -55.334 10 -86.001c0 -27.333 -2.33301 -55.5 -7 -84.5s-11.334 -55.5 -20.001 -79.5
s-19.334 -43.667 -32.001 -59s-27.334 -23 -44.001 -23c-17.333 0 -31.666 9.16699 -42.999 27.5s-17 46.5 -17 84.5c0 8.66699 1.16699 22 3.5 40s5.16602 38.667 8.49902 62s7.5 48.166 12.5 74.499s10.167 52.166 15.5 77.499s10.833 49.333 16.5 72s10.834 42 15.501 58
c-31.333 -20.667 -57 -31 -77 -31c-22 0 -38.667 8.16699 -50 24.5s-17 36.833 -17 61.5c0 19.333 3.83301 39.666 11.5 60.999s18.167 41.666 31.5 60.999c17.333 25.333 39 46.5 65 63.5s55 25.5 87 25.5c7.33301 0 14 -0.5 20 -1.5l20 -3.5
c1.33301 4.66699 4.16602 9.83398 8.49902 15.501s12.166 8.5 23.499 8.5c6 0 13.167 -0.666992 21.5 -2s18.5 -3.66602 30.5 -6.99902l1 -1zM118.005 241.004l34.4961 100c9 26 18.167 49.667 27.5 71h-4c-1.33301 0 -2.66602 0.166992 -3.99902 0.5s-2.33301 0.5 -3 0.5
c-18 0 -35.667 -6.5 -53 -19.5s-33 -28.667 -47 -47s-25.167 -38 -33.5 -59s-12.5 -39.5 -12.5 -55.5c0 -9.33301 1.83301 -17.333 5.5 -24s9.83398 -10 18.501 -10c4.66699 0 10.334 1.5 17.001 4.5s13.334 6.66699 20.001 11s13 9 19 14s11 9.5 15 13.5zM158.001 -51.9961
c0 22 -1.49902 42.333 -4.49902 61s-7.5 33 -13.5 43c-6 -30 -11.667 -60.5 -17 -91.5s-9.66602 -59.667 -12.999 -86s-6 -49.166 -8 -68.499s-3 -32.333 -3 -39c0 -11.333 0.666992 -19.333 2 -24s2.66602 -7 3.99902 -7c7.33301 0 14.166 6.66699 20.499 20
s12 30.166 17 50.499s8.83301 43 11.5 68s4 49.5 4 73.5z" />
    <glyph glyph-name="r" unicode="r" horiz-adv-x="320" 
d="M0 364c1.33301 2.66699 3.66797 6.83301 7.00098 12.5l10 16.5c-16 3.33301 -28 10.833 -36 22.5s-12 23.834 -12 36.501c0 10.667 2.16699 20.167 6.5 28.5s9.5 15.333 15.5 21s12.333 10 19 13s12.667 4.5 18 4.5c12.667 0 23.667 -5.33301 33 -16
s14 -25.334 14 -44.001c0 -5.33301 -0.666992 -11 -2 -17s-3.66602 -13 -6.99902 -21c8.66699 1.33301 18 2.33301 28 3s18.667 1 26 1c8.66699 0 17.5 -0.5 26.5 -1.5s17.167 -3 24.5 -6s13.333 -6.83301 18 -11.5s7 -11 7 -19c0 -8.66699 -2.83301 -21.5 -8.5 -38.5
s-12.834 -36.333 -21.501 -58l-28.5 -68.5l-28.5 -68c-8.66699 -21.333 -15.834 -40.666 -21.501 -57.999s-8.5 -30 -8.5 -38c0 -10 3.33301 -15 10 -15c9.33301 0 21 7 35 21s29 31.833 45 53.5s32.167 45.5 48.5 71.5l46 74.5c14.333 23.667 26.5 44.667 36.5 63
s16.667 30.833 20 37.5c1.33301 3.33301 3.5 5.83301 6.5 7.5s6.16699 2.5 9.5 2.5s6.83301 -1.33301 10.5 -4s5.5 -6.66699 5.5 -12c0 -1.33301 -4.5 -11 -13.5 -29s-20.833 -40.167 -35.5 -66.5s-31.667 -54.833 -51 -85.5s-39 -59 -59 -85s-40 -47.667 -60 -65
s-38 -26 -54 -26c-20.667 0 -35.334 7.33301 -44.001 22s-13 31.667 -13 51c0 18 2.66699 38.5 8 61.5s11.833 46.167 19.5 69.5s15.834 46 24.501 68s16.667 41.333 24 58s12.333 28.667 15 36s4 11.666 4 12.999c0 4 -2.83301 6.5 -8.5 7.5s-12.167 1.5 -19.5 1.5
s-14.5 -0.333008 -21.5 -1s-11.833 -1 -14.5 -1l-23 -39c-3.33301 -5.33301 -8.33301 -8 -15 -8c-4.66699 0 -9.16699 2 -13.5 6s-4.83301 10 -1.5 18zM3.00195 453.999c0 -7.33301 2.5 -14.001 7.5 -20.001s10.833 -9.66699 17.5 -11c1.33301 2.66699 2 4.66699 2 6
c0 8.66699 -2.16699 16.834 -6.5 24.501s-8.83301 11.5 -13.5 11.5c-2.66699 0 -4.5 -1.5 -5.5 -4.5s-1.5 -5.16699 -1.5 -6.5z" />
    <glyph glyph-name="s" unicode="s" horiz-adv-x="255" 
d="M278 342c-30 -30.667 -59.666 -55.002 -88.999 -73.002s-56 -33.667 -80 -47c1.33301 -11.333 2.33301 -22.666 3 -33.999s1 -22.333 1 -33c0 -29.333 -3.66699 -54.166 -11 -74.499s-16.833 -36.666 -28.5 -48.999s-24.667 -21.333 -39 -27s-28.5 -8.5 -42.5 -8.5
c-24 0 -44.667 7.16699 -62 21.5s-26 33.166 -26 56.499c0 21.333 9 44.166 27 68.499s49.667 48.833 95 73.5l7 3c-2 9.33301 -4.16699 18.5 -6.5 27.5s-4.83301 18.167 -7.5 27.5c-4 14.667 -7.66699 29.334 -11 44.001s-6 30 -8 46c-2 14.667 -3 30 -3 46
c0 17.333 2.5 32.833 7.5 46.5s11.333 25.167 19 34.5s16 16.333 25 21s17.833 7 26.5 7c10.667 0 19.667 -4 27 -12s11 -20 11 -36c0 -15.333 -5 -31 -15 -47s-20.667 -31 -32 -45c2 -10 5 -22.167 9 -36.5s8.66699 -29.5 14 -45.5l11 -38l79 43.5
c27.333 15 52.666 35.5 75.999 61.5c4.66699 4.66699 9 7 13 7c10.667 0 16 -5.33301 16 -16c0 -4.66699 -2 -9 -6 -13zM45.001 153.998c0 4.66699 -0.171875 9.83301 -0.504883 15.5s-1.16602 11.167 -2.49902 16.5c-11.333 -6 -23.166 -13 -35.499 -21
s-23.666 -16.833 -33.999 -26.5s-18.833 -20.167 -25.5 -31.5s-10 -23.333 -10 -36c0 -11.333 3.83301 -20.333 11.5 -27s17.834 -10 30.501 -10c11.333 0 21 3.5 29 10.5s14.833 16.333 20.5 28s9.83398 24.667 12.501 39s4 28.5 4 42.5zM54.9961 422.997
c5.33301 8 10.5 16.668 15.5 26.001s7.5 17.666 7.5 24.999c0 10.667 -1.33301 16 -4 16c-4 0 -7.33301 -3 -10 -9s-4.83398 -12.833 -6.50098 -20.5s-2.66699 -15.167 -3 -22.5s-0.166016 -12.333 0.500977 -15z" />
    <glyph glyph-name="t" unicode="t" horiz-adv-x="294" 
d="M483 800c4 9.33301 10.3389 13.9971 19.0059 13.9971c4 0 8 -2 12 -6s6 -9.66699 6 -17c-8.66699 -37.333 -24.334 -65.166 -47.001 -83.499s-48.5 -31 -77.5 -38s-59.667 -10.333 -92 -10s-62.5 0.833008 -90.5 1.5l-36 -74.5l-46.5 -101.5l-49 -115
c-16.333 -40 -31.166 -78.167 -44.499 -114.5s-24.166 -69.833 -32.499 -100.5s-12.5 -55 -12.5 -73c0 -24 8 -36 24 -36c13.333 0 28.166 6 44.499 18s33 27.333 50 46s34 39.834 51 63.501l49.5 71l45.5 67c14.333 21 26.833 38.5 37.5 52.5c4 4 8 6 12 6
c7.33301 0 12.166 -3.16699 14.499 -9.5s1.83301 -12.166 -1.5 -17.499l-40 -64c-15.333 -24 -32 -48.667 -50 -74s-36.833 -50.333 -56.5 -75s-39.334 -46.667 -59.001 -66s-39 -35 -58 -47s-37.167 -18 -54.5 -18c-23.333 0 -40.333 8.83301 -51 26.5
s-16 39.834 -16 66.501c0 34 6.16699 74.833 18.5 122.5s28.166 97.5 47.499 149.5c8 23.333 17.5 48.666 28.5 75.999l34.5 82l35.5 79l31.5 67c-40 4 -71.333 6.83301 -94 8.5s-43 2.5 -61 2.5c-27.333 0 -53.166 -1.83301 -77.499 -5.5s-46.666 -10 -66.999 -19
s-37.833 -21 -52.5 -36s-26 -33.833 -34 -56.5c-1.33301 -3.33301 -4 -6.16602 -8 -8.49902s-7.66699 -3.5 -11 -3.5c-5.33301 0 -9.66602 1.5 -12.999 4.5s-5 7.16699 -5 12.5c0 3.33301 0.666992 5.66602 2 6.99902h-1c10 28 23.833 51.167 41.5 69.5s38.167 33 61.5 44
s49 18.667 77 23s57 6.5 87 6.5c9.33301 0 19.166 -0.333008 29.499 -1s22.166 -1.5 35.499 -2.5s28.833 -2.33301 46.5 -4s39.167 -3.5 64.5 -5.5c0.666992 0.666992 1.16699 1.83398 1.5 3.50098s1.16602 3.16699 2.49902 4.5c0.666992 2 1.66699 3.66699 3 5c0 2 1 4 3 6
l12.5 23c4.33301 8 9.16602 15.333 14.499 22s11.166 12.167 17.499 16.5s13.166 6.5 20.499 6.5s14.333 -0.833008 21 -2.5s13.334 -3.83398 20.001 -6.50098c3.33301 -2 4.33301 -4.33301 3 -7l-15 -32l-23 -45c23.333 -1.33301 48.5 -2 75.5 -2s52.5 3 76.5 9
s45.167 16.333 63.5 31s30.166 35.667 35.499 63v1z" />
    <glyph glyph-name="u" unicode="u" horiz-adv-x="431" 
d="M305 468c0.666992 -0.666992 1.00098 -1.3418 1.00098 -2.00879c-4.66699 -10 -11 -24.333 -19 -43s-16.5 -40 -25.5 -64l-27.5 -76c-9.33301 -26.667 -17.833 -52.667 -25.5 -78s-13.834 -49 -18.501 -71s-7 -40 -7 -54c0 -16.667 3.66699 -25 11 -25
c8 0 19.167 7 33.5 21s30 31.667 47 53s34.333 44.833 52 70.5l49 73c15 23 27.5 42.833 37.5 59.5s16 27.334 18 32.001c2.66699 6 8 9 16 9c4 0 7.83301 -1.5 11.5 -4.5s5.5 -7.16699 5.5 -12.5c0 -2.66699 -0.666992 -6 -2 -10
c-2.66699 -5.33301 -9.66699 -17.666 -21 -36.999s-25.333 -41.666 -42 -66.999l-55.5 -80.5c-20.333 -28.333 -40.833 -54.333 -61.5 -78s-40.5 -43.167 -59.5 -58.5s-35.833 -23 -50.5 -23c-10 0 -18.167 2.33301 -24.5 7s-11.5 10.834 -15.5 18.501
s-6.66699 16.5 -8 26.5s-2 20.333 -2 31c0 28.667 3.16699 57.834 9.5 87.501s14.166 60.167 23.499 91.5l-44 -72.5c-16 -26.333 -32.333 -50.833 -49 -73.5s-32.834 -41.667 -48.501 -57s-29.834 -23 -42.501 -23c-13.333 0 -22.666 4.83301 -27.999 14.5
s-8 22.834 -8 39.501c0 18 1.83301 38 5.5 60s8.66699 44.833 15 68.5s13.333 47.834 21 72.501s15.5 48.334 23.5 71.001l19.5 55l17.5 46c0 2 1.33301 3 4 3h16c4.66699 0 9.83398 -0.166992 15.501 -0.5s11 -1.33301 16 -3s9.33301 -4.16699 13 -7.5s6.16699 -8 7.5 -14
l-44.5 -113.5l-38.5 -107c-11.333 -33 -20.5 -61.833 -27.5 -86.5s-10.5 -42 -10.5 -52c4.66699 0 12.334 6.33301 23.001 19s23 29.334 37 50.001s28.833 44.167 44.5 70.5l47 81l45 82.5c14.333 27.333 26.5 52.333 36.5 75c4 5.33301 8.83301 8.5 14.5 9.5
s12.5 1.5 20.5 1.5h45l2 -1z" />
    <glyph glyph-name="v" unicode="v" horiz-adv-x="392" 
d="M119 456c-4.66699 -8.66699 -11.001 -22.8311 -19.001 -42.498l-26.5 -67l-29.5 -79.5c-10 -28 -19.167 -55 -27.5 -81s-15.166 -49.667 -20.499 -71s-8 -38 -8 -50c0 -8 1 -12 3 -12c4 0 10.167 4.33301 18.5 13s17.833 19.834 28.5 33.501s22 29 34 46l35 50.5
l30.5 46.5l21.5 34.5c-8 26 -10.833 52 -8.5 78s7.66602 49.667 15.999 71s19 38.833 32 52.5s26.167 20.834 39.5 21.501c11.333 0.666992 20.5 -4.16602 27.5 -14.499s10.5 -24.166 10.5 -41.499c0 -20 -5.5 -41 -16.5 -63s-23.5 -44.667 -37.5 -68l-14 -23l-11 -18
c4.66699 -13.333 10.667 -23.5 18 -30.5s15 -10.5 23 -10.5c14 0 28.5 5.16699 43.5 15.5s29.5 22.666 43.5 36.999s26.833 29 38.5 44l28.5 36.5c4.66699 4.66699 9 7.16699 13 7.5s7.16699 -0.666992 9.5 -3s3.83301 -5.5 4.5 -9.5s0 -8.33301 -2 -13
c-7.33301 -12 -17.666 -26.5 -30.999 -43.5s-28.5 -33.167 -45.5 -48.5s-34.667 -28.5 -53 -39.5s-36.166 -16.5 -53.499 -16.5c-10.667 0 -21.667 3 -33 9s-21 15.667 -29 29l-6 -11l-8 -13l-40.5 -61.5c-15.667 -23.667 -32.334 -46.334 -50.001 -68.001
s-35 -40.167 -52 -55.5s-32.167 -23 -45.5 -23c-13.333 1.33301 -23 8.16602 -29 20.499s-9 28.166 -9 47.499c0 21.333 2.5 45.666 7.5 72.999s11.167 54.5 18.5 81.5s14.833 52.667 22.5 77l19.5 60.5c4.66699 14 9 27.667 13 41s8.5 24.833 13.5 34.5
s10.833 17.167 17.5 22.5s14.667 7 24 5c8.66699 -0.666992 17.5 -1.83398 26.5 -3.50098s17.167 -4.16699 24.5 -7.5zM185.999 317.003l19 31.998c6.66699 11.333 12.834 22.833 18.501 34.5s10.167 22.667 13.5 33s5 19.5 5 27.5c0 9.33301 -1.66699 14 -5 14
c-8 0 -15.333 -6.33301 -22 -19s-12.334 -27.167 -17.001 -43.5s-8.16699 -32.166 -10.5 -47.499s-2.83301 -25.666 -1.5 -30.999z" />
    <glyph glyph-name="w" unicode="w" horiz-adv-x="583" 
d="M298 413c-10 -20.667 -21.334 -46.4961 -34.001 -77.4961s-24.667 -62.167 -36 -93.5s-20.833 -60.666 -28.5 -87.999s-11.5 -48 -11.5 -62c0 -8.66699 1.33301 -13 4 -13c6.66699 0 21 13.667 43 41s50 66 84 116c-6 14.667 -9 32.667 -9 54c0 18.667 2.5 37.667 7.5 57
s12 37 21 53s19.333 29.167 31 39.5s24.167 15.5 37.5 15.5s22.833 -3.33301 28.5 -10s8.5 -15.334 8.5 -26.001c0 -12 -2.5 -25.833 -7.5 -41.5s-11.667 -31.834 -20 -48.501s-17.666 -33.167 -27.999 -49.5s-20.5 -30.833 -30.5 -43.5
c9.33301 -14.667 22.666 -22 39.999 -22c15.333 0 32.333 5.66699 51 17s36.834 25 54.501 41s33.667 32.5 48 49.5s24.833 31.167 31.5 42.5c2.66699 4.66699 6 7.5 10 8.5s7.66699 0.666992 11 -1s5.66602 -4.5 6.99902 -8.5s0.666016 -8 -2.00098 -12
c-8 -14 -19.667 -30.5 -35 -49.5s-32.833 -37.333 -52.5 -55s-40.167 -32.5 -61.5 -44.5s-42 -18 -62 -18c-10.667 0 -20.334 1.33301 -29.001 4s-17.334 8.66699 -26.001 18c-11.333 -13.333 -24.166 -29.833 -38.499 -49.5s-29.333 -38.5 -45 -56.5
s-31.334 -33.5 -47.001 -46.5s-30.167 -19.5 -43.5 -19.5s-22.5 5.5 -27.5 16.5s-7.5 24.167 -7.5 39.5c0 14 1.16699 28.167 3.5 42.5s4.83301 28.166 7.5 41.499c-12 -20.667 -24.833 -41.334 -38.5 -62.001s-28 -39.334 -43 -56.001s-30.333 -30.334 -46 -41.001
s-31.167 -16 -46.5 -16c-11.333 0 -21.333 5 -30 15s-13 26.667 -13 50c0 18.667 2.5 41 7.5 67s11.167 52.833 18.5 80.5s15 55 23 82s15.667 50.5 23 70.5l28 82c3.33301 6 9.5 10.5 18.5 13.5s19.167 4.5 30.5 4.5s21.666 -1 30.999 -3
c4.66699 -1.33301 5.66699 -3.33301 3 -6h1l-53.5 -145.5c-16.333 -45 -30.166 -85 -41.499 -120s-20.166 -64.667 -26.499 -89s-9.5 -42.166 -9.5 -53.499c0 -7.33301 2 -11 6 -11c6.66699 0 15.834 5.33301 27.501 16s24.5 25.167 38.5 43.5s28.667 39.5 44 63.5
s30.333 49.5 45 76.5s28.5 54.667 41.5 83s24.167 55.833 33.5 82.5c2.66699 6.66699 8.33398 11.5 17.001 14.5s17.834 4.66699 27.501 5s18.167 -0.166992 25.5 -1.5s11 -3.33301 11 -6zM343.999 273.004l19.002 32.501l21.5 40c7 13.667 13 26.667 18 39
s7.5 22.166 7.5 29.499c0 4.66699 -1 7 -3 7c-8 0 -15.833 -4.33301 -23.5 -13s-14.334 -20 -20.001 -34s-10.334 -29.833 -14.001 -47.5s-5.5 -35.5 -5.5 -53.5z" />
    <glyph glyph-name="x" unicode="x" horiz-adv-x="528" 
d="M-105 83c16 -20.667 34.334 -31.0029 55.001 -31.0029c15.333 0 31 5.33301 47 16s31.333 24.667 46 42s28.334 37.166 41.001 59.499s23.834 44.833 33.501 67.5s17.167 44.834 22.5 66.501s8 40.834 8 57.501c0 22.667 -3.33301 38.334 -10 47.001s-14 13 -22 13
c-13.333 0 -26.833 -6.5 -40.5 -19.5s-25.834 -25.5 -36.501 -37.5c-2 -3.33301 -4.16699 -6.16602 -6.5 -8.49902l-6.5 -6.5c-4 -4.66699 -8 -7.5 -12 -8.5s-7.33301 -0.666992 -10 1s-4.5 4.5 -5.5 8.5s-0.5 8.66699 1.5 14c46 64 92 96 138 96
c19.333 0 36.833 -5.5 52.5 -16.5s26.5 -26.5 32.5 -46.5c26 27.333 50.167 46.666 72.5 57.999s43.166 17 62.499 17c10.667 0 21.5 -1.83301 32.5 -5.5s21 -8.66699 30 -15s16.5 -13.833 22.5 -22.5s9 -17.667 9 -27c0 -4.66699 -1.33301 -8.16699 -4 -10.5
s-5.66699 -3.5 -9 -3.5c-8.66699 0 -13.667 3.66699 -15 11v1c-1.33301 9.33301 -5.83301 17 -13.5 23s-17.5 9 -29.5 9c-13.333 0 -28.5 -4.5 -45.5 -13.5s-34.5 -23.333 -52.5 -43s-35.667 -44.5 -53 -74.5s-32.666 -66 -45.999 -108
c-3.33301 -9.33301 -5.83301 -22.5 -7.5 -39.5s-1.5 -33.833 0.5 -50.5s6.5 -31.167 13.5 -43.5s17.5 -18.5 31.5 -18.5c18 0 39.667 9.66699 65 29s52 44.333 80 75s56 65.167 84 103.5s53.667 76.833 77 115.5c2.66699 6 7 9 13 9c5.33301 0 9.5 -1.83301 12.5 -5.5
s4.5 -7.16699 4.5 -10.5s-0.333008 -5.66602 -1 -6.99902c-23.333 -40 -49.333 -80.667 -78 -122s-58.334 -78.666 -89.001 -111.999s-61.5 -60.5 -92.5 -81.5s-60.5 -31.5 -88.5 -31.5c-21.333 0 -40.333 9 -57 27s-29.334 45.667 -38.001 83
c-28 -36.667 -54.833 -62.334 -80.5 -77.001s-50.167 -22 -73.5 -22c-15.333 0 -30.166 3.5 -44.499 10.5s-27.5 17.167 -39.5 30.5c-3.33301 3.33301 -4.83301 7.33301 -4.5 12s1.66602 8.66699 3.99902 12s5.33301 5.5 9 6.5s7.16699 0.166992 10.5 -2.5z" />
    <glyph glyph-name="y" unicode="y" horiz-adv-x="481" 
d="M311 467l-26 -88l-20.5 -72.5l-18.5 -63c-6 -19.667 -12.333 -39.167 -19 -58.5c45.333 16 89.5 37.5 132.5 64.5s83.5 65.167 121.5 114.5c6 5.33301 12.333 7.16602 19 5.49902s10 -6.5 10 -14.5c0 -3.33301 -1.66699 -7.33301 -5 -12
c-22 -27.333 -44.833 -51.333 -68.5 -72s-48 -39 -73 -55s-50.167 -29.833 -75.5 -41.5s-50.333 -22.167 -75 -31.5l-33.5 -90.5c-12.333 -32.333 -25.5 -64.666 -39.5 -96.999s-28.167 -63.333 -42.5 -93s-28.5 -56.167 -42.5 -79.5c-16 -25.333 -33 -47.5 -51 -66.5
s-35.833 -35.167 -53.5 -48.5s-34.667 -23.333 -51 -30s-31.166 -10 -44.499 -10c-37.333 0 -67 14.5 -89 43.5s-33 65.833 -33 110.5c0 28 5.5 58.167 16.5 90.5s28.833 63.833 53.5 94.5c22 26 46 48.667 72 68s53.333 36.166 82 50.499s58.167 26.833 88.5 37.5
s60.166 20.334 89.499 29.001l33 106.5c10.667 33.667 19.667 63.167 27 88.5l-46 -66.5c-17.333 -24.333 -35.166 -47.166 -53.499 -68.499s-36.333 -39.166 -54 -53.499s-32.834 -21.5 -45.501 -21.5c-10.667 0.666992 -18.334 6 -23.001 16s-7 22.333 -7 37
c0 25.333 3 52 9 80s14.333 59.333 25 94l13 41.5l15 45.5c6 7.33301 12.667 12.333 20 15s15.333 4 24 4h11.5c5 0 9.83301 -0.333008 14.5 -1s8.66699 -1.83398 12 -3.50098s5 -3.83398 5 -6.50098c-12 -26 -23.333 -52.833 -34 -80.5s-20.167 -53.5 -28.5 -77.5
s-15 -45.167 -20 -63.5s-7.5 -31.5 -7.5 -39.5c0 -3.33301 -0.333008 -5 -1 -5c4 0 10.5 4.5 19.5 13.5s19.667 20.833 32 35.5s25.333 31.5 39 50.5l40.5 58.5c13.333 20 25.833 40 37.5 60s21.5 38.333 29.5 55c2.66699 5.33301 7.83398 8.83301 15.501 10.5
s16 2.5 25 2.5s17.5 -0.666992 25.5 -2l18 -3c3.33301 0 5 -2.33301 5 -7zM-18 -199l73.002 148.999c25.333 54 47.333 109.333 66 166c-28 -8.66699 -55.167 -17.834 -81.5 -27.501s-51.833 -21 -76.5 -34s-48.167 -28.333 -70.5 -46s-43.5 -38.5 -63.5 -62.5
c-18.667 -25.333 -33.834 -53.166 -45.501 -83.499s-17.5 -58.166 -17.5 -83.499c0 -30.667 6.66699 -57 20 -79s32.333 -33 57 -33c18.667 0 40.167 10.167 64.5 30.5s49.166 54.833 74.499 103.5z" />
    <glyph glyph-name="z" unicode="z" horiz-adv-x="396" 
d="M89 205c3.33301 0 8 2.33203 14 6.99902s13 10.667 21 18c-8.66699 -0.666992 -16.667 -2.66699 -24 -6s-11 -9.66602 -11 -18.999zM396 363.999c2.66699 6 7.33301 8.99316 14 8.99316c4 0 7.5 -1.5 10.5 -4.5s4.5 -6.83301 4.5 -11.5
c0 -2.66699 -0.333008 -4.66699 -1 -6c-8 -17.333 -19 -34.833 -33 -52.5s-29.5 -34.834 -46.5 -51.501s-35.167 -32.667 -54.5 -48s-38 -29 -56 -41c-6.66699 -43.333 -18.334 -83.5 -35.001 -120.5s-36.167 -70.5 -58.5 -100.5s-47 -56.667 -74 -80
s-54.5 -42.833 -82.5 -58.5s-55.5 -27.5 -82.5 -35.5s-51.833 -12 -74.5 -12c-34 0 -61 6.83301 -81 20.5s-30 33.834 -30 60.501c0 32.667 10 62.334 30 89.001s45.5 50.834 76.5 72.501s65.5 41.167 103.5 58.5s74.667 33 110 47l18 8l57.5 26
c19 8.66699 36.167 17.334 51.5 26.001c0.666992 2.66699 1 6.33398 1 11.001c0 5.33301 -0.5 11 -1.5 17s-2.16699 12 -3.5 18c-7.33301 -8 -16.833 -15.333 -28.5 -22s-23.167 -10 -34.5 -10c-12 0 -20.833 4 -26.5 12s-8.5 15.667 -8.5 23
c0 8.66699 2.16699 16.5 6.5 23.5s10 12.667 17 17s14.833 7.66602 23.5 9.99902s17.334 3.5 26.001 3.5c4.66699 0 10.334 -0.666992 17.001 -2c12 18.667 22.333 39.334 31 62.001s13 41.667 13 57c0 18 -3.66699 32.833 -11 44.5s-17.666 17.5 -30.999 17.5
c-14.667 0 -32.334 -6.83301 -53.001 -20.5s-43.667 -37.167 -69 -70.5c-4 -4 -8.5 -6.66699 -13.5 -8s-9.16699 -1.33301 -12.5 0s-5.83301 3.83301 -7.5 7.5s-0.833984 8.5 2.49902 14.5c30 38.667 59.5 66.5 88.5 83.5s55.167 25.5 78.5 25.5
c26 0 46.667 -8.16699 62 -24.5s23 -38.5 23 -66.5c0 -19.333 -4.5 -40.666 -13.5 -63.999s-24.167 -47.666 -45.5 -72.999c9.33301 -5.33301 17.166 -12 23.499 -20s10.5 -17.667 12.5 -29c37.333 24.667 69.833 50.334 97.5 77.001s50.834 57 69.501 91z
M-179.001 -212.008c24.667 0 53.0029 6.33203 85.0029 18.999s63.667 32.167 95 58.5s60.666 59.833 87.999 100.5s48.666 89 63.999 145l-46 -20c-6.66699 -3.33301 -13.5 -6.5 -20.5 -9.5l-21.5 -9.5c-34.667 -14 -70.667 -29.5 -108 -46.5s-71.333 -35.167 -102 -54.5
s-56 -40.166 -76 -62.499s-30 -45.833 -30 -70.5c0 -16.667 6.66699 -29.167 20 -37.5s30.666 -12.5 51.999 -12.5z" />
    <glyph glyph-name="braceleft" unicode="{" horiz-adv-x="316" 
d="M153 43c4.66699 0 8.83008 -2 12.4971 -6s5.5 -8.66699 5.5 -14c0 -4.66699 -2 -8.5 -6 -11.5s-8.83301 -5.5 -14.5 -7.5s-11.5 -3.33301 -17.5 -4s-11.333 -1 -16 -1c-19.333 0 -35.833 4.83301 -49.5 14.5s-20.5 25.167 -20.5 46.5c0 6.66699 1.83301 15.667 5.5 27
s8.16699 23.5 13.5 36.5s11.333 26.167 18 39.5l19 37l8 16l17.5 35c5 10 9.16699 19.333 12.5 28c-4 -1.33301 -7.66699 -2 -11 -2c-7.33301 0 -13.5 2.33301 -18.5 7s-7.5 10.334 -7.5 17.001c0 9.33301 2.83301 17.5 8.5 24.5s14.834 10.5 27.501 10.5
c0.666992 0 0.833984 0.166992 0.500977 0.5s0.166992 0.166016 1.5 -0.500977l8 22l9 24c7.33301 22 15.833 45.833 25.5 71.5s20.834 49.667 33.501 72s27.167 41 43.5 56s34.5 22.5 54.5 22.5c2.66699 0 7.5 -0.666992 14.5 -2s14.167 -3.5 21.5 -6.5
s13.833 -6.5 19.5 -10.5s8.5 -8.66699 8.5 -14c0 -4 -1.5 -8 -4.5 -12s-6.83301 -6 -11.5 -6c-6 0 -12.333 1.66699 -19 5c-3.33301 1.33301 -6.33301 2.66602 -9 3.99902s-5 2 -7 2c-12 0 -23.833 -6.83301 -35.5 -20.5s-22.5 -30.5 -32.5 -50.5s-19.333 -41.5 -28 -64.5
s-16 -43.833 -22 -62.5l-10 -33.5c-3.33301 -11 -6 -18.833 -8 -23.5c0.666992 -2 1.5 -4.66699 2.5 -8s1.5 -6.66602 1.5 -9.99902c0 -16.667 -5.5 -37.667 -16.5 -63s-22.5 -50 -34.5 -74l-9 -19l-25.5 -53c-7.66699 -16 -11.5 -28.333 -11.5 -37c0 -8 4.33301 -12 13 -12
c8 0 20 3.33301 36 10h4z" />
    <glyph glyph-name="bar" unicode="|" horiz-adv-x="172" 
d="M57 690c0 6 2.33301 11 7 15s11 6 19 6c5.33301 0 10 -2 14 -6s6 -9 6 -15v-784c0 -5.33301 -2 -10.333 -6 -15s-8.66699 -7 -14 -7c-8 0 -14.333 2.33301 -19 7s-7 9.66699 -7 15v784z" />
    <glyph glyph-name="braceright" unicode="}" horiz-adv-x="240" 
d="M86 564c-2.66699 -1.33301 -4.99707 -2.00391 -6.99707 -2.00391c-4.66699 0 -8 1.66699 -10 5s-3 7.33301 -3 12s2.16699 8.5 6.5 11.5s9.5 5.5 15.5 7.5s12.167 3.5 18.5 4.5s11.5 1.5 15.5 1.5c18.667 0 34.5 -4.83301 47.5 -14.5s19.5 -24.834 19.5 -45.501
c0 -7.33301 -1.83301 -16.666 -5.5 -27.999s-8.16699 -23.166 -13.5 -35.499s-11.333 -25.166 -18 -38.499s-13.334 -25.666 -20.001 -36.999c-0.666992 -1.33301 -1.5 -2.83301 -2.5 -4.5s-1.5 -2.83398 -1.5 -3.50098l-20 -40.5
c-6.66699 -13.667 -11.667 -25.167 -15 -34.5c1.33301 0.666992 3.16602 1.33398 5.49902 2.00098s4.16602 1 5.49902 1c8.66699 0 15.834 -3 21.501 -9s8.5 -13 8.5 -21c-2.66699 -9.33301 -7.83398 -16.333 -15.501 -21s-16.5 -7.33398 -26.5 -8.00098
c-3.33301 -6 -6.33301 -13.667 -9 -23s-5.66699 -18.666 -9 -27.999l-24.5 -70.5c-9 -25 -19.667 -48.167 -32 -69.5s-26.166 -39.166 -41.499 -53.499s-33 -21.5 -53 -21.5c-2.66699 0 -7.5 0.666992 -14.5 2s-14.333 3.5 -22 6.5s-14.5 6.66699 -20.5 11
s-9 9.16602 -9 14.499c0 10.667 5.33301 16 16 16c5.33301 0 10.333 -1.66699 15 -5c1.33301 -1.33301 2.66602 -2 3.99902 -2c6.66699 -3.33301 11.667 -5 15 -5c12.667 0 24.834 7 36.501 21s22.5 31.333 32.5 52s19.167 42.834 27.5 66.501s15.5 45.167 21.5 64.5
l9.5 28.5c3 9 5.5 15.833 7.5 20.5c-3.33301 5.33301 -5 12 -5 20c0 8.66699 1.66699 18.5 5 29.5s7.5 22.667 12.5 35s10.833 24.833 17.5 37.5l19 37l31 63.5c9.33301 19.667 14 35.167 14 46.5c0 8.66699 -5 13 -15 13c-8.66699 0 -20.334 -3 -35.001 -9z" />
    <glyph glyph-name="asciitilde" unicode="~" horiz-adv-x="486" 
d="M73 126c-5.33301 -2 -9.66699 -3.00195 -13 -3.00195c-9.33301 0 -14 5.66699 -14 17c12 41.333 28.5 69.166 49.5 83.499s44.167 21.5 69.5 21.5c12.667 0 25.5 -1.16699 38.5 -3.5s26.167 -5.16602 39.5 -8.49902s27.5 -6.16602 42.5 -8.49902s28.833 -3.5 41.5 -3.5
c15.333 0 30 2.16699 44 6.5s27 12.166 39 23.499h-1c1.33301 1.33301 3 2.83301 5 4.5s4.33301 2.5 7 2.5c3.33301 0 6.83301 -1.66699 10.5 -5s5.5 -6.66602 5.5 -9.99902c0 -1.33301 -0.333008 -2.83301 -1 -4.5s-1.33398 -3.16699 -2.00098 -4.5
c-19.333 -31.333 -39.833 -52.833 -61.5 -64.5s-44.834 -17.5 -69.501 -17.5c-11.333 0 -22.666 0.666992 -33.999 2s-22.666 3 -33.999 5s-22.5 3.83301 -33.5 5.5s-21.5 2.5 -31.5 2.5c-17.333 0 -34 -2.66699 -50 -8s-31.333 -15.666 -46 -30.999z" />
    <glyph glyph-name="quotesinglbase" unicode="&#x201a;" horiz-adv-x="275" 
d="M66 10c6.66699 2 14.0029 4.50098 22.0029 7.50098s15.833 6.83301 23.5 11.5s14.667 10.334 21 17.001s11.166 14.667 14.499 24c-14 5.33301 -24 12.166 -30 20.499s-9 17.833 -9 28.5c0 11.333 3.5 21.166 10.5 29.499s17.167 12.5 30.5 12.5
c16 0 28.333 -5.16699 37 -15.5s13 -23.166 13 -38.499c0 -11.333 -2.5 -23.5 -7.5 -36.5s-12.333 -25.5 -22 -37.5s-21.834 -22.833 -36.501 -32.5s-31.334 -17.167 -50.001 -22.5c-7.33301 0 -13.5 2 -18.5 6s-7.5 8 -7.5 12c0 3.33301 2.66699 7.66602 8 12.999z" />
    <glyph glyph-name="quotedblbase" unicode="&#x201e;" horiz-adv-x="378" 
d="M37 10c6.66699 2 14.001 4.50098 22.001 7.50098s15.833 6.83301 23.5 11.5s14.834 10.334 21.501 17.001s11.667 14.667 15 24c-14.667 5.33301 -25 12.166 -31 20.499s-9 17.833 -9 28.5c0 11.333 3.66699 21.166 11 29.499s17.666 12.5 30.999 12.5
c16 0 28.333 -5.16699 37 -15.5s13 -23.166 13 -38.499c0 -11.333 -2.5 -23.5 -7.5 -36.5s-12.333 -25.5 -22 -37.5s-21.834 -22.833 -36.501 -32.5s-31.667 -17.167 -51 -22.5c-7.33301 0 -13.5 2 -18.5 6s-7.5 8 -7.5 12c0 3.33301 2.66699 7.66602 8 12.999z
M179.001 10.001c6.66699 2 14.001 4.5 22.001 7.5s15.833 6.83301 23.5 11.5s14.667 10.334 21 17.001s11.166 14.667 14.499 24c-14 5.33301 -24 12.166 -30 20.499s-9 17.833 -9 28.5c0 11.333 3.66699 21.166 11 29.499s17.333 12.5 30 12.5
c16.667 0 29.334 -5.16699 38.001 -15.5s13 -23.166 13 -38.499c0 -11.333 -2.5 -23.5 -7.5 -36.5s-12.333 -25.5 -22 -37.5s-21.834 -22.833 -36.501 -32.5s-31.667 -17.167 -51 -22.5c-7.33301 0 -13.333 2 -18 6s-7 8 -7 12s2.33301 8.33301 7 13z" />
    <glyph glyph-name="a.001" horiz-adv-x="414" 
d="M788 340c2 -2.66699 2.49707 -5.82715 1.49707 -9.49414s-2.83301 -6.83398 -5.5 -9.50098s-6 -4 -10 -4s-8 2.33301 -12 7c-26.667 35.333 -53 57.166 -79 65.499s-51.667 7.5 -77 -2.5s-50.833 -27 -76.5 -51s-51.167 -51 -76.5 -81l-76.5 -92.5
c-25.667 -31.667 -51.667 -60.167 -78 -85.5s-52.833 -45.333 -79.5 -60s-53.667 -20 -81 -16c-8 1.33301 -14.5 5 -19.5 11s-9 13.167 -12 21.5s-5 17.333 -6 27s-1.5 18.5 -1.5 26.5c0 19.333 1.5 39 4.5 59s6.16699 36.667 9.5 50c-14 -12 -29 -22.333 -45 -31
s-32 -13 -48 -13c-24 0 -41.833 8.16699 -53.5 24.5s-17.5 35.166 -17.5 56.499c0 20 4.5 41.667 13.5 65s21.5 45.333 37.5 66c17.333 22.667 38.333 41.667 63 57s51.667 23 81 23c7.33301 0 14.833 -0.666992 22.5 -2l22.5 -4c4 13.333 10 22.5 18 27.5
s18.667 7.5 32 7.5c5.33301 0 11 -0.333008 17 -1s12.333 -1.66699 19 -3h6l2 -1l2 -4c0.666992 -0.666992 1 -1.33398 1 -2.00098c-2.66699 -6 -7.5 -17.833 -14.5 -35.5l-24.5 -63l-29 -78.5c-10 -28 -19.167 -55.333 -27.5 -82s-15.166 -51.667 -20.499 -75
s-8 -42 -8 -56c0 -6.66699 0.5 -12 1.5 -16s3.5 -6 7.5 -6c19.333 0 39.833 8.66699 61.5 26s44.334 39 68.001 65s47.834 54.667 72.501 86s50.167 61.166 76.5 89.499s53.333 53.166 81 74.499s55.667 35 84 41s57 2.33301 86 -11s58.167 -40.333 87.5 -81z
M35.9971 188.007c10 0 20.166 3.50293 30.499 10.5029s20 15.167 29 24.5s17 18.666 24 27.999s12.167 16.666 15.5 21.999l9 30.5l10 33.5c3.33301 11.333 6.83301 22.333 10.5 33l9.5 28l3 9c-2.66699 0.666992 -5.16699 1 -7.5 1h-6.5c-10 0 -19.833 -2 -29.5 -6
s-19 -9.33301 -28 -16s-17.333 -13.834 -25 -21.501s-14.5 -15.167 -20.5 -22.5c-16 -19.333 -28 -39.833 -36 -61.5s-12 -40.167 -12 -55.5c0 -11.333 1.83301 -20.333 5.5 -27s9.83398 -10 18.501 -10z" />
    <glyph glyph-name="b.001" horiz-adv-x="400" 
d="M89 382l-1.00293 -0.00390625c-6 -13.333 -11.667 -28.333 -17 -45s-10 -33 -14 -49l-4 -15c15.333 10.667 33 19.5 53 26.5s39 10.5 57 10.5c20.667 0 38.834 -5.5 54.501 -16.5s26.167 -28.833 31.5 -53.5c28 15.333 55.5 33.666 82.5 54.999s49.833 44.333 68.5 69
c1.33301 3.33301 3.5 5.5 6.5 6.5s5.5 1.5 7.5 1.5c4.66699 0 8.66699 -1.5 12 -4.5s5 -6.83301 5 -11.5c0 -3.33301 -1 -6 -3 -8h1c-21.333 -32.667 -47.833 -60.667 -79.5 -84s-64.5 -43.333 -98.5 -60c-2 -22 -8.66699 -45 -20 -69s-25.5 -46 -42.5 -66
s-36 -36.667 -57 -50s-41.833 -20 -62.5 -20s-39.334 5.33301 -56.001 16s-25 24.667 -25 42c0 14 7.66699 28.667 23 44s33.166 30 53.499 44s40.833 26.333 61.5 37s36.334 18 47.001 22v14c0 21.333 -3.66699 36.5 -11 45.5s-16.666 13.5 -27.999 13.5
c-14.667 0 -30.5 -5.16699 -47.5 -15.5s-31.5 -22.166 -43.5 -35.499v1l-8 -55l-7 -45c-1.33301 -2.66699 -3 -4 -5 -4c-6.66699 0.666992 -14.167 2 -22.5 4s-16.166 4.66699 -23.499 8s-13.5 7.33301 -18.5 12s-7.5 10.667 -7.5 18c6 36 13.167 70.5 21.5 103.5
s17.5 64.833 27.5 95.5l6 17c-55.333 2 -102.333 8.83301 -141 20.5s-70.5 27 -95.5 46s-43.833 41 -56.5 66s-20.334 51.833 -23.001 80.5c-39.333 -23.333 -76.833 -41.666 -112.5 -54.999s-67.5 -20 -95.5 -20c-34 0 -61.167 9.5 -81.5 28.5s-30.5 50.5 -30.5 94.5
c0 4.66699 1.5 8.33398 4.5 11.001s6.33301 4 10 4s7.16699 -1.16699 10.5 -3.5s5 -6.16602 5 -11.499c0 -32.667 7.33301 -56.334 22 -71.001s34.667 -22 60 -22c28 0 59.667 6.83301 95 20.5s72.666 32.834 111.999 57.501c1.33301 28.667 6.83301 58.334 16.5 89.001
s22.167 61 37.5 91s32.833 59 52.5 87s40.5 54 62.5 78c40 44 75.833 76 107.5 96s56.5 30 74.5 30c15.333 0 26.833 -4.5 34.5 -13.5s11.5 -21.167 11.5 -36.5c0 -18.667 -6.66699 -42.5 -20 -71.5s-34 -61.833 -62 -98.5
c-40.667 -53.333 -85.834 -102.666 -135.501 -147.999s-99.5 -84.666 -149.5 -117.999c0.666992 -27.333 6.33398 -53 17.001 -77s27.667 -45 51 -63s53.833 -32.5 91.5 -43.5s83.834 -16.833 138.501 -17.5c7.33301 20 15 39.333 23 58s16.667 36.667 26 54
c12 22.667 28.333 49.667 49 81s44.334 61.166 71.001 89.499s55.334 52.5 86.001 72.5s61.667 30 93 30c16 0 29.667 -2.5 41 -7.5s20.5 -11.667 27.5 -20s12 -18 15 -29s4.5 -22.833 4.5 -35.5c0 -34.667 -8 -70.5 -24 -107.5s-39.5 -71 -70.5 -102
s-69.167 -56.833 -114.5 -77.5s-97 -32.334 -155 -35.001zM374.997 760.996c-17.333 0 -34.9951 -6.16797 -52.9951 -18.501s-36 -28.5 -54 -48.5s-35.5 -42.667 -52.5 -68s-32.833 -50.666 -47.5 -75.999s-27.834 -49.833 -39.501 -73.5s-20.834 -44.167 -27.501 -61.5
c49.333 4.66699 93.666 16 132.999 34s72.666 40.167 99.999 66.5s48.166 56 62.499 89s21.5 66.5 21.5 100.5c0 15.333 -3 28.5 -9 39.5s-17.333 16.5 -34 16.5zM-19.998 895.995c26 34 45.167 64 57.5 90s18.5 46.667 18.5 62c0 13.333 -5.33301 20 -16 20
c-15.333 0 -36.5 -9.16699 -63.5 -27.5s-59.167 -47.833 -96.5 -88.5c-20 -21.333 -38.833 -44.333 -56.5 -69s-33.5 -50.167 -47.5 -76.5s-25.833 -52.833 -35.5 -79.5s-16.167 -52.667 -19.5 -78c46 31.333 91.333 68 136 110s85.667 87.667 123 137zM43.002 45.9951
c8 0 17.502 2.33301 28.502 7s22.333 11.834 34 21.501s22.667 21.834 33 36.501s19.166 32 26.499 52c-25.333 -10.667 -47 -21.334 -65 -32.001s-32.5 -20.834 -43.5 -30.501s-19 -18.167 -24 -25.5s-7.5 -13.333 -7.5 -18c0 -3.33301 1.66699 -6 5 -8
s7.66602 -3 12.999 -3z" />
    <glyph glyph-name="c.001" horiz-adv-x="371" 
d="M725 478c2 -2.66699 2.50195 -5.83105 1.50195 -9.49805s-2.83301 -6.83398 -5.5 -9.50098s-6 -4 -10 -4s-8 2.33301 -12 7c-20.667 26 -43.5 39.333 -68.5 40s-51.5 -7.33301 -79.5 -24s-57 -39.834 -87 -69.501s-60.333 -62 -91 -97l-91.5 -106.5
c-30.333 -36 -59.833 -68.833 -88.5 -98.5s-56.167 -53.834 -82.5 -72.501s-50.5 -28 -72.5 -28c-17.333 0 -32.333 3.83301 -45 11.5s-23 18 -31 31s-14 28.5 -18 46.5s-6 37 -6 57c0 36.667 5.5 73.834 16.5 111.501s26.167 71.167 45.5 100.5
c15.333 23.333 33.333 42.333 54 57s43 22 67 22c16.667 -1.33301 31.5 -7.33301 44.5 -18s19.5 -27.667 19.5 -51c0 -14.667 -2.83301 -30 -8.5 -46s-15.167 -32 -28.5 -48c-4 -4.66699 -8.33301 -7 -13 -7c-4 0 -7.16699 1.5 -9.5 4.5s-3.5 6.5 -3.5 10.5
c0 3.33301 1.33301 6.33301 4 9h-1c9.33301 14.667 16.333 28.5 21 41.5s7 23.833 7 32.5c0 20.667 -8.33301 31 -25 31c-15.333 0 -30.5 -9.5 -45.5 -28.5s-28.5 -42.5 -40.5 -70.5s-21.667 -58.5 -29 -91.5s-11 -63.5 -11 -91.5c0 -22.667 3.66699 -40.5 11 -53.5
s17.666 -20.167 30.999 -21.5c22 2 45.833 13.333 71.5 34s52.667 46.667 81 78s57.666 65.5 87.999 102.5l91.5 108c30.667 35 61.5 66.833 92.5 95.5s61.333 49.667 91 63s58.5 17 86.5 11s54.333 -25.667 79 -59z" />
    <glyph glyph-name="d.001" horiz-adv-x="389" 
d="M417 348l-37.9961 -63.001l-46.5 -75c-16.333 -26 -33.333 -51.333 -51 -76s-34.667 -47 -51 -67s-31.833 -36 -46.5 -48s-27.334 -18 -38.001 -18c-10 0 -18.5 3 -25.5 9s-12.5 13.667 -16.5 23s-6.83301 19.833 -8.5 31.5s-2.5 23.167 -2.5 34.5c0 16 1 32.333 3 49
s4.33301 31.667 7 45c-15.333 -12.667 -29.666 -21.334 -42.999 -26.001s-26 -7 -38 -7c-25.333 0 -43 7.33301 -53 22s-15 31.667 -15 51c0 12 1.5 24.333 4.5 37s6.83301 24.834 11.5 36.501s9.66699 22.5 15 32.5s10.333 18.333 15 25c17.333 24 38.833 45 64.5 63
s54.167 27 85.5 27c13.333 0 26.666 -1.66699 39.999 -5c1.33301 4 3 8 5 12l6 12c-56 2 -103.667 8.66699 -143 20s-71.666 26.5 -96.999 45.5s-44.333 41 -57 66s-20.334 52.167 -23.001 81.5c-39.333 -23.333 -76.833 -41.666 -112.5 -54.999s-67.5 -20 -95.5 -20
c-34 0 -61.167 9.5 -81.5 28.5s-30.5 50.5 -30.5 94.5c0.666992 6 2.66699 10.5 6 13.5s6.83301 4.5 10.5 4.5s6.83398 -1.5 9.50098 -4.5s4 -7.5 4 -13.5c0 -32.667 7.33301 -56.334 22 -71.001s34.667 -22 60 -22c28 0 59.667 6.83301 95 20.5
s72.666 32.834 111.999 57.501c1.33301 28.667 6.83301 58.334 16.5 89.001s22.167 61 37.5 91s32.833 59 52.5 87s40.5 54 62.5 78c40 44 75.833 76 107.5 96s56.5 30 74.5 30c15.333 0 26.833 -4.5 34.5 -13.5s11.5 -21.167 11.5 -36.5
c0 -18.667 -6.66699 -42.5 -20 -71.5s-34 -61.833 -62 -98.5c-40.667 -53.333 -85.834 -102.666 -135.501 -147.999s-99.5 -84.666 -149.5 -117.999c0.666992 -27.333 6.33398 -53.166 17.001 -77.499s28 -45.5 52 -63.5s55.333 -32.333 94 -43s85.667 -16.334 141 -17.001
c25.333 54 52.166 104.333 80.499 151s57.333 87.167 87 121.5s59.667 61.333 90 81s60.166 29.5 89.499 29.5c27.333 0 48.333 -9 63 -27s22 -41.667 22 -71c0 -27.333 -7.83301 -58.333 -23.5 -93s-39 -67.834 -70 -99.501s-69.167 -59 -114.5 -82s-98 -36.167 -158 -39.5
c-6.66699 -11.333 -14.167 -26.833 -22.5 -46.5s-17 -41.834 -26 -66.501s-18 -50.667 -27 -78s-17 -53.833 -24 -79.5s-12.667 -49.5 -17 -71.5s-6.5 -40 -6.5 -54c0 -15.333 2.66699 -23 8 -23s13 5.16699 23 15.5s21.5 24 34.5 41s27 36.5 42 58.5l44.5 67.5l43 67.5
l37 59c3.33301 4 7 6.33301 11 7s7.66699 0 11 -2s5.66602 -4.83301 6.99902 -8.5s1 -7.83398 -1 -12.501zM505.004 808.999c-17.333 -14 -35.0029 -31.498 -53.0029 -52.498s-35.833 -44.5 -53.5 -70.5s-35 -54.333 -52 -85s-33.167 -62.334 -48.5 -95.001
c54.667 6 101.834 19.667 141.501 41s72.5 46.166 98.5 74.499s45.167 58 57.5 89s18.5 58.5 18.5 82.5c0 19.333 -3.16699 32.833 -9.5 40.5s-14.166 11.5 -23.499 11.5c-11.333 0 -23.666 -3.5 -36.999 -10.5s-26.333 -15.5 -39 -25.5zM171.001 988.001
c26 34 45.167 64 57.5 90s18.5 46.667 18.5 62c0 13.333 -5.33301 20 -16 20c-15.333 0 -36.5 -9.16699 -63.5 -27.5s-59.167 -47.833 -96.5 -88.5c-20 -21.333 -38.833 -44.333 -56.5 -69s-33.5 -50.167 -47.5 -76.5s-25.833 -52.833 -35.5 -79.5
s-16.167 -52.667 -19.5 -78c46 31.333 91.167 68 135.5 110s85.5 87.667 123.5 137zM140.001 321.001c5.33301 16.667 10.8369 32.999 16.5039 48.999s12.5 31.667 20.5 47c-2.66699 0.666992 -5.66699 1 -9 1c-18.667 0 -36.334 -7.16699 -53.001 -21.5
s-31.334 -31.666 -44.001 -51.999s-22.834 -41.5 -30.501 -63.5s-11.5 -40.667 -11.5 -56c0 -16.667 4.66699 -25 14 -25s21.166 5.5 35.499 16.5s27.166 24.167 38.499 39.5c4.66699 10.667 8.83398 21.667 12.501 33z" />
    <glyph glyph-name="e.001" 
d="M370 364c12.667 15.333 27.833 32.166 45.5 50.499s36.667 35.833 57 52.5s41.5 31.167 63.5 43.5s44 20.333 66 24s43.333 1.33398 64 -6.99902s40 -24.833 58 -49.5c2 -2.66699 2.5 -5.83398 1.5 -9.50098s-2.83301 -6.83398 -5.5 -9.50098s-6 -4 -10 -4
s-8 2.33301 -12 7c-14.667 20 -30.834 32.667 -48.501 38s-36 5.83301 -55 1.5s-38.167 -12.666 -57.5 -24.999s-37.833 -26.166 -55.5 -41.499s-34.167 -31.166 -49.5 -47.499s-28 -30.833 -38 -43.5l-102 -125.5c-32.667 -40.333 -63.834 -76.333 -93.501 -108
s-58 -57 -85 -76s-52.167 -28.5 -75.5 -28.5c-17.333 0 -32.333 3.83301 -45 11.5s-23 18 -31 31s-14 28.5 -18 46.5s-6 37 -6 57c0 35.333 5.5 72 16.5 110s26.167 72 45.5 102c15.333 23.333 32.333 42.333 51 57s39 22 61 22c20.667 0 36.167 -6.33301 46.5 -19
s15.5 -29.334 15.5 -50.001c0 -16.667 -3.66699 -34.667 -11 -54s-18.166 -37.666 -32.499 -54.999s-31.666 -32.5 -51.999 -45.5s-43.5 -21.5 -69.5 -25.5c-3.33301 -13.333 -5.33301 -25.833 -6 -37.5s-1 -23.167 -1 -34.5c0 -23.333 3.66699 -42.333 11 -57
s17.666 -21.334 30.999 -20.001c32.667 7.33301 64.334 23.5 95.001 48.5s59.667 53.5 87 85.5s53 64.833 77 98.5s46.333 62.5 67 86.5zM18.999 231c18 9.33301 33.3311 20.4971 45.998 33.4971s23 26.167 31 39.5s13.833 26.5 17.5 39.5s5.5 24.167 5.5 33.5
c0 10.667 -2.83301 16.334 -8.5 17.001s-11.167 -1.33301 -16.5 -6c-8 -7.33301 -15.667 -17.166 -23 -29.499s-14.166 -25.666 -20.499 -39.999s-12.166 -29.333 -17.499 -45z" />
    <glyph glyph-name="f.001" horiz-adv-x="276" 
d="M305 348c-48 -62.667 -101.831 -118.665 -161.498 -167.998s-123.5 -87.666 -191.5 -114.999c14 -16.667 23.833 -35.667 29.5 -57s8.5 -44.333 8.5 -69c0 -33.333 -5.16699 -67.5 -15.5 -102.5s-23.833 -66.667 -40.5 -95s-35.334 -51.5 -56.001 -69.5
s-41.334 -27 -62.001 -27c-14 0 -24.333 6.33301 -31 19s-10 30 -10 52c0 28.667 5 64.5 15 107.5s23.333 89.667 40 140s36 102.5 58 156.5s45.333 106.667 70 158c-44 -11.333 -83.333 -16.333 -118 -15s-65 7.16602 -91 17.499s-48.167 24.666 -66.5 42.999
s-33.166 39.166 -44.499 62.499c-28.667 -36 -57.334 -66.5 -86.001 -91.5s-56.334 -42.167 -83.001 -51.5c-32 -12 -60.833 -12.667 -86.5 -2s-46.167 36.334 -61.5 77.001c-2 4 -2.16699 7.83301 -0.5 11.5s4.33398 6.16699 8.00098 7.5s7.33398 1.5 11.001 0.5
s6.5 -4.16699 8.5 -9.5c11.333 -30.667 26.833 -50.167 46.5 -58.5s41.167 -7.83301 64.5 1.5c25.333 9.33301 52.333 26.833 81 52.5s57 57.167 85 94.5c-9.33301 27.333 -14.833 57 -16.5 89s-0.666992 64.667 3 98s9.66699 66.5 18 99.5s18.5 64.5 30.5 94.5
c22 55.333 44.333 98 67 128s42.334 48.333 59.001 55c14 5.33301 26.167 5.33301 36.5 0s18.166 -15.666 23.499 -30.999c7.33301 -17.333 9.83301 -42 7.5 -74s-10.166 -70 -23.499 -114c-19.333 -64.667 -44 -127.167 -74 -187.5s-62.667 -114.5 -98 -162.5
c9.33301 -24 22.666 -45 39.999 -63s39 -31.5 65 -40.5s56.833 -12.833 92.5 -11.5s76.5 9 122.5 23l11.5 21.5c3.66699 7 7.16699 14.167 10.5 21.5c17.333 34 34.666 65.333 51.999 94s34.333 54.334 51 77.001c18 22 37.333 38.833 58 50.5s39.667 17.5 57 17.5
c19.333 0 35.333 -5.83301 48 -17.5s19 -28.167 19 -49.5c0 -16.667 -4.5 -35.334 -13.5 -56.001s-22.833 -41.167 -41.5 -61.5s-42.5 -40 -71.5 -59s-63.5 -35.5 -103.5 -49.5c-1.33301 0 -2.33301 -0.333008 -3 -1c-1.33301 -2.66699 -3 -5.83398 -5 -9.50098
s-3.66699 -6.83398 -5 -9.50098c-23.333 -52 -46.333 -107 -69 -165l-8 -20c28 14 56.667 31 86 51s57.5 41.5 84.5 64.5s52.667 46.833 77 71.5s45.5 48.667 63.5 72c7.33301 7.33301 13.333 11 18 11c10 0 15 -5.33301 15 -16c0 -3.33301 -1.33301 -7 -4 -11z
M-312.998 789.002c-10.667 -27.333 -20.001 -55.8311 -28.001 -85.498s-14 -59.334 -18 -89.001s-5.66699 -58.667 -5 -87s4 -54.833 10 -79.5c32 46 61.5 96.667 88.5 152s49.167 112.666 66.5 171.999c12.667 41.333 20.167 76 22.5 104s0.833008 49.667 -4.5 65
c-5.33301 12.667 -12.666 17 -21.999 13c-14 -5.33301 -30.5 -21.5 -49.5 -48.5s-39.167 -65.833 -60.5 -116.5zM-40.999 -54.9961c0 17.333 -1.66504 33.333 -4.99805 48s-9.33301 28.667 -18 42c-16.667 -41.333 -31.334 -80 -44.001 -116s-23.334 -68.333 -32.001 -97
s-15.167 -53 -19.5 -73s-6.5 -34.667 -6.5 -44c0 -7.33301 1 -11.333 3 -12c12.667 4 26.167 14.5 40.5 31.5s27.5 37.333 39.5 61s22 49.5 30 77.5s12 55.333 12 82zM73.0029 357.004c32.667 12.667 60 26.834 82 42.501s39.833 31.5 53.5 47.5s23.5 31.5 29.5 46.5
s9 28.5 9 40.5c0 10.667 -2.66699 18.667 -8 24s-11.666 8 -18.999 8c-12.667 0 -25.5 -7 -38.5 -21s-25.833 -31.333 -38.5 -52s-24.834 -43.334 -36.501 -68.001z" />
    <glyph glyph-name="g.001" horiz-adv-x="442" 
d="M276 466l-49 -154.498l-45 -137.5c27.333 12.667 53.5 29 78.5 49s49.833 41.833 74.5 65.5l73.5 73c24.333 25 49.666 48.667 75.999 71s53.5 42.166 81.5 59.499s58 30.333 90 39c25.333 6.66699 49.833 6.5 73.5 -0.5s45.834 -24.5 66.501 -52.5
c2 -2.66699 2.5 -5.83398 1.5 -9.50098s-2.83301 -6.83398 -5.5 -9.50098s-6 -4 -10 -4s-8 2.33301 -12 7c-16.667 22.667 -34.5 36.5 -53.5 41.5s-38.167 4.5 -57.5 -1.5c-30 -9.33301 -59.167 -23.666 -87.5 -42.999s-56 -41.166 -83 -65.499s-53.667 -49.833 -80 -76.5
l-78.5 -76c-26 -24 -52 -45.167 -78 -63.5s-52 -31.166 -78 -38.499l-37 -108c-12.667 -36.667 -26 -72.334 -40 -107.001s-29 -67.5 -45 -98.5s-33 -58.5 -51 -82.5c-28 -37.333 -56.5 -64 -85.5 -80s-56.167 -24 -81.5 -24c-18 0 -34.667 3.5 -50 10.5
s-28.5 16.833 -39.5 29.5s-19.667 27.667 -26 45s-9.5 36.333 -9.5 57c0 29.333 5.66699 57.5 17 84.5s26.833 52.5 46.5 76.5s42.5 46.5 68.5 67.5s53.333 40.167 82 57.5s58 32.833 88 46.5s58.667 25.167 86 34.5c3.33301 8 6.33301 16 9 24s4.66699 16 6 24
c-12.667 -12.667 -27.167 -23.167 -43.5 -31.5s-32.5 -12.5 -48.5 -12.5c-23.333 0 -40.833 8.16699 -52.5 24.5s-17.5 35.166 -17.5 56.499c0 20 4.33301 41.667 13 65s21 45.333 37 66c17.333 22.667 38.333 41.667 63 57s52 23 82 23c14.667 0 29.667 -2 45 -6l5 19
c2.66699 7.33301 10 11.833 22 13.5s24.333 2.5 37 2.5h17c3.33301 0 5 -2.33301 5 -7zM-52 -202.998c28 42.667 52.832 90.832 74.499 144.499s42.167 108.834 61.5 165.501c-38 -14 -77 -32 -117 -54s-76.5 -47.167 -109.5 -75.5s-60 -59.5 -81 -93.5
s-31.5 -70 -31.5 -108c0 -27.333 6.16699 -49 18.5 -65s28.833 -24 49.5 -24c18.667 0 39.834 8.5 63.501 25.5s47.5 45.167 71.5 84.5zM35.999 188c10 0 20.166 3.50098 30.499 10.501s20 15.167 29 24.5s17 18.666 24 27.999s12.167 16.666 15.5 21.999l19.5 62l17.5 55
l3 8l3 9c-2 0.666992 -4.16699 1 -6.5 1h-6.5c-10 0 -19.833 -2.16699 -29.5 -6.5s-19 -9.66602 -28 -15.999s-17.5 -13.5 -25.5 -21.5s-15 -15.333 -21 -22c-15.333 -19.333 -27.333 -39.833 -36 -61.5s-13 -40.167 -13 -55.5c0 -11.333 1.83301 -20.333 5.5 -27
s9.83398 -10 18.501 -10z" />
    <glyph glyph-name="h.001" horiz-adv-x="368" 
d="M79 369c18.667 25.333 37.501 46.498 56.501 63.498s39.167 25.5 60.5 25.5c15.333 0 28 -5 38 -15s15 -24 15 -42c0 -12.667 -2.66699 -26.334 -8 -41.001l-24 -56l-26.5 -59c-9.66699 -21.333 -18.667 -42.333 -27 -63s-15.166 -39.5 -20.499 -56.5
s-8 -30.167 -8 -39.5c0 -6 1.33301 -9 4 -9c8 0 18.667 6 32 18s27.666 27.333 42.999 46s31 39.167 47 61.5l45.5 65.5l38 58c11 17.333 18.833 30 23.5 38c1.33301 2.66699 3.5 5 6.5 7s5.83301 3 8.5 3c3.33301 0 6.83301 -1.66699 10.5 -5s5.5 -7.66602 5.5 -12.999
c0 -4.66699 -5.33301 -15.834 -16 -33.501s-24.5 -38.667 -41.5 -63s-36.167 -50 -57.5 -77s-42.5 -51.833 -63.5 -74.5s-41 -41.5 -60 -56.5s-34.5 -22.5 -46.5 -22.5c-14.667 0 -25.334 4.83301 -32.001 14.5s-10 21.5 -10 35.5c0 12 1.66699 25.167 5 39.5
s7.83301 29.333 13.5 45s11.834 31.667 18.501 48l20 48.5l10 23c7.33301 15.333 13.833 30.166 19.5 44.499s10.167 26.5 13.5 36.5s6 19.5 8 28.5s3 15.167 3 18.5c0 6 -1 9 -3 9c-4.66699 0 -11 -3.5 -19 -10.5s-16.167 -15.333 -24.5 -25l-25 -30.5
c-8.33301 -10.667 -14.833 -19.667 -19.5 -27c-7.33301 -9.33301 -16.166 -22.5 -26.499 -39.5l-30.5 -52.5l-26.5 -67c-9 -23.333 -17 -45.5 -24 -66.5s-12.833 -39.667 -17.5 -56s-7 -28.5 -7 -36.5v-4c0 -3.33301 -2 -5 -6 -5c-6 1.33301 -12.5 3.16602 -19.5 5.49902
s-13.5 5.33301 -19.5 9s-11 8.16699 -15 13.5s-6 11.666 -6 18.999v5.5c0 2.33301 0.333008 4.16602 1 5.49902c13.333 44 28.833 92.5 46.5 145.5s37.167 106.5 58.5 160.5l22.5 55.5l22.5 53.5c-55.333 2 -102.666 8.66699 -141.999 20s-71.666 26.5 -96.999 45.5
s-44.333 41.167 -57 66.5s-20.334 52.333 -23.001 81c-39.333 -23.333 -76.833 -41.666 -112.5 -54.999s-67.5 -20 -95.5 -20c-34 0 -61.167 9.5 -81.5 28.5s-30.5 50.5 -30.5 94.5c0 4.66699 1.5 8.33398 4.5 11.001s6.33301 4 10 4s7.16699 -1.16699 10.5 -3.5
s5 -6.16602 5 -11.499c0 -32.667 7.33301 -56.334 22 -71.001s34.667 -22 60 -22c28 0 59.667 6.83301 95 20.5s72.666 32.834 111.999 57.501c1.33301 28.667 6.83301 58.334 16.5 89.001s22.167 61 37.5 91s32.833 59 52.5 87s40.5 54 62.5 78c40 44 75.833 76 107.5 96
s56.5 30 74.5 30c15.333 0 26.833 -4.5 34.5 -13.5s11.5 -21.167 11.5 -36.5c0 -18.667 -6.66699 -42.5 -20 -71.5s-34 -61.833 -62 -98.5c-40.667 -53.333 -85.834 -102.666 -135.501 -147.999s-99.5 -84.666 -149.5 -117.999
c0.666992 -27.333 6.33398 -53.166 17.001 -77.499s28 -45.5 52 -63.5s55.167 -32.333 93.5 -43s85.166 -16.334 140.499 -17.001c15.333 34 30.333 65.5 45 94.5s28.667 54.5 42 76.5c22 34.667 44.833 64.667 68.5 90s47 46.333 70 63s45 29.167 66 37.5
s40.167 12.5 57.5 12.5c24.667 0 44.334 -7.5 59.001 -22.5s22 -36.5 22 -64.5c0 -26 -7.16699 -56.667 -21.5 -92s-36.333 -69.166 -66 -101.499s-67.334 -60.333 -113.001 -84s-99.834 -36.5 -162.501 -38.5zM141.001 504.998c50 5.33301 94.166 17.6689 132.499 37.002
s70.333 42.166 96 68.499s45.167 54.833 58.5 85.5s20 60 20 88c0 14.667 -2.5 27.167 -7.5 37.5s-13.833 15.5 -26.5 15.5c-20 0 -39.667 -6.33301 -59 -19s-37.666 -29.167 -54.999 -49.5s-34 -42.833 -50 -67.5s-30.667 -49.334 -44 -74.001l-36.5 -69.5
c-11 -21.667 -20.5 -39.167 -28.5 -52.5zM16 988.001c26 34 45.167 64 57.5 90s18.5 46.667 18.5 62c0 13.333 -5.33301 20 -16 20c-15.333 0 -36.5 -9.16699 -63.5 -27.5s-59.167 -47.833 -96.5 -88.5c-20 -21.333 -38.833 -44.333 -56.5 -69s-33.5 -50.167 -47.5 -76.5
s-25.833 -52.833 -35.5 -79.5s-16.167 -52.667 -19.5 -78c46 31.333 91.333 68 136 110s85.667 87.667 123 137z" />
    <glyph glyph-name="i.001" horiz-adv-x="213" 
d="M102 411c-3.33301 -6.66699 -8.49805 -18.1562 -15.498 -34.4893l-24 -57c-9 -21.667 -18 -44.834 -27 -69.501s-17.333 -48.834 -25 -72.501s-14 -45.667 -19 -66s-7.5 -36.833 -7.5 -49.5c0 -13.333 3 -20 9 -20s14 5 24 15s20.833 23.167 32.5 39.5
s24.167 34.833 37.5 55.5l39 62.5l36 61l30 51.5c13.333 23.333 29.333 46.666 48 69.999s39 44.833 61 64.5s44.833 36.167 68.5 49.5s47.167 21.666 70.5 24.999s46 0.666016 68 -8.00098s42 -25.334 60 -50.001c2 -2.66699 2.5 -5.83398 1.5 -9.50098
s-2.83301 -6.83398 -5.5 -9.50098s-6 -4 -10 -4s-8 2.33301 -12 7c-14 20 -30 33 -48 39s-37.167 6.83301 -57.5 2.5s-40.833 -13 -61.5 -26s-40.834 -28.833 -60.501 -47.5s-38 -39.334 -55 -62.001s-31.833 -45.667 -44.5 -69l-50 -91.5
c-19.333 -34.333 -39.666 -66.833 -60.999 -97.5s-42.833 -56.667 -64.5 -78s-41.834 -32 -60.501 -32c-17.333 0 -29.833 7.16699 -37.5 21.5s-11.5 33.166 -11.5 56.499c0 20.667 2.16699 43.667 6.5 69s10 50.833 17 76.5s14.5 50.667 22.5 75s16 46.166 24 65.499
c3.33301 9.33301 6.66602 18 9.99902 26s6.66602 15 9.99902 21c2.66699 5.33301 6.83398 9 12.501 11s12.167 3 19.5 3s15 -1 23 -3s17 -5.66699 27 -11zM86.002 514.011c12.667 0 22.334 -4.5 29.001 -13.5s10 -18.833 10 -29.5c0 -9.33301 -3.33301 -18.333 -10 -27
s-16.334 -13 -29.001 -13c-15.333 0 -26.833 4.33301 -34.5 13s-11.5 17.667 -11.5 27c0 10.667 3.83301 20.5 11.5 29.5s19.167 13.5 34.5 13.5z" />
    <glyph glyph-name="j.001" horiz-adv-x="244" 
d="M244 364c12 14.667 26.499 31.333 43.499 50s35.5 36.334 55.5 53.001s41.167 31.334 63.5 44.001s44.5 20.667 66.5 24s43.667 0.833008 65 -7.5s41 -24.833 59 -49.5c2 -2.66699 2.5 -5.83398 1.5 -9.50098s-2.83301 -6.83398 -5.5 -9.50098s-6 -4 -10 -4
s-8 2.33301 -12 7c-14.667 20 -30.5 32.833 -47.5 38.5s-34.667 6.16699 -53 1.5s-36.666 -13.167 -54.999 -25.5s-36 -26.333 -53 -42s-32.833 -31.834 -47.5 -48.501l-38 -44c-50.667 -62 -101.5 -117.333 -152.5 -166s-97.167 -87 -138.5 -115
c-21.333 -59.333 -44 -115.833 -68 -169.5s-49.833 -100.667 -77.5 -141s-57.334 -72.5 -89.001 -96.5s-65.5 -36 -101.5 -36c-38.667 0 -68.334 11 -89.001 33s-31 48 -31 78c0 23.333 6.33301 46.166 19 68.499s29.167 44 49.5 65s43.333 40.833 69 59.5
s51.334 35.834 77.001 51.501s50.167 29.667 73.5 42l58 30.5l24 13l11 28c4 10 8.33301 22 13 36l17.5 53l24.5 77.5l34 110.5c2.66699 7.33301 5 14.833 7 22.5s4.33301 15.834 7 24.501c2 6.66699 8.83301 12 20.5 16s25.834 6 42.501 6h10c4 0 7.66699 -0.333008 11 -1
c3.33301 -2 5 -4.33301 5 -7l-96 -300c37.333 28 75.333 61.333 114 100s79.667 85 123 139zM-154.001 -17.001c-24 -12.667 -51.833 -28.334 -83.5 -47.001s-61.5 -39 -89.5 -61s-51.833 -45 -71.5 -69s-29.5 -47.667 -29.5 -71c0 -17.333 5.5 -31.666 16.5 -42.999
s25.167 -17 42.5 -17c22 0 44 8.83301 66 26.5s43.5 41.5 64.5 71.5s41.333 64.667 61 104s38.5 80.333 56.5 123zM76.999 533.999c13.333 0 23.333 -4.5 30 -13.5s10 -18.833 10 -29.5c0 -9.33301 -3.33301 -18.333 -10 -27s-16.667 -13 -30 -13
c-15.333 0 -26.833 4.33301 -34.5 13s-11.5 17.667 -11.5 27c0 10.667 3.83301 20.5 11.5 29.5s19.167 13.5 34.5 13.5z" />
    <glyph glyph-name="k.001" horiz-adv-x="383" 
d="M-106 5c-0.666992 0.666992 -0.992188 1.33789 -0.992188 2.00488l50.5 180.5c17.667 60.333 36.5 119.166 56.5 176.499l8 24c2.66699 8 5.66699 15.667 9 23c-52.667 -11.333 -98.834 -15.833 -138.501 -13.5s-73.667 9.83301 -102 22.5s-51.5 29.5 -69.5 50.5
s-31.333 45.167 -40 72.5c-32 -32.667 -63.667 -59.834 -95 -81.501s-61 -35.834 -89 -42.501c-33.333 -8.66699 -62 -6.16699 -86 7.5s-41.667 41.5 -53 83.5c-1.33301 4 -0.833008 7.66699 1.5 11s5.33301 5.66602 9 6.99902s7.33398 1.16602 11.001 -0.500977
s6.5 -4.83398 8.5 -9.50098c8 -32 20.833 -53.333 38.5 -64s38.5 -13 62.5 -7c27.333 6.66699 56.666 21.334 87.999 44.001s63 51 95 85c-6 28 -8 57.833 -6 89.5s6.66699 63.834 14 96.501s17.166 65 29.499 97s26.166 62.333 41.499 91c28 52 54.833 91.5 80.5 118.5
s47.167 42.833 64.5 47.5c14.667 4 26.834 2.66699 36.501 -4s16.5 -17.667 20.5 -33c4.66699 -17.333 4.16699 -41.833 -1.5 -73.5s-17.834 -68.834 -36.501 -111.501c-26 -62 -57.5 -121 -94.5 -177s-75.833 -106 -116.5 -150
c7.33301 -26.667 19.166 -50.334 35.499 -71.001s38.166 -36.667 65.499 -48s60.666 -17.666 99.999 -18.999s85.666 4.33398 138.999 17.001c29.333 74.667 61.333 141.834 96 201.501s73 106.5 115 140.5c19.333 15.333 37.333 26.333 54 33s32 10 46 10
c22.667 0 40.167 -8 52.5 -24s18.5 -37 18.5 -63c0 -24 -7.16699 -51 -21.5 -81s-34.833 -59.833 -61.5 -89.5s-58.834 -57 -96.501 -82s-79.834 -44.167 -126.501 -57.5c-7.33301 -18.667 -12.833 -33.334 -16.5 -44.001l-8.5 -24.5l-4 -11.5
c-0.666992 -2 -1.33398 -3.66699 -2.00098 -5c10 11.333 21.333 22.5 34 33.5s25.334 20.667 38.001 29s25.167 15.166 37.5 20.499s23.166 8 32.499 8c10 0 18.333 -3 25 -9s10 -14 10 -24c0 -12 -7.33301 -27.667 -22 -47s-32.667 -38.666 -54 -57.999
s-43.666 -37 -66.999 -53s-44 -26.333 -62 -31c12.667 -13.333 22 -29.5 28 -48.5s11 -37.5 15 -55.5c4.66699 -19.333 9.33398 -35.833 14.001 -49.5s12.334 -20.5 23.001 -20.5c12.667 0 29.667 10.667 51 32s44 48 68 80s48 66.667 72 104l65 104
c6 7.33301 11.667 11 17 11s9.66602 -1.5 12.999 -4.5s5 -7.5 5 -13.5v-4.5c0 -1.66699 -0.333008 -3.16699 -1 -4.5l-22 -34l-40 -63.5l-46 -69c-16 -23 -32.333 -45.167 -49 -66.5s-33 -40.333 -49 -57s-31.5 -30 -46.5 -40s-28.833 -15 -41.5 -15
c-11.333 0 -22 1.66699 -32 5s-19.667 9.16602 -29 17.499s-18.5 20 -27.5 35s-18.167 34.167 -27.5 57.5l-15.5 -51c-5 -16.667 -9.83301 -33.667 -14.5 -51c-4 -7.33301 -10.5 -12 -19.5 -14s-18.833 -3 -29.5 -3h-16.5c-5.66699 0 -10.167 0.333008 -13.5 1l-2 1z
M-125.992 906.004c16.667 39.333 27.666 72.998 32.999 100.998s6 49.667 2 65c-3.33301 12.667 -9.66602 18 -18.999 16c-15.333 -4 -33.833 -18.333 -55.5 -43s-45.5 -61 -71.5 -109c-14 -26 -26.667 -53.167 -38 -81.5s-20.666 -56.833 -27.999 -85.5
s-12.333 -57.167 -15 -85.5s-2.33398 -55.166 0.999023 -80.499c36.667 42 71.667 88.833 105 140.5s62 105.834 86 162.501zM355.007 788.002c-19.333 0 -40 -10.167 -62 -30.5s-43.5 -46.166 -64.5 -77.499s-40.833 -65.5 -59.5 -102.5s-35 -72.167 -49 -105.5
c42 13.333 79.167 30.833 111.5 52.5s59.5 45 81.5 70s38.667 50.667 50 77s17 51.166 17 74.499c0 12 -2 22 -6 30s-10.333 12 -19 12zM218.007 408.002c-12 0 -26 -5.33203 -42 -15.999s-32 -23.667 -48 -39s-30.833 -31.5 -44.5 -48.5s-23.834 -32.167 -30.501 -45.5
c13.333 6 29 15.167 47 27.5s35.333 25.666 52 39.999s31.334 28.5 44.001 42.5s21 25.667 25 35c-0.666992 0.666992 -1.16699 1.5 -1.5 2.5s-0.833008 1.5 -1.5 1.5z" />
    <glyph glyph-name="l.001" horiz-adv-x="338" 
d="M338 364c2 4 5.00195 6.99414 9.00195 8.99414s7.83301 2.66699 11.5 2s6.66699 -2.83398 9 -6.50098s3.16602 -8.83398 2.49902 -15.501c-0.666992 -4 -8 -15.5 -22 -34.5s-32 -41.667 -54 -68s-47 -54.166 -75 -83.499s-56 -56.5 -84 -81.5s-54.667 -45.667 -80 -62
s-47 -24.5 -65 -24.5c-22.667 0 -38.667 8.66699 -48 26s-14 38.666 -14 63.999c0 20 2.33301 42.333 7 67s10.5 49.5 17.5 74.5s14.667 49 23 72s16.5 43.5 24.5 61.5c1.33301 4 3.16602 8.16699 5.49902 12.5s4.5 8.83301 6.5 13.5
c-54.667 2 -101.334 8.83301 -140.001 20.5s-70.5 27 -95.5 46s-43.833 41 -56.5 66s-20.334 51.833 -23.001 80.5c-39.333 -23.333 -76.833 -41.666 -112.5 -54.999s-67.5 -20 -95.5 -20c-34 0 -61.167 9.5 -81.5 28.5s-30.5 50.5 -30.5 94.5
c0 4.66699 1.5 8.33398 4.5 11.001s6.33301 4 10 4s7.16699 -1.16699 10.5 -3.5s5 -6.16602 5 -11.499c0 -32.667 7.33301 -56.334 22 -71.001s34.667 -22 60 -22c28 0 59.667 6.83301 95 20.5s72.666 32.834 111.999 57.501c1.33301 28.667 6.83301 58.334 16.5 89.001
s22.167 61 37.5 91s32.833 59 52.5 87s40.5 54 62.5 78c40 44 75.833 76 107.5 96s56.5 30 74.5 30c15.333 0 26.833 -4.5 34.5 -13.5s11.5 -21.167 11.5 -36.5c0 -18.667 -6.66699 -42.5 -20 -71.5s-34 -61.833 -62 -98.5
c-40.667 -53.333 -85.834 -102.666 -135.501 -147.999s-99.5 -84.666 -149.5 -117.999c0.666992 -27.333 6.33398 -53 17.001 -77s27.667 -45 51 -63s54 -32.5 92 -43.5s84.333 -16.833 139 -17.5c18.667 40 41 82.333 67 127s54.333 85.834 85 123.501s63.334 69 98.001 94
s70.334 37.5 107.001 37.5c26 0 46 -8.83301 60 -26.5s21 -41.167 21 -70.5c0 -18 -3.16699 -38.167 -9.5 -60.5s-16.166 -45 -29.499 -68s-30 -45.667 -50 -68s-43.667 -42.166 -71 -59.499s-58.5 -31.5 -93.5 -42.5s-74.167 -17.167 -117.5 -18.5
c-8 -16 -18 -38.167 -30 -66.5s-23.833 -58 -35.5 -89s-21.5 -61 -29.5 -90s-12 -52.833 -12 -71.5c0 -19.333 5.66699 -29 17 -29c10.667 0 25 6.16699 43 18.5s37.833 28.333 59.5 48s44.167 41.667 67.5 66l67 72l58.5 67c17.667 21 31.167 37.833 40.5 50.5z
M339.002 747.994c-21.333 -11.333 -42.8311 -29.333 -64.498 -54s-42.5 -52.5 -62.5 -83.5s-38.833 -63.167 -56.5 -96.5s-32.834 -63.666 -45.501 -90.999c35.333 3.33301 67.666 10.5 96.999 21.5s55.666 24.333 78.999 40s43.5 33 60.5 52s31.333 38.333 43 58
s20.334 39 26.001 58s8.5 36.167 8.5 51.5c0 17.333 -3.33301 31.166 -10 41.499s-17 15.5 -31 15.5c-12 0 -26.667 -4.33301 -44 -13zM-12.9961 904.994c26 34 45.167 64 57.5 90s18.5 46.667 18.5 62c0 13.333 -5.33301 20 -16 20c-15.333 0 -36.5 -9.16699 -63.5 -27.5
s-59.167 -47.833 -96.5 -88.5c-20 -21.333 -38.833 -44.333 -56.5 -69s-33.5 -50.167 -47.5 -76.5s-25.833 -52.833 -35.5 -79.5s-16.167 -52.667 -19.5 -78c46 31.333 91.333 68 136 110s85.667 87.667 123 137z" />
    <glyph glyph-name="m.001" horiz-adv-x="519" 
d="M872 478c2 -2.66699 2.50195 -5.83496 1.50195 -9.50195s-2.83301 -6.83398 -5.5 -9.50098s-6 -4 -10 -4s-8 2.33301 -12 7c-34 26 -65.5 39.667 -94.5 41s-56 -5.66699 -81 -21s-48.667 -37.333 -71 -66s-44 -60 -65 -94l-62 -103.5
c-20.333 -35 -41.166 -66.833 -62.499 -95.5s-43.5 -52.167 -66.5 -70.5s-47.5 -27.5 -73.5 -27.5c-11.333 0 -21 4.16699 -29 12.5s-12 22.166 -12 41.499c0 12 2 25.667 6 41s9 31.666 15 48.999s13 35.166 21 53.499l24 54.5c12.667 28 23.667 53.833 33 77.5
s14 41.167 14 52.5v4c-6.66699 0 -17.834 -9.5 -33.501 -28.5s-32.834 -41.833 -51.501 -68.5s-36.667 -54.167 -54 -82.5s-31 -51.833 -41 -70.5l-11 -24c-12.667 -24.667 -22.5 -47 -29.5 -67s-10.833 -35.333 -11.5 -46v-5l-1 -2l-4 -2
c-0.666992 -0.666992 -1.33398 -1 -2.00098 -1c-12.667 6 -21.5 14.167 -26.5 24.5s-7.5 22.5 -7.5 36.5s2 29.333 6 46s9 33.834 15 51.501s12.667 35.334 20 53.001l22 52.5c11.333 24.667 20.833 47.334 28.5 68.001s11.5 36.334 11.5 47.001c0 3.33301 -0.333008 5 -1 5
c-5.33301 0 -14.333 -7 -27 -21s-26.834 -31.167 -42.501 -51.5s-31.334 -42.5 -47.001 -66.5s-28.834 -46 -39.501 -66l-13 -26l-41.5 -91c-12.333 -28 -18.5 -49.667 -18.5 -65v-2l1 -1c0 -3.33301 -2 -5 -6 -5c-6 1.33301 -12 3 -18 5s-11.667 5 -17 9
s-9.66602 8.83301 -12.999 14.5s-5 12.834 -5 21.501c0 14.667 2.16699 30.5 6.5 47.5s10 34.667 17 53s14.833 37.166 23.5 56.499l26 58l23.5 50c7.66699 16 14.167 31.333 19.5 46c11.333 28.667 17 51.667 17 69c0 2.66699 1.66699 4 5 4h16c17.333 0 31 -1.66699 41 -5
s15 -12.666 15 -27.999c0 -9.33301 -2.33301 -18.833 -7 -28.5l-12 -25.5c21.333 28 42.833 51.667 64.5 71s42.167 29 61.5 29c16 0 27.5 -5 34.5 -15s10.5 -22.667 10.5 -38c0 -7.33301 -0.166992 -14 -0.5 -20s-1.5 -13.333 -3.5 -22c21.333 30 43 55.167 65 75.5
s43.667 30.5 65 30.5c16.667 0 28.5 -5 35.5 -15s10.5 -22.667 10.5 -38c0 -14 -2.5 -30 -7.5 -48s-11.333 -36.833 -19 -56.5s-16.334 -39.5 -26.001 -59.5l-27.5 -58c-1.33301 -3.33301 -2.66602 -6.33301 -3.99902 -9s-2.66602 -5.66699 -3.99902 -9l-25.5 -57.5
c-7 -16.333 -10.5 -28.166 -10.5 -35.499c0 -4.66699 2 -7 6 -7c16 -1.33301 32.167 7.16699 48.5 25.5s33.333 41.833 51 70.5s36.334 60.667 56.001 96s40.5 69.833 62.5 103.5s45.667 64.5 71 92.5s52.5 48.833 81.5 62.5s60.167 18.167 93.5 13.5
s69.333 -22.667 108 -54z" />
    <glyph glyph-name="n.001" horiz-adv-x="354" 
d="M15 436c0 0.666992 0.663086 1.00098 1.99609 1.00098c10 2 19.333 3 28 3c30 0 45 -11.667 45 -35c0 -8.66699 -4.33301 -23.667 -13 -45c20.667 28 42.334 51.833 65.001 71.5s43.667 29.5 63 29.5c16.667 0 28.667 -5 36 -15s11 -22.667 11 -38
c0 -13.333 -2.16699 -28.166 -6.5 -44.499s-10 -33.666 -17 -51.999s-14.833 -37 -23.5 -56l-26 -55.5l-7 -14c-12.667 -26 -23.334 -49 -32.001 -69s-13 -34 -13 -42c0 -4.66699 1.66699 -7 5 -7c14.667 0 30.5 9.33301 47.5 28s34.833 42.5 53.5 71.5l59.5 96.5
c21 35.333 43.333 69.666 67 102.999s48.5 63.833 74.5 91.5s53.5 48.167 82.5 61.5s59.333 17.5 91 12.5s65.167 -23.167 100.5 -54.5c2.66699 -2 3.5 -4.83301 2.5 -8.5s-2.83301 -6.83398 -5.5 -9.50098s-6.16699 -4.16699 -10.5 -4.5s-8.5 1.83398 -12.5 6.50098
c-34 24.667 -65.5 37.334 -94.5 38.001s-56 -6.83301 -81 -22.5s-48.667 -37.834 -71 -66.501s-43.833 -59.667 -64.5 -93l-61.5 -102c-20.333 -34.667 -41.166 -66.167 -62.499 -94.5s-43.833 -51.5 -67.5 -69.5s-48.834 -27 -75.501 -27
c-11.333 0 -21.166 4.16699 -29.499 12.5s-12.5 22.166 -12.5 41.499c0 12 2 25.667 6 41s9.16699 31.666 15.5 48.999s13.333 35.166 21 53.499l23.5 54.5c12.667 28 23.834 53.833 33.501 77.5s14.5 41.167 14.5 52.5v4c-7.33301 0 -19.166 -9.66699 -35.499 -29
s-33.833 -42.5 -52.5 -69.5s-36.5 -54.5 -53.5 -82.5s-29.833 -51 -38.5 -69c-19.333 -38.667 -33.666 -70 -42.999 -94s-14 -42.667 -14 -56v-2l1 -1c0 -2 -0.833008 -3.66699 -2.5 -5s-3.16699 -1.33301 -4.5 0l-8 3c-11.333 3.33301 -22 8.16602 -32 14.499
s-15 16.5 -15 30.5c0 12.667 2 26.834 6 42.501s9.33301 32 16 49s14.167 34.5 22.5 52.5l25.5 53l29.5 61c9 19.333 16.5 37.666 22.5 54.999c4 12.667 7.16699 24.834 9.5 36.501s3.5 22.834 3.5 33.501z" />
    <glyph glyph-name="o.001" horiz-adv-x="395" 
d="M388 690c-6 2 -9.66504 5.00293 -10.998 9.00293s-1.33301 7.66699 0 11s3.5 6.16602 6.5 8.49902s6.16699 2.83301 9.5 1.5c33.333 -12 58.166 -29.5 74.499 -52.5s26.333 -49.333 30 -79s1.5 -61.5 -6.5 -95.5s-20 -67.833 -36 -101.5s-35.167 -66 -57.5 -97
s-46 -58.333 -71 -82s-50.5 -42.5 -76.5 -56.5s-50.667 -21 -74 -21c-10 -16.667 -21 -33.167 -33 -49.5s-24.833 -30.833 -38.5 -43.5s-28.167 -22.834 -43.5 -30.501s-31 -11.5 -47 -11.5c-14.667 0 -27.167 3.33301 -37.5 10s-18.833 15.834 -25.5 27.501
s-11.667 25.334 -15 41.001s-5 32.834 -5 51.501c0 37.333 6.33301 76.833 19 118.5s29.334 80.167 50.001 115.5c19.333 32 40.666 58.167 63.999 78.5s47.333 30.5 72 30.5c4 0 9.33301 -0.666992 16 -2s13.5 -3.5 20.5 -6.5s13 -6.83301 18 -11.5
s7.5 -10.334 7.5 -17.001c0 -4.66699 -1.33301 -8.83398 -4 -12.501s-6.66699 -5.5 -12 -5.5h-6c-2.66699 0 -4.66699 0.333008 -6 1c-4 1.33301 -6.66699 2 -8 2c-20 0 -39.667 -10.5 -59 -31.5s-36.5 -47 -51.5 -78s-27.167 -64 -36.5 -99s-14 -66.167 -14 -93.5
c0 -21.333 2.33301 -38.833 7 -52.5s12.334 -20.5 23.001 -20.5c8.66699 0 18.334 3.5 29.001 10.5s21.167 15.667 31.5 26s19.833 21.166 28.5 32.499s15 21.333 19 30c-16.667 10 -28.834 24 -36.501 42s-11.5 37 -11.5 57c0 18 2.83301 37 8.5 57s13.5 38.333 23.5 55
s21.5 30.5 34.5 41.5s26.833 16.5 41.5 16.5c15.333 0 27.333 -7 36 -21s13 -31 13 -51c0 -19.333 -4.5 -44.333 -13.5 -75s-21.5 -61.334 -37.5 -92.001c21.333 1.33301 45.666 12.833 72.999 34.5s53.666 49 78.999 82s48 69.333 68 109s33.5 78.334 40.5 116.001
s5.66699 72.167 -4 103.5s-31.5 54.666 -65.5 69.999zM126.002 242.003c0 -30.667 10.999 -50.002 32.999 -58.002c6.66699 10.667 13.334 23 20.001 37s12.5 28.333 17.5 43s9 29 12 43s4.5 26.667 4.5 38c0 20 -4.66699 30 -14 30c-5.33301 0 -12 -3.16699 -20 -9.5
s-16 -15.166 -24 -26.499s-14.833 -25.166 -20.5 -41.499s-8.5 -34.833 -8.5 -55.5z" />
    <glyph glyph-name="p.001" horiz-adv-x="378" 
d="M103 468c0.666992 0 0.990234 -0.331055 0.990234 -0.998047l-4 -17.5c-1.33301 -5.66699 -3.33301 -12.167 -6 -19.5c12.667 7.33301 26.834 13.5 42.501 18.5s32.167 7.5 49.5 7.5c12.667 0 23.834 -2.5 33.501 -7.5s17.667 -11.333 24 -19s11 -16.334 14 -26.001
s4.5 -19.5 4.5 -29.5c0 -13.333 -2 -27.333 -6 -42s-8.66699 -27.334 -14 -38.001c20.667 5.33301 44.5 15.166 71.5 29.499s53.5 31.666 79.5 51.999s50.167 42.833 72.5 67.5s39.333 50 51 76s16.334 51.833 14.001 77.5s-14.5 49.834 -36.5 72.501c-4.66699 4 -7 8 -7 12
s1.33301 7.33301 4 10s5.83398 4.5 9.50098 5.5s6.83398 0.5 9.50098 -1.5c24.667 -17.333 41 -37 49 -59s10.167 -45 6.5 -69s-12.667 -48.333 -27 -73s-31.666 -48.667 -51.999 -72s-42.666 -45.333 -66.999 -66s-48.833 -38.667 -73.5 -54s-48.5 -27.5 -71.5 -36.5
s-43.167 -13.5 -60.5 -13.5c-23.333 -28 -47.166 -48.333 -71.499 -61s-45.166 -19 -62.499 -19c-18 0 -32 4.66699 -42 14c-14.667 -64.667 -31.667 -125.167 -51 -181.5s-40.5 -105.5 -63.5 -147.5s-47.333 -75 -73 -99s-51.5 -36 -77.5 -36s-45.667 11 -59 33
s-20 51 -20 87c0 28.667 4.16699 59.667 12.5 93s22.5 65.333 42.5 96s46.833 58.334 80.5 83.001s75.834 43 126.501 55l27 119l17 76l19 81c3.33301 13.333 11 21 23 23s25.667 3.33301 41 4h7c1.33301 0 2.83301 0.166992 4.5 0.5s3.16699 0.5 4.5 0.5l2 -1z
M-233.01 -237.998c12 0 23.999 5.66699 35.999 17s23.5 26.5 34.5 45.5s21.667 41 32 66s20.333 51 30 78s18.5 54.333 26.5 82l22 77.5c-42 -12 -77 -28.5 -105 -49.5s-50.667 -44.333 -68 -70s-29.666 -52.167 -36.999 -79.5s-11 -53.333 -11 -78
c0 -29.333 3.66699 -51.5 11 -66.5s17 -22.5 29 -22.5zM143.989 275.002c13.333 16.667 23.5 34.165 30.5 52.498s10.5 33.833 10.5 46.5c0 13.333 -2.66699 24 -8 32s-13.666 12 -24.999 12c-8 0 -18.333 -3.16699 -31 -9.5s-26.334 -16.166 -41.001 -29.499
c-5.33301 -23.333 -10 -44.666 -14 -63.999s-9 -41 -15 -65c14.667 8 35 14.667 61 20zM106.989 236c-14 -2 -25.8311 -6 -35.498 -12s-14.5 -10.667 -14.5 -14h6c7.33301 0 14.166 2 20.499 6s12.166 8.66699 17.499 14z" />
    <glyph glyph-name="q.001" horiz-adv-x="364" 
d="M279 456c-27.333 -66.667 -49.8311 -125.996 -67.498 -177.996l-47.5 -145c12.667 4 27.167 14.833 43.5 32.5s34 38.834 53 63.501l61 80c21.667 28.667 44.334 56.5 68.001 83.5s48.5 51.167 74.5 72.5s52.833 37.166 80.5 47.499s56 13.333 85 9
s58.5 -18.833 88.5 -43.5c2.66699 -2 3.5 -4.83301 2.5 -8.5s-2.83301 -6.83398 -5.5 -9.50098s-6.16699 -4.16699 -10.5 -4.5s-8.5 1.83398 -12.5 6.50098c-40 23.333 -76.833 32.166 -110.5 26.499s-65.5 -20.167 -95.5 -43.5s-58.5 -52.666 -85.5 -87.999l-80 -107
c-26.333 -36 -53.166 -69.5 -80.499 -100.5s-56 -53.5 -86 -67.5c12 -12.667 21.333 -32.334 28 -59.001s10 -55.334 10 -86.001c0 -27.333 -2.33301 -55.5 -7 -84.5s-11.334 -55.5 -20.001 -79.5s-19.334 -43.667 -32.001 -59s-27.334 -23 -44.001 -23
c-17.333 0 -31.666 9.16699 -42.999 27.5s-17 46.5 -17 84.5c0 8.66699 1.16699 22 3.5 40s5.16602 38.667 8.49902 62s7.5 48.166 12.5 74.499s10.167 52.166 15.5 77.499s10.833 49.333 16.5 72s10.834 42 15.501 58c-31.333 -20.667 -57 -31 -77 -31
c-22 0 -38.667 8.16699 -50 24.5s-17 36.833 -17 61.5c0 19.333 3.83301 39.666 11.5 60.999s18.167 41.666 31.5 60.999c17.333 25.333 39 46.5 65 63.5s55 25.5 87 25.5c7.33301 0 14 -0.5 20 -1.5l20 -3.5c1.33301 4.66699 4.16602 9.83398 8.49902 15.501
s12.166 8.5 23.499 8.5c6 0 13.167 -0.666992 21.5 -2s18.5 -3.66602 30.5 -6.99902l1 -1zM118.002 241.004l34.4961 100c9 26 18.167 49.667 27.5 71h-4c-1.33301 0 -2.66602 0.166992 -3.99902 0.5s-2.33301 0.5 -3 0.5c-18 0 -35.667 -6.5 -53 -19.5s-33 -28.667 -47 -47
s-25.167 -38 -33.5 -59s-12.5 -39.5 -12.5 -55.5c0 -9.33301 1.83301 -17.333 5.5 -24s9.83398 -10 18.501 -10c4.66699 0 10.334 1.5 17.001 4.5s13.334 6.66699 20.001 11s13 9 19 14s11 9.5 15 13.5zM157.998 -51.9961c0 22 -1.49902 42.333 -4.49902 61
s-7.5 33 -13.5 43c-6 -30 -11.667 -60.5 -17 -91.5s-9.66602 -59.667 -12.999 -86s-6 -49.166 -8 -68.499s-3 -32.333 -3 -39c0 -11.333 0.666992 -19.333 2 -24s2.66602 -7 3.99902 -7c7.33301 0 14.166 6.66699 20.499 20s12 30.166 17 50.499s8.83301 43 11.5 68
s4 49.5 4 73.5z" />
    <glyph glyph-name="r.001" horiz-adv-x="320" 
d="M0 364c1.33301 2.66699 3.66602 6.83105 6.99902 12.498l10 16.5c-16 3.33301 -28 10.833 -36 22.5s-12 23.834 -12 36.501c0 10.667 2.16699 20.167 6.5 28.5s9.5 15.333 15.5 21s12.333 10 19 13s12.667 4.5 18 4.5c12.667 0 23.667 -5.33301 33 -16
s14 -25.334 14 -44.001c0 -5.33301 -0.666992 -11 -2 -17s-3.66602 -13 -6.99902 -21c8.66699 1.33301 18 2.33301 28 3s18.667 1 26 1c8.66699 0 17.5 -0.5 26.5 -1.5s17.167 -3 24.5 -6s13.333 -6.83301 18 -11.5s7 -11 7 -19c0 -8.66699 -2.83301 -21.5 -8.5 -38.5
s-12.834 -36.333 -21.501 -58l-28.5 -68.5l-28.5 -68c-8.66699 -21.333 -15.834 -40.666 -21.501 -57.999s-8.5 -30 -8.5 -38c0 -10.667 3.33301 -15.667 10 -15c22.667 2 43.834 13.5 63.501 34.5s39 47.167 58 78.5s38.167 66 57.5 104s39.333 74.667 60 110
s42.667 67.333 66 96s48.833 49.834 76.5 63.501s58 17.334 91 11.001s69.167 -26.5 108.5 -60.5c2.66699 -2 3.83398 -5 3.50098 -9s-1.66602 -7.33301 -3.99902 -10s-5.5 -4.33398 -9.5 -5.00098s-8 1.33301 -12 6c-36.667 29.333 -70 45.333 -100 48s-57.333 -4 -82 -20
s-47.5 -39.167 -68.5 -69.5s-41.167 -63.666 -60.5 -99.999l-57 -111c-18.667 -37.667 -38.334 -72 -59.001 -103s-42.5 -56.333 -65.5 -76s-48.5 -29.5 -76.5 -29.5c-20.667 0 -35.334 7.33301 -44.001 22s-13 31.667 -13 51c0 18 2.66699 38.5 8 61.5
s11.833 46.167 19.5 69.5s15.834 46 24.501 68s16.667 41.333 24 58s12.333 28.667 15 36s4 11.666 4 12.999c0 4 -2.83301 6.5 -8.5 7.5s-12.167 1.5 -19.5 1.5s-14.5 -0.333008 -21.5 -1s-11.833 -1 -14.5 -1l-23 -39c-3.33301 -5.33301 -8.33301 -8 -15 -8
c-4.66699 0 -9.16699 2 -13.5 6s-4.83301 10 -1.5 18zM3 453.997c0 -7.33301 2.5 -14.001 7.5 -20.001s10.833 -9.66699 17.5 -11c1.33301 2.66699 2 4.66699 2 6c0 8.66699 -2.16699 16.834 -6.5 24.501s-8.83301 11.5 -13.5 11.5c-2.66699 0 -4.5 -1.5 -5.5 -4.5
s-1.5 -5.16699 -1.5 -6.5z" />
    <glyph glyph-name="s.001" horiz-adv-x="255" 
d="M109 222c1.33301 -11.333 2.33203 -22.6689 2.99902 -34.002s1 -22.333 1 -33c0 -29.333 -3.66699 -54.166 -11 -74.499s-16.833 -36.666 -28.5 -48.999s-24.667 -21.333 -39 -27s-28.5 -8.5 -42.5 -8.5c-24 0 -44.667 7.16699 -62 21.5s-26 33.166 -26 56.499
c0 21.333 9 44.166 27 68.499s49.667 48.833 95 73.5l7 3c-2 9.33301 -4.16699 18.5 -6.5 27.5s-4.83301 18.167 -7.5 27.5c-4 14.667 -7.66699 29.334 -11 44.001s-6 30 -8 46c-2 14.667 -3 30 -3 46c0 17.333 2.5 32.833 7.5 46.5s11.333 25.167 19 34.5s16 16.333 25 21
s17.833 7 26.5 7c10.667 0 19.667 -4 27 -12s11 -20 11 -36c0 -15.333 -5 -31 -15 -47s-20.667 -31 -32 -45c2 -10 5 -22.167 9 -36.5s8.66699 -29.5 14 -45.5l11 -38c20 10 43.833 24.5 71.5 43.5s55.334 40.833 83.001 65.5s53.5 51 77.5 79s42.333 55.667 55 83
s18 53.5 16 78.5s-15.333 46.5 -40 64.5c-4.66699 4 -7 8 -7 12s1.16699 7.33301 3.5 10s5.33301 4.5 9 5.5s6.83398 0.5 9.50098 -1.5c33.333 -22.667 52.833 -48.5 58.5 -77.5s2 -59.167 -11 -90.5s-32.833 -62.666 -59.5 -93.999s-55.667 -60.833 -87 -88.5
s-62.333 -52.667 -93 -75s-56.334 -39.5 -77.001 -51.5zM44.999 153.997c0 4.66699 -0.171875 9.83301 -0.504883 15.5s-1.16602 11.167 -2.49902 16.5c-11.333 -6 -23.166 -13 -35.499 -21s-23.666 -16.833 -33.999 -26.5s-18.833 -20.167 -25.5 -31.5s-10 -23.333 -10 -36
c0 -11.333 3.83301 -20.333 11.5 -27s17.834 -10 30.501 -10c11.333 0 21 3.5 29 10.5s14.833 16.333 20.5 28s9.83398 24.667 12.501 39s4 28.5 4 42.5zM54.9941 422.996c5.33301 8 10.5 16.668 15.5 26.001s7.5 17.666 7.5 24.999c0 10.667 -1.33301 16 -4 16
c-4 0 -7.33301 -3 -10 -9s-4.83398 -12.833 -6.50098 -20.5s-2.66699 -15.167 -3 -22.5s-0.166016 -12.333 0.500977 -15z" />
    <glyph glyph-name="t.001" horiz-adv-x="294" 
d="M-183 731c1.33301 3.33301 3.66309 5.83398 6.99609 7.50098s6.83301 2.16699 10.5 1.5s6.66699 -2.5 9 -5.5s2.83301 -6.83301 1.5 -11.5c-3.33301 -12.667 1 -21.334 13 -26.001s29.667 -7 53 -7c25.333 0 55 2.16699 89 6.5s70 9.16602 108 14.499l48 7
c10 18 20.833 34.667 32.5 50s24.167 23 37.5 23c7.33301 0 14.333 -0.833008 21 -2.5s13.334 -3.83398 20.001 -6.50098c3.33301 -2 4.33301 -4.33301 3 -7l-15 -32l-7 -14c19.333 2 38 3.66699 56 5s35.667 2 53 2c24.667 0 47.334 -1.5 68.001 -4.5
s38.5 -8.33301 53.5 -16s26.667 -17.834 35 -30.501s12.5 -28.667 12.5 -48c0 -13.333 -2.33301 -27.333 -7 -42c-1.33301 -4.66699 -3.83301 -7.83398 -7.5 -9.50098s-7.16699 -2 -10.5 -1s-6.16602 3.16699 -8.49902 6.5s-2.83301 7.33301 -1.5 12
c3.33301 12 5 23.333 5 34c0 13.333 -3.5 24.333 -10.5 33s-16.667 15.667 -29 21s-27 9.16602 -44 11.499s-35.5 3.5 -55.5 3.5c-18 0 -37.667 -0.666992 -59 -2s-43.666 -3.66602 -66.999 -6.99902l-18 -36l-36 -74.5l-46.5 -101.5l-49 -115
c-16.333 -40 -31.166 -78.167 -44.499 -114.5s-24.166 -69.833 -32.499 -100.5s-12.5 -55 -12.5 -73c0 -24 8 -36 24 -36c13.333 0 28.166 6 44.499 18s33 27.333 50 46s34 39.834 51 63.501l49.5 71l45.5 67c14.333 21 26.833 38.5 37.5 52.5c4 4 8 6 12 6
c7.33301 0 12.166 -3.16699 14.499 -9.5s1.83301 -12.166 -1.5 -17.499l-40 -64c-15.333 -24 -32 -48.667 -50 -74s-36.833 -50.333 -56.5 -75s-39.334 -46.667 -59.001 -66s-39 -35 -58 -47s-37.167 -18 -54.5 -18c-23.333 0 -40.333 8.83301 -51 26.5
s-16 39.834 -16 66.501c0 34 6.16699 74.833 18.5 122.5s28.166 97.5 47.499 149.5c8 23.333 17.333 48.666 28 75.999l33.5 82.5l35 79.5c11.667 25.333 22.834 47.333 33.501 66l9 17c-4.66699 -1.33301 -9.16699 -2.16602 -13.5 -2.49902s-8.83301 -0.833008 -13.5 -1.5
c-36.667 -5.33301 -72.667 -10.166 -108 -14.499s-66.333 -6.5 -93 -6.5c-35.333 0 -61.666 5.16699 -78.999 15.5s-22.333 28.833 -15 55.5z" />
    <glyph glyph-name="u.001" horiz-adv-x="431" 
d="M305 468c0.666992 -0.666992 1.00293 -1.33398 1.00293 -2.00098c-4.66699 -10 -11 -24.333 -19 -43s-16.5 -40 -25.5 -64l-27.5 -76c-9.33301 -26.667 -17.833 -52.667 -25.5 -78s-13.834 -49 -18.501 -71s-7 -40 -7 -54c0 -16.667 3.66699 -25 11 -25
c21.333 0 42.833 10.333 64.5 31s43.834 47.334 66.501 80.001s45.5 68.667 68.5 108s46.667 77.333 71 114s49 69.667 74 99s50.833 50.166 77.5 62.499s54 13.666 82 3.99902s57 -34.834 87 -75.501c2 -2.66699 2.5 -5.83398 1.5 -9.50098
s-2.83301 -6.83398 -5.5 -9.50098s-6 -4 -10 -4s-8 2.33301 -12 7c-28 32.667 -54.333 51 -79 55s-48.5 -1.66699 -71.5 -17s-45.333 -38.333 -67 -69s-43.334 -64.334 -65.001 -101.001l-66.5 -113.5c-22.667 -39 -46.334 -74.333 -71.001 -106
s-50.834 -57.667 -78.501 -78s-57.167 -30.5 -88.5 -30.5c-10 0 -18.167 2.33301 -24.5 7s-11.5 10.834 -15.5 18.501s-6.66699 16.5 -8 26.5s-2 20.333 -2 31c0 28.667 3.16699 57.834 9.5 87.501s14.166 60.167 23.499 91.5l-44 -72.5
c-16 -26.333 -32.333 -50.833 -49 -73.5s-32.834 -41.667 -48.501 -57s-29.834 -23 -42.501 -23c-13.333 0 -22.666 4.83301 -27.999 14.5s-8 22.834 -8 39.501c0 18 1.83301 38 5.5 60s8.66699 44.833 15 68.5s13.333 47.834 21 72.501s15.5 48.334 23.5 71.001l19.5 55
l17.5 46c0 2 1.33301 3 4 3h16c4.66699 0 9.83398 -0.166992 15.501 -0.5s11 -1.33301 16 -3s9.33301 -4.16699 13 -7.5s6.16699 -8 7.5 -14l-44.5 -113.5l-38.5 -107c-11.333 -33 -20.5 -61.833 -27.5 -86.5s-10.5 -42 -10.5 -52c4.66699 0 12.334 6.33301 23.001 19
s23 29.334 37 50.001s28.833 44.167 44.5 70.5l47 81l45 82.5c14.333 27.333 26.5 52.333 36.5 75c4 5.33301 8.83301 8.5 14.5 9.5s12.5 1.5 20.5 1.5h45l2 -1z" />
    <glyph glyph-name="v.001" horiz-adv-x="392" 
d="M746 478c2 -2.66699 2.50293 -5.8252 1.50293 -9.49219s-2.83301 -6.83398 -5.5 -9.50098s-6 -4 -10 -4s-8 2.33301 -12 7c-26 22.667 -50.333 36.167 -73 40.5s-44.334 2.5 -65.001 -5.5s-40.5 -21 -59.5 -39s-37.667 -38 -56 -60l-54.5 -68.5
c-18 -23.667 -36.5 -45.167 -55.5 -64.5s-38.5 -35.333 -58.5 -48s-41.333 -19 -64 -19c-10.667 0 -21.667 3 -33 9s-21 15.667 -29 29l-6 -11l-8 -13l-40.5 -61.5c-15.667 -23.667 -32.334 -46.334 -50.001 -68.001s-35 -40.167 -52 -55.5s-32.167 -23 -45.5 -23
c-13.333 1.33301 -23 8.16602 -29 20.499s-9 28.166 -9 47.499c0 21.333 2.5 45.666 7.5 72.999s11.167 54.5 18.5 81.5s14.833 52.667 22.5 77l19.5 60.5c4.66699 14 9 27.667 13 41s8.5 24.833 13.5 34.5s10.833 17.167 17.5 22.5s14.667 7 24 5
c8.66699 -0.666992 17.5 -1.83398 26.5 -3.50098s17.167 -4.16699 24.5 -7.5c-4.66699 -8.66699 -11 -22.834 -19 -42.501l-26.5 -67l-29.5 -79.5c-10 -28 -19.167 -55 -27.5 -81s-15.166 -49.667 -20.499 -71s-8 -38 -8 -50c0 -8 1 -12 3 -12c4 0 10.167 4.33301 18.5 13
s17.833 19.834 28.5 33.501s22 29 34 46l35 50.5l30.5 46.5l21.5 34.5c-8 26 -10.833 52 -8.5 78s7.66602 49.667 15.999 71s19 38.833 32 52.5s26.167 20.834 39.5 21.501c11.333 0.666992 20.5 -4.16602 27.5 -14.499s10.5 -24.166 10.5 -41.499c0 -20 -5.5 -41 -16.5 -63
s-23.5 -44.667 -37.5 -68l-14 -23l-11 -18c4.66699 -13.333 10.667 -23.5 18 -30.5s15 -10.5 23 -10.5c17.333 0 34.666 6.5 51.999 19.5s35 29.667 53 50s36.5 42.666 55.5 66.999s38.5 47.666 58.5 69.999s41 42.166 63 59.499s44.833 29.166 68.5 35.499
s48.667 5.66602 75 -2.00098s53.833 -25.167 82.5 -52.5zM186.003 317.009l19 31.998c6.66699 11.333 12.834 22.833 18.501 34.5s10.167 22.667 13.5 33s5 19.5 5 27.5c0 9.33301 -1.66699 14 -5 14c-8 0 -15.333 -6.33301 -22 -19s-12.334 -27.167 -17.001 -43.5
s-8.16699 -32.166 -10.5 -47.499s-2.83301 -25.666 -1.5 -30.999z" />
    <glyph glyph-name="w.001" horiz-adv-x="583" 
d="M298 413c-10 -20.667 -21.3369 -46.498 -34.0039 -77.498s-24.667 -62.167 -36 -93.5s-20.833 -60.666 -28.5 -87.999s-11.5 -48 -11.5 -62c0 -8.66699 1.33301 -13 4 -13c6.66699 0 21 13.667 43 41s50 66 84 116c-6 14.667 -9 32.667 -9 54c0 18.667 2.5 37.667 7.5 57
s12 37 21 53s19.333 29.167 31 39.5s24.167 15.5 37.5 15.5s22.833 -3.33301 28.5 -10s8.5 -15.334 8.5 -26.001c0 -12 -2.5 -25.833 -7.5 -41.5s-11.667 -31.834 -20 -48.501s-17.666 -33.167 -27.999 -49.5s-20.5 -30.833 -30.5 -43.5
c9.33301 -14.667 22.666 -22 39.999 -22c18 0 36.333 6.83301 55 20.5s37.834 31.167 57.501 52.5s39.834 44.833 60.501 70.5s42 50.334 64 74.001s44.667 44.834 68 63.501s47.5 31.5 72.5 38.5s51 6.66699 78 -1s54.833 -25.834 83.5 -54.501
c2.66699 -2.66699 3.5 -5.83398 2.5 -9.50098s-2.83301 -6.66699 -5.5 -9s-6.16699 -3.66602 -10.5 -3.99902s-8.5 1.83398 -12.5 6.50098c-27.333 22 -53 35 -77 39s-46.667 1.5 -68 -7.5s-41.833 -22.833 -61.5 -41.5s-39 -39.5 -58 -62.5l-57 -71
c-19 -24.333 -38.5 -46.5 -58.5 -66.5s-41 -36.333 -63 -49s-45.333 -19 -70 -19c-10.667 0 -20.334 1.33301 -29.001 4s-17.334 8.66699 -26.001 18c-11.333 -13.333 -24.166 -29.833 -38.499 -49.5s-29.333 -38.5 -45 -56.5s-31.334 -33.5 -47.001 -46.5
s-30.167 -19.5 -43.5 -19.5s-22.5 5.5 -27.5 16.5s-7.5 24.167 -7.5 39.5c0 14 1.16699 28.167 3.5 42.5s4.83301 28.166 7.5 41.499c-12 -20.667 -24.833 -41.334 -38.5 -62.001s-28 -39.334 -43 -56.001s-30.333 -30.334 -46 -41.001s-31.167 -16 -46.5 -16
c-11.333 0 -21.333 5 -30 15s-13 26.667 -13 50c0 18.667 2.5 41 7.5 67s11.167 52.833 18.5 80.5s15 55 23 82s15.667 50.5 23 70.5l28 82c3.33301 6 9.5 10.5 18.5 13.5s19.167 4.5 30.5 4.5s21.666 -1 30.999 -3c4.66699 -1.33301 5.66699 -3.33301 3 -6h1l-53.5 -145.5
c-16.333 -45 -30.166 -85 -41.499 -120s-20.166 -64.667 -26.499 -89s-9.5 -42.166 -9.5 -53.499c0 -7.33301 2 -11 6 -11c6.66699 0 15.834 5.33301 27.501 16s24.5 25.167 38.5 43.5s28.667 39.5 44 63.5s30.333 49.5 45 76.5s28.5 54.667 41.5 83
s24.167 55.833 33.5 82.5c2.66699 6.66699 8.33398 11.5 17.001 14.5s17.834 4.66699 27.501 5s18.167 -0.166992 25.5 -1.5s11 -3.33301 11 -6zM343.996 273.002l19.002 32.501l21.5 40c7 13.667 13 26.667 18 39s7.5 22.166 7.5 29.499c0 4.66699 -1 7 -3 7
c-8 0 -15.833 -4.33301 -23.5 -13s-14.334 -20 -20.001 -34s-10.334 -29.833 -14.001 -47.5s-5.5 -35.5 -5.5 -53.5z" />
    <glyph glyph-name="x.001" horiz-adv-x="528" 
d="M-105 83c16 -20.667 34.332 -31.002 54.999 -31.002c15.333 0 31 5.33301 47 16s31.333 24.667 46 42s28.334 37.166 41.001 59.499s23.834 44.833 33.501 67.5s17.167 44.834 22.5 66.501s8 40.834 8 57.501c0 22.667 -3.33301 38.334 -10 47.001s-14 13 -22 13
c-13.333 0 -26.833 -6.5 -40.5 -19.5s-25.834 -25.5 -36.501 -37.5c-2 -3.33301 -4.16699 -6.16602 -6.5 -8.49902l-6.5 -6.5c-4 -4.66699 -8 -7.5 -12 -8.5s-7.33301 -0.666992 -10 1s-4.5 4.5 -5.5 8.5s-0.5 8.66699 1.5 14c46 64 92 96 138 96
c19.333 0 36.833 -5.5 52.5 -16.5s26.5 -26.5 32.5 -46.5c26 27.333 50.167 46.666 72.5 57.999s43.166 17 62.499 17c10.667 0 21.5 -1.83301 32.5 -5.5s21 -8.66699 30 -15s16.5 -13.833 22.5 -22.5s9 -17.667 9 -27c0 -4.66699 -1.33301 -8.16699 -4 -10.5
s-5.66699 -3.5 -9 -3.5c-8.66699 0 -13.667 3.66699 -15 11v1c-1.33301 9.33301 -5.83301 17 -13.5 23s-17.5 9 -29.5 9c-13.333 0 -28.5 -4.5 -45.5 -13.5s-34.5 -23.333 -52.5 -43s-35.667 -44.5 -53 -74.5s-32.666 -66 -45.999 -108
c-3.33301 -9.33301 -5.83301 -22.5 -7.5 -39.5s-1.5 -34 0.5 -51s6.5 -31.667 13.5 -44s17.5 -18.166 31.5 -17.499c20.667 0.666992 42 10.5 64 29.5s45 43.167 69 72.5s49 61.666 75 96.999l80 104c27.333 34 55.666 65.333 84.999 94s59.5 50.5 90.5 65.5
s62.833 21.333 95.5 19s66.334 -17.166 101.001 -44.499c2.66699 -2 3.66699 -4.83301 3 -8.5s-2.5 -6.83398 -5.5 -9.50098s-6.66699 -4.16699 -11 -4.5s-8.5 1.83398 -12.5 6.50098c-34.667 20 -67.334 28.667 -98.001 26s-60.167 -13 -88.5 -31
s-55.666 -41.667 -81.999 -71s-52 -60.833 -77 -94.5l-74 -102c-24.333 -34.333 -48.833 -65.333 -73.5 -93s-49.667 -50.167 -75 -67.5s-51.666 -26 -78.999 -26c-21.333 0 -40.333 9 -57 27s-29.334 45.667 -38.001 83c-28 -36.667 -54.833 -62.334 -80.5 -77.001
s-50.167 -22 -73.5 -22c-15.333 0 -30.166 3.5 -44.499 10.5s-27.5 17.167 -39.5 30.5c-3.33301 3.33301 -4.83301 7.33301 -4.5 12s1.66602 8.66699 3.99902 12s5.33301 5.5 9 6.5s7.16699 0.166992 10.5 -2.5z" />
    <glyph glyph-name="y.001" horiz-adv-x="481" 
d="M810 462c-36.667 28 -71.665 40.835 -104.998 38.502s-65.833 -14.166 -97.5 -35.499s-63 -48.666 -94 -81.999l-94.5 -99.5c-32 -33 -65 -62.833 -99 -89.5s-69.667 -43.667 -107 -51l-33.5 -90.5c-12.333 -32.333 -25.5 -64.666 -39.5 -96.999
s-28.167 -63.333 -42.5 -93s-28.5 -56.167 -42.5 -79.5c-16 -25.333 -33 -47.5 -51 -66.5s-35.833 -35.167 -53.5 -48.5s-34.667 -23.333 -51 -30s-31.166 -10 -44.499 -10c-37.333 0 -67 14.5 -89 43.5s-33 65.833 -33 110.5c0 28 5.5 58.167 16.5 90.5
s28.833 63.833 53.5 94.5c22 26 46 48.667 72 68s53.333 36.166 82 50.499s58.167 26.833 88.5 37.5s60.166 20.334 89.499 29.001l33 106.5c10.667 33.667 19.667 63.167 27 88.5l-46 -66.5c-17.333 -24.333 -35.166 -47.166 -53.499 -68.499s-36.333 -39.166 -54 -53.499
s-32.834 -21.5 -45.501 -21.5c-10.667 0.666992 -18.334 6 -23.001 16s-7 22.333 -7 37c0 25.333 3 52 9 80s14.333 59.333 25 94l13 41.5l15 45.5c6 7.33301 12.667 12.333 20 15s15.333 4 24 4h11.5c5 0 9.83301 -0.333008 14.5 -1s8.66699 -1.83398 12 -3.50098
s5 -3.83398 5 -6.50098c-12 -26 -23.333 -52.833 -34 -80.5s-20.167 -53.5 -28.5 -77.5s-15 -45.167 -20 -63.5s-7.5 -31.5 -7.5 -39.5c0 -2.66699 -0.333008 -4.33398 -1 -5.00098c6.66699 2.66699 18.667 13.667 36 33s36 42.666 56 69.999s39.667 56.166 59 86.499
s35 58.166 47 83.499c2.66699 5.33301 7.83398 8.83301 15.501 10.5s16 2.5 25 2.5s17.5 -0.666992 25.5 -2l18 -3c3.33301 0 5 -2.33301 5 -7l-26 -88l-20.5 -72.5l-18.5 -63c-6 -19.667 -12.333 -39.167 -19 -58.5c26.667 9.33301 52.5 23.5 77.5 42.5
s49.667 40.333 74 64s48.333 48.5 72 74.5s47.667 50.333 72 73s48.666 42.5 72.999 59.5s49.5 28.333 75.5 34s52.667 4.66699 80 -3s55.666 -24.834 84.999 -51.501c2.66699 -2 3.5 -4.83301 2.5 -8.5s-2.83301 -6.83398 -5.5 -9.50098s-6.16699 -4.16699 -10.5 -4.5
s-8.5 1.83398 -12.5 6.50098zM-17.998 -198.998l73.002 148.999c25.333 54 47.333 109.333 66 166c-28 -8.66699 -55.167 -17.834 -81.5 -27.501s-51.833 -21 -76.5 -34s-48.167 -28.333 -70.5 -46s-43.5 -38.5 -63.5 -62.5
c-18.667 -25.333 -33.834 -53.166 -45.501 -83.499s-17.5 -58.166 -17.5 -83.499c0 -30.667 6.66699 -57 20 -79s32.333 -33 57 -33c18.667 0 40.167 10.167 64.5 30.5s49.166 54.833 74.499 103.5z" />
    <glyph glyph-name="z.001" horiz-adv-x="396" 
d="M419 689c-6 2.66699 -9.50195 5.99219 -10.502 9.99219s-0.666992 7.83301 1 11.5s4 6.5 7 8.5s6.16699 2 9.5 0c36 -21.333 60.5 -47.666 73.5 -78.999s17.5 -65.166 13.5 -101.499s-15.167 -73.5 -33.5 -111.5s-40.666 -74.167 -66.999 -108.5
s-55.166 -65.666 -86.499 -93.999s-62 -50.5 -92 -66.5c-6.66699 -43.333 -18.334 -83.5 -35.001 -120.5s-36.167 -70.5 -58.5 -100.5s-47 -56.667 -74 -80s-54.5 -42.833 -82.5 -58.5s-55.5 -27.5 -82.5 -35.5s-51.833 -12 -74.5 -12c-34 0 -61 6.83301 -81 20.5
s-30 33.834 -30 60.501c0 32.667 10 62.334 30 89.001s45.5 50.834 76.5 72.501s65.5 41.167 103.5 58.5s74.667 33 110 47l18 8l57.5 26c19 8.66699 36.167 17.334 51.5 26.001c0.666992 2.66699 1 6.33398 1 11.001c0 5.33301 -0.5 11 -1.5 17s-2.16699 12 -3.5 18
c-7.33301 -8 -16.833 -15.333 -28.5 -22s-23.167 -10 -34.5 -10c-12 0 -20.833 4 -26.5 12s-8.5 15.667 -8.5 23c0 8.66699 2.16699 16.5 6.5 23.5s10 12.667 17 17s14.833 7.66602 23.5 9.99902s17.334 3.5 26.001 3.5c4.66699 0 10.334 -0.666992 17.001 -2
c12 18.667 22.333 39.334 31 62.001s13 41.667 13 57c0 18 -3.66699 32.833 -11 44.5s-17.666 17.5 -30.999 17.5c-14.667 0 -32.334 -6.83301 -53.001 -20.5s-43.667 -37.167 -69 -70.5c-4 -4 -8.5 -6.66699 -13.5 -8s-9.16699 -1.33301 -12.5 0s-5.83301 3.83301 -7.5 7.5
s-0.833984 8.5 2.49902 14.5c30 38.667 59.5 66.5 88.5 83.5s55.167 25.5 78.5 25.5c26 0 46.667 -8.16699 62 -24.5s23 -38.5 23 -66.5c0 -19.333 -4.5 -40.666 -13.5 -63.999s-24.167 -47.666 -45.5 -72.999c9.33301 -5.33301 17.166 -12 23.499 -20
s10.5 -17.667 12.5 -29c20 10 42.5 26 67.5 48s49.5 47.5 73.5 76.5s45.5 60.167 64.5 93.5s32.167 66.666 39.5 99.999s7.33301 65.166 0 95.499s-25.666 56.833 -54.999 79.5zM-179.002 -212.008c24.667 0 53.0029 6.33203 85.0029 18.999s63.667 32.167 95 58.5
s60.666 59.833 87.999 100.5s48.666 89 63.999 145l-46 -20c-6.66699 -3.33301 -13.5 -6.5 -20.5 -9.5l-21.5 -9.5c-34.667 -14 -70.667 -29.5 -108 -46.5s-71.333 -35.167 -102 -54.5s-56 -40.166 -76 -62.499s-30 -45.833 -30 -70.5c0 -16.667 6.66699 -29.167 20 -37.5
s30.666 -12.5 51.999 -12.5zM89.001 204.991c3.33301 0 8 2.33203 14 6.99902s13 10.667 21 18c-8.66699 -0.666992 -16.667 -2.66699 -24 -6s-11 -9.66602 -11 -18.999z" />
    <glyph glyph-name="a.002" horiz-adv-x="414" 
d="M286 462c-2.66699 -6 -7.49805 -17.8301 -14.498 -35.4971l-24.5 -63l-29 -78.5c-10 -28 -19.167 -55.333 -27.5 -82s-15.166 -51.667 -20.499 -75s-8 -42 -8 -56c0 -6.66699 0.5 -12 1.5 -16s3.5 -6 7.5 -6c9.33301 0 21.5 7.16699 36.5 21.5s31.167 32.666 48.5 54.999
s35 46.5 53 72.5l49.5 74c15 23.333 27.5 43.5 37.5 60.5l18 30.5c4.66699 6.66699 10.334 10 17.001 10c10.667 0 16 -5.33301 16 -16v-3.5c0 -1.66699 -0.666992 -3.5 -2 -5.5c-3.33301 -6.66699 -11.166 -19.834 -23.499 -39.501l-44.5 -68
c-17.333 -25.667 -36.5 -52.667 -57.5 -81s-42 -54.5 -63 -78.5s-41.5 -43.667 -61.5 -59s-37.333 -23 -52 -23c-17.333 3.33301 -29 13.166 -35 29.499s-9 35.5 -9 57.5c0 19.333 1.5 39 4.5 59s6.16699 36.667 9.5 50c-14 -12 -29 -22.333 -45 -31s-32 -13 -48 -13
c-24 0 -41.833 8.16699 -53.5 24.5s-17.5 35.166 -17.5 56.499s5.33301 45.333 16 72c-38 -24 -80.167 -47.833 -126.5 -71.5s-93.5 -45 -141.5 -64s-95.333 -34.5 -142 -46.5s-89.334 -18 -128.001 -18c-24 0 -46.167 2.5 -66.5 7.5s-38.333 13 -54 24
s-28.334 25.167 -38.001 42.5s-15.834 38.333 -18.501 63c0 4 1.33301 7.5 4 10.5s5.66699 4.83301 9 5.5s6.66602 0.166992 9.99902 -1.5s5.66602 -5.16699 6.99902 -10.5c4.66699 -40 20.334 -68.5 47.001 -85.5s60 -25.5 100 -25.5c42 0 88.833 7.16699 140.5 21.5
s103.5 32.833 155.5 55.5s102.167 47.334 150.5 74.001s90.5 52.667 126.5 78c17.333 22.667 38.333 41.667 63 57s51.667 23 81 23c7.33301 0 14.833 -0.666992 22.5 -2l22.5 -4c4 13.333 10 22.5 18 27.5s18.667 7.5 32 7.5h19c7.33301 0 16.666 -3.66699 27.999 -11z
M36.002 188.003c10 0 20.166 3.50391 30.499 10.5039s20 15.167 29 24.5s17 18.666 24 27.999s12.167 16.666 15.5 21.999c6.66699 23.333 13.5 45.666 20.5 66.999l18.5 58l3 9c-2.66699 0.666992 -5.16699 1 -7.5 1h-6.5c-10 0 -19.833 -2 -29.5 -6s-19 -9.33301 -28 -16
s-17.333 -13.834 -25 -21.501s-14.5 -15.167 -20.5 -22.5c-16 -19.333 -28 -39.833 -36 -61.5s-12 -40.167 -12 -55.5c0 -11.333 1.83301 -20.333 5.5 -27s9.83398 -10 18.501 -10z" />
    <glyph glyph-name="b.002" horiz-adv-x="400" 
d="M-549 702c0.666992 4 2.66211 7.00293 5.99512 9.00293s6.83301 2.83301 10.5 2.5s6.83398 -1.66602 9.50098 -3.99902s3.66699 -5.83301 3 -10.5c-7.33301 -36.667 -5.16602 -69.334 6.50098 -98.001s30.167 -53.834 55.5 -75.501s56.166 -40 92.499 -55
s75.5 -27 117.5 -36s85.833 -15.333 131.5 -19s90.167 -5.16699 133.5 -4.5c7.33301 20 15 39.333 23 58s16.667 36.667 26 54c12 22.667 28.333 49.667 49 81s44.334 61.166 71.001 89.499s55.334 52.5 86.001 72.5s61.667 30 93 30c16 0 29.667 -2.5 41 -7.5
s20.5 -11.667 27.5 -20s12 -18 15 -29s4.5 -22.833 4.5 -35.5c0 -34.667 -8 -70.5 -24 -107.5s-39.5 -71 -70.5 -102s-69.167 -56.833 -114.5 -77.5s-97.333 -32.334 -156 -35.001c-6 -13.333 -11.667 -28.333 -17 -45s-10 -33 -14 -49l-4 -15
c15.333 10.667 33 19.5 53 26.5s39 10.5 57 10.5c20.667 0 38.834 -5.5 54.501 -16.5s26.167 -28.833 31.5 -53.5c28 15.333 55.5 33.666 82.5 54.999s49.833 44.333 68.5 69c1.33301 3.33301 3.5 5.5 6.5 6.5s5.5 1.5 7.5 1.5c4.66699 0 8.66699 -1.5 12 -4.5
s5 -6.83301 5 -11.5c0 -3.33301 -1 -6 -3 -8h1c-21.333 -32.667 -47.833 -60.667 -79.5 -84s-64.5 -43.333 -98.5 -60c-2 -22 -8.66699 -45 -20 -69s-25.5 -46 -42.5 -66s-36 -36.667 -57 -50s-41.833 -20 -62.5 -20s-39.334 5.33301 -56.001 16s-25 24.667 -25 42
c0 14 7.66699 28.667 23 44s33.166 30 53.499 44s40.833 26.333 61.5 37s36.334 18 47.001 22v14c0 21.333 -3.66699 36.5 -11 45.5s-16.666 13.5 -27.999 13.5c-14.667 0 -30.5 -5.16699 -47.5 -15.5s-31.5 -22.166 -43.5 -35.499v1l-8 -55l-7 -45
c-1.33301 -2.66699 -3 -4 -5 -4c-6.66699 0.666992 -14.167 2 -22.5 4s-16.166 4.66699 -23.499 8s-13.5 7.33301 -18.5 12s-7.5 10.667 -7.5 18c6 36 13.167 70.5 21.5 103.5s17.5 64.833 27.5 95.5l6 17c-46.667 -0.666992 -93.834 1.16602 -141.501 5.49902
s-93.167 11.5 -136.5 21.5s-83.666 23.5 -120.999 40.5s-68.666 37.5 -93.999 61.5s-43.833 51.833 -55.5 83.5s-13.834 67.834 -6.50098 108.501zM374.995 761.003c-17.333 0 -34.9951 -6.16797 -52.9951 -18.501s-36 -28.5 -54 -48.5s-35.5 -42.667 -52.5 -68
s-32.833 -50.666 -47.5 -75.999s-27.834 -49.833 -39.501 -73.5s-20.834 -44.167 -27.501 -61.5c49.333 4.66699 93.666 16 132.999 34s72.666 40.167 99.999 66.5s48.166 56 62.499 89s21.5 66.5 21.5 100.5c0 15.333 -3 28.5 -9 39.5s-17.333 16.5 -34 16.5zM43 46.002
c8 0 17.502 2.33301 28.502 7s22.333 11.834 34 21.501s22.667 21.834 33 36.501s19.166 32 26.499 52c-25.333 -10.667 -47 -21.334 -65 -32.001s-32.5 -20.834 -43.5 -30.501s-19 -18.167 -24 -25.5s-7.5 -13.333 -7.5 -18c0 -3.33301 1.66699 -6 5 -8
s7.66602 -3 12.999 -3z" />
    <glyph glyph-name="c.002" horiz-adv-x="371" 
d="M0 364c15.333 23.333 33.3389 42.335 54.0059 57.002s43 22 67 22c16.667 -1.33301 31.5 -7.33301 44.5 -18s19.5 -27.667 19.5 -51c0 -14.667 -2.83301 -30 -8.5 -46s-15.167 -32 -28.5 -48c-4 -4.66699 -8.33301 -7 -13 -7c-4 0 -7.16699 1.5 -9.5 4.5
s-3.5 6.5 -3.5 10.5c0 3.33301 1.33301 6.33301 4 9h-1c9.33301 14.667 16.333 28.5 21 41.5s7 23.833 7 32.5c0 20.667 -8.33301 31 -25 31c-15.333 0 -30.5 -9.5 -45.5 -28.5s-28.5 -42.5 -40.5 -70.5s-21.667 -58.5 -29 -91.5s-11 -63.5 -11 -91.5
c0 -22.667 3.66699 -40.5 11 -53.5s17.666 -20.167 30.999 -21.5c31.333 10 62.166 27.833 92.499 53.5s59.5 54.334 87.5 86.001s54.5 63.667 79.5 96s47.5 60.166 67.5 83.499c3.33301 5.33301 7.33301 8 12 8c5.33301 0 9.33301 -2 12 -6s4 -8 4 -12
c0 -4.66699 -1.33301 -8 -4 -10l-98.5 -128.5c-32.333 -41 -63.833 -77 -94.5 -108s-59.834 -55.667 -87.501 -74s-53.167 -27.5 -76.5 -27.5c-17.333 0 -32.333 3.83301 -45 11.5s-23 18 -31 31s-14 28.5 -18 46.5s-6 37 -6 57c0 25.333 2.83301 51.5 8.5 78.5
s13.5 52.833 23.5 77.5c-38 -24 -80.5 -48.333 -127.5 -73s-95.167 -47 -144.5 -67s-98 -36.333 -146 -49s-92 -19 -132 -19c-24 0 -46.167 2.5 -66.5 7.5s-38.333 13 -54 24s-28.334 25.167 -38.001 42.5s-15.834 38.333 -18.501 63c0 4 1.33301 7.5 4 10.5
s5.66699 4.83301 9 5.5s6.66602 0.166992 9.99902 -1.5s5.66602 -5.16699 6.99902 -10.5c4.66699 -40 20.334 -68.5 47.001 -85.5s60 -25.5 100 -25.5c28.667 0 59.667 3.5 93 10.5s67.5 16.333 102.5 28s70.333 25.167 106 40.5s70.167 31.666 103.5 48.999
s65 35.166 95 53.499s56.667 35.833 80 52.5z" />
    <glyph glyph-name="d.002" horiz-adv-x="389" 
d="M-361 791c0.666992 4 2.66895 7.00293 6.00195 9.00293s6.83301 2.83301 10.5 2.5s6.83398 -1.66602 9.50098 -3.99902s3.66699 -5.83301 3 -10.5c-7.33301 -37.333 -5 -70.5 7 -99.5s30.833 -54.333 56.5 -76s57 -40 94 -55s76.833 -26.833 119.5 -35.5
s87 -14.834 133 -18.501s91 -4.83398 135 -3.50098c25.333 54.667 52.166 105.5 80.499 152.5s57.333 87.833 87 122.5s59.834 61.834 90.501 81.501s60.667 29.5 90 29.5c27.333 0 48.333 -9 63 -27s22 -41.667 22 -71c0 -27.333 -7.83301 -58.333 -23.5 -93
s-39 -67.834 -70 -99.501s-69.167 -59 -114.5 -82s-98 -36.167 -158 -39.5c-6.66699 -11.333 -14.167 -26.833 -22.5 -46.5s-17 -41.834 -26 -66.501s-18 -50.667 -27 -78s-17 -53.833 -24 -79.5s-12.667 -49.5 -17 -71.5s-6.5 -40 -6.5 -54c0 -15.333 2.66699 -23 8 -23
s13 5.16699 23 15.5s21.5 24 34.5 41s27 36.5 42 58.5l44.5 67.5l43 67.5l37 59c3.33301 4 7 6.33301 11 7s7.66699 0 11 -2s5.66602 -4.83301 6.99902 -8.5s1 -7.83398 -1 -12.501l-38 -63l-46.5 -75c-16.333 -26 -33.333 -51.333 -51 -76s-34.667 -47 -51 -67
s-31.833 -36 -46.5 -48s-27.334 -18 -38.001 -18c-10 0 -18.5 3 -25.5 9s-12.5 13.667 -16.5 23s-6.83301 19.833 -8.5 31.5s-2.5 23.167 -2.5 34.5c0 16 1 32.333 3 49s4.33301 31.667 7 45c-15.333 -12.667 -29.666 -21.334 -42.999 -26.001s-26 -7 -38 -7
c-25.333 0 -43 7.33301 -53 22s-15 31.667 -15 51c0 12 1.5 24.333 4.5 37s6.83301 24.834 11.5 36.501s9.66699 22.5 15 32.5s10.333 18.333 15 25c17.333 24 38.833 45 64.5 63s54.167 27 85.5 27c13.333 0 26.666 -1.66699 39.999 -5l9 21
c-46.667 -1.33301 -94 0.166992 -142 4.5s-94 11.5 -138 21.5s-84.667 23.333 -122 40s-69 37.167 -95 61.5s-44.833 52.5 -56.5 84.5s-13.834 68.333 -6.50098 109zM505.002 809.003c-17.333 -14 -35.0029 -31.498 -53.0029 -52.498s-35.833 -44.5 -53.5 -70.5
s-35 -54.333 -52 -85s-33.167 -62.334 -48.5 -95.001c54.667 6 101.834 19.667 141.501 41s72.5 46.166 98.5 74.499s45.167 58 57.5 89s18.5 58.5 18.5 82.5c0 19.333 -3.16699 32.833 -9.5 40.5s-14.166 11.5 -23.499 11.5c-11.333 0 -23.666 -3.5 -36.999 -10.5
s-26.333 -15.5 -39 -25.5zM139.999 321.005c5.33301 16.667 10.8369 32.999 16.5039 48.999s12.5 31.667 20.5 47c-2.66699 0.666992 -5.66699 1 -9 1c-18.667 0 -36.334 -7.16699 -53.001 -21.5s-31.334 -31.666 -44.001 -51.999s-22.834 -41.5 -30.501 -63.5
s-11.5 -40.667 -11.5 -56c0 -16.667 4.66699 -25 14 -25s21.166 5.5 35.499 16.5s27.166 24.167 38.499 39.5c4.66699 10.667 8.83398 21.667 12.501 33z" />
    </font>
</defs>
</svg>
