<?xml version="1.0" standalone="no"?>
<!DOCTYPE svg PUBLIC "-//W3C//DTD SVG 1.1//EN" "http://www.w3.org/Graphics/SVG/1.1/DTD/svg11.dtd" >
<svg>
<metadata>
Created by FontForge 20090914 at Thu May 10 20:43:38 2018
 By www-data
Copyright (c) 2018 by Ximen Studio. All rights reserved.
</metadata>
<defs>
<font id="CintyaScript" horiz-adv-x="374" >
  <font-face 
    font-family="Cintya Script"
    font-weight="400"
    font-stretch="normal"
    units-per-em="1000"
    panose-1="2 0 8 7 0 0 0 9 0 2"
    ascent="750"
    descent="-250"
    x-height="359"
    cap-height="953.004"
    bbox="-1467.57 -693.583 2593.12 1167.57"
    underline-thickness="50"
    underline-position="-50"
    unicode-range="U+000D-U+E19F"
  />
<missing-glyph horiz-adv-x="367" 
 />
    <glyph glyph-name=".notdef" horiz-adv-x="367" 
 />
    <glyph glyph-name="NULL" horiz-adv-x="0" 
 />
    <glyph glyph-name="NULL" horiz-adv-x="0" 
 />
    <glyph glyph-name="nonmarkingreturn" unicode="&#xd;" horiz-adv-x="367" 
 />
    <glyph glyph-name="space" unicode=" " horiz-adv-x="367" 
 />
    <glyph glyph-name="exclam" unicode="!" horiz-adv-x="372" 
d="M313 940c14.667 -54.667 22.6709 -104.167 24.0039 -148.5s-2 -85.166 -10 -122.499s-19.333 -72.333 -34 -105s-30.5 -65 -47.5 -97l-49.5 -97c-16 -32.667 -29.5 -67.834 -40.5 -105.501s-18.333 -78.667 -22 -123s-0.833984 -93.833 8.49902 -148.5
c1.33301 -8.66699 0.666016 -15.834 -2.00098 -21.501s-6.33398 -9.5 -11.001 -11.5s-9.5 -1.66699 -14.5 1s-8.83301 8.33398 -11.5 17.001c-21.333 69.333 -30.5 133.5 -27.5 192.5s12.667 114.833 29 167.5s36.833 103 61.5 151l71 144.5
c22.667 48.333 41.667 97.5 57 147.5s21.666 103 18.999 159zM147.004 -71c15.333 0 28.5 -5.49902 39.5 -16.499s16.5 -24.167 16.5 -39.5c0 -6.66699 -0.833008 -12.334 -2.5 -17.001s-3.5 -8.66699 -5.5 -12c-2.66699 -4 -5.33398 -7.33301 -8.00098 -10
c-9.33301 -8.66699 -19.666 -13.834 -30.999 -15.501s-22 -0.5 -32 3.5s-18.333 10.5 -25 19.5s-10 19.5 -10 31.5c0 8 1.5 15.333 4.5 22s7.16699 12.667 12.5 18c2.66699 2.66699 6 5.33398 10 8.00098c3.33301 2 7.5 3.83301 12.5 5.5s11.167 2.5 18.5 2.5z" />
    <glyph glyph-name="quotedbl" unicode="&#x22;" horiz-adv-x="443" 
d="M184 761c-5.33301 -18.667 -12.833 -35.333 -22.5 -50s-20.167 -26.667 -31.5 -36c-12 -10 -24.167 -17.333 -36.5 -22s-23.166 -5.33398 -32.499 -2.00098c-3.33301 1.33301 -5.16602 3.83301 -5.49902 7.5s1.16699 6.16699 4.5 7.5
c15.333 5.33301 28.833 15.5 40.5 30.5s21.167 30.833 28.5 47.5c-8.66699 3.33301 -15.5 8.66602 -20.5 15.999s-7.5 15.666 -7.5 24.999c0 4.66699 0.666992 8.83398 2 12.501s2.66602 6.83398 3.99902 9.50098c2 2.66699 4.33301 5.33398 7 8.00098
c8.66699 8.66699 17.667 13.334 27 14.001s17.666 -1.5 24.999 -6.5s12.833 -12.833 16.5 -23.5s4.16699 -23.334 1.5 -38.001zM341 761.001c-5.33301 -18.667 -12.833 -35.333 -22.5 -50s-20.167 -26.667 -31.5 -36c-12 -10 -24.167 -17.333 -36.5 -22
s-23.166 -5.33398 -32.499 -2.00098c-3.33301 1.33301 -5.16602 3.83301 -5.49902 7.5s1.16699 6.16699 4.5 7.5c15.333 5.33301 28.833 15.5 40.5 30.5s21.167 30.833 28.5 47.5c-8.66699 3.33301 -15.5 8.66602 -20.5 15.999s-7.5 15.666 -7.5 24.999
c0 4.66699 0.666992 8.83398 2 12.501s2.66602 6.83398 3.99902 9.50098c2 2.66699 4.33301 5.33398 7 8.00098c8.66699 8.66699 17.667 13.334 27 14.001s17.666 -1.5 24.999 -6.5s12.833 -12.833 16.5 -23.5s4.16699 -23.334 1.5 -38.001z" />
    <glyph glyph-name="numbersign" unicode="#" horiz-adv-x="707" 
d="M97 130c-6.66699 0 -11.665 2.16504 -14.998 6.49805s-5 9 -5 14s1.66699 9.66699 5 14s8.33301 6.5 15 6.5h127l56 95h-183c-6.66699 0 -11.667 2.16699 -15 6.5s-5 9 -5 14s1.66699 9.66699 5 14s8.33301 6.5 15 6.5h207l133 225c3.33301 6 7.83301 9.33301 13.5 10
s10.667 -0.333008 15 -3s7.5 -6.5 9.5 -11.5s1.33301 -10.5 -2 -16.5l-121 -204l104 -1l134 226c3.33301 6 7.66602 9.33301 12.999 10s10.333 -0.333008 15 -3s7.83398 -6.5 9.50098 -11.5s0.833984 -10.5 -2.49902 -16.5l-121 -205h89c6.66699 0 11.667 -2.16699 15 -6.5
s5 -9 5 -14s-1.66699 -9.66699 -5 -14s-8.33301 -6.5 -15 -6.5h-113l-56 -94h169c6.66699 0 11.667 -2.16699 15 -6.5s5 -9.16602 5 -14.499s-1.66699 -10.166 -5 -14.499s-8.33301 -6.5 -15 -6.5l-193 1l-88 -150c-4 -6 -8.66699 -9.33301 -14 -10s-10.333 0.333008 -15 3
s-7.83398 6.5 -9.50098 11.5s-0.833984 10.5 2.49902 16.5l76 129h-105l-88 -150c-3.33301 -6 -7.66602 -9.33301 -12.999 -10s-10.333 0.333008 -15 3s-7.83398 6.5 -9.50098 11.5s-0.833984 10.5 2.49902 16.5l76 129h-103zM432.002 264.998h-104l-56 -94h104z" />
    <glyph glyph-name="dollar" unicode="$" horiz-adv-x="750" 
d="M576 498c-5.33301 -4 -10.6689 -4.33203 -16.002 -0.999023c-2 2 -3 4.66699 -3 8s0.666992 6 2 8c24 26.667 43.667 52.167 59 76.5s26.833 47 34.5 68s12 40.333 13 58s-0.833008 33.5 -5.5 47.5c-7.33301 21.333 -17.5 37.666 -30.5 48.999s-26.833 18 -41.5 20
s-29.5 -0.833008 -44.5 -8.5s-27.833 -20 -38.5 -37s-18.167 -38.5 -22.5 -64.5s-3.5 -56.333 2.5 -91c0 -2 0.166992 -3.66699 0.5 -5s0.5 -3.33301 0.5 -6l93 157c3.33301 5.33301 7.83301 8.83301 13.5 10.5s10.834 0.833984 15.501 -2.49902
c5.33301 -3.33301 8.83301 -7.66602 10.5 -12.999s0.833984 -10.666 -2.49902 -15.999l-117 -202l14 -85c4.66699 -28.667 8 -57.167 10 -85.5s2.5 -56.666 1.5 -84.999s-4.83301 -55.833 -11.5 -82.5c-12.667 -52 -30.834 -94.333 -54.501 -127s-49.5 -56.667 -77.5 -72
s-56.833 -23 -86.5 -23s-57 6.66699 -82 20s-46.167 32.5 -63.5 57.5s-27.666 54.5 -30.999 88.5s1.66699 72 15 114s38.333 86.333 75 133c4 5.33301 9 6 15 2c2 -2 3.33301 -4.5 4 -7.5s0.333984 -5.5 -0.999023 -7.5c-34.667 -44 -58.167 -86 -70.5 -126
s-16.666 -76 -12.999 -108s13.667 -59.167 30 -81.5s35.833 -37.666 58.5 -45.999s47 -9 73 -2s50.333 23.833 73 50.5c29.333 33.333 51 80.333 65 141c9.33301 38 13.5 77.167 12.5 117.5s-4.83301 81.166 -11.5 122.499l-159 -269
c-2.66699 -5.33301 -6.83398 -8.83301 -12.501 -10.5s-11.167 -0.833984 -16.5 2.49902s-8.83301 7.83301 -10.5 13.5s-0.833984 11.167 2.49902 16.5l185 314c-2.66699 17.333 -5.5 34.166 -8.5 50.499s-6.16699 32.166 -9.5 47.499c-8 49.333 -7.16699 90.5 2.5 123.5
s24.167 58.667 43.5 77s41.666 29.666 66.999 33.999s49.5 2.33301 72.5 -6s42.833 -22.5 59.5 -42.5s26 -45.333 28 -76s-5.16699 -66 -21.5 -106s-46.166 -84.333 -89.499 -133z" />
    <glyph glyph-name="percent" unicode="%" horiz-adv-x="695" 
d="M608 952c4 6.66699 9.16699 10.667 15.5 12s12 0.5 17 -2.5s8.66699 -7.5 11 -13.5s1.5 -12.333 -2.5 -19l-528 -921c-4 -7.33301 -9.16699 -11.5 -15.5 -12.5s-12 0 -17 3s-8.66699 7.5 -11 13.5s-1.5 12.333 2.5 19zM368 871
c14.667 -6.66699 24.5029 -17.498 29.5029 -32.498s6.66699 -31.5 5 -49.5s-6.66699 -36.5 -15 -55.5s-18.333 -35.5 -30 -49.5s-25 -24.5 -40 -31.5s-30.167 -7.83301 -45.5 -2.5c-16 5.33301 -26.833 15.666 -32.5 30.999s-7.33398 32.333 -5.00098 51
s7.66602 37.667 15.999 57s18.666 36.333 30.999 51s26 25.167 41 31.5s30.167 6.16602 45.5 -0.500977zM461.003 308.002c14 -6.66699 23.667 -17.334 29 -32.001s7 -31.167 5 -49.5s-7 -36.833 -15 -55.5s-18 -35.167 -30 -49.5s-25.333 -25 -40 -32
s-29.667 -7.83301 -45 -2.5c-16 5.33301 -26.833 15.666 -32.5 30.999s-7.5 32.333 -5.5 51s7.33301 37.667 16 57s19.167 36.333 31.5 51s26 25.334 41 32.001s30.167 6.33398 45.5 -0.999023zM383.003 189.002c-7.33301 -24 -8.66699 -41.833 -4 -53.5
s11.667 -17.334 21 -17.001s19.833 6.5 31.5 18.5s20.834 30 27.501 54c6.66699 23.333 8.16699 42.333 4.5 57s-10 22.834 -19 24.501s-19.333 -4 -31 -17s-21.834 -35.167 -30.501 -66.5zM290.002 752.002c-7.33301 -24 -8.66992 -41.999 -4.00293 -53.999
s11.834 -17.667 21.501 -17s20.334 7 32.001 19s20.834 30 27.501 54c6.66699 23.333 8.16699 42.166 4.5 56.499s-10 22.333 -19 24s-19.333 -4 -31 -17s-22.167 -34.833 -31.5 -65.5z" />
    <glyph glyph-name="ampersand" unicode="&#x26;" horiz-adv-x="863" 
d="M298 324c-5.33301 5.33301 -5.00293 10.335 0.99707 15.002c2 1.33301 4.5 2 7.5 2s5.16699 -1.33301 6.5 -4c9.33301 -11.333 21.333 -18 36 -20s30.834 -0.666992 48.501 4s36.5 11.5 56.5 20.5s40.167 19 60.5 30l60 32c19.667 10.333 38.167 19.166 55.5 26.499
c19.333 8 38 14 56 18s34.833 4.66699 50.5 2s29.834 -9 42.501 -19s23.334 -25.333 32.001 -46c2.66699 -6 0.666992 -10.667 -6 -14c-2.66699 -0.666992 -5.33398 -0.666992 -8.00098 0s-4.33398 2.66699 -5.00098 6c-10.667 25.333 -25.667 41 -45 47
s-40.333 6.5 -63 1.5s-45.667 -13.333 -69 -25s-44.666 -22.834 -63.999 -33.501c2 -46.667 -3.33301 -91.5 -16 -134.5s-31.5 -81.167 -56.5 -114.5s-55.5 -60.166 -91.5 -80.499s-77 -31.5 -123 -33.5c-42.667 -2 -79.167 4 -109.5 18s-54.666 33.333 -72.999 58
s-31 53 -38 85s-8 65.167 -3 99.5s15.5 68.5 31.5 102.5s37.667 65.167 65 93.5s60.166 52.333 98.499 72s82.166 32.5 131.499 38.5c-21.333 14.667 -36.5 32 -45.5 52s-13.167 40.833 -12.5 62.5s5.83398 42.667 15.501 63s22.5 38.5 38.5 54.5
c13.333 12.667 28.666 23 45.999 31s36 12.667 56 14c19.333 1.33301 36.333 -0.833984 51 -6.50098s26.334 -13.5 35.001 -23.5s14 -21.5 16 -34.5s-0.333008 -26.5 -7 -40.5s-17.834 -27.833 -33.501 -41.5s-36.5 -25.834 -62.5 -36.501
c-3.33301 -2 -6.83301 -3.5 -10.5 -4.5s-7.16699 -2.16699 -10.5 -3.5c-2.66699 -1.33301 -5.16699 -1.16602 -7.5 0.500977s-4.16602 3.83398 -5.49902 6.50098c-1.33301 7.33301 1 11.666 7 12.999c33.333 10 58.333 22.5 75 37.5s27 29.833 31 44.5s2.66699 28 -4 40
s-16.5 19.833 -29.5 23.5s-28.333 1.83398 -46 -5.49902s-35.5 -22.333 -53.5 -45c-13.333 -17.333 -22.833 -35.666 -28.5 -54.999s-7 -38.166 -4 -56.499s10.667 -35.333 23 -51s29.5 -28.167 51.5 -37.5l6 -8c0 -6 -3.66699 -9.66699 -11 -11
c-71.333 -10.667 -130.166 -31.167 -176.499 -61.5s-82 -65.166 -107 -104.499s-40.333 -80.333 -46 -123s-3.33398 -81.667 6.99902 -117s27.5 -64.333 51.5 -87s53.333 -33.667 88 -33c41.333 0 78.666 10.167 111.999 30.5s61.5 46.166 84.5 77.499
s40.5 66.666 52.5 105.999s17.667 78 17 116c-23.333 -12.667 -46.166 -24.334 -68.499 -35.001s-43.666 -18.334 -63.999 -23.001s-39 -5.5 -56 -2.5s-31.5 12.167 -43.5 27.5z" />
    <glyph glyph-name="quotesingle" unicode="'" horiz-adv-x="313" 
d="M178 700c-5.33301 -18.667 -12.833 -35.333 -22.5 -50s-20.167 -26.667 -31.5 -36c-12 -10 -24.167 -17.333 -36.5 -22s-23.166 -5.33398 -32.499 -2.00098c-3.33301 1.33301 -5.16602 3.83301 -5.49902 7.5s1.16699 6.16699 4.5 7.5
c15.333 5.33301 28.833 15.5 40.5 30.5s21.167 30.833 28.5 47.5c-8.66699 3.33301 -15.5 8.66602 -20.5 15.999s-7.5 15.666 -7.5 24.999c0 4.66699 0.666992 8.83398 2 12.501s2.66602 6.83398 3.99902 9.50098c2 2.66699 4.33301 5.33398 7 8.00098
c8.66699 8.66699 17.667 13.334 27 14.001s17.666 -1.5 24.999 -6.5s12.833 -12.833 16.5 -23.5s4.16699 -23.334 1.5 -38.001z" />
    <glyph glyph-name="parenleft" unicode="(" horiz-adv-x="340" 
d="M659 970c-34 0 -70.001 -12.0029 -108.001 -36.0029s-75.833 -56.5 -113.5 -97.5s-74.334 -88.5 -110.001 -142.5s-68.334 -110.5 -98.001 -169.5s-55.334 -119 -77.001 -180s-37.167 -119 -46.5 -174s-11.666 -105 -6.99902 -150s18.334 -81.5 41.001 -109.5
c2.66699 -2.66699 3.83398 -5.66699 3.50098 -9s-1.66602 -6.16602 -3.99902 -8.49902s-5.16602 -3.83301 -8.49902 -4.5s-6.66602 0.333008 -9.99902 3c-32.667 20.667 -55.834 50.334 -69.501 89.001s-19.834 83.334 -18.501 134.001c2 56.667 12 117.167 30 181.5
s41.333 128.166 70 191.499s61 124 97 182s73 109 111 153c26 30 52.667 57 80 81s54.666 43.833 81.999 59.5s54.5 26.667 81.5 33s53.167 6.83301 78.5 1.5c4 -1.33301 6.83301 -3.5 8.5 -6.5s2.33398 -6.16699 2.00098 -9.5s-1.83301 -6.16602 -4.5 -8.49902
s-6 -3.5 -10 -3.5z" />
    <glyph glyph-name="parenright" unicode=")" horiz-adv-x="459" 
d="M-227 -80c34 0 70.0039 12.168 108.004 36.501s75.833 57 113.5 98s74.5 88.333 110.5 142s68.833 110.167 98.5 169.5s55.334 119.5 77.001 180.5s37.167 118.833 46.5 173.5s11.666 104.5 6.99902 149.5s-18.334 81.5 -41.001 109.5
c-2.66699 2.66699 -3.83398 5.66699 -3.50098 9s1.66602 6.16602 3.99902 8.49902s5.16602 3.83301 8.49902 4.5s6.66602 -0.333008 9.99902 -3c32.667 -20 55.834 -49.5 69.501 -88.5s19.5 -83.833 17.5 -134.5c-2 -56.667 -11.833 -117.167 -29.5 -181.5
s-40.834 -128.166 -69.501 -191.499s-61 -124 -97 -182s-73 -109 -111 -153c-26 -30 -52.667 -57 -80 -81s-54.666 -43.833 -81.999 -59.5s-54.5 -26.5 -81.5 -32.5s-53.167 -6.33301 -78.5 -1c-4 0.666992 -7 2.5 -9 5.5s-2.83301 6.16699 -2.5 9.5
s1.83301 6.16602 4.5 8.49902s6 3.5 10 3.5z" />
    <glyph glyph-name="asterisk" unicode="*" horiz-adv-x="353" 
d="M154 737c-1.33301 7.33301 1.16895 11.6709 7.50195 13.0039s10.166 -1.33398 11.499 -8.00098l14 -62l48 42c2 2 4.33301 2.83301 7 2.5s4.83398 -1.5 6.50098 -3.5s2.66699 -4.33301 3 -7s-0.833984 -5 -3.50098 -7l-47 -43l60 -20
c3.33301 -1.33301 5.5 -3.16602 6.5 -5.49902s1.16699 -4.83301 0.5 -7.5s-2.16699 -4.66699 -4.5 -6s-4.83301 -1.33301 -7.5 0l-61 19l13 -62c0.666992 -3.33301 0.166992 -6 -1.5 -8s-3.83398 -3.33301 -6.50098 -4s-5.16699 -0.333984 -7.5 0.999023
s-3.83301 3.66602 -4.5 6.99902l-14 62l-46 -43c-2.66699 -2.66699 -5.5 -3.83398 -8.5 -3.50098s-5.33301 1.5 -7 3.5s-2.5 4.5 -2.5 7.5s1.33301 5.5 4 7.5l46 43l-60 20c-3.33301 1.33301 -5.5 3.33301 -6.5 6s-1.16699 5.16699 -0.5 7.5s2 4.16602 4 5.49902
s4.66699 1.33301 8 0l62 -19z" />
    <glyph glyph-name="plus" unicode="+" horiz-adv-x="701" 
d="M346 452c0 5.33301 1.66699 9.33301 5 12s7 4 11 4s7.66699 -1.33301 11 -4s5 -6.66699 5 -12v-188h188c5.33301 0 9.33301 -1.66699 12 -5s4 -7 4 -11s-1.33301 -7.66699 -4 -11s-6.66699 -5 -12 -5h-188v-188c0 -5.33301 -1.66699 -9.33301 -5 -12s-7 -4 -11 -4
s-7.66699 1.33301 -11 4s-5 6.66699 -5 12v188h-188c-5.33301 0 -9.33301 1.66699 -12 5s-4 7 -4 11s1.33301 7.66699 4 11s6.66699 5 12 5h188v188z" />
    <glyph glyph-name="comma" unicode="," horiz-adv-x="334" 
d="M164 55c-5.33301 -18.667 -12.833 -35.333 -22.5 -50s-20.167 -26.667 -31.5 -36c-12 -10 -24.167 -17.333 -36.5 -22s-23.166 -5.33398 -32.499 -2.00098c-3.33301 1.33301 -5.16602 3.83301 -5.49902 7.5s1.16699 6.16699 4.5 7.5
c15.333 5.33301 28.833 15.5 40.5 30.5s21.167 30.833 28.5 47.5c-8.66699 3.33301 -15.5 8.66602 -20.5 15.999s-7.5 15.666 -7.5 24.999c0 4.66699 0.666992 8.83398 2 12.501s2.66602 6.83398 3.99902 9.50098c2 2.66699 4.33301 5.33398 7 8.00098
c8.66699 8.66699 17.667 13.334 27 14.001s17.666 -1.5 24.999 -6.5s12.833 -12.833 16.5 -23.5s4.16699 -23.334 1.5 -38.001z" />
    <glyph glyph-name="hyphen" unicode="-" horiz-adv-x="759" 
d="M126 243c-9.33301 0 -16.166 2.83301 -20.499 8.5s-6.5 12 -6.5 19s2.16699 13.333 6.5 19s11.166 8.5 20.499 8.5l509 -1c8.66699 0 15.334 -2.83301 20.001 -8.5s7 -12 7 -19s-2.33301 -13.333 -7 -19s-11.334 -8.5 -20.001 -8.5z" />
    <glyph glyph-name="period" unicode="." horiz-adv-x="291" 
d="M93 85c11.333 0 21.165 -4.16602 29.498 -12.499s12.5 -18.5 12.5 -30.5c0 -4.66699 -0.833008 -8.66699 -2.5 -12l-4.5 -9l-6 -8c-6.66699 -6.66699 -14.167 -10.667 -22.5 -12s-16.166 -0.5 -23.499 2.5s-13.5 7.83301 -18.5 14.5s-7.5 14.667 -7.5 24
c0 12 4.33301 22.333 13 31c2 2 4.33301 4 7 6c2.66699 1.33301 5.83398 2.66602 9.50098 3.99902s8.16699 2 13.5 2z" />
    <glyph glyph-name="slash" unicode="/" horiz-adv-x="356" 
d="M412 973c3.33301 8.66699 8.50293 14.167 15.5029 16.5s13.667 2.16602 20 -0.500977s11.5 -7.16699 15.5 -13.5s4.33301 -13.833 1 -22.5l-367 -968c-3.33301 -8.66699 -8.33301 -14.167 -15 -16.5s-13.334 -2.16602 -20.001 0.500977s-11.834 7 -15.501 13
s-3.83398 13.333 -0.500977 22z" />
    <glyph glyph-name="zero" unicode="0" horiz-adv-x="443" 
d="M231 119c18 20 35 43 51 69s30.167 53.333 42.5 82s22.666 57.834 30.999 87.501s13.5 57.5 15.5 83.5c3.33301 41.333 1.16602 71.833 -6.50098 91.5s-19.5 28.834 -35.5 27.501c-17.333 -1.33301 -34.666 -9.5 -51.999 -24.5s-34.166 -34.333 -50.499 -58
s-31.5 -50.167 -45.5 -79.5s-26 -59.333 -36 -90s-17.667 -60.667 -23 -90s-7.33301 -55.333 -6 -78c1.33301 -26 5.5 -44.333 12.5 -55s16 -15.834 27 -15.501s23 5.16602 36 14.499s26.167 21 39.5 35zM157 37c-18.667 -6 -36.1689 -4.50195 -52.502 4.49805
s-28.833 23.167 -37.5 42.5c-8.66699 20 -13.167 43.667 -13.5 71s2.5 56.333 8.5 87s14.5 61.834 25.5 93.501s23.667 61.834 38 90.501s29.833 54.834 46.5 78.501s33.334 42.5 50.001 56.5s34.167 24.333 52.5 31s35.5 8.66699 51.5 6s30.167 -10.5 42.5 -23.5
s21.166 -32.5 26.499 -58.5c4.66699 -24.667 5.33398 -53 2.00098 -85s-10.166 -64.833 -20.499 -98.5s-23.5 -66.834 -39.5 -99.501s-33.5 -62.667 -52.5 -90s-39.5 -50.5 -61.5 -69.5s-44 -31.167 -66 -36.5z" />
    <glyph glyph-name="one" unicode="1" horiz-adv-x="442" 
d="M104 545c-3.33301 2.66699 -5.16699 5.83301 -5.5 9.5s1.16699 7.16699 4.5 10.5c2 3.33301 4.83301 5.16602 8.5 5.49902s7.16699 -1.16699 10.5 -4.5c15.333 -13.333 30.5 -21.666 45.5 -24.999s29.333 -3.83301 43 -1.5s26.5 6.5 38.5 12.5s22.833 12.167 32.5 18.5
l25 16.5c7 4.66699 12.5 6.66699 16.5 6l60 -1c4 0 7.5 -1.66699 10.5 -5s4.16699 -7 3.5 -11c-0.666992 -4.66699 -5.83398 -18 -15.501 -40l-36 -81l-48 -105.5l-52 -112.5l-47.5 -102.5l-35 -75.5h20c9.33301 0 14 -4.33301 14 -13c0 -9.33301 -4.66699 -14 -14 -14h-130
c-3.33301 0 -6.5 1.33301 -9.5 4s-4.5 6 -4.5 10c0 3.33301 1.5 6.33301 4.5 9s6.16699 4 9.5 4h19l222 486c-10.667 -7.33301 -23.167 -14.333 -37.5 -21s-29.666 -11 -45.999 -13s-33.5 -0.666992 -51.5 4s-36.333 14.667 -55 30z" />
    <glyph glyph-name="two" unicode="2" horiz-adv-x="648" 
d="M530 137c2.66699 8.66699 8.33203 11.6709 16.999 9.00391s11.667 -8.33398 9 -17.001c-7.33301 -24.667 -16.5 -42.5 -27.5 -53.5s-23.5 -17.5 -37.5 -19.5s-29.5 -1 -46.5 3s-35.167 8.83301 -54.5 14.5s-39.5 11.167 -60.5 16.5s-42.5 8 -64.5 8
s-44.5 -3.66699 -67.5 -11s-45.833 -21 -68.5 -41c-2 -2 -5 -3 -9 -3h-62c-6 0 -10.167 3 -12.5 9s-1.16602 11 3.50098 15c4 3.33301 10.5 8.16602 19.5 14.499l33.5 23.5l69 50.5l84.5 64l89 72c29.667 25 57.167 50 82.5 75s47.333 49.333 66 73s31.667 45.5 39 65.5
c8 22.667 7.66699 40 -1 52s-21.334 18 -38.001 18s-35.334 -6.66699 -56.001 -20s-38.667 -33.333 -54 -60c-11.333 -19.333 -19.166 -40.666 -23.499 -63.999s-4.16602 -45.666 0.500977 -66.999c2 -8.66699 -1.33301 -14.334 -10 -17.001
c-8.66699 -2 -14.334 1.66699 -17.001 11c-5.33301 25.333 -5.66602 50.666 -0.999023 75.999s13.667 49.666 27 72.999c17.333 30.667 38 54.167 62 70.5s47.833 26 71.5 29s45.167 0.166992 64.5 -8.5s32.833 -22.334 40.5 -41.001s8 -42 1 -70s-24.833 -59.333 -53.5 -94
c-19.333 -23.333 -41.833 -46.666 -67.5 -69.999s-52.667 -46.333 -81 -69l-86.5 -67l-85 -64c24 4 47.5 4.33301 70.5 1s44.833 -7.83301 65.5 -13.5s40 -11.334 58 -17.001s34.167 -8.66699 48.5 -9s26.833 3.16699 37.5 10.5s19 21.333 25 42z" />
    <glyph glyph-name="three" unicode="3" horiz-adv-x="512" 
d="M255 477c-1.33301 -4 -3.66504 -7.00879 -6.99805 -9.00879s-6.66602 -2.33301 -9.99902 -1s-6.16602 3.66602 -8.49902 6.99902s-2.83301 6.66602 -1.5 9.99902c10.667 36.667 25.834 64.334 45.501 83.001s40 30.167 61 34.5s40.833 2.5 59.5 -5.5
s32.5 -20.167 41.5 -36.5s11.167 -36 6.5 -59s-20 -47.5 -46 -73.5c-5.33301 -5.33301 -12 -10.5 -20 -15.5l-25 -15.5c32.667 -24 53 -52.333 61 -85s7.16699 -65.334 -2.5 -98.001s-26.5 -63.167 -50.5 -91.5s-51.667 -49.833 -83 -64.5
c-43.333 -20.667 -80.333 -29.5 -111 -26.5s-55 12.667 -73 29s-29.833 37 -35.5 62s-4.66699 49.667 3 74s21.834 46 42.501 65s48 30.5 82 34.5c3.33301 0.666992 6.33301 -0.666016 9 -3.99902s4 -6.66602 4 -9.99902c0 -8 -4.66699 -12.667 -14 -14
c-22 -3.33301 -40.5 -10.666 -55.5 -21.999s-26.5 -24.666 -34.5 -39.999s-12.167 -31.666 -12.5 -48.999s2.83398 -33 9.50098 -47s17.167 -25.5 31.5 -34.5s32.5 -12.833 54.5 -11.5c20.667 0.666992 41.667 7.33398 63 20.001s40.5 28.834 57.5 48.501
s30.667 41.334 41 65.001s15 47.334 14 71.001s-8.83301 45.834 -23.5 66.501s-38.334 37.667 -71.001 51c-5.33301 2 -8 5.83301 -8 11.5s2.33301 9.83398 7 12.501c32 16.667 57.167 33.334 75.5 50.001s31.166 32 38.499 46s10.166 26.167 8.49902 36.5
s-6.33398 17.833 -14.001 22.5s-17.334 6 -29.001 4s-23.834 -8.33301 -36.501 -19c-9.33301 -8 -17.833 -17.833 -25.5 -29.5s-13.834 -25.834 -18.501 -42.501z" />
    <glyph glyph-name="four" unicode="4" horiz-adv-x="630" 
d="M409 528c6 6.66699 12.3291 8.33105 18.9961 4.99805s8.33398 -9.66602 5.00098 -18.999c-26 -42 -55 -80.833 -87 -116.5s-65.667 -67.834 -101 -96.501c24.667 -5.33301 47 -10.833 67 -16.5s42.333 -9.5 67 -11.5l48.5 105l44 96.5l32 72.5
c8.33301 19.333 12.833 30.666 13.5 33.999c1.33301 7.33301 5.66602 11 12.999 11h62c4 0 7.5 -1.66699 10.5 -5s4.16699 -7 3.5 -11c-0.666992 -5.33301 -6.16699 -19.833 -16.5 -43.5l-39 -86.5l-51.5 -111.5l-54.5 -117l-48 -104l-32.5 -72.5
c-3.33301 -6 -7.66602 -9 -12.999 -9h-61c-5.33301 0 -9.33301 2 -12 6s-3 8.33301 -1 13l90 196c-14 1.33301 -27 3.16602 -39 5.49902s-23.833 5 -35.5 8l-35.5 9c-12 3 -25.333 6.16699 -40 9.5c-34.667 -25.333 -64.667 -41.166 -90 -47.499
s-45.333 -7.16602 -60 -2.49902s-23.5 12.834 -26.5 24.501s0.833008 23 11.5 34s28.334 19.333 53.001 25s57.334 4.83398 98.001 -2.49902c38.667 28.667 76.334 61.667 113.001 99s67.667 77 93 119zM169.996 286.997c-21.333 3.33301 -39.3311 3.99902 -53.998 1.99902
s-25.834 -5.16699 -33.501 -9.5s-12 -9 -13 -14s1.16699 -8.5 6.5 -10.5c6.66699 -2.66699 17.667 -2.16699 33 1.5s35.666 13.834 60.999 30.501z" />
    <glyph glyph-name="five" unicode="5" horiz-adv-x="501" 
d="M487 589c2.66699 2 6.16602 4.99219 10.499 8.99219s9.16602 3.33301 14.499 -2c7.33301 -5.33301 8 -11.666 2 -18.999c-9.33301 -11.333 -22.666 -20.666 -39.999 -27.999s-36.166 -12.833 -56.499 -16.5s-40.833 -5.33398 -61.5 -5.00098
s-39.334 2.16602 -56.001 5.49902l-61 -117c51.333 -2 92.166 -9.66699 122.499 -23s52 -30.166 65 -50.499s18.667 -43.166 17 -68.499s-8.66699 -50.833 -21 -76.5s-29 -50.167 -50 -73.5s-44 -43.5 -69 -60.5s-51.167 -29.667 -78.5 -38s-53.333 -10.166 -78 -5.49902
c-26.667 5.33301 -48.667 15.333 -66 30s-30.166 31.834 -38.499 51.501s-12.166 40.334 -11.499 62.001s5.5 41.667 14.5 60s22 34 39 47s37.833 20.5 62.5 22.5c3.33301 0 6.5 -1.16699 9.5 -3.5s4.5 -5.5 4.5 -9.5c0.666992 -3.33301 -0.333008 -6.5 -3 -9.5
s-5.66699 -4.83301 -9 -5.5c-20.667 -2 -37.5 -7.83301 -50.5 -17.5s-22.833 -21.5 -29.5 -35.5s-9.66699 -29.167 -9 -45.5s4.5 -31.666 11.5 -45.999s17.5 -26.666 31.5 -36.999s31 -16.5 51 -18.5c23.333 -2.66699 46.166 0.166016 68.499 8.49902s43 20.333 62 36
s35.333 33.834 49 54.501s23.334 41.834 29.001 63.501s6.66699 42.667 3 63s-13.334 38 -29.001 53s-38.334 26.333 -68.001 34s-67.5 9.5 -113.5 5.5c-6 -0.666992 -10.5 1.16602 -13.5 5.49902s-3.5 9.16602 -1.5 14.499l95 181
c2.66699 2.66699 5.33398 3.83398 8.00098 3.50098s5.33398 -1.16602 8.00098 -2.49902l8 -6c10.667 -9.33301 26.5 -15.833 47.5 -19.5s43 -5 66 -4s45 4.33301 66 10s37.167 13.5 48.5 23.5z" />
    <glyph glyph-name="six" unicode="6" horiz-adv-x="464" 
d="M64 259c4.66699 26 12.002 53.499 22.002 82.499s22.5 57.167 37.5 84.5s32.333 53 52 77s41.5 44.5 65.5 61.5s50.167 29.167 78.5 36.5s58.5 8 90.5 2c4.66699 -1.33301 7.83398 -3.5 9.50098 -6.5s2.16699 -6.33301 1.5 -10s-2.33398 -6.66699 -5.00098 -9
s-6.33398 -3.16602 -11.001 -2.49902c-17.333 3.33301 -36.333 -1.33398 -57 -14.001s-40.667 -28.5 -60 -47.5s-36.833 -38.833 -52.5 -59.5s-27.167 -37.667 -34.5 -51c-3.33301 -5.33301 -6.33301 -10.666 -9 -15.999l-8 -16c26.667 10 52 12.833 76 8.5
s44 -15.166 60 -32.499s26.333 -40.666 31 -69.999s0.666992 -64 -12 -104c-10.667 -33.333 -25.834 -61.166 -45.501 -83.499s-41 -38.333 -64 -48s-46 -12.834 -69 -9.50098s-43 13.666 -60 30.999s-29.333 42.166 -37 74.499s-7.5 72.833 0.5 121.5zM167.002 331.999
c-6 -17.333 -11.6689 -35.6689 -17.002 -55.002s-9.16602 -38.666 -11.499 -57.999s-2.83301 -38.333 -1.5 -57s5 -35.667 11 -51c12 -29.333 27.167 -45.333 45.5 -48s36.333 3.16602 54 17.499s33.667 34.333 48 60s23.666 52.334 27.999 80.001s2.5 53.5 -5.5 77.5
s-25.667 41.333 -53 52c-15.333 6 -31.666 6.83301 -48.999 2.5s-33.666 -11.166 -48.999 -20.499z" />
    <glyph glyph-name="seven" unicode="7" horiz-adv-x="518" 
d="M77 311c-9.33301 0 -14.001 4.66992 -14.001 14.0029c0 8.66699 4.66699 13 14 13l139 1c21.333 45.333 43.833 86 67.5 122s46.834 68 69.501 96c-18.667 -3.33301 -38.167 -4.5 -58.5 -3.5s-40.333 2.66699 -60 5s-38.667 4 -57 5s-34.833 -0.166992 -49.5 -3.5
s-27.334 -10 -38.001 -20s-18.334 -25 -23.001 -45c-2 -8.66699 -7.33301 -12.334 -16 -11.001c-9.33301 2.66699 -13 8.33398 -11 17.001c6.66699 28.667 17.5 49.667 32.5 63s32.5 21.666 52.5 24.999s42 3.66602 66 0.999023s48 -5 72 -7s47.333 -2.33301 70 -1
s43 7.66602 61 18.999c1.33301 1.33301 4 2 8 2h61c6 0 10.333 -2.83301 13 -8.5s1.66699 -10.5 -3 -14.5c-28.667 -29.333 -60 -63.833 -94 -103.5s-67 -85.5 -99 -137.5h85c9.33301 0 14 -4.66699 14 -14c0 -3.33301 -1.33301 -6.5 -4 -9.5s-6 -4.5 -10 -4.5h-101
c-21.333 -38 -40.5 -78.667 -57.5 -122s-30.167 -90 -39.5 -140c-2 -8 -6.66699 -12 -14 -12h-18c-4 0.666992 -7.16699 2.66699 -9.5 6s-3.16602 7 -2.49902 11c9.33301 48 20.833 93.333 34.5 136s28.834 83 45.501 121h-126z" />
    <glyph glyph-name="eight" unicode="8" horiz-adv-x="437" 
d="M362 502c5.33301 24 4.16699 43 -3.5 57s-18.167 23 -31.5 27s-27.5 2.83301 -42.5 -3.5s-26.833 -17.833 -35.5 -34.5s-12.5 -38.5 -11.5 -65.5s10.833 -59.5 29.5 -97.5c20.667 14.667 40.167 31.5 58.5 50.5s30.5 41.167 36.5 66.5zM388.001 495
c-7.33301 -30 -21.167 -55.666 -41.5 -76.999s-42.833 -40.666 -67.5 -57.999c30 -56.667 47.833 -105.334 53.5 -146.001s3.16699 -74.334 -7.5 -101.001s-27.167 -46.834 -49.5 -60.501s-46.5 -21.667 -72.5 -24s-51.333 0.833984 -76 9.50098s-44.667 21.667 -60 39
c-16 18 -24.5 38.5 -25.5 61.5s3.83301 46.833 14.5 71.5c6.66699 14.667 15.667 28.167 27 40.5s23.833 24 37.5 35s28.167 21.667 43.5 32l47 30.5c-22.667 35.333 -36.667 67.5 -42 96.5s-5 54.333 1 76s16.5 39.667 31.5 54s31.667 25 50 32s36.833 10 55.5 9
s35.167 -6 49.5 -15s24.833 -22.333 31.5 -40s6.66699 -39.5 0 -65.5zM226 325.001l-44 -28.501c-14.667 -9.66699 -28.5 -19.667 -41.5 -30s-24.5 -21 -34.5 -32s-18 -22.833 -24 -35.5c-15.333 -33.333 -18.166 -61.333 -8.49902 -84s25 -38.667 46 -48
s44 -11.666 69 -6.99902s45.5 17.167 61.5 37.5s23.667 49.333 23 87s-16.334 84.5 -47.001 140.5z" />
    <glyph glyph-name="nine" unicode="9" horiz-adv-x="453" 
d="M409 425c-2 -27.333 -7.16504 -56.4971 -15.498 -87.4971s-19.333 -61.5 -33 -91.5s-29.834 -58.5 -48.501 -85.5s-39.834 -50.5 -63.501 -70.5s-49.667 -35.333 -78 -46s-58.5 -14.667 -90.5 -12c-3.33301 0 -7 0.166992 -11 0.5s-8 1.16602 -12 2.49902
s-7.16699 3.16602 -9.5 5.49902s-2.83301 5.83301 -1.5 10.5c0.666992 6 4.33398 9.66699 11.001 11c2.66699 0.666992 5.66699 0.333984 9 -0.999023c41.333 6.66699 79 25.167 113 55.5s63.333 66.5 88 108.5l12 22c4 7.33301 7.66699 14.666 11 21.999
c-26.667 -11.333 -52.667 -15.333 -78 -12s-46.5 13.5 -63.5 30.5s-28.167 40.5 -33.5 70.5s-1.33301 65.667 12 107c10 32.667 24.5 59.667 43.5 81s39.5 37 61.5 47s44.167 14.167 66.5 12.5s42.166 -9.33398 59.499 -23.001s31 -33.667 41 -60s13.333 -58.833 10 -97.5z
M307.002 311.003c6 16.667 11.333 34.168 16 52.501s8 36.833 10 55.5s2.5 36.834 1.5 54.501s-4.5 34.167 -10.5 49.5c-11.333 28 -25 45 -41 51s-32.5 4.33301 -49.5 -5s-33 -24.333 -48 -45s-26.5 -43.334 -34.5 -68.001c-11.333 -34 -14.833 -64.5 -10.5 -91.5
s14 -47.833 29 -62.5s34.5 -21.834 58.5 -21.501s50.333 10.5 79 30.5z" />
    <glyph glyph-name="colon" unicode=":" horiz-adv-x="323" 
d="M156 202c12 0 22.166 -4.33203 30.499 -12.999s12.5 -18.667 12.5 -30c0 -5.33301 -0.833008 -9.83301 -2.5 -13.5s-3.16699 -6.83398 -4.5 -9.50098l-6 -8c-6.66699 -7.33301 -14.334 -11.5 -23.001 -12.5s-16.667 0 -24 3s-13.666 8 -18.999 15s-8 15.5 -8 25.5
c0 11.333 4.33301 21.333 13 30l8 6c2.66699 1.33301 5.83398 2.83301 9.50098 4.5s8.16699 2.5 13.5 2.5zM155.999 366.001c12 0 22.166 -4.33203 30.499 -12.999s12.5 -18.667 12.5 -30c0 -5.33301 -0.833008 -9.83301 -2.5 -13.5s-3.16699 -6.83398 -4.5 -9.50098l-6 -8
c-6.66699 -7.33301 -14.334 -11.5 -23.001 -12.5s-16.667 0 -24 3s-13.666 8 -18.999 15s-8 15.5 -8 25.5c0 11.333 4.33301 21.333 13 30l8 6c2.66699 1.33301 5.83398 2.83301 9.50098 4.5s8.16699 2.5 13.5 2.5z" />
    <glyph glyph-name="semicolon" unicode=";" horiz-adv-x="253" 
d="M162 177c-5.33301 -18.667 -12.833 -35.333 -22.5 -50s-20.167 -26.667 -31.5 -36c-12 -10 -24.167 -17.333 -36.5 -22s-23.166 -5.33398 -32.499 -2.00098c-3.33301 1.33301 -5.16602 3.83301 -5.49902 7.5s1.16699 6.16699 4.5 7.5
c15.333 5.33301 28.833 15.5 40.5 30.5s21.167 30.833 28.5 47.5c-8.66699 3.33301 -15.5 8.66602 -20.5 15.999s-7.5 15.666 -7.5 24.999c0 4.66699 0.666992 8.83398 2 12.501s2.66602 6.83398 3.99902 9.50098c2 2.66699 4.33301 5.33398 7 8.00098
c8.66699 8.66699 17.667 13.334 27 14.001s17.666 -1.5 24.999 -6.5s12.833 -12.833 16.5 -23.5s4.16699 -23.334 1.5 -38.001zM125 410.001c12 0 22.166 -4.33203 30.499 -12.999s12.5 -18.667 12.5 -30c0 -5.33301 -0.833008 -9.83301 -2.5 -13.5
s-3.16699 -6.83398 -4.5 -9.50098l-6 -8c-6.66699 -7.33301 -14.334 -11.5 -23.001 -12.5s-16.667 0 -24 3s-13.666 8 -18.999 15s-8 15.5 -8 25.5c0 11.333 4.33301 21.333 13 30l8 6c2.66699 1.33301 5.83398 2.83301 9.50098 4.5s8.16699 2.5 13.5 2.5z" />
    <glyph glyph-name="less" unicode="&#x3c;" horiz-adv-x="804" 
d="M100 330c-5.33301 2.66699 -9.00293 6.66992 -11.0029 12.0029s-2.66699 10.5 -2 15.5s2.83398 9.66699 6.50098 14s8.5 7.16602 14.5 8.49902l567 123c8.66699 2 15.834 0.666992 21.501 -4s9.33398 -10.334 11.001 -17.001s0.833984 -13.334 -2.49902 -20.001
s-9.33301 -11 -18 -13l-497 -107l505 -290c8 -4.66699 12.5 -10.667 13.5 -18s-0.333008 -14 -4 -20s-8.83398 -10.333 -15.501 -13s-14 -1.66699 -22 3z" />
    <glyph glyph-name="equal" unicode="=" horiz-adv-x="725" 
d="M101 122c-9.33301 0 -16.166 2.83301 -20.499 8.5s-6.5 12 -6.5 19s2.16699 13.333 6.5 19s11.166 8.5 20.499 8.5l354 -1c8.66699 0 15.334 -2.83301 20.001 -8.5s7 -12 7 -19s-2.33301 -13.333 -7 -19s-11.334 -8.5 -20.001 -8.5zM101 283
c-9.33301 0 -16.166 2.83496 -20.499 8.50195s-6.5 12 -6.5 19s2.16699 13.333 6.5 19s11.166 8.5 20.499 8.5l354 -1c8.66699 0 15.334 -2.83301 20.001 -8.5s7 -11.834 7 -18.501s-2.33301 -12.834 -7 -18.501s-11.334 -8.5 -20.001 -8.5h-354z" />
    <glyph glyph-name="greater" unicode="&#x3e;" horiz-adv-x="762" 
d="M680 172c5.33301 -3.33301 9.16895 -7.50391 11.502 -12.5039s3.16602 -10.167 2.49902 -15.5s-2.83398 -10.166 -6.50098 -14.499s-8.5 -7.16602 -14.5 -8.49902l-567 -123c-9.33301 -2 -16.833 -0.666992 -22.5 4s-9.16699 10.334 -10.5 17.001s-0.5 13.334 2.5 20.001
s9.16699 11 18.5 13l497 108l-505 290c-8 4.66699 -12.5 10.5 -13.5 17.5s0.166992 13.5 3.5 19.5s8.33301 10.333 15 13s14 1.66699 22 -3z" />
    <glyph glyph-name="question" unicode="?" horiz-adv-x="779" 
d="M307 749c0 -3.33301 -1.16602 -6.33398 -3.49902 -9.00098s-5.5 -4 -9.5 -4c-3.33301 0 -6.33301 1.33301 -9 4s-4 5.66699 -4 9c0 36.667 5.66699 72.667 17 108s27.666 67 48.999 95s47.5 51 78.5 69s66.167 28.333 105.5 31c50 3.33301 91.333 -5.16699 124 -25.5
s56 -47.166 70 -80.499s18.667 -70.666 14 -111.999s-18.667 -81.333 -42 -120s-53.5 -77.834 -90.5 -117.501s-76.333 -79.334 -118 -119.001l-126 -118c-42.333 -39 -80.333 -77 -114 -114s-61.167 -72.667 -82.5 -107s-32 -66.5 -32 -96.5
c0 -4 -1.33301 -7.16699 -4 -9.5s-5.83398 -3.5 -9.50098 -3.5s-6.83398 1.16699 -9.50098 3.5s-4 5.5 -4 9.5c0 32.667 9.33301 67 28 103s43.167 73 73.5 111s64.333 77 102 117l113 120l108 119c34.333 39.333 62.833 78 85.5 116c20 32.667 32.333 65.167 37 97.5
s3.33398 61.833 -3.99902 88.5s-19.5 49.334 -36.5 68.001s-37.5 31.167 -61.5 37.5s-50.167 5 -78.5 -4s-57.166 -27.833 -86.499 -56.5c-28.667 -28 -49.167 -60 -61.5 -96s-18.5 -74 -18.5 -114zM125.001 4.99902c12.667 0 23.334 -4.33105 32.001 -12.998
s13 -19.334 13 -32.001c0 -5.33301 -0.833008 -9.83301 -2.5 -13.5s-3.16699 -6.83398 -4.5 -9.50098c-2.66699 -2.66699 -5 -5.33398 -7 -8.00098c-6.66699 -6.66699 -14.334 -10.667 -23.001 -12s-16.834 -0.333008 -24.501 3s-14.167 8.5 -19.5 15.5s-8 15.167 -8 24.5
c0 12.667 4.33301 23.334 13 32.001l8 6c2.66699 1.33301 5.83398 2.83301 9.50098 4.5s8.16699 2.5 13.5 2.5z" />
    <glyph glyph-name="at" unicode="@" horiz-adv-x="836" 
d="M466 377c0 25.333 -3.66504 44.1689 -10.998 56.502s-17 20 -29 23s-25.333 1.66699 -40 -4s-29.334 -13.834 -44.001 -24.501s-28.5 -23.334 -41.5 -38.001s-23.5 -29.667 -31.5 -45c-14 -25.333 -21.667 -45.333 -23 -60s1.66699 -24.834 9 -30.501
s17.833 -7.66699 31.5 -6s28.667 5.83398 45 12.501s33.166 15.5 50.499 26.5s33 22.833 47 35.5c12.667 20 25 38 37 54zM672.002 90.0029c2 1.33301 4.01172 1.49805 6.01172 0.498047s3.66699 -2.16699 5 -3.5c1.33301 -5.33301 0.333008 -8.66602 -3 -9.99902
c-38.667 -19.333 -78.5 -35.666 -119.5 -48.999s-81.667 -21.833 -122 -25.5s-79.333 -1.33398 -117 6.99902s-72.167 24.833 -103.5 49.5c-48 36.667 -80.667 79.334 -98 128.001s-22.5 97.5 -15.5 146.5s24.333 95.333 52 139s62.667 79.334 105 107.001
s90 44.167 143 49.5s108.167 -5.66699 165.5 -33c28 -13.333 51.667 -29.833 71 -49.5s34.666 -41.667 45.999 -66s18.666 -50.333 21.999 -78s2.66602 -56.167 -2.00098 -85.5c-6 -37.333 -17.5 -71 -34.5 -101s-37 -56 -60 -78s-47.333 -39.667 -73 -53
s-50.334 -21.666 -74.001 -24.999s-44.834 -1.66602 -63.501 5.00098s-31.834 19 -39.501 37s-8.83398 41.833 -3.50098 71.5s20.333 65.5 45 107.5c-36 -28 -67 -46 -93 -54s-47 -9.16699 -63 -3.5s-27.167 16.667 -33.5 33s-7.83301 34.666 -4.5 54.999
s11.5 41.666 24.5 63.999s30.5 42.166 52.5 59.499c18.667 14.667 38.667 25.834 60 33.501s41.333 10.667 60 9s34.834 -8.83398 48.501 -21.501s22.167 -32.334 25.5 -59.001l41 56c0.666992 2.66699 2.66699 4 6 4h35c3.33301 0 5.66602 -1.33301 6.99902 -4
s1 -5.33398 -1 -8.00098l-39 -53.5l-44 -63.5c-14.667 -22 -28.334 -44.333 -41.001 -67s-22.334 -43.667 -29.001 -63c-12.667 -34.667 -16.167 -60.667 -10.5 -78s16.667 -27.333 33 -30s36.166 1.33301 59.499 12s46 26.334 68 47.001s41.667 45.667 59 75
s28.333 61.333 33 96c4 26 4.16699 52 0.5 78s-10.834 50.667 -21.501 74s-25 44.5 -43 63.5s-39.667 34.5 -65 46.5c-36.667 17.333 -72 26 -106 26s-65.5 -6.5 -94.5 -19.5s-55.333 -31.5 -79 -55.5s-43.5 -51.167 -59.5 -81.5s-27.5 -62.5 -34.5 -96.5
s-8.5 -68 -4.5 -102s13.833 -66.5 29.5 -97.5s38.167 -58.5 67.5 -82.5c28.667 -23.333 60.667 -38.5 96 -45.5s71.666 -8.66699 108.999 -5s74.833 11.834 112.5 24.501s73.167 27 106.5 43z" />
    <glyph glyph-name="A" unicode="A" horiz-adv-x="1216" 
d="M84 148c-1.33301 -4 -3.66797 -6.99609 -7.00098 -8.99609s-6.66602 -2.66699 -9.99902 -2c-3.33301 1.33301 -6.16602 3.66602 -8.49902 6.99902s-2.83301 6.66602 -1.5 9.99902c8.66699 35.333 26.5 65.666 53.5 90.999s60.5 47.166 100.5 65.499
s85.333 33.833 136 46.5s104 24.334 160 35.001c16 52.667 40.5 107.167 73.5 163.5s71.833 108.833 116.5 157.5s94.167 90.5 148.5 125.5s111.166 57.167 170.499 66.5c46 7.33301 86.333 4 121 -10s61.167 -34.667 79.5 -62s27.833 -59 28.5 -95
s-9.66602 -72.167 -30.999 -108.5s-54.666 -70.666 -99.999 -102.999s-104.333 -58.166 -177 -77.499c-54 -14.667 -110.667 -27.334 -170 -38.001l-177 -31c-20.667 -60.667 -29.5 -104.5 -26.5 -131.5s13.5 -42.333 31.5 -46s41.5 1.5 70.5 15.5s58.833 31.833 89.5 53.5
s60.334 44.334 89.001 68.001s51.667 43.5 69 59.5c2 2 6 3.16699 12 3.5s12.667 0.5 20 0.5s14.833 -0.166992 22.5 -0.5s13.834 -0.5 18.501 -0.5c5.33301 0 9.16602 -2.5 11.499 -7.5s1.83301 -9.83301 -1.5 -14.5c-48.667 -64.667 -86.5 -119.167 -113.5 -163.5
s-45.333 -79.666 -55 -105.999s-11.667 -44.833 -6 -55.5s17 -14.667 34 -12s38.833 11.167 65.5 25.5s56 32.833 88 55.5s65.667 49.167 101 79.5s70.666 62.5 105.999 96.5c2.66699 2.66699 5.83398 4 9.50098 4s6.83398 -1.33301 9.50098 -4
c7.33301 -6 7.33301 -12.667 0 -20c-10 -10.667 -25.333 -25.334 -46 -44.001l-70.5 -61c-26.333 -22 -54.5 -44.167 -84.5 -66.5s-59.333 -42.166 -88 -59.499c-11.333 -7.33301 -24.833 -15 -40.5 -23s-31.834 -14.667 -48.501 -20s-33 -8.33301 -49 -9s-30 3 -42 11
c-18 12 -27 29.5 -27 52.5s5.16699 48.5 15.5 76.5s24.166 57 41.499 87s34.666 58 51.999 84c-62 -50 -115.833 -86.5 -161.5 -109.5s-83.834 -33.833 -114.501 -32.5c-24.667 1.33301 -43.334 8.66602 -56.001 21.999s-21.167 29.666 -25.5 48.999s-5.5 40.333 -3.5 63
s5.66699 43.667 11 63c-52 -10 -101.5 -21 -148.5 -33s-89 -26.333 -126 -43s-67.667 -36.334 -92 -59.001s-40.166 -49.334 -47.499 -80.001zM1018 854.004c-45.333 -15.333 -89.332 -39.333 -131.999 -72s-82.334 -69.667 -119.001 -111s-69.167 -84.833 -97.5 -130.5
s-50.833 -89.167 -67.5 -130.5c55.333 9.33301 111 19.666 167 30.999l161 34c66 15.333 119.833 37.333 161.5 66s72.5 59.334 92.5 92.001s30.167 65 30.5 97s-7.16699 59.5 -22.5 82.5s-38 39 -68 48s-65.333 6.83301 -106 -6.5z" />
    <glyph glyph-name="B" unicode="B" horiz-adv-x="1036" 
d="M253 146l-61.9971 0.000976562c-5.33301 0 -9.33301 2.33301 -12 7s-2.33398 9.33398 0.999023 14.001l60 92c-32 -10.667 -60.333 -25.167 -85 -43.5s-43.334 -37.833 -56.001 -58.5s-18 -41 -16 -61s13 -37 33 -51c24.667 -17.333 52.5 -27.333 83.5 -30
s63.333 -0.333984 97 6.99902s67.667 18.833 102 34.5s66.666 33.5 96.999 53.5s58 41.167 83 63.5s45.167 43.833 60.5 64.5l-74.5 16c-24.333 5.33301 -48.333 10.166 -72 14.499s-47.5 7.5 -71.5 9.5s-48.333 2.33301 -73 1l-84 -127c-3.33301 -4 -7 -6 -11 -6z
M367.003 307.001c24 0.666992 48 -0.332031 72 -2.99902s48 -6.33398 72 -11.001s48 -9.66699 72 -15s48.333 -10.333 73 -15c39.333 65.333 46.333 121.5 21 168.5s-78.333 81.167 -159 102.5zM748.003 879.002l-200.001 -301c46 6.66699 86.667 18.834 122 36.501
s64.833 37.667 88.5 60s41.334 45.666 53.001 69.999s17.167 46.5 16.5 66.5s-7.66699 36.333 -21 49s-33 19 -59 19zM584.002 839.002c-3.33301 -1.33301 -6.83496 -1.50586 -10.502 -0.505859s-6.5 3.16699 -8.5 6.5c-4 7.33301 -2 13.333 6 18
c47.333 26 90.166 42.333 128.499 49s71.5 6.33398 99.5 -0.999023s50.333 -20.166 67 -38.499s27.334 -39.333 32.001 -63s2.83398 -49 -5.49902 -76s-24 -52.667 -47 -77s-53.167 -46 -90.5 -65s-83 -32.5 -137 -40.5c38.667 -13.333 70.667 -30.166 96 -50.499
s43.166 -43.5 53.499 -69.5s13 -54.333 8 -85s-17.833 -63 -38.5 -97c50.667 -6.66699 101.334 -7.16699 152.001 -1.5s99.667 23.167 147 52.5c8 4.66699 14.333 3.33398 19 -3.99902c4.66699 -8.66699 3.33398 -15.334 -3.99902 -20.001
c-26.667 -16.667 -53.834 -29.5 -81.501 -38.5s-55.334 -15.167 -83.001 -18.5s-55.5 -4.33301 -83.5 -3s-55.667 4 -83 8c-27.333 -36.667 -58.666 -69.167 -93.999 -97.5s-73.166 -52.166 -113.499 -71.499s-82.5 -34.666 -126.5 -45.999s-88.333 -18.333 -133 -21
c-43.333 -2.66699 -80.166 1.33301 -110.499 12s-53 25.834 -68 45.501s-21.667 42.167 -20 67.5s13.167 51.333 34.5 78c17.333 22 40.666 42.167 69.999 60.5s64.333 32.5 105 42.5l382 574c-10 -4 -20 -8.33301 -30 -13s-20.667 -10 -32 -16z" />
    <glyph glyph-name="C" unicode="C" horiz-adv-x="1088" 
d="M86 147c-1.33301 -4.66699 -3.66992 -7.66309 -7.00293 -8.99609s-6.66602 -1.66602 -9.99902 -0.999023s-6.16602 2.5 -8.49902 5.5s-2.83301 6.5 -1.5 10.5c8 34 24.5 63.167 49.5 87.5s56 45.5 93 63.5s79.167 33.5 126.5 46.5s97 24.833 149 35.5
c18.667 40 41.834 80.833 69.501 122.5s59 82.167 94 121.5s73.833 76.833 116.5 112.5s88.667 68.167 138 97.5s94.5 48 135.5 56s76.667 8 107 0s55.166 -22.333 74.499 -43s31.833 -44.834 37.5 -72.501s4.16699 -57.5 -4.5 -89.5s-25.5 -63.167 -50.5 -93.5
s-58.5 -58.666 -100.5 -84.999s-93.667 -47.833 -155 -64.5c-58.667 -15.333 -120.167 -28.666 -184.5 -39.999l-190.5 -34c-14.667 -32 -27.334 -65.167 -38.001 -99.5s-17.5 -67.166 -20.5 -98.499s-1.5 -59.5 4.5 -84.5s18 -44 36 -57s42.833 -18.333 74.5 -16
s71.5 15.166 119.5 38.499c46.667 22.667 98.667 53.667 156 93s121.333 89.333 192 150c3.33301 2.66699 6.83301 3.66699 10.5 3s6.66699 -2.33398 9 -5.00098s3.5 -5.83398 3.5 -9.50098s-1.66699 -6.83398 -5 -9.50098c-64.667 -55.333 -124.334 -102.333 -179.001 -141
s-104.667 -69.834 -150 -93.501s-86.166 -40.5 -122.499 -50.5s-68.166 -14.333 -95.499 -13c-34 1.33301 -61.167 9.66602 -81.5 24.999s-35.5 35 -45.5 59s-15.167 50.833 -15.5 80.5s2.5 59.5 8.5 89.5c4 19.333 9.16699 38.833 15.5 58.5s13.833 40.167 22.5 61.5
c-48 -10 -93.333 -21 -136 -33s-80.667 -26.167 -114 -42.5s-61.166 -35.333 -83.499 -57s-36.833 -46.834 -43.5 -75.501zM921.996 786.004c-39.333 -26 -76.001 -54.167 -110.001 -84.5s-65.333 -61.833 -94 -94.5s-54.667 -66.167 -78 -100.5s-44 -68.5 -62 -102.5
l180.5 32c61 10.667 118.833 23.334 173.5 38.001c70.667 19.333 128.334 44.5 173.001 75.5s75.667 64.5 93 100.5s26.5 67 27.5 93s-4 47.167 -15 63.5s-26.667 28.166 -47 35.499s-43.666 10 -69.999 8s-54.333 -8.33301 -84 -19s-58.834 -25.667 -87.501 -45z" />
    <glyph glyph-name="D" unicode="D" horiz-adv-x="1072" 
d="M1091 296c4.66699 -8.66699 2.99805 -15.3369 -5.00195 -20.0039c-48.667 -30 -98.334 -48.167 -149.001 -54.5s-101.334 -6.83301 -152.001 -1.5c-38 -37.333 -82.167 -72 -132.5 -104s-108.166 -60.333 -173.499 -85c-74 -28 -138.167 -42.167 -192.5 -42.5
s-98.333 7.83398 -132 24.501s-56.5 39 -68.5 67s-12.333 56.667 -1 86s35 56.333 71 81s85 42 147 52l351 528c-9.33301 -2 -18.166 -4.33301 -26.499 -7s-13.833 0.333008 -16.5 9c-2 8.66699 1 14.334 9 17.001c20.667 6.66699 39.334 11.334 56.001 14.001l18.5 29.5
c6.33301 10.333 12.833 15.5 19.5 15.5h61c5.33301 0 9.33301 -2.33301 12 -7s2.33398 -9.66699 -0.999023 -15l-15 -23c48 -12 86 -31.667 114 -59s47.667 -59 59 -95s15.666 -75 12.999 -117s-10.667 -83.667 -24 -125s-30.666 -81 -51.999 -119s-45 -71 -71 -99
c42 -3.33301 78 -3 108 1s55.167 9.5 75.5 16.5s36.666 14 48.999 21s22.166 12.167 29.499 15.5c4.66699 1.33301 8.33398 1.83301 11.001 1.5s5.33398 -2.16602 8.00098 -5.49902zM287.998 145.997l-61.001 0.00390625c-5.33301 0 -9.5 2.33301 -12.5 7
s-2.83301 9.33398 0.5 14.001l67 101c-44 -9.33301 -80 -23.333 -108 -42s-47.667 -38.834 -59 -60.501s-14 -43.334 -8 -65.001s21 -39.834 45 -54.501c26.667 -17.333 56.167 -27 88.5 -29s65.5 1.16699 99.5 9.5s68 20.5 102 36.5s66.333 34 97 54
s58.834 40.5 84.501 61.5s46.834 40.167 63.501 57.5c-28 5.33301 -54.333 10.833 -79 16.5s-48.834 10.667 -72.501 15s-47.667 7.66602 -72 9.99902s-50.833 3.16602 -79.5 2.49902l-84 -128c-3.33301 -4 -7.33301 -6 -12 -6zM743.997 819.001l-340.999 -511.999
c28 0 54.5 -1.5 79.5 -4.5s49.667 -6.83301 74 -11.5s49 -9.83398 74 -15.501s51.167 -10.834 78.5 -15.501c20 22.667 40.833 50.5 62.5 83.5s41 67.833 58 104.5s30.167 74 39.5 112s11.833 73.833 7.5 107.5s-16.833 63.834 -37.5 90.501s-52.334 47 -95.001 61z" />
    <glyph glyph-name="E" unicode="E" horiz-adv-x="794" 
d="M794 300c2.66699 2.66699 5.8291 3.99414 9.49609 3.99414s6.83398 -1.33301 9.50098 -4c6 -7.33301 5.66699 -14 -1 -20c-52.667 -49.333 -102.5 -91.666 -149.5 -126.999s-91.5 -64.833 -133.5 -88.5s-81.167 -42 -117.5 -55s-69.833 -21.167 -100.5 -24.5
c-4 -1.33301 -9.5 -2.16602 -16.5 -2.49902s-14.167 -0.5 -21.5 -0.5s-14.333 0.166992 -21 0.5s-11.667 0.833008 -15 1.5c-46 6 -82.667 22.333 -110 49s-45 58.667 -53 96s-5.83301 77.833 6.5 121.5s35 85.334 68 125.001s76.667 74.834 131 105.501
s119.833 52.334 196.5 65.001c-57.333 30.667 -81 78.334 -71 143.001c-29.333 0.666992 -59.166 1 -89.499 1s-60.166 -1.83301 -89.499 -5.5s-58.166 -9.66699 -86.499 -18s-55.5 -20.5 -81.5 -36.5c-3.33301 -2 -6.83301 -2.5 -10.5 -1.5s-6.5 3.16699 -8.5 6.5
c-1.33301 3.33301 -1.66602 6.83301 -0.999023 10.5s2.66699 6.5 6 8.5c28 17.333 57.167 30.5 87.5 39.5s61 15.333 92 19s62.333 5.33398 94 5.00098s62.834 -0.833008 93.501 -1.5c7.33301 22.667 18.333 44.5 33 65.5s31.5 40.333 50.5 58s39.5 33.167 61.5 46.5
s44.667 23.666 68 30.999c16.667 5.33301 35 8.33301 55 9s38.5 -2 55.5 -8s30.5 -15.5 40.5 -28.5s13.333 -30.833 10 -53.5c-2 -14 -7.5 -27.5 -16.5 -40.5s-20.667 -25.167 -35 -36.5s-30.833 -21.5 -49.5 -30.5s-38.667 -16.833 -60 -23.5
c-20 -6 -40.833 -10.167 -62.5 -12.5s-44.167 -3.83301 -67.5 -4.5c-4 -21.333 -3.33301 -40.166 2 -56.499s14 -30.166 26 -41.499s26.333 -19.833 43 -25.5s34.334 -8.83398 53.001 -9.50098c5.33301 0 9.66602 -0.833008 12.999 -2.5s5.33301 -5.16699 6 -10.5
c0 -3.33301 -1.33301 -6.5 -4 -9.5s-6 -4.5 -10 -4.5c-54 -3.33301 -103.167 -11 -147.5 -23s-83.833 -27.5 -118.5 -46.5s-64.834 -40.333 -90.501 -64s-46.5 -48.5 -62.5 -74.5c-18 -28 -30.667 -56.5 -38 -85.5s-9.83301 -56.333 -7.5 -82s9.5 -48.667 21.5 -69
s28.5 -36.333 49.5 -48s46.333 -17.834 76 -18.501s63.5 6 101.5 20c52 19.333 110.167 50 174.5 92s135.166 99 212.499 171zM501.995 715.994c20.667 0.666992 40.498 2.00098 59.498 4.00098s37.167 5.66699 54.5 11c42 13.333 74.333 28.666 97 45.999
s36.667 34.666 42 51.999c5.33301 20.667 4 35.834 -4 45.501s-20 14.834 -36 15.501s-34.667 -3 -56 -11s-42.166 -19.667 -62.499 -35s-39.166 -33.833 -56.499 -55.5s-30 -45.834 -38 -72.501z" />
    <glyph glyph-name="F" unicode="F" horiz-adv-x="854" 
d="M206 559c-2.66699 -8.66699 -8.33594 -11.6621 -17.0029 -8.99512c-4 1.33301 -7 3.66602 -9 6.99902s-2.33301 6.66602 -1 9.99902c12.667 42.667 29.334 76.5 50.001 101.5s44 43.5 70 55.5s54.333 19 85 21s62.667 1 96 -3s67.5 -9.33301 102.5 -16
s69.5 -12.334 103.5 -17.001c24.667 31.333 50.834 60.666 78.501 87.999s55.834 51 84.501 71s57.667 35.167 87 45.5s57.666 13.833 84.999 10.5c24 -2.66699 43.667 -10.5 59 -23.5s25 -28.333 29 -46s1.83301 -36.667 -6.5 -57s-24.166 -39.333 -47.499 -57
s-54.666 -32.667 -93.999 -45s-88 -19.833 -146 -22.5h-29.5c-9.66699 0 -19.5 0.333008 -29.5 1c-22 -29.333 -43.5 -59.666 -64.5 -90.999s-41.5 -63.666 -61.5 -96.999c36.667 -5.33301 73.5 -9.83301 110.5 -13.5s74.5 -2.83398 112.5 2.49902
c4 1.33301 7.5 0.666016 10.5 -2.00098s4.83301 -5.66699 5.5 -9c0.666992 -4 -0.333008 -7.5 -3 -10.5s-5.66699 -4.83301 -9 -5.5c-42.667 -5.33301 -83.834 -5.83301 -123.501 -1.5s-79.5 9.16602 -119.5 14.499l-84.5 -139c-28.333 -47.333 -56.5 -91.333 -84.5 -132
c-28.667 -41.333 -57.334 -78 -86.001 -110s-58 -56.5 -88 -73.5s-60.667 -25.167 -92 -24.5s-64 12.667 -98 36c-3.33301 2 -5.33301 4.83301 -6 8.5s0 7.16699 2 10.5c6 6.66699 12.667 8 20 4c25.333 -16 51.833 -19.167 79.5 -9.5s55.5 27.167 83.5 52.5
s55.5 55.833 82.5 91.5s52.167 72 75.5 109s44.5 72.167 63.5 105.5l46.5 80c-25.333 1.33301 -49.833 0.5 -73.5 -2.5s-46.667 -9.83301 -69 -20.5s-44 -25.667 -65 -45s-41.167 -44.666 -60.5 -75.999c-4.66699 -6.66699 -11 -8.33398 -19 -5.00098
c-3.33301 2 -5.5 4.83301 -6.5 8.5s-0.5 7.16699 1.5 10.5c22 36.667 45.167 65.834 69.5 87.501s49.333 38 75 49s52.167 17.667 79.5 20s55.333 2.5 84 0.5c19.333 32.667 39.333 64.667 60 96l63 91c-31.333 4.66699 -63 10 -95 16s-63.167 10.667 -93.5 14
s-59.5 4.16602 -87.5 2.49902s-53.833 -8 -77.5 -19s-44.667 -27.5 -63 -49.5s-33.166 -51.667 -44.499 -89zM775.998 701.005c34.667 -1.33301 67.667 0.166992 99 4.5s59.5 10.5 84.5 18.5s46.833 17.833 65.5 29.5s33 24.5 43 38.5c12.667 18 18 35.333 16 52
s-10 29.167 -24 37.5s-32.833 10.5 -56.5 6.5s-50.5 -17.667 -80.5 -41c-15.333 -12 -30.5 -25 -45.5 -39s-29 -27.667 -42 -41s-24.667 -25.833 -35 -37.5s-18.5 -21.167 -24.5 -28.5z" />
    <glyph glyph-name="G" unicode="G" horiz-adv-x="950" 
d="M950 300c2.66699 2.66699 5.82812 3.66895 9.49512 3.00195s6.83398 -2.66699 9.50098 -6c4.66699 -7.33301 3.66699 -13.666 -3 -18.999c-33.333 -25.333 -67 -43.666 -101 -54.999s-68.667 -18 -104 -20s-71.333 -0.833008 -108 3.5s-74.334 9.5 -113.001 15.5
c-52 -72.667 -101.333 -130.167 -148 -172.5s-89.667 -73 -129 -92s-74.166 -28 -104.499 -27s-55 8.5 -74 22.5s-31.667 33 -38 57s-5 49.5 4 76.5s26.333 53.833 52 80.5s60.834 49.667 105.501 69c43.333 18.667 87 28.667 131 30s88.333 -0.666992 133 -6
c36 54.667 73 117.667 111 189c-16 -9.33301 -37.667 -20.833 -65 -34.5s-57.166 -26.834 -89.499 -39.501s-65.666 -23.167 -99.999 -31.5s-66.166 -12.333 -95.499 -12s-54.666 6.5 -75.999 18.5s-35.333 32.667 -42 62c-4 18 -4.66699 37.333 -2 58s7.33398 41 14.001 61
c-36 20.667 -59.833 47.167 -71.5 79.5s-14.667 64.166 -9 95.499s18 59.166 37 83.499s41.5 38.833 67.5 43.5c3.33301 1.33301 6.66602 0.833008 9.99902 -1.5s5.33301 -5.5 6 -9.5c1.33301 -8.66699 -2.33398 -14 -11.001 -16
c-19.333 -3.33301 -36.666 -14.833 -51.999 -34.5s-25.333 -42.334 -30 -68.001s-2.66699 -51.834 6 -78.501s27.667 -49 57 -67c23.333 60 54.333 113.333 93 160s83 88 133 124c23.333 17.333 47.166 32.333 71.499 45s49.166 22.667 74.499 30
c54.667 16.667 100.5 23.334 137.5 20.001s65.667 -13.5 86 -30.5s32.333 -39.167 36 -66.5s-0.333008 -56.5 -12 -87.5s-30.667 -62.167 -57 -93.5s-59.666 -59.333 -99.999 -84s-87.5 -44.5 -141.5 -59.5s-114.333 -21.833 -181 -20.5
c-13.333 0.666992 -25.833 1.5 -37.5 2.5s-23.167 2.83301 -34.5 5.5c-10.667 -33.333 -14.5 -59.666 -11.5 -78.999s10.667 -33.666 23 -42.999s27.833 -14.333 46.5 -15s38.667 1.16602 60 5.49902s42.666 10.166 63.999 17.499s40.333 14.666 57 21.999
c34 13.333 65.5 28 94.5 44s52.833 31 71.5 45c2 2.66699 3.83301 6 5.5 10s3.5 8 5.5 12s4.16699 7.5 6.5 10.5s5.5 4.5 9.5 4.5h66c5.33301 0 9.33301 -2.16699 12 -6.5s2.66699 -8.83301 0 -13.5c-26.667 -54 -53.167 -103.167 -79.5 -147.5
s-52.166 -85.166 -77.499 -122.499c34 -5.33301 67.667 -10 101 -14s66.5 -5 99.5 -3s65.5 8.33301 97.5 19s63.333 27.667 94 51zM423.994 800.002c-22 -18.667 -43.665 -38.832 -64.998 -60.499s-41 -44.334 -59 -68.001s-34.333 -47.5 -49 -71.5s-26.667 -47.667 -36 -71
c18 -4 38.667 -6 62 -6c50 -1.33301 96.333 2.5 139 11.5s81.5 21.167 116.5 36.5s65.667 33.5 92 54.5s48.166 43.167 65.499 66.5c26 35.333 42.167 66.333 48.5 93s5.16602 48.667 -3.50098 66s-23.5 29.5 -44.5 36.5s-45.833 8.5 -74.5 4.5s-59.667 -13.5 -93 -28.5
s-66.333 -36.167 -99 -63.5zM348.996 96.0039c36.667 42 72.002 88.002 106.002 138.002c-40.667 4.66699 -80.667 6.16699 -120 4.5s-78 -10.834 -116 -27.501c-44 -19.333 -77.667 -42.5 -101 -69.5s-37.833 -53.333 -43.5 -79s-3 -48 8 -67s28.667 -29.5 53 -31.5
s54.666 6.66699 90.999 26s77.166 54.666 122.499 105.999z" />
    <glyph glyph-name="H" unicode="H" horiz-adv-x="1130" 
d="M163 925c2 3.33301 5.00391 5.50488 9.00391 6.50488s7.66699 0.166992 11 -2.5c7.33301 -4.66699 8.66602 -11 3.99902 -19c-14 -22 -21.5 -43.167 -22.5 -63.5s3.5 -38.666 13.5 -54.999s25 -29.833 45 -40.5s44.667 -16.667 74 -18
c47.333 -2.66699 107.166 8.66602 179.499 33.999s157.166 71 254.499 137c2 1.33301 6.83301 2.16602 14.5 2.49902s16 0.5 25 0.5s17.333 -0.166992 25 -0.5s12.167 -0.833008 13.5 -1.5c3.33301 -2 5.33301 -4.83301 6 -8.5s0 -7.16699 -2 -10.5l-157 -244l-156 -244
c42.667 13.333 88.334 26 137.001 38s100.667 22.667 156 32l73 108.5l78 112.5l76 110.5l67 101.5c2.66699 4 6.66699 6 12 6h62c5.33301 0 9.33301 -2.33301 12 -7s2.33398 -9.33398 -0.999023 -14.001c-8 -12.667 -19.5 -29.334 -34.5 -50.001l-51.5 -73l-92 -130
l-103 -149c29.333 4 58.833 7.5 88.5 10.5s60.5 5.83301 92.5 8.5c4.66699 0.666992 8.16699 -0.333008 10.5 -3s3.66602 -5.83398 3.99902 -9.50098s-0.5 -7 -2.5 -10s-5.33301 -4.5 -10 -4.5c-36 -3.33301 -70.833 -6.83301 -104.5 -10.5s-66.5 -7.83398 -98.5 -12.501
c-4.66699 -7.33301 -13.5 -20.166 -26.5 -38.499l-44 -65l-50.5 -80.5c-17.333 -28.667 -33 -56.5 -47 -83.5s-25 -52.333 -33 -76s-10.667 -42.834 -8 -57.501s11.667 -23.5 27 -26.5s39.333 2.16699 72 15.5c34.667 14 71 33 109 57s74 48.833 108 74.5
s64.5 50.167 91.5 73.5s47.167 41.333 60.5 54c2.66699 2.66699 5.83398 4 9.50098 4s6.83398 -1.33301 9.50098 -4c6.66699 -6.66699 6.66699 -13.334 0 -20.001c-10.667 -10.667 -27.334 -26 -50.001 -46s-49.167 -41.833 -79.5 -65.5s-63 -47.5 -98 -71.5
s-69.833 -44.667 -104.5 -62s-67.834 -30 -99.501 -38s-59.167 -7.66699 -82.5 1c-23.333 8 -37 23 -41 45s-2.16699 47.333 5.5 76s19.667 59.334 36 92.001s33.5 63.834 51.5 93.501l50.5 80l34.5 52.5c-50 -9.33301 -99.833 -20.166 -149.5 -32.499
s-98.5 -26.833 -146.5 -43.5c-2.66699 -2 -10.167 -12.833 -22.5 -32.5l-47.5 -72.5c-19.333 -28.667 -41.5 -59.5 -66.5 -92.5s-51 -63.5 -78 -91.5s-54.5 -51.5 -82.5 -70.5s-54.667 -28.833 -80 -29.5c-21.333 -0.666992 -37.833 5.16602 -49.5 17.499
s-17.667 28.833 -18 49.5s5.66699 44 18 70s32.166 52.667 59.499 80c28.667 29.333 65.667 58.166 111 86.499s99.666 55.166 162.999 80.499c2.66699 2 11.167 14 25.5 36l52 81.5l67 106.5l69.5 111.5l59.5 95.5l37.5 60c-76 -47.333 -144 -82 -204 -104
s-112.333 -34.333 -157 -37s-81.667 2.33301 -111 15s-51 29.834 -65 51.501s-20.5 46 -19.5 73s9.5 53.5 25.5 79.5zM208.004 119.005l70.502 90c25 32.667 50.167 67.667 75.5 105c-51.333 -22.667 -95.666 -46.167 -132.999 -70.5s-68.333 -48.833 -93 -73.5
c-16.667 -16.667 -30.334 -34.5 -41.001 -53.5s-18.167 -36.5 -22.5 -52.5s-4.83301 -29 -1.5 -39s10.666 -14 21.999 -12s27.166 11.167 47.499 27.5s45.5 42.5 75.5 78.5z" />
    <glyph glyph-name="I" unicode="I" horiz-adv-x="944" 
d="M306 949c4.66699 8 10.9971 9.33691 18.9971 4.00391c7.33301 -4.66699 8.66602 -11 3.99902 -19c-14.667 -23.333 -22 -45.833 -22 -67.5s6.83301 -40.167 20.5 -55.5s34.334 -26.5 62.001 -33.5s62.334 -7.33301 104.001 -1s89.834 20.666 144.501 42.999
s116 54.833 184 97.5c1.33301 0.666992 6 1.33398 14 2.00098s16.833 0.833984 26.5 0.500977s18.667 -1.33301 27 -3s13.5 -4.5 15.5 -8.5c1.33301 -4.66699 1.33301 -8.66699 0 -12l-53 -111l-69.5 -146c-25.667 -52.667 -53.667 -107.334 -84 -164.001
s-62.333 -112 -96 -166s-68.5 -104.333 -104.5 -151s-72.5 -86.334 -109.5 -119.001s-74.5 -56.334 -112.5 -71.001s-75.333 -16.667 -112 -6c-32.667 10 -58.167 28.667 -76.5 56s-26.666 57.833 -24.999 91.5s14.667 67.5 39 101.5s63.166 62.667 116.499 86
c8.66699 2.66699 14.667 0 18 -8c3.33301 -8.66699 1 -14.667 -7 -18c-46.667 -20 -80.834 -44.5 -102.501 -73.5s-33.667 -57.667 -36 -86s3.83398 -53.833 18.501 -76.5s35.667 -38 63 -46c25.333 -7.33301 52.333 -3.66602 81 11.001s57.834 37.167 87.501 67.5
s59.5 66.5 89.5 108.5s59.167 86.667 87.5 134s55.5 95.166 81.5 143.499s49.5 94.166 70.5 137.499l55 116l36.5 78l21 45.5c6.66699 14.333 12.667 27.833 18 40.5c-71.333 -42 -135.166 -72.833 -191.499 -92.5s-105.5 -30.834 -147.5 -33.501s-76.667 1.83301 -104 13.5
s-47.333 27.334 -60 47.001s-18.334 42.167 -17.001 67.5s10 50.666 26 75.999z" />
    <glyph glyph-name="J" unicode="J" horiz-adv-x="973" 
d="M973 300c7.33301 6 13.6709 4.99805 19.0039 -3.00195c2.66699 -3.33301 3.66699 -6.66602 3 -9.99902s-2.33398 -6.33301 -5.00098 -9c-33.333 -25.333 -66.833 -43.5 -100.5 -54.5s-68 -17.833 -103 -20.5s-70.667 -1.83398 -107 2.49902s-73.5 9.5 -111.5 15.5
c-14.667 -22 -31.667 -45.667 -51 -71s-40.333 -50.166 -63 -74.499s-46.334 -47.5 -71.001 -69.5s-50 -40.667 -76 -56s-52 -26.5 -78 -33.5s-51.333 -7.83301 -76 -2.5c-32 6.66699 -56 22.834 -72 48.501s-21.833 55 -17.5 88s20 66.333 47 100s67.167 62.167 120.5 85.5
c45.333 19.333 91 29.5 137 30.5s92.667 -1.83301 140 -8.5c32 50.667 61.5 101.5 88.5 152.5l77 152l70 150l67.5 146.5c-30 -4 -61.333 -3.66699 -94 1s-66 8.33398 -100 11.001s-68 1.66699 -102 -3s-67.333 -17.667 -100 -39s-64.334 -54 -95.001 -98
s-59 -104.333 -85 -181c-2.66699 -8.66699 -8.33398 -11.667 -17.001 -9c-8.66699 3.33301 -11.667 9.33301 -9 18c22 63.333 45.167 115.833 69.5 157.5s49.666 75.334 75.999 101.001s53.333 44.5 81 56.5s55.5 19.833 83.5 23.5s55.833 4.33398 83.5 2.00098
s54.834 -5.16602 81.501 -8.49902s52.5 -5.5 77.5 -6.5s48.5 1.16699 70.5 6.5h65c5.33301 0 9.33301 -2 12 -6s2.66699 -8.66699 0 -14l-75.5 -158l-77 -159.5l-81.5 -157c-28 -51.667 -58 -101.834 -90 -150.501c33.333 -5.33301 66.666 -9.83301 99.999 -13.5
s66.333 -4.33398 99 -2.00098s64.834 8.66602 96.501 18.999s62.5 27.166 92.5 50.499zM301.005 6.99805c34 26.667 66.666 59.334 97.999 98.001s62 81 92 127c-42.667 5.33301 -84.834 7.5 -126.501 6.5s-82.5 -10.167 -122.5 -27.5s-71.667 -38.5 -95 -63.5
s-39.166 -50 -47.499 -75s-9.5 -48 -3.5 -69s17.833 -36.167 35.5 -45.5s40.834 -10.833 69.501 -4.5s62 24.166 100 53.499z" />
    <glyph glyph-name="K" unicode="K" horiz-adv-x="1036" 
d="M201 946c2 3.33301 4.83301 5.50586 8.5 6.50586s7.16699 0.166992 10.5 -2.5c6.66699 -4.66699 8.33398 -11 5.00098 -19c-14 -22 -21.5 -43.167 -22.5 -63.5s3.5 -38.666 13.5 -54.999s25 -29.833 45 -40.5s44.667 -16.667 74 -18
c47.333 -2.66699 107.166 8.66602 179.499 33.999s157.166 71 254.499 137c2 1.33301 6.83301 2.16602 14.5 2.49902s16 0.5 25 0.5s17.333 -0.166992 25 -0.5s12.167 -0.833008 13.5 -1.5c3.33301 -2 5.33301 -4.83301 6 -8.5s0 -7.16699 -2 -10.5l-252 -389l-25 -41
l-27 -43l146 47c50 16 99.167 33.167 147.5 51.5s95.166 38.166 140.499 59.499s87 45.166 125 71.499s71.667 55.5 101 87.5s52.333 68 69 108c1.33301 3.33301 3.83301 5.83301 7.5 7.5s7.16699 1.83398 10.5 0.500977c8 -3.33301 10.667 -9.33301 8 -18
c-18 -42.667 -42.667 -81.167 -74 -115.5s-67.5 -65.5 -108.5 -93.5s-85.667 -53.333 -134 -76s-98.166 -43.5 -149.499 -62.5s-103.166 -36.833 -155.499 -53.5l-151.5 -49c22 -26 38.667 -53.833 50 -83.5s21.166 -59.334 29.499 -89.001s17.166 -58.334 26.499 -86.001
s23.333 -52.5 42 -74.5s43.834 -40 75.501 -54s73.834 -22.333 126.501 -25c16.667 0 35.667 0.333008 57 1s40.333 1.66699 57 3c9.33301 1.33301 14.666 -2.66699 15.999 -12c0 -8.66699 -4.33301 -13.667 -13 -15c-22.667 -2 -44 -3.5 -64 -4.5
s-38.667 -0.833008 -56 0.5c-69.333 -2.66699 -124.833 2.83301 -166.5 16.5s-74.5 32.667 -98.5 57s-41.667 52.333 -53 84s-21.333 64.5 -30 98.5c-5.33301 21.333 -11.166 42.5 -17.499 63.5s-14.5 41.167 -24.5 60.5l-45.5 -68c-17.667 -26 -37 -52.667 -58 -80
s-43.167 -54 -66.5 -80s-46.833 -48.833 -70.5 -68.5s-47.334 -34.834 -71.001 -45.501s-46.5 -14.334 -68.5 -11.001c-25.333 4 -43.5 15.833 -54.5 35.5s-14.167 43.167 -9.5 70.5s17.834 57 39.501 89s52.834 62 93.501 90c35.333 24.667 75 47 119 67s91 39 141 57
c1.33301 1.33301 6.16602 8.16602 14.499 20.499l31 48l42.5 67.5l49.5 78.5l50.5 81l46.5 75.5l38 61.5l24.5 39.5c-76 -47.333 -144 -82 -204 -104s-112.5 -34.333 -157.5 -37s-82 2.33301 -111 15s-50.667 29.834 -65 51.501s-20.833 46 -19.5 73s10 53.5 26 79.5z
M281 181.006l62.498 83.999c21.667 29.333 43.167 60 64.5 92c-42 -16 -81.333 -32.833 -118 -50.5s-70 -36.5 -100 -56.5c-29.333 -20 -53.166 -43.167 -71.499 -69.5s-31 -51.166 -38 -74.499s-8.33301 -42.833 -4 -58.5s14.833 -22.667 31.5 -21
s39.334 14.167 68.001 37.5s63.667 62.333 105 117z" />
    <glyph glyph-name="L" unicode="L" horiz-adv-x="1247" 
d="M300 942c2 3.33301 4.82617 5.49902 8.49316 6.49902s7.16699 0.166992 10.5 -2.5c8 -4.66699 9.66699 -11 5 -19c-14.667 -23.333 -21.667 -46 -21 -68s8.83398 -40.833 24.501 -56.5s38.5 -26.834 68.5 -33.501s67 -6.33398 111 0.999023s94.833 23 152.5 47
s122.167 59 193.5 105c2.66699 1.33301 5 2 7 2h62c5.33301 0 9.33301 -2.16699 12 -6.5s2.66699 -9.16602 0 -14.499l-27.5 -50l-36.5 -71l-43.5 -84l-55.5 -105.5l-63.5 -116.5l-68.5 -117c-23.333 -38 -46.666 -73.833 -69.999 -107.5s-45.666 -62.834 -66.999 -87.501
c12 -5.33301 24.167 -10.166 36.5 -14.499s24.5 -9.16602 36.5 -14.499l113 -43c38 -14 76 -26 114 -36s75.833 -16.667 113.5 -20s75.167 -1.66602 112.5 5.00098s74.333 19.167 111 37.5s73 44.166 109 77.499c2.66699 3.33301 5.83398 4.83301 9.50098 4.5
s6.83398 -1.83301 9.50098 -4.5c6 -6.66699 5.66699 -13.334 -1 -20.001c-38 -36 -76.167 -63.667 -114.5 -83s-77 -32.5 -116 -39.5s-78.167 -8.83301 -117.5 -5.5s-78.666 10 -117.999 20s-78.666 22.333 -117.999 37l-117 45l-42 15.5c-14 5 -27.667 10.167 -41 15.5
c-20 -21.333 -40.667 -40.666 -62 -57.999s-43.5 -32.333 -66.5 -45s-46.667 -22.167 -71 -28.5s-48.833 -8.5 -73.5 -6.5c-31.333 2 -56.833 9.66699 -76.5 23s-33.5 29.333 -41.5 48s-10.167 38 -6.5 58s13.334 38 29.001 54s37.167 28.167 64.5 36.5
s60.666 9.83301 99.999 4.5c24.667 -3.33301 49.5 -8.16602 74.5 -14.499s50.167 -13.833 75.5 -22.5c22.667 28 46.167 60.333 70.5 97s48.666 75.5 72.999 116.5l72 126l68 126.5l61 117l50.5 98c-73.333 -44 -139.166 -76.333 -197.499 -97s-109.5 -32.667 -153.5 -36
s-80.667 0.666992 -110 12s-51.333 27 -66 47s-21.667 42.833 -21 68.5s9 51.167 25 76.5zM273.993 52.999c25.333 13.333 49.334 29.834 72.001 49.501s44 41.167 64 64.5c-68.667 22 -124.334 32.167 -167.001 30.5s-74.5 -9.66699 -95.5 -24s-32.333 -31.833 -34 -52.5
s4 -38.834 17 -54.501s32 -26.167 57 -31.5s53.833 0.666992 86.5 18z" />
    <glyph glyph-name="M" unicode="M" horiz-adv-x="1707" 
d="M79 925c4.66699 8 10.9941 9.33496 18.9941 4.00195c7.33301 -4.66699 8.66602 -11 3.99902 -19c-13.333 -22 -20.666 -43.167 -21.999 -63.5s3 -38.666 13 -54.999s25.167 -29.833 45.5 -40.5s45.166 -16.667 74.499 -18
c47.333 -2.66699 107.166 8.66602 179.499 33.999s157.166 71 254.499 137c2 1.33301 6.83301 2.16602 14.5 2.49902s16 0.5 25 0.5s17.333 -0.166992 25 -0.5s12.167 -0.833008 13.5 -1.5c3.33301 -2 5.33301 -4.83301 6 -8.5s-0.333008 -7.16699 -3 -10.5l-521 -795l67 67
l76 79l131.5 136l140 137.5c47 44.333 93.333 85.666 139 123.999s89 70.166 130 95.499s78.5 42.333 112.5 51s62.667 5.66699 86 -9c20.667 -12.667 34.334 -30.167 41.001 -52.5s7.83398 -47.833 3.50098 -76.5s-13 -60 -26 -94s-28.667 -69.333 -47 -106
s-38.333 -74 -60 -112l-64.5 -112l-14 -24l58 60.5l88.5 88l105 96c37 32.333 73.167 60 108.5 83s68.333 39.667 99 50s56 9.16602 76 -3.50098c20.667 -13.333 32.834 -30.833 36.501 -52.5s1.66699 -46 -6 -73s-19.334 -55.667 -35.001 -86s-32.5 -60.833 -50.5 -91.5
c-34 -58 -57.667 -103.833 -71 -137.5s-18.833 -58 -16.5 -73s11.166 -21.667 26.499 -20s34.666 8.66699 57.999 21s49.166 28.666 77.499 48.999s56.5 42 84.5 65l80.5 69l65.5 60.5c2.66699 2.66699 5.83398 4 9.50098 4s6.83398 -1.33301 9.50098 -4
c6.66699 -6 7 -12.667 1 -20l-26.5 -25.5l-48 -44l-63.5 -54.5c-23.333 -19.333 -47.5 -38.166 -72.5 -56.499s-50.167 -35.333 -75.5 -51s-49.5 -28.334 -72.5 -38.001s-44.167 -15.167 -63.5 -16.5s-35.333 3.33398 -48 14.001c-13.333 10.667 -20.666 25.5 -21.999 44.5
s1.33398 40.5 8.00098 64.5s16.5 49.833 29.5 77.5s27.5 55.834 43.5 84.501l49 92.5c15.333 30.333 26.666 58.166 33.999 83.499c7.33301 26 10.166 45.667 8.49902 59s-6.66699 21.833 -15 25.5s-19.166 3.16699 -32.499 -1.5s-28 -12 -44 -22
c-34 -21.333 -70.667 -49.333 -110 -84s-78.833 -71.5 -118.5 -110.5l-116 -117l-103.5 -103.5c-3.33301 -1.33301 -10 -2.66602 -20 -3.99902s-20 -2 -30 -2s-18.167 1.5 -24.5 4.5s-7.16602 8.5 -2.49902 16.5l45.5 80l52.5 92.5l53.5 99
c17.667 33.667 33.834 66.5 48.501 98.5s27 62.5 37 91.5s16 55.5 18 79.5c3.33301 32 1.5 54.833 -5.5 68.5s-17 21.5 -30 23.5s-28.167 -0.666992 -45.5 -8s-34.666 -16.333 -51.999 -27c-39.333 -23.333 -81.666 -54.166 -126.999 -92.499s-91.833 -80 -139.5 -125
l-142 -140l-134.5 -138.5l-63.5 -66l-71.5 -73c-23.333 -23.333 -44.166 -43.166 -62.499 -59.499s-30.166 -24.5 -35.499 -24.5h-61c-5.33301 0 -9.5 2.16699 -12.5 6.5s-2.83301 9.16602 0.5 14.499l544 830c-76 -47.333 -144 -81.833 -204 -103.5
s-112.167 -33.834 -156.5 -36.501s-81.166 2.33301 -110.499 15s-51 29.834 -65 51.501s-20.333 46 -19 73s10 53.5 26 79.5z" />
    <glyph glyph-name="N" unicode="N" horiz-adv-x="1260" 
d="M1260 300c6 6 12.6641 6.00488 19.9971 0.00488281c6 -6 6 -12.667 0 -20c-10.667 -10.667 -26.334 -25.334 -47.001 -44.001l-70.5 -61c-26.333 -22 -54.5 -44.167 -84.5 -66.5s-59.333 -42.166 -88 -59.499c-31.333 -18.667 -61 -33.167 -89 -43.5
s-52 -12.166 -72 -5.49902c-19.333 6 -31.5 17.333 -36.5 34s-5.66699 36.167 -2 58.5s10.5 46.166 20.5 71.499s20.833 49.666 32.5 72.999s22.834 44.166 33.501 62.499l24 41.5l75.5 141c24.333 46.667 42.166 90 53.499 130c10 34.667 14.667 62 14 82s-5 34.333 -13 43
s-19 12.667 -33 12s-29.167 -4.16699 -45.5 -10.5s-33.166 -14.666 -50.499 -24.999s-33.333 -20.833 -48 -31.5c-38 -27.333 -78 -59.333 -120 -96s-84.5 -75.834 -127.5 -117.501l-128 -127l-120.5 -124.5l-40.5 -41.5l-46.5 -48.5l-47.5 -48.5l-43.5 -42
c-13.333 -12.333 -24.666 -22.333 -33.999 -30s-15.666 -11.5 -18.999 -11.5h-62c-5.33301 0 -9.5 2.16699 -12.5 6.5s-2.83301 9.16602 0.5 14.499l544 830c-76 -47.333 -144 -81.833 -204 -103.5s-112.167 -34 -156.5 -37s-81.166 2 -110.499 15s-51 30.333 -65 52
s-20.333 46 -19 73s10 53.5 26 79.5c2 3.33301 4.83301 5.5 8.5 6.5s7.16699 0.166992 10.5 -2.5c8 -4.66699 9.33301 -11 4 -19c-13.333 -22 -20.666 -43.167 -21.999 -63.5s3 -38.666 13 -54.999s25.167 -29.833 45.5 -40.5s45.166 -16.667 74.499 -18
c47.333 -2.66699 107.166 8.66602 179.499 33.999s157.166 71 254.499 137c2 1.33301 6.83301 2.16602 14.5 2.49902s16 0.5 25 0.5s17.167 -0.166992 24.5 -0.5s11.666 -0.833008 12.999 -1.5c3.33301 -2 5.5 -4.83301 6.5 -8.5s0.5 -7.16699 -1.5 -10.5l-522 -796l66.5 68
l75.5 78l39.5 43l65.5 70.5l84.5 88l97.5 95c34 31.667 68.833 62.5 104.5 92.5s70.5 56.667 104.5 80c11.333 8 25 16.833 41 26.5s32.833 18.667 50.5 27s35.667 15.166 54 20.499s36 7.66602 53 6.99902s32.5 -5.33398 46.5 -14.001s25.333 -23 34 -43
c10 -22.667 13 -49.334 9 -80.001s-12.5 -63.5 -25.5 -98.5s-29.333 -71.5 -49 -109.5l-60.5 -113c-4.66699 -8.66699 -11.667 -20.667 -21 -36s-19.166 -32.5 -29.499 -51.5l-31 -59c-10.333 -20.333 -18.833 -39.666 -25.5 -57.999s-11.167 -34.5 -13.5 -48.5
s-0.5 -24.333 5.5 -31s16.5 -8.5 31.5 -5.5s36.5 12.5 64.5 28.5c28.667 16.667 58.334 36.334 89.001 59.001s59.334 45.334 86.001 68.001l71 62.5c20.667 19 36 33.5 46 43.5z" />
    <glyph glyph-name="O" unicode="O" horiz-adv-x="1203" 
d="M75 504c-8 4.66699 -9.66406 11 -4.99707 19c6 7.33301 12.333 8.66602 19 3.99902c32.667 -20 74.834 -33 126.501 -39s108.5 -6.66699 170.5 -2c31.333 66.667 69.166 127 113.499 181s97.166 102.333 158.499 145c47.333 33.333 96.833 59.833 148.5 79.5
s104.5 31.167 158.5 34.5c51.333 2.66699 92.5 -2.66602 123.5 -15.999s51.667 -31.5 62 -54.5s10 -49.333 -1 -79s-32.833 -59.5 -65.5 -89.5c9.33301 -44.667 8.16602 -92.167 -3.50098 -142.5s-31 -100.5 -58 -150.5s-59.833 -98.167 -98.5 -144.5
s-79.834 -87.5 -123.501 -123.5s-88.334 -65.167 -134.001 -87.5s-88.834 -34.5 -129.501 -36.5c-51.333 -2.66699 -95.166 7.16602 -131.499 29.499s-62.166 58.5 -77.499 108.5c-11.333 38.667 -13.833 84.667 -7.5 138s23.833 113 52.5 179
c-61.333 -3.33301 -117.833 -1.66602 -169.5 5.00098s-94.5 20.667 -128.5 42zM944.003 825c-8.66699 4.66699 -10.6689 10.9971 -6.00195 18.9971c4 7.33301 10.333 9.33301 19 6c28 -15.333 52.167 -33.833 72.5 -55.5s35.833 -47.5 46.5 -77.5
c34.667 36.667 52.5 67.834 53.5 93.501s-8.66699 45.334 -29 59.001s-48.333 21.167 -84 22.5s-73.167 -4.33398 -112.5 -17.001c-42 -13.333 -82.667 -31.666 -122 -54.999s-76.166 -50 -110.499 -80s-66 -62.5 -95 -97.5s-53.833 -71.5 -74.5 -109.5l-9.5 -19
c-3 -6 -6.16699 -12 -9.5 -18c47.333 6.66699 97.833 15.834 151.5 27.501s106.334 26 158.001 43s100.167 36.5 145.5 58.5s83.666 46 114.999 72c-8.66699 28.667 -22.167 53.5 -40.5 74.5s-41.166 38.833 -68.499 53.5zM468.001 465.997
c-8 -18 -16.5049 -39.998 -25.5049 -65.998s-16.667 -53.833 -23 -83.5s-10.5 -59.834 -12.5 -90.501s0 -59 6 -85s16.833 -48.333 32.5 -67s37.834 -31.334 66.501 -38.001c20 -4.66699 41.5 -4.5 64.5 0.5s46.333 13.167 70 24.5s47.167 24.833 70.5 40.5s45.333 32 66 49
s39.5 33.667 56.5 50s31.167 30.833 42.5 43.5c24 27.333 47.833 58 71.5 92s44.334 69.5 62.001 106.5s30.834 74.667 39.501 113s10.334 75.5 5.00098 111.5c-33.333 -26 -73.5 -50 -120.5 -72s-97.333 -41.5 -151 -58.5s-108.167 -31.5 -163.5 -43.5
s-107.666 -21 -156.999 -27z" />
    <glyph glyph-name="P" unicode="P" horiz-adv-x="1225" 
d="M75 930c4.66699 7.33301 11.002 8.66699 19.002 4c7.33301 -4.66699 8.66602 -11 3.99902 -19c-14 -22 -21.5 -43.333 -22.5 -64s3.5 -39.167 13.5 -55.5s25 -29.666 45 -39.999s44.667 -16.166 74 -17.499c48 -2.66699 108.167 8.66602 180.5 33.999
s157.166 71 254.499 137c2 2 4.66699 3 8 3h62c5.33301 0 9.33301 -2.33301 12 -7s2.33398 -9.33398 -0.999023 -14.001l-260 -397l64 70.5l80.5 84c29 29 59.667 57.833 92 86.5s65.166 55.167 98.499 79.5s66.833 45.166 100.5 62.499s66.167 29 97.5 35
c40 8 72.667 8.83301 98 2.5s44.666 -17.833 57.999 -34.5s21 -37 23 -61s-0.333008 -49.667 -7 -77s-17.334 -55.333 -32.001 -84s-31.667 -55.334 -51 -80.001c-24.667 -31.333 -53.167 -62.166 -85.5 -92.499s-67 -58.5 -104 -84.5s-75.667 -48.833 -116 -68.5
s-80.833 -34.5 -121.5 -44.5c-13.333 -3.33301 -30.5 -6.66602 -51.5 -9.99902s-41.667 -4.33301 -62 -3s-38.833 6 -55.5 14s-27.334 21.667 -32.001 41c-4 18 1.33301 38.333 16 61c12.667 18.667 29.834 35 51.501 49s45.667 25.667 72 35s53.833 16.333 82.5 21
s56.167 6.5 82.5 5.5s50.166 -4.66699 71.499 -11s38.333 -15.5 51 -27.5c58.667 48.667 105 97 139 145s56.667 91.5 68 130.5s11.833 71.333 1.5 97s-30.666 40.334 -60.999 44.001s-70.166 -5.5 -119.499 -27.5s-107 -61.333 -173 -118
c-40.667 -34.667 -80.667 -72 -120 -112s-76 -79.167 -110 -117.5l-92.5 -107.5l-68.5 -83l-13 -14l-103 -158l-88 -136c-3.33301 -4 -7.33301 -6 -12 -6h-61c-5.33301 0 -9.5 2.16699 -12.5 6.5s-2.83301 9.16602 0.5 14.499l544 830c-76 -47.333 -144 -81.833 -204 -103.5
s-112.167 -33.834 -156.5 -36.501s-81.166 2.33301 -110.499 15s-51 29.834 -65 51.501s-20.333 46 -19 73s10 53.5 26 79.5zM866.002 448.001c-0.666992 0 -1.16504 0.166992 -1.49805 0.5s-0.833008 0.5 -1.5 0.5c-16.667 11.333 -35.834 19.166 -57.501 23.499
s-44.167 5.83301 -67.5 4.5s-47 -4.83301 -71 -10.5s-46.667 -12.834 -68 -21.501c-44 -18 -74.833 -37.333 -92.5 -58s-23.834 -38.167 -18.501 -52.5s21.333 -23.666 48 -27.999s62 0.833984 106 15.501c37.333 12 75 29 113 51s75 47 111 75z" />
    <glyph glyph-name="Q" unicode="Q" horiz-adv-x="1165" 
d="M63 649c-3.33301 2.66699 -5.00391 5.83203 -5.00391 9.49902s1.66699 6.83398 5 9.50098c2.66699 3.33301 5.83398 5 9.50098 5s6.83398 -1.33301 9.50098 -4c38.667 -37.333 79.834 -65.833 123.501 -85.5s88.167 -32.834 133.5 -39.501
c23.333 42.667 52.833 85.5 88.5 128.5s75.5 82.333 119.5 118s90.833 65.5 140.5 89.5s100.167 38.333 151.5 43c46.667 4 80.334 -5.33301 101.001 -28s23.334 -54.667 8.00098 -96c25.333 -26.667 43.166 -55.834 53.499 -87.501s14.5 -64.667 12.5 -99
s-8.83301 -69.166 -20.5 -104.499s-26.167 -69.833 -43.5 -103.5s-36.833 -65.834 -58.5 -96.501s-43.5 -58 -65.5 -82c-23.333 -26.667 -46.666 -50.667 -69.999 -72s-46.666 -40.666 -69.999 -57.999c24.667 -13.333 51.167 -25.166 79.5 -35.499
s59.5 -15.666 93.5 -15.999s71.167 6.5 111.5 20.5s85.166 38.667 134.499 74c3.33301 2.66699 6.83301 3.66699 10.5 3s6.5 -2.66699 8.5 -6s2.83301 -6.83301 2.5 -10.5s-2.16602 -6.5 -5.49902 -8.5c-54.667 -39.333 -104.334 -66.333 -149.001 -81
s-85.5 -21.334 -122.5 -20.001s-71 8.33301 -102 21s-60.167 26.667 -87.5 42c-51.333 -34 -100.5 -56.667 -147.5 -68s-89 -12.5 -126 -3.5s-67.833 27.333 -92.5 55s-40.834 63.5 -48.501 107.5s-5.5 95.333 6.5 154s36.667 123.667 74 195
c-46.667 7.33301 -92.167 21.333 -136.5 42s-86.5 50 -126.5 88zM480.996 132.998c-8.66699 -2.66699 -14.335 0.333984 -17.002 9.00098c-2 8.66699 1 14.667 9 18c16 4.66699 31.833 6.5 47.5 5.5s31 -4 46 -9s30.167 -11.667 45.5 -20l47 -25.5
c34 24 67.5 52.167 100.5 84.5s63.667 67.166 92 104.499s53.166 76 74.499 116s37.333 79.667 48 119c5.33301 20.667 9 41.5 11 62.5s1.83301 41.667 -0.5 62s-7.33301 40 -15 59s-18.834 36.833 -33.501 53.5c-21.333 -38.667 -51.666 -74 -90.999 -106
s-83 -59.333 -131 -82s-98.167 -40.334 -150.5 -53.001s-102.166 -19 -149.499 -19c-24 -41.333 -43.5 -85 -58.5 -131s-24.333 -90.167 -28 -132.5s-1 -80.666 8 -114.999s25.5 -60 49.5 -77s56.333 -23.5 97 -19.5s91 23 151 57c-27.333 15.333 -53.166 27.5 -77.499 36.5
s-49.166 9.83301 -74.499 2.5zM866.995 824.999c-8 4.66699 -9.66797 11.002 -5.00098 19.002c1.33301 3.33301 3.83301 5.5 7.5 6.5s7.16699 0.833008 10.5 -0.5l24 -15c7.33301 -4.66699 14.666 -9.66699 21.999 -15c7.33301 26.667 5.83301 45.5 -4.5 56.5
s-24.666 16.833 -42.999 17.5s-37.833 -1.83301 -58.5 -7.5s-37.334 -11.5 -50.001 -17.5c-35.333 -16.667 -69.5 -37.334 -102.5 -62.001s-64.167 -51.667 -93.5 -81s-56.166 -60 -80.499 -92s-45.5 -63.333 -63.5 -94c44.667 1.33301 91.834 8.5 141.501 21.5
s97 30.833 142 53.5s85.5 49.167 121.5 79.5s62.667 63.166 80 98.499z" />
    <glyph glyph-name="R" unicode="R" horiz-adv-x="1086" 
d="M90 930c2 3.33301 4.83789 5.33301 8.50488 6s7.16699 0 10.5 -2c8 -4.66699 9.66699 -11 5 -19c-14 -22 -21.5 -43.333 -22.5 -64s3.5 -39.167 13.5 -55.5s25 -29.666 45 -39.999s44.667 -16.166 74 -17.499c47.333 -2.66699 107.166 8.66602 179.499 33.999
s157.166 71 254.499 137c2 1.33301 6.83301 2.16602 14.5 2.49902s16 0.5 25 0.5s17.333 -0.333008 25 -1s12.167 -1.33398 13.5 -2.00098c7.33301 -4.66699 8.66602 -10.667 3.99902 -18l-260 -397l83 92c33.333 36 69.666 72.667 108.999 110s80.333 72.666 123 105.999
s85 60.5 127 81.5s82.167 33.333 120.5 37s72.833 -6.16602 103.5 -29.499c26 -20 39.833 -48 41.5 -84s-6.5 -75.333 -24.5 -118s-44.333 -86.5 -79 -131.5s-75 -86.833 -121 -125.5s-96.333 -72 -151 -100s-111 -46 -169 -54
c5.33301 -14.667 10.166 -30.334 14.499 -47.001l13.5 -52c5.33301 -22.667 11.166 -45.667 17.499 -69s14.833 -45.833 25.5 -67.5s24.334 -41.667 41.001 -60s38 -33.666 64 -45.999s57.5 -20.833 94.5 -25.5s80.833 -4.66699 131.5 0c4 0.666992 7.33301 -0.333008 10 -3
s4.33398 -5.66699 5.00098 -9c0.666992 -4 -0.333008 -7.5 -3 -10.5s-6 -4.5 -10 -4.5c-54.667 -5.33301 -101.834 -5.33301 -141.501 0s-73.5 14.5 -101.5 27.5s-51 29.5 -69 49.5s-32.833 41.5 -44.5 64.5s-21 47.167 -28 72.5s-13.167 50.333 -18.5 75l-13.5 54.5
c-4.33301 17 -9.83301 32.833 -16.5 47.5c-16 -1.33301 -30.5 -1.33301 -43.5 0s-24.833 3.66602 -35.5 6.99902c-25.333 7.33301 -42 17 -50 29s-9.66699 23.167 -5 33.5s14.667 17.833 30 22.5s33.666 3 54.999 -5c24.667 -9.33301 44 -24.666 58 -45.999
c48 12.667 96.167 32.834 144.5 60.501s93.666 59.5 135.999 95.5s80.166 75 113.499 117s58.666 83.667 75.999 125c18.667 44 24.834 78.833 18.501 104.5s-20.666 42.834 -42.999 51.501s-50.666 9.16699 -84.999 1.5s-69.833 -23.167 -106.5 -46.5
c-33.333 -21.333 -67.166 -46 -101.499 -74s-68 -58 -101 -90s-64.833 -64.5 -95.5 -97.5l-86.5 -96l-73 -86.5l-54.5 -67l-13 -14l-103 -158l-89 -136c-2 -4 -5.66699 -6 -11 -6h-62c-5.33301 0 -9.33301 2.16699 -12 6.5s-2.66699 9.16602 0 14.499l545 830
c-76 -47.333 -144 -81.833 -204 -103.5s-112.333 -33.834 -157 -36.501s-81.667 2.33301 -111 15s-51 29.834 -65 51.501s-20.333 46 -19 73s10 53.5 26 79.5zM594.005 309c-13.333 16 -26.167 26.665 -38.5 31.998s-23 7.5 -32 6.5s-15.167 -4.16699 -18.5 -9.5
s-2.83301 -10.666 1.5 -15.999s13.5 -9.66602 27.5 -12.999s34 -3.33301 60 0z" />
    <glyph glyph-name="S" unicode="S" horiz-adv-x="1074" 
d="M693 519c-3.33301 -2 -6.83496 -2.5 -10.502 -1.5s-6.5 3.16699 -8.5 6.5c-1.33301 3.33301 -1.5 6.83301 -0.5 10.5s3.16699 6.5 6.5 8.5c55.333 32 98.166 64.333 128.499 97s51 63.167 62 91.5s14 53.666 9 75.999s-14.667 39.333 -29 51
s-31.666 16.834 -51.999 15.501s-40.5 -11.166 -60.5 -29.499s-38.333 -46.5 -55 -84.5s-28.334 -87.667 -35.001 -149l-21.5 -208c-7 -70 -18.833 -139.333 -35.5 -208c38.667 -2 77.834 -3.66699 117.501 -5s79.5 1 119.5 7s80.5 16.833 121.5 32.5
s82.5 39.167 124.5 70.5c8 5.33301 14.667 4.33301 20 -3c2 -3.33301 2.83301 -6.83301 2.5 -10.5s-2.16602 -6.5 -5.49902 -8.5c-44.667 -33.333 -88.5 -58.166 -131.5 -74.499s-85.5 -27.5 -127.5 -33.5s-83.667 -8.5 -125 -7.5s-82.333 2.83301 -123 5.5
c-25.333 -90 -56.166 -162.5 -92.499 -217.5s-74.5 -96.333 -114.5 -124s-79.667 -43.334 -119 -47.001s-74.666 1.16602 -105.999 14.499s-56.833 33.333 -76.5 60s-29.334 56.5 -29.001 89.5s12.166 67.167 35.499 102.5s62.333 68.666 117 99.999
c24.667 14 49.667 24.833 75 32.5s50.833 13.334 76.5 17.001s51.167 5.5 76.5 5.5s50.666 -0.333008 75.999 -1c9.33301 36 16.833 71.5 22.5 106.5s10.334 69.5 14.001 103.5s6.83398 68 9.50098 102s6 68 10 102c8 72.667 23.167 131.167 45.5 175.5
s47.833 77.333 76.5 99s58 33 88 34s56.667 -5.66699 80 -20s40.833 -35 52.5 -62s13.167 -57.667 4.5 -92s-29.667 -71.333 -63 -111s-83.333 -79.167 -150 -118.5zM494.998 173c-24 0.666992 -47.8271 0.831055 -71.4941 0.498047s-47.334 -2.33301 -71.001 -6
s-47.334 -9.16699 -71.001 -16.5s-46.834 -17.333 -69.501 -30c-44.667 -25.333 -77.5 -52.333 -98.5 -81s-32.5 -56.167 -34.5 -82.5s3.5 -50 16.5 -71s31.167 -36.333 54.5 -46s50.166 -12.167 80.499 -7.5s61.166 19.334 92.499 44.001s62.166 60.834 92.499 108.501
s56.833 110.167 79.5 187.5z" />
    <glyph glyph-name="T" unicode="T" horiz-adv-x="923" 
d="M348 742c-3.33301 -8 -9.32617 -10.3408 -17.9932 -7.00781c-3.33301 1.33301 -5.83301 3.83301 -7.5 7.5s-1.83398 7.16699 -0.500977 10.5c20.667 52.667 47.167 94.334 79.5 125.001s68.666 53.334 108.999 68.001s84.333 23 132 25s97.5 1 149.5 -3
s105.333 -9.33301 160 -16s109.667 -11.667 165 -15s110 -3 164 1s106.333 14.667 157 32c8.66699 2 14.667 -1 18 -9c2.66699 -8 -0.333008 -13.667 -9 -17c-42 -14.667 -85.167 -24.667 -129.5 -30s-89 -7.66602 -134 -6.99902s-90.167 3.16699 -135.5 7.5l-135 13.5
l-61 -130l-47 -99.5c-18.667 -39.667 -40 -82.834 -64 -129.501l-78 -145c-28 -50 -57.667 -98.667 -89 -146s-63.666 -91.5 -96.999 -132.5s-67.5 -75.667 -102.5 -104s-70 -48.666 -105 -60.999s-69.833 -13.5 -104.5 -3.5c-22 6.66699 -40.833 17.334 -56.5 32.001
s-27.334 31.834 -35.001 51.501s-11 40.834 -10 63.501s7.16699 45.334 18.5 68.001s28.166 44.334 50.499 65.001s51.166 38.667 86.499 54c8.66699 3.33301 14.667 1 18 -7c3.33301 -8.66699 1 -14.667 -7 -18c-46.667 -20 -80.834 -44.5 -102.501 -73.5
s-33.667 -57.667 -36 -86s3.83398 -54 18.501 -77s35.667 -38.5 63 -46.5c23.333 -6.66699 49.166 -1.66699 77.499 15s57.666 41.5 87.999 74.5s61.166 72 92.499 117s62.166 92.5 92.499 142.5s59.333 100.667 87 152l76 145l59.5 120.5l38 79.5l23 48.5l19 39.5
c-53.333 4.66699 -104.333 6.83398 -153 6.50098s-93.667 -6.83301 -135 -19.5s-78.166 -33.334 -110.499 -62.001s-58.833 -68.667 -79.5 -120z" />
    <glyph glyph-name="U" unicode="U" horiz-adv-x="1059" 
d="M1059 300c2.66699 2.66699 5.82617 4.00488 9.49316 4.00488s6.83398 -1.66699 9.50098 -5c2.66699 -2.66699 3.83398 -5.83398 3.50098 -9.50098s-1.83301 -6.83398 -4.5 -9.50098c-15.333 -14.667 -35.5 -33 -60.5 -55s-52.667 -45 -83 -69s-62.333 -47.667 -96 -71
s-67 -43 -100 -59s-64.5 -27.333 -94.5 -34s-56.333 -5.33398 -79 3.99902c-26 10.667 -40.333 30.5 -43 59.5s2 62.833 14 101.5s29 79.834 51 123.501s44.833 85.334 68.5 125.001s45.667 74.834 66 105.501l43.5 66l-137.5 -148.5
c-46.333 -47.667 -92.5 -90.834 -138.5 -129.501c-40 -34 -78.833 -63.667 -116.5 -89s-73.5 -44.666 -107.5 -57.999c-46.667 -18 -84.5 -23 -113.5 -15s-49.833 24.5 -62.5 49.5s-17.667 55.833 -15 92.5s12 74 28 112c18 43.333 40.833 88.666 68.5 135.999
s56 93.166 85 137.499s57.333 85.333 85 123l68.5 93.5c-38 0 -74 -3.16699 -108 -9.5s-65.333 -17 -94 -32s-54.5 -35.5 -77.5 -61.5s-42.5 -59 -58.5 -99c-1.33301 -3.33301 -3.66602 -5.83301 -6.99902 -7.5s-7 -1.83398 -11 -0.500977c-8 3.33301 -10.333 9.33301 -7 18
c20.667 52 46.334 92.833 77.001 122.5s66 52.167 106 67.5c38.667 15.333 80.334 24.5 125.001 27.5s91.667 2.83301 141 -0.5c7.33301 0 12 -2.66699 14 -8s1.33301 -10.333 -2 -15l-47.5 -64l-64 -89.5l-71.5 -106c-24.667 -37.667 -48 -75.834 -70 -114.501
c-54 -94 -88.167 -169.5 -102.5 -226.5s-11.166 -94.167 9.50098 -111.5s57.334 -14 110.001 10s119.334 70.333 200.001 139c48 40.667 95.5 85.167 142.5 133.5s93 98.166 138 149.499s88.333 103.666 130 156.999l119.5 157c3.33301 3.33301 7 5 11 5h61
c5.33301 0 9.5 -2.33301 12.5 -7s2.83301 -9.66699 -0.5 -15c-2.66699 -3.33301 -11.334 -15 -26.001 -35l-55 -77l-74.5 -107.5l-85 -126.5l-85.5 -134c-28 -45.333 -53.5 -88.833 -76.5 -130.5s-42.333 -80.334 -58 -116.001s-25.667 -65.667 -30 -90
s-1.66602 -41.833 8.00098 -52.5s28.167 -12 55.5 -4c33.333 10 68.166 25.333 104.499 46s72 43.834 107 69.501s68.833 52.334 101.5 80.001z" />
    <glyph glyph-name="V" unicode="V" horiz-adv-x="723" 
d="M1040 932c5.33301 6.66699 12 7.6709 20 3.00391c6.66699 -5.33301 7.66699 -11.666 3 -18.999l-125 -168l-150.5 -189l-163 -188.5c-55.667 -61.667 -110.5 -117.834 -164.5 -168.501c-17.333 -16.667 -36.833 -34.334 -58.5 -53.001s-44.334 -36.667 -68.001 -54
s-47.667 -33.333 -72 -48s-48.166 -26.167 -71.499 -34.5s-45.333 -12.5 -66 -12.5s-39 6 -55 18c-17.333 12.667 -28 30 -32 52s-4.16699 45.667 -0.5 71s9.83398 50.666 18.501 75.999s17 47.666 25 66.999c15.333 36 33.166 73.5 53.499 112.5s42 78.167 65 117.5
l70.5 115.5l69.5 106.5l62.5 91l49 69c-38 0 -74.167 -3.16699 -108.5 -9.5s-66 -17 -95 -32s-54.833 -35.5 -77.5 -61.5s-42 -59 -58 -99c-3.33301 -8 -9.33301 -10.667 -18 -8c-3.33301 1.33301 -5.83301 3.83301 -7.5 7.5s-1.83398 7.16699 -0.500977 10.5
c20.667 51.333 46.5 92.166 77.5 122.499s66 53 105 68s81.167 23.833 126.5 26.5s92.666 2.66699 141.999 0c6.66699 -0.666992 10.834 -3.66699 12.501 -9s0.833984 -10.333 -2.49902 -15l-56 -78l-77.5 -113.5l-88 -135.5c-30.333 -48 -59.166 -96 -86.499 -144
c-58.667 -101.333 -98 -184.5 -118 -249.5s-21.333 -108 -4 -129s53.166 -18 107.499 9s126.833 82.167 217.5 165.5c54 50 108.667 105.667 164 167l162 187.5l149 188z" />
    <glyph glyph-name="W" unicode="W" horiz-adv-x="1289" 
d="M1592 904c6 7.33301 12.333 8.33887 19 3.00586c3.33301 -2 5.33301 -4.83301 6 -8.5s0 -7.16699 -2 -10.5l-128.5 -168.5c-47.667 -60.333 -98 -121 -151 -182s-107.333 -120.333 -163 -178s-110.5 -110.167 -164.5 -157.5c-31.333 -27.333 -65 -54.666 -101 -81.999
s-72 -50.666 -108 -69.999s-70.833 -32.833 -104.5 -40.5s-63.834 -5.83398 -90.501 5.49902c-24.667 10 -41.5 25.5 -50.5 46.5s-12.667 44.833 -11 71.5s7.33398 55.167 17.001 85.5s21.167 60 34.5 89s27.166 56.5 41.499 82.5l37.5 66c-46 -48 -92 -92.5 -138 -133.5
s-90.333 -76.5 -133 -106.5c-20 -14 -41.333 -27.333 -64 -40s-45.167 -22.834 -67.5 -30.501s-44.5 -12.167 -66.5 -13.5s-42.667 2 -62 10c-20 8 -34.5 20 -43.5 36s-14 34.833 -15 56.5s2 45.667 9 72s16.5 54.166 28.5 83.499c18.667 43.333 41.667 88.666 69 135.999
s55.666 93.166 84.999 137.499l85 123l68 93.5c-38 0 -74 -3.16699 -108 -9.5s-65.333 -17 -94 -32s-54.5 -35.5 -77.5 -61.5s-42.5 -59 -58.5 -99c-3.33301 -8 -9.33301 -10.667 -18 -8c-3.33301 1.33301 -5.83301 3.83301 -7.5 7.5s-1.83398 7.16699 -0.500977 10.5
c20.667 51.333 46.5 92.166 77.5 122.499s66 53 105 68s81.333 23.833 127 26.5s93.167 2.66699 142.5 0c6 -0.666992 9.83301 -3.66699 11.5 -9s0.833984 -10.333 -2.49902 -15l-45 -60l-56 -77.5l-62 -90l-62.5 -96.5c-20.333 -32.667 -39.333 -65.334 -57 -98.001
s-32.834 -64 -45.501 -94c-25.333 -60 -37.666 -105.833 -36.999 -137.5s10.667 -51.5 30 -59.5s46.333 -5.66699 81 7s73 33.667 115 63c58.667 40 119.5 90.5 182.5 151.5s125.5 126.167 187.5 195.5l4.5 7c1.66699 2.66699 4.83398 4 9.50098 4h61
c5.33301 0 9.5 -2.33301 12.5 -7s2.83301 -9.66699 -0.5 -15l-54.5 -83c-18.333 -28.667 -35.833 -57.5 -52.5 -86.5s-32.167 -57.833 -46.5 -86.5s-26.833 -56 -37.5 -82c-18.667 -46.667 -29.667 -84 -33 -112s-1.16602 -48.833 6.50098 -62.5
s19.834 -20.834 36.501 -21.501s36 2.83301 58 10.5s45.667 18.5 71 32.5s50.166 29.167 74.499 45.5s47.333 32.833 69 49.5s39.834 31.667 54.501 45c54 46.667 108.667 98.667 164 156s109.333 116.333 162 177l150 180.5c47.333 59.667 89.666 115.5 126.999 167.5z" />
    <glyph glyph-name="X" unicode="X" horiz-adv-x="1081" 
d="M1399 1058c2 3.33301 4.82715 5.17188 8.49414 5.50488s7.16699 -0.5 10.5 -2.5c6.66699 -5.33301 7.66699 -12 3 -20c-57.333 -74.667 -117 -141.167 -179 -199.5s-125 -110.833 -189 -157.5s-128.167 -89 -192.5 -127l-187.5 -107c6 -28.667 13.5 -58.5 22.5 -89.5
s19.667 -61.333 32 -91s26.666 -58 42.999 -85s34.833 -51.333 55.5 -73s43.667 -39.834 69 -54.501s53.333 -24.334 84 -29.001c4 -0.666992 7 -2.5 9 -5.5s2.83301 -6.16699 2.5 -9.5s-1.66602 -6.33301 -3.99902 -9s-5.5 -4 -9.5 -4c-56 0 -104.833 11.667 -146.5 35
s-77.834 54.166 -108.501 92.499s-56.167 81.833 -76.5 130.5s-36.833 98.667 -49.5 150c-59.333 -32.667 -116 -65.667 -170 -99s-103.167 -69.166 -147.5 -107.499s-82.666 -80.833 -114.999 -127.5s-56.5 -99.334 -72.5 -158.001
c-1.33301 -3.33301 -3.66602 -6.16602 -6.99902 -8.49902s-6.66602 -2.83301 -9.99902 -1.5s-6.16602 3.66602 -8.49902 6.99902s-2.83301 6.66602 -1.5 9.99902c16.667 62 42 117.333 76 166s74 93 120 133s97.167 77.167 153.5 111.5l176.5 102.5
c-9.33301 40 -16.833 81.333 -22.5 124s-10 85.167 -13 127.5s-4.66699 83.666 -5 123.999s0.5 77.833 2.5 112.5c0 8.66699 4.66699 13 14 13h61c9.33301 -1.33301 14 -6.33301 14 -15c-1.33301 -23.333 -2.33301 -51.5 -3 -84.5s-0.166992 -69 1.5 -108
s4.83398 -79.833 9.50098 -122.5s11 -85.667 19 -129l184 105c62.667 37.333 125.334 79 188.001 125s124.334 97.667 185.001 155s118.667 122.333 174 195z" />
    <glyph glyph-name="Y" unicode="Y" horiz-adv-x="1047" 
d="M1047 300c3.33301 2.66699 6.83496 3.66016 10.502 2.99316s6.5 -2.66699 8.5 -6c6 -6.66699 5.33301 -13 -2 -19c-30.667 -23.333 -63.167 -40.666 -97.5 -51.999s-69.833 -18.666 -106.5 -21.999s-74.167 -3.66602 -112.5 -0.999023s-76.833 6.66699 -115.5 12
c-32.667 -47.333 -64 -89.166 -94 -125.499s-56.667 -64.166 -80 -83.499c-42.667 -35.333 -82.834 -61 -120.501 -77s-72.167 -24.5 -103.5 -25.5s-58.833 4.16699 -82.5 15.5s-42.5 26.5 -56.5 45.5s-22.667 40.667 -26 65s-0.333008 49 9 74s25.333 49.167 48 72.5
s53.334 43.333 92.001 60c25.333 10.667 51.833 18.334 79.5 23.001s56 7.33398 85 8.00098s58.667 -0.5 89 -3.5s60.833 -6.5 91.5 -10.5c50.667 76 100 154.333 148 235l138 242c-36.667 -46 -75.334 -89.833 -116.001 -131.5s-81.334 -78.5 -122.001 -110.5
c-20 -15.333 -42 -30.333 -66 -45s-48.5 -26.5 -73.5 -35.5s-49.833 -14.167 -74.5 -15.5s-48 3.66699 -70 15c-26 14 -41 35 -45 63s-1 59.333 9 94s25 71 45 109s40.667 73.833 62 107.5s41.5 63.5 60.5 89.5l40.5 56c2.66699 4 6.33398 6 11.001 6h62
c5.33301 0 9.33301 -2.5 12 -7.5s2.33398 -9.83301 -0.999023 -14.5c-8.66699 -10.667 -22 -28.167 -40 -52.5s-37.333 -52.166 -58 -83.499s-41.167 -64.333 -61.5 -99s-37 -67.834 -50 -99.501s-20.5 -60.167 -22.5 -85.5s4.66699 -44 20 -56
c12 -9.33301 28.167 -12.166 48.5 -8.49902s41.5 10.167 63.5 19.5s43.167 20.333 63.5 33s36.166 23.334 47.499 32.001c30.667 24 61.5 51 92.5 81s61.167 61.833 90.5 95.5s57.5 68.5 84.5 104.5s51.833 71.667 74.5 107c2.66699 4 6.66699 6 12 6l67 -5
c3.33301 -1.33301 5.66602 -4 6.99902 -8s1 -7.66699 -1 -11c-20 -40 -44.333 -86.333 -73 -139l-92 -165l-102 -172.5l-104 -162.5c36 -4.66699 71.667 -8.16699 107 -10.5s69.833 -1.83301 103.5 1.5s66.167 10.166 97.5 20.499s61 26.166 89 47.499zM546.002 226.993
c-57.333 7.33301 -112.833 11.002 -166.5 11.002s-103.834 -9 -150.501 -27c-35.333 -14 -63.333 -32.333 -84 -55s-34.334 -46 -41.001 -70s-7.16699 -47 -1.5 -69s16.834 -39.667 33.501 -53s38.334 -20.333 65.001 -21s57.5 8.16602 92.5 26.499
s73.833 48.166 116.5 89.499s88 97.333 136 168z" />
    <glyph glyph-name="Z" unicode="Z" horiz-adv-x="1042" 
d="M224 696c-6 -6.66699 -12.665 -8.00098 -19.998 -4.00098c-6.66699 5.33301 -7.66699 12 -3 20c24 34.667 51.167 60.834 81.5 78.501s63 29.334 98 35.001s71.833 6.66699 110.5 3s78.167 -9.66699 118.5 -18s81 -17.666 122 -27.999s81.5 -19.166 121.5 -26.499
c23.333 30.667 47.166 59.167 71.499 85.5s49.166 49 74.499 68s51.5 33.833 78.5 44.5s54.833 16 83.5 16c22.667 0 42.167 -5 58.5 -15s28.5 -23 36.5 -39s11.833 -33.667 11.5 -53s-5.83301 -38 -16.5 -56s-26.667 -34.667 -48 -50s-49 -26.666 -83 -33.999
c-32 -7.33301 -64.667 -11 -98 -11s-67 2 -101 6l-72 -106.5l-71.5 -112l-71.5 -112c-24 -37 -48.333 -72.5 -73 -106.5l117.5 -45.5c40.333 -16.333 80.666 -31.5 120.999 -45.5s80 -25.833 119 -35.5s76.333 -14.834 112 -15.501s68.834 4.16602 99.501 14.499
s58 28.166 82 53.499c6 7.33301 12.333 7.66602 19 0.999023c3.33301 -2.66699 5 -5.83398 5 -9.50098s-1.33301 -6.83398 -4 -9.50098c-26.667 -28.667 -56.5 -48.834 -89.5 -60.501s-68.5 -17.334 -106.5 -17.001s-77.667 5.33301 -119 15s-83 21.834 -125 36.501
s-84 30.334 -126 47.001l-122 47c-59.333 -78.667 -115.833 -137.5 -169.5 -176.5s-102.834 -63.5 -147.501 -73.5s-84 -8.16699 -118 5.5s-61 33.5 -81 59.5s-32 55.5 -36 88.5s1.33301 64.333 16 94s39.834 54.5 75.501 74.5s83.167 30 142.5 30
c41.333 0 83.5 -4.83301 126.5 -14.5s87.167 -21.834 132.5 -36.501c23.333 32.667 46.5 67.167 69.5 103.5l69 109.5l69.5 108.5l70 102.5c-37.333 6.66699 -75.333 14.834 -114 24.501s-77 18.334 -115 26.001s-75.333 13.334 -112 17.001s-71.5 3 -104.5 -2
s-63.5 -15.333 -91.5 -31s-52.667 -39.167 -74 -70.5zM540.002 283.999c-42 14 -83.333 25.4971 -124 34.4971s-80 13.5 -118 13.5c-49.333 0 -89.166 -8.33301 -119.499 -25s-52.333 -37 -66 -61s-19.5 -49.333 -17.5 -76s10.5 -50.167 25.5 -70.5
s35.833 -35.166 62.5 -44.499s58.167 -8.66602 94.5 2.00098s76.666 33.834 120.999 69.501s91.5 88.167 141.5 157.5zM1080 895.996c-17.333 -13.333 -37.501 -31.832 -60.501 -55.499s-49.5 -55.834 -79.5 -96.501c24 -2.66699 50.833 -4 80.5 -4s58.5 2.66699 86.5 8
s53.333 14.333 76 27s38.667 30.667 48 54c8.66699 21.333 10.334 40.5 5.00098 57.5s-15.333 29.5 -30 37.5s-33.167 10.167 -55.5 6.5s-45.833 -15.167 -70.5 -34.5z" />
    <glyph glyph-name="bracketleft" unicode="[" horiz-adv-x="419" 
d="M60 -37c-8 0 -13.501 1.66992 -16.501 5.00293s-3.5 7.66602 -1.5 12.999l377 991c0.666992 4.66699 3 8 7 10s9.16699 3 15.5 3s13.833 -0.333008 22.5 -1s18.334 -0.666992 29.001 0h82c4.66699 0 8 -1.5 10 -4.5s3 -6.16699 3 -9.5s-1 -6.5 -3 -9.5
s-5.33301 -4.5 -10 -4.5h-71l-367 -965l63 -1c4.66699 0 8 -1.33301 10 -4s3 -5.83398 3 -9.50098s-1 -6.83398 -3 -9.50098s-5.33301 -4 -10 -4h-140z" />
    <glyph glyph-name="backslash" unicode="\" horiz-adv-x="372" 
d="M-95 963c-3.33301 8.66699 -3.16797 16.167 0.499023 22.5s8.83398 10.833 15.501 13.5s13.5 2.83398 20.5 0.500977s12.167 -7.83301 15.5 -16.5l373 -988c2.66699 -8.66699 2.16699 -16 -1.5 -22s-8.66699 -10.333 -15 -13s-13 -2.83398 -20 -0.500977
s-12.167 7.83301 -15.5 16.5z" />
    <glyph glyph-name="bracketright" unicode="]" horiz-adv-x="518" 
d="M440 984c8 0 13.5 -1.83301 16.5 -5.5s3.5 -8.16699 1.5 -13.5l-372 -988c-1.33301 -5.33301 -3.83301 -8.83301 -7.5 -10.5s-8.66699 -2.5 -15 -2.5s-14 0.333008 -23 1s-18.833 0.666992 -29.5 0h-82c-4.66699 0 -8.16699 1.5 -10.5 4.5s-3.5 6.16699 -3.5 9.5
s1.16699 6.5 3.5 9.5s5.83301 4.5 10.5 4.5h71l363 963h-63c-4.66699 0 -8.16699 1.5 -10.5 4.5s-3.5 6.16699 -3.5 9.5s1.16699 6.5 3.5 9.5s5.83301 4.5 10.5 4.5h140z" />
    <glyph glyph-name="asciicircum" unicode="^" horiz-adv-x="449" 
d="M254 700c4.66699 8 11.501 11.333 20.501 10s14.833 -6.66602 17.5 -15.999l69 -320c1.33301 -6.66699 0.166016 -12.167 -3.50098 -16.5s-8 -7 -13 -8s-9.83301 -0.333008 -14.5 2s-7.66699 6.83301 -9 13.5l-58 268l-157 -273c-3.33301 -6 -7.83301 -9.33301 -13.5 -10
s-10.667 0.166016 -15 2.49902s-7.5 6 -9.5 11s-1.33301 10.5 2 16.5z" />
    <glyph glyph-name="underscore" unicode="_" horiz-adv-x="865" 
d="M69 -54c-9.33301 0 -16.333 2.83105 -21 8.49805s-7 11.834 -7 18.501s2.33301 12.834 7 18.501s11.667 8.5 21 8.5h634c8.66699 0 15.334 -2.83301 20.001 -8.5s7 -12 7 -19s-2.33301 -13.333 -7 -19s-11.334 -8.5 -20.001 -8.5z" />
    <glyph glyph-name="grave" unicode="`" horiz-adv-x="334" 
d="M76 664c-2 5.33301 -0.00195312 9.66699 5.99805 13c23.333 9.33301 42.166 12.833 56.499 10.5s25.5 -8.33301 33.5 -18s14.167 -21.667 18.5 -36l13 -43.5c4.33301 -14.667 9.33301 -28.5 15 -41.5s14.167 -22.833 25.5 -29.5c4.66699 -2 6.5 -5.5 5.5 -10.5
s-4.16699 -7.83301 -9.5 -8.5c-25.333 -1.33301 -46.666 2.66699 -63.999 12s-32.166 22 -44.499 38s-22.666 34 -30.999 54z" />
    <glyph glyph-name="a" unicode="a" horiz-adv-x="578" 
d="M202 284c-1.33301 22.667 -6.33691 39.6621 -15.0039 50.9951c-7.33301 8.66699 -16.666 11.834 -27.999 9.50098s-23.333 -8.16602 -36 -17.499s-25 -21 -37 -35s-22.167 -28.167 -30.5 -42.5s-14 -27.833 -17 -40.5s-1.5 -22 4.5 -28
c4.66699 -5.33301 11.834 -8.16602 21.501 -8.49902s20.334 1.83398 32.001 6.50098s23.834 11.834 36.501 21.501s24.667 21.5 36 35.5zM577.996 299.995c2.66699 3.33301 6 5 10 5s7.33301 -1.66699 10 -5c2.66699 -2.66699 4 -5.83398 4 -9.50098
s-1.33301 -6.83398 -4 -9.50098c-10.667 -10.667 -26.334 -25.5 -47.001 -44.5s-44.167 -39.5 -70.5 -61.5s-54.333 -44.167 -84 -66.5s-58.834 -42.166 -87.501 -59.499c-12 -7.33301 -25.833 -15 -41.5 -23s-31.834 -14.667 -48.501 -20
s-32.834 -8.16602 -48.501 -8.49902s-29.5 3.5 -41.5 11.5s-20.167 17.833 -24.5 29.5s-6 24.5 -5 38.5s4.33301 29 10 45s12.834 32.333 21.501 49c-35.333 -23.333 -65.166 -34.833 -89.499 -34.5s-42.166 8 -53.499 23s-16.166 35.333 -14.499 61s10.5 52.167 26.5 79.5
c11.333 19.333 28 36.833 50 52.5s44.667 25.834 68 30.501s45 2.33398 65 -6.99902s34 -29 42 -59c7.33301 9.33301 14.5 19.166 21.5 29.499s13.5 15.5 19.5 15.5h61c5.33301 0 9.5 -2.5 12.5 -7.5s2.83301 -9.83301 -0.5 -14.5l-31 -45l-40 -58
c-14 -20.667 -27.5 -41.834 -40.5 -63.501s-23.833 -41.667 -32.5 -60s-14.5 -34.5 -17.5 -48.5s-1.5 -23.833 4.5 -29.5s17.667 -6 35 -1s42 16.833 74 35.5c29.333 17.333 59.333 37.5 90 60.5s59.167 45.667 85.5 68s49.5 42.833 69.5 61.5z" />
    <glyph glyph-name="b" unicode="b" horiz-adv-x="522" 
d="M522 300c2.66699 3.33301 5.83105 5 9.49805 5s6.83398 -1.66699 9.50098 -5c6 -6 6 -12.667 0 -20c-26.667 -24.667 -52.834 -44.167 -78.501 -58.5s-51.334 -25.5 -77.001 -33.5s-51.334 -13.833 -77.001 -17.5s-51.5 -7.16699 -77.5 -10.5
c-11.333 -23.333 -28.333 -46.833 -51 -70.5s-51.667 -44.834 -87 -63.501c-31.333 -16 -57.666 -21.667 -78.999 -17s-34.666 14.5 -39.999 29.5s-1.33301 33 12 54s39 39.5 77 55.5c13.333 6 26.833 11 40.5 15s27.167 7.66699 40.5 11
c18.667 32.667 26.834 55.5 24.501 68.5s-10.666 19.333 -24.999 19s-32.333 -6.33301 -54 -18s-42.167 -25.834 -61.5 -42.501l-19.5 -31l-15.5 -25c-3.33301 -4.66699 -7.33301 -7 -12 -7h-62c-5.33301 0 -9.33301 2.33301 -12 7s-2.66699 9.33398 0 14.001
c12.667 21.333 26.834 43.833 42.501 67.5l50.5 73.5l75.5 102.5l80.5 103l80.5 96.5c26.333 30.667 51.5 58.334 75.5 83.001c46 47.333 89.833 84.666 131.5 111.999s79.834 46.5 114.501 57.5s64.834 14.833 90.501 11.5s45 -11.833 58 -25.5s19 -31.834 18 -54.501
s-10.833 -47.667 -29.5 -75c-14.667 -21.333 -35.667 -44.166 -63 -68.499s-61.833 -49.166 -103.5 -74.499s-91.167 -50.666 -148.5 -75.999s-123 -50 -197 -74l-60 -80.5l-52 -73.5c30.667 18 58 28.833 82 32.5s43.833 1.5 59.5 -6.5s26.167 -20.833 31.5 -38.5
s4.66602 -38.5 -2.00098 -62.5c22.667 2.66699 45.667 6 69 10s46.666 9.66699 69.999 17s46.666 17.666 69.999 30.999s47 31 71 53zM585.997 812c-40 -19.333 -79.334 -45.332 -118.001 -77.999s-75.667 -68 -111 -106c-28 -30 -54 -59.667 -78 -89l-66 -82
c66 22.667 124.5 45.667 175.5 69s95.333 46.666 133 69.999s68.834 46 93.501 68s43.667 43 57 63c14.667 22 23.167 41 25.5 57s-0.5 28 -8.5 36s-20.833 11.667 -38.5 11s-39.167 -7 -64.5 -19zM50.9961 72.001c12 9.33301 24.001 19.667 36.001 31s22.667 23.333 32 36
c-8 -2 -18.5 -5.66699 -31.5 -11s-25.833 -11.5 -38.5 -18.5s-23.834 -14.833 -33.501 -23.5s-15.167 -17.667 -16.5 -27c-1.33301 -6.66699 2 -10 10 -10s22 7.66699 42 23z" />
    <glyph glyph-name="c" unicode="c" horiz-adv-x="391" 
d="M120 242c-2.66699 -3.33301 -5.83105 -4.83496 -9.49805 -4.50195s-6.83398 2.16602 -9.50098 5.49902c-2.66699 2.66699 -3.83398 5.83398 -3.50098 9.50098s1.83301 6.83398 4.5 9.50098c13.333 12 23.666 24.667 30.999 38s10.5 22.833 9.5 28.5
s-7 4.83398 -18 -2.49902s-28.5 -25.666 -52.5 -54.999c-12.667 -15.333 -25.667 -33.5 -39 -54.5s-24.833 -42.167 -34.5 -63.5s-16.334 -40.833 -20.001 -58.5s-2 -30.834 5 -39.501s20.5 -11.167 40.5 -7.5s49 16.5 87 38.5c30 17.333 60 37 90 59s57.833 43.333 83.5 64
l67 56l39.5 35c2.66699 2.66699 5.83398 4 9.50098 4s6.83398 -1.66699 9.50098 -5c6 -7.33301 5.66699 -13.666 -1 -18.999c-7.33301 -7.33301 -20.5 -19.333 -39.5 -36s-41.667 -35.5 -68 -56.5l-85.5 -65c-30.667 -22.333 -61 -42.5 -91 -60.5
c-13.333 -8 -29.666 -16.833 -48.999 -26.5s-39 -17 -59 -22s-39.167 -6.16699 -57.5 -3.5s-33.166 12.667 -44.499 30c-9.33301 14 -13.333 31.5 -12 52.5s6.33301 43.5 15 67.5s20.167 48.167 34.5 72.5s30.166 46.833 47.499 67.5c12 14.667 24.5 28.167 37.5 40.5
s25.833 22.333 38.5 30s24.834 12.667 36.501 15s22.167 1.5 31.5 -2.5c12 -5.33301 19.833 -13.333 23.5 -24s4.16699 -22.834 1.5 -36.501s-8.33398 -27.5 -17.001 -41.5s-19.334 -27 -32.001 -39z" />
    <glyph glyph-name="d" unicode="d" horiz-adv-x="604" 
d="M418 459c38 10 76.6689 21.332 116.002 33.999s78.166 27.334 116.499 44.001s75.333 35 111 55s68.5 42.333 98.5 67c44 36 70.667 65.833 80 89.5s6.5 39.834 -8.5 48.501s-39.5 9.5 -73.5 2.5s-72 -22.5 -114 -46.5c-30 -17.333 -59.667 -37 -89 -59
s-57.833 -45.833 -85.5 -71.5s-54.334 -52.334 -80.001 -80.001s-49.5 -55.5 -71.5 -83.5zM604.002 299.999c2.66699 3.33301 5.82812 4.99902 9.49512 4.99902s6.83398 -1.66699 9.50098 -5c3.33301 -2.66699 5 -5.83398 5 -9.50098s-1.66699 -6.83398 -5 -9.50098
l-46.5 -44.5c-20.333 -19 -43.666 -39.5 -69.999 -61.5s-54.5 -44.167 -84.5 -66.5s-59.333 -42.166 -88 -59.499c-12 -7.33301 -25.833 -15 -41.5 -23s-31.667 -14.667 -48 -20s-32.5 -8.16602 -48.5 -8.49902s-30 3.5 -42 11.5c-12.667 8 -21 18.833 -25 32.5
s-5.5 28.167 -4.5 43.5s3.83301 31.333 8.5 48s10 32 16 46c-28.667 -20.667 -54 -34.5 -76 -41.5s-40.5 -8.83301 -55.5 -5.5s-26.833 10.666 -35.5 21.999s-13.667 25 -15 41s0.666992 33.167 6 51.5s14.333 36.166 27 53.499c10 14 23 27.333 39 40
s33.5 22.834 52.5 30.501s37.333 11.167 55 10.5s33.5 -5.66699 47.5 -15s24 -24.666 30 -45.999c57.333 91.333 116 169.333 176 234s118 118 174 160s108.667 73.333 158 94s92.166 32.667 128.499 36s64.833 -1.33398 85.5 -14.001s30.334 -31.334 29.001 -56.001
c-1.33301 -18 -9.66602 -38.667 -24.999 -62s-39.666 -48.333 -72.999 -75c-32 -26 -66.167 -49.167 -102.5 -69.5s-72.5 -38.166 -108.5 -53.499s-70.5 -28.666 -103.5 -39.999s-62 -20.666 -87 -27.999s-45.167 -12.666 -60.5 -15.999s-23.333 -5.33301 -24 -6
c-2.66699 -1.33301 -9.66699 -10 -21 -26l-40.5 -59.5c-15.667 -23.667 -32 -49.834 -49 -78.501s-32.167 -56.667 -45.5 -84s-23.666 -52.333 -30.999 -75s-8.83301 -40 -4.5 -52s15.5 -17 33.5 -15s45.667 14 83 36c29.333 17.333 59.333 37.5 90 60.5
s59.167 45.667 85.5 68l70 61.5c20.333 18.667 34.5 32 42.5 40zM94.9961 176.998c11.333 6.66699 23.833 14.666 37.5 23.999s28.167 21 43.5 35l12 23c4 8 8.66699 16 14 24c0 8.66699 -1.16699 17 -3.5 25s-5.66602 15 -9.99902 21s-9.83301 10.333 -16.5 13
s-14.334 3.33398 -23.001 2.00098c-14 -2.66699 -27.833 -10 -41.5 -22s-25.834 -26 -36.501 -42s-19.167 -32.333 -25.5 -49s-9.16602 -30.834 -8.49902 -42.501s5.5 -19.167 14.5 -22.5s23.5 0.333984 43.5 11.001z" />
    <glyph glyph-name="e" unicode="e" horiz-adv-x="394" 
d="M32 214c19.333 8.66699 35.6689 18.666 49.002 29.999s23.833 22.333 31.5 33s12.667 20 15 28s2.16602 12.667 -0.500977 14c-4.66699 2 -15.334 -5.16699 -32.001 -21.5s-37.667 -44.166 -63 -83.499zM394.003 299.999c7.33301 6 14.0029 5.66406 20.0029 -1.00293
c6 -7.33301 5.66699 -13.666 -1 -18.999c-7.33301 -7.33301 -20.5 -19.333 -39.5 -36s-41.667 -35.5 -68 -56.5l-85.5 -65c-30.667 -22.333 -61 -42.5 -91 -60.5c-13.333 -8 -29.333 -16.667 -48 -26s-37.834 -16.5 -57.501 -21.5s-38.5 -6.5 -56.5 -4.5s-33 10.667 -45 26
c-13.333 17.333 -18.833 38.5 -16.5 63.5s8.66602 50.333 18.999 76s22.666 49.834 36.999 72.501s27.166 40 38.499 52c23.333 26 46.333 44.5 69 55.5s42 15.667 58 14s26.667 -9.5 32 -23.5s2.33301 -33 -9 -57c-8 -17.333 -22.833 -35.666 -44.5 -54.999
s-52.167 -37.666 -91.5 -54.999c-4.66699 -4 -9.83398 -11.833 -15.501 -23.5s-10.167 -24.334 -13.5 -38.001s-4.5 -26.667 -3.5 -39s6 -21.333 15 -27s22.833 -6.33398 41.5 -2.00098s44.334 16.5 77.001 36.5c30 17.333 60 37 90 59s57.833 43.333 83.5 64
s47.834 39.334 66.501 56.001z" />
    <glyph glyph-name="f" unicode="f" horiz-adv-x="527" 
d="M527 300c3.33301 2.66699 6.83398 3.83203 10.501 3.49902s6.83398 -1.83301 9.50098 -4.5c6 -7.33301 5.33301 -14 -2 -20c-40 -34 -84 -63.167 -132 -87.5s-97.333 -44.666 -148 -60.999s-101.334 -29 -152.001 -38s-98 -14.833 -142 -17.5l-23 -50
c-0.666992 -2 -0.5 -10 0.5 -24s1.5 -30.833 1.5 -50.5s-1 -40.667 -3 -63s-5.83301 -43.166 -11.5 -62.499s-13.834 -35.666 -24.501 -48.999s-24.667 -20.333 -42 -21c-22 -0.666992 -36.5 7 -43.5 23s-9.83301 35.333 -8.5 58s5 45.834 11 69.501s11.333 42.5 16 56.5
c14.667 44.667 35.334 96.5 62.001 155.5s58 119.833 94 182.5c28.667 50 59.834 98.833 93.501 146.5s68.834 91 105.501 130s74.5 72.167 113.5 99.5s78.167 45.333 117.5 54c21.333 4.66699 39.666 5.16699 54.999 1.5s26.666 -10.834 33.999 -21.501
s10.333 -24.334 9 -41.001s-8 -35.334 -20 -56.001c-11.333 -19.333 -27.833 -40.833 -49.5 -64.5s-49.5 -48.834 -83.5 -75.501s-74.333 -54.667 -121 -84s-101 -59.333 -163 -90c-19.333 -32 -38 -64.5 -56 -97.5l-51 -97.5c42.667 3.33301 88 9.33301 136 18
s95.833 20.834 143.5 36.501s94.167 35.167 139.5 58.5s86.666 51 123.999 83zM385.001 648.998c-26 -18 -51.499 -39.166 -76.499 -63.499s-48.667 -50 -71 -77s-43.5 -54.5 -63.5 -82.5s-38.333 -55 -55 -81c108 56.667 191.167 108.667 249.5 156s97.166 89 116.499 125
c14 27.333 19 45.5 15 54.5s-12.5 12.5 -25.5 10.5s-28.167 -7.33301 -45.5 -16s-32 -17.334 -44 -26.001zM-77.998 -38.001c-19.333 -50 -30.667 -88 -34 -114s-3 -40.667 1 -44c2 -2 5 -0.166992 9 5.5s7.83301 15.167 11.5 28.5s6.66699 30.333 9 51s3.5 45 3.5 73z" />
    <glyph glyph-name="g" unicode="g" horiz-adv-x="596" 
d="M596 300c2.66699 3.33301 5.83301 5.00098 9.5 5.00098s6.83398 -1.66699 9.50098 -5c2.66699 -2.66699 4 -5.83398 4 -9.50098s-1.33301 -6.83398 -4 -9.50098c-32.667 -32 -67.167 -60 -103.5 -84s-74 -45.167 -113 -63.5s-78.667 -34.333 -119 -48
s-80.5 -26.167 -120.5 -37.5c-0.666992 -0.666992 -7.66699 -11.167 -21 -31.5s-31.5 -45.5 -54.5 -75.5s-50.333 -62.5 -82 -97.5s-65.667 -67.333 -102 -97s-74.833 -54.5 -115.5 -74.5s-81.334 -29.667 -122.001 -29c-27.333 0 -49.333 8.33301 -66 25
s-23.667 38.667 -21 66s17.167 58.333 43.5 93s68.833 70 127.5 106c18 11.333 38.5 22.166 61.5 32.499s46.5 19.833 70.5 28.5s47.333 16.5 70 23.5s43 13 61 18s32.667 8.83301 44 11.5s17 4.33398 17 5.00098l36.5 58.5l37.5 64.5
c-42 -29.333 -76.667 -44.166 -104 -44.499s-47 7.83398 -59 24.501s-16.5 38.5 -13.5 65.5s13.833 53.5 32.5 79.5c10 14 23 27.333 39 40c15.333 12 32.166 21.833 50.499 29.5s36.333 11.5 54 11.5s33.5 -4.16699 47.5 -12.5s24.667 -22.5 32 -42.5l11 25.5
c3.33301 7.66699 8.33301 11.5 15 11.5h61c5.33301 0 9.33301 -2 12 -6s3 -8.33301 1 -13c-23.333 -50 -46.833 -96.5 -70.5 -139.5s-47.167 -83.5 -70.5 -121.5c36.667 10.667 73.334 22.667 110.001 36s72.667 28.666 108 45.999s69.5 37 102.5 59s64.167 47.333 93.5 76z
M176.999 236.001l12.5 24c4.33301 8 8.16602 16 11.499 24c0 11.333 -1.33301 21.333 -4 30s-6 15.667 -10 21c-10 12.667 -21.667 17.667 -35 15s-26.5 -10 -39.5 -22s-25.333 -26.833 -37 -44.5s-21 -35.167 -28 -52.5s-10.667 -32.5 -11 -45.5s4 -21 13 -24
s23.833 1 44.5 12s48.334 31.833 83.001 62.5zM-153.001 -220.999c36.667 33.333 72.0029 70.668 106.003 112.001s65.333 83.333 94 126c-54.667 -15.333 -106.334 -31 -155.001 -47s-92.334 -36.333 -131.001 -61c-45.333 -28 -80.5 -55.833 -105.5 -83.5
s-41.333 -52.667 -49 -75s-7.33398 -40.5 0.999023 -54.5s23.333 -21.167 45 -21.5s49 7.66699 82 24s70.5 43.166 112.5 80.499z" />
    <glyph glyph-name="h" unicode="h" horiz-adv-x="636" 
d="M636 300c2.66699 2.66699 5.83301 4 9.5 4s6.83398 -1.33301 9.50098 -4c6 -7.33301 6 -14 0 -20c-21.333 -21.333 -44.833 -42.833 -70.5 -64.5s-52.334 -42.667 -80.001 -63s-55.667 -39.666 -84 -57.999s-55.833 -34.833 -82.5 -49.5
c-12.667 -7.33301 -29.334 -16 -50.001 -26s-42 -18.833 -64 -26.5s-43.167 -12.167 -63.5 -13.5s-35.833 3.66699 -46.5 15c-9.33301 9.33301 -13.166 22 -11.499 38s6.5 33.833 14.5 53.5s18 40 30 61l34.5 60l28.5 51c8 15 11.833 26.167 11.5 33.5s-5.83301 10 -16.5 8
s-29 -10.667 -55 -26c-15.333 -8.66699 -30.333 -18.334 -45 -29.001s-28.834 -21.667 -42.501 -33s-26.334 -22.5 -38.001 -33.5s-21.834 -21.5 -30.501 -31.5c-3.33301 -3.33301 -7 -5 -11 -5h-61c-5.33301 0 -9.5 2.33301 -12.5 7s-2.83301 9.33398 0.5 14.001
c12 20.667 25.667 42.5 41 65.5l49 72.5l76 103.5l81 103.5l81.5 97l76.5 84c46 47.333 89.833 84.666 131.5 111.999s79.834 46.5 114.501 57.5s64.667 14.833 90 11.5s44.5 -11.833 57.5 -25.5s19 -31.834 18 -54.501s-10.833 -47.667 -29.5 -75
c-14.667 -21.333 -35.5 -44.166 -62.5 -68.499s-61.5 -49.166 -103.5 -74.499s-91.5 -50.666 -148.5 -75.999s-122.833 -50 -197.5 -74l-71 -96l-60 -85l28 20c13.333 9.33301 28.666 19.166 45.999 29.499s35.333 19.833 54 28.5s36.334 14.834 53.001 18.501
s30.834 3.5 42.501 -0.5s18.834 -14 21.501 -30c2 -12.667 -0.666992 -28.167 -8 -46.5s-16.666 -37.833 -27.999 -58.5s-23.5 -41.334 -36.5 -62.001s-24.167 -39.834 -33.5 -57.501s-15.5 -32.5 -18.5 -44.5s-0.333008 -19.5 8 -22.5s23.666 -0.5 45.999 7.5
s54.5 23.667 96.5 47c26 14.667 53 31 81 49s55.5 37 82.5 57s53 40.5 78 61.5s48.167 42.167 69.5 63.5zM529.999 782c-28 -18 -56 -39.833 -84 -65.5s-55.5 -52.834 -82.5 -81.501s-53 -58.167 -78 -88.5l-69.5 -86.5c66 22.667 124.833 45.5 176.5 68.5s96.5 46 134.5 69
s69.167 45.667 93.5 68s42.5 43.833 54.5 64.5c13.333 23.333 21 42 23 56s0 24.5 -6 31.5s-15.167 10.833 -27.5 11.5s-26 -1 -41 -5s-30.833 -9.66699 -47.5 -17s-32 -15.666 -46 -24.999z" />
    <glyph glyph-name="i" unicode="i" horiz-adv-x="365" 
d="M365 300c2.66699 3.33301 5.83008 5.00293 9.49707 5.00293s6.83398 -1.66699 9.50098 -5c3.33301 -2.66699 5 -5.83398 5 -9.50098s-1.33301 -6.83398 -4 -9.50098l-26 -25l-47 -43l-62.5 -53.5c-23 -19 -47 -37.667 -72 -56s-50.167 -35.166 -75.5 -50.499
s-49.5 -27.833 -72.5 -37.5s-44.5 -15.5 -64.5 -17.5s-36.667 1.66699 -50 11c-19.333 13.333 -29 31.5 -29 54.5s5.66699 48.167 17 75.5s26 55.166 44 83.499s35.667 54.166 53 77.499l20.5 28l17.5 24c2.66699 4 6.33398 6 11.001 6h62c5.33301 0 9.33301 -2.5 12 -7.5
s2.33398 -9.83301 -0.999023 -14.5c-48 -63.333 -84.5 -115.333 -109.5 -156s-40.833 -72.334 -47.5 -95.001s-5.33398 -37.167 3.99902 -43.5s24 -6.33301 44 0s44.167 17.833 72.5 34.5s58.5 36.834 90.5 60.501s64.333 49.5 97 77.5s63.334 56.667 92.001 86z
M120.996 489.003c14 0 25.999 -5 35.999 -15c12 -12 17.167 -24.5 15.5 -37.5s-7 -24 -16 -33s-20.167 -14.333 -33.5 -16s-25.666 3.5 -36.999 15.5c-8 8 -12.833 16.833 -14.5 26.5s-0.666992 19 3 28s9.5 16.5 17.5 22.5s17.667 9 29 9z" />
    <glyph glyph-name="j" unicode="j" horiz-adv-x="450" 
d="M450 300c2.66699 3.33301 5.83398 5.00195 9.50098 5.00195s6.83398 -1.66699 9.50098 -5c3.33301 -2.66699 5 -5.83398 5 -9.50098s-1.33301 -6.83398 -4 -9.50098c-34 -36 -72 -66.833 -114 -92.5s-86.333 -48 -133 -67s-94.667 -35.667 -144 -50
s-98.333 -27.5 -147 -39.5c-54 -76 -107.667 -140 -161 -192c-62.667 -62 -120.167 -106.167 -172.5 -132.5s-96.5 -39.833 -132.5 -40.5c-14.667 -2 -29 -0.166992 -43 5.5s-25 14.5 -33 26.5s-11.5 27 -10.5 45s9.5 38.667 25.5 62c12.667 19.333 30.667 39.833 54 61.5
s53 43.5 89 65.5c38.667 24 83.667 44.167 135 60.5s106.333 31.833 165 46.5c24.667 36.667 49.5 76.5 74.5 119.5s50.833 89.833 77.5 140.5l12 23l12 24c2 4.66699 6.33301 7 13 7h61c5.33301 0 9.33301 -2 12 -6s2.66699 -8.66699 0 -14c-25.333 -52 -51 -100 -77 -144
s-51.667 -85 -77 -123c45.333 11.333 90.666 23.833 135.999 37.5s89.333 29.5 132 47.5s83.167 39 121.5 63s73.166 52.333 104.499 85zM95 489.002c12.667 0 24.666 -5 35.999 -15c12 -12 17.167 -24.5 15.5 -37.5s-7 -24 -16 -33s-20.167 -14.333 -33.5 -16
s-26 3.5 -38 15.5c-8 8 -12.667 16.833 -14 26.5s-0.166016 19 3.50098 28s9.5 16.5 17.5 22.5s17.667 9 29 9zM-390.001 -230.998c38.667 30.667 76.167 66.667 112.5 108s70.166 84 101.499 128c-51.333 -13.333 -99.166 -27.5 -143.499 -42.5s-83.5 -32.833 -117.5 -53.5
c-10.667 -6 -21.167 -12.667 -31.5 -20s-20.5 -15 -30.5 -23c-46 -36.667 -74.667 -69.167 -86 -97.5s-10.166 -48.5 3.50098 -60.5s37.667 -13.833 72 -5.5s74.166 30.5 119.499 66.5z" />
    <glyph glyph-name="k" unicode="k" horiz-adv-x="608" 
d="M608 300c2.66699 3.33301 5.83594 5.00391 9.50293 5.00391s6.83398 -1.66699 9.50098 -5c2.66699 -2.66699 4 -5.83398 4 -9.50098s-1.66699 -6.83398 -5 -9.50098c-86.667 -82 -165.334 -145.833 -236.001 -191.5s-133 -71.167 -187 -76.5
c-46 -5.33301 -85.667 4.83398 -119 30.501s-59.666 68.167 -78.999 127.5c-29.333 -42.667 -50.666 -75.667 -63.999 -99c-3.33301 -4 -7.33301 -6 -12 -6h-62c-5.33301 0 -9.33301 2.16699 -12 6.5s-2.33398 9.16602 0.999023 14.499c16 26.667 36.5 58.334 61.5 95.001
l82.5 118l78 105.5l82 104.5l80 96.5c26 30.333 50 57.166 72 80.499c45.333 46.667 88.666 83.667 129.999 111s79.166 46.666 113.499 57.999s64.333 15.666 90 12.999s45.334 -10.5 59.001 -23.5s20.5 -30.333 20.5 -52s-8.33301 -45.834 -25 -72.501
c-14 -22 -34.333 -45.333 -61 -70s-60.834 -50 -102.501 -76s-91.5 -52.167 -149.5 -78.5s-125 -51.833 -201 -76.5l-89 -119c14.667 7.33301 31.5 15 50.5 23s38.333 15.167 58 21.5s39 11.333 58 15s35.833 4.5 50.5 2.5c4.66699 -0.666992 8 -2.5 10 -5.5
s2.66699 -6.33301 2 -10s-2.16699 -6.66699 -4.5 -9s-5.83301 -3.16602 -10.5 -2.49902c-15.333 2 -33.833 0.5 -55.5 -4.5s-43.834 -11.667 -66.501 -20s-44.334 -17.5 -65.001 -27.5s-37.667 -19 -51 -27c10.667 -59.333 24.167 -106 40.5 -140s37 -56 62 -66
s55.667 -8.5 92 4.5s80.5 37.167 132.5 72.5c32 22 65.167 47.333 99.5 76s70.5 60.667 108.5 96zM216.002 460.004c68 22.667 127.83 46.166 179.497 70.499s96.334 48.5 134.001 72.5s68.5 47.167 92.5 69.5s42.333 43.5 55 63.5c20 32.667 25.333 59 16 79
c-8 16 -21.333 23.167 -40 21.5s-38.5 -7.5 -59.5 -17.5s-41 -21.5 -60 -34.5s-32.833 -22.833 -41.5 -29.5c-25.333 -19.333 -50.166 -40.666 -74.499 -63.999s-48.166 -47.833 -71.499 -73.5s-45.833 -52 -67.5 -79z" />
    <glyph glyph-name="l" unicode="l" horiz-adv-x="521" 
d="M206 459c38 10 76.833 21.333 116.5 34s78.667 27.167 117 43.5s75.333 34.5 111 54.5s68.167 42.667 97.5 68c44 37.333 70.5 67.666 79.5 90.999s6 39.333 -9 48s-39.5 9.33398 -73.5 2.00098s-72 -23.333 -114 -48c-30 -17.333 -59.667 -37 -89 -59
s-57.833 -45.833 -85.5 -71.5s-54.167 -52.167 -79.5 -79.5s-49 -55 -71 -83zM521 300c6.66699 6.66699 13.3271 6.66309 19.9941 -0.00390625c2.66699 -2.66699 4.16699 -5.83398 4.5 -9.50098s-1.16699 -6.83398 -4.5 -9.50098c-25.333 -26.667 -58.5 -56.667 -99.5 -90
s-85.333 -65.5 -133 -96.5s-96.167 -58.333 -145.5 -82s-95 -39.5 -137 -47.5c-21.333 -3.33301 -41.666 -2.5 -60.999 2.5s-33.666 15.833 -42.999 32.5c-10.667 19.333 -14.834 42 -12.501 68s8.16602 52.833 17.499 80.5s20.833 54.834 34.5 81.501s26.5 50 38.5 70
l9.5 15.5c3 5 5.83301 9.5 8.5 13.5c58 90 116.833 167 176.5 231s117.334 116.667 173.001 158s107.834 72 156.501 92s90.834 31.5 126.501 34.5s63.667 -1.83301 84 -14.5s29.833 -31.334 28.5 -56.001c-1.33301 -18 -9.66602 -38.667 -24.999 -62
s-39.666 -48.333 -72.999 -75c-32 -26 -66.167 -49.167 -102.5 -69.5s-72.5 -38.166 -108.5 -53.499s-70.333 -28.666 -103 -39.999s-61.667 -20.666 -87 -27.999s-45.666 -12.666 -60.999 -15.999s-23.333 -5.33301 -24 -6l-38 -53.5l-38 -56.5
c-29.333 -45.333 -53.666 -87.166 -72.999 -125.499s-32.333 -71.5 -39 -99.5s-6.5 -49.833 0.5 -65.5s22.167 -23.334 45.5 -23.001s55.333 9.33301 96 27s91 45.834 151 84.501c48 31.333 93.167 63.833 135.5 97.5s76.166 63.834 101.499 90.501z" />
    <glyph glyph-name="m" unicode="m" horiz-adv-x="947" 
d="M947 300c2.66699 3.33301 5.8291 4.99902 9.49609 4.99902s7.16699 -1.66699 10.5 -5c2.66699 -2.66699 4 -5.83398 4 -9.50098s-1.33301 -6.83398 -4 -9.50098c-30.667 -31.333 -64.167 -62.833 -100.5 -94.5s-73.166 -60.667 -110.499 -87s-74 -48.666 -110 -66.999
s-69.333 -29.833 -100 -34.5c-18.667 -2.66699 -35.167 -1.66699 -49.5 3s-25.166 13.667 -32.499 27c-5.33301 10.667 -7.16602 22.834 -5.49902 36.501s5 28 10 43s11.167 30.333 18.5 46l21 45.5c22.667 52 27.834 81.333 15.501 88s-38.833 -6 -79.5 -38
c-20.667 -16.667 -40.667 -35.167 -60 -55.5s-36.666 -41.166 -51.999 -62.499c-3.33301 -4 -7.33301 -6 -12 -6h-61c-5.33301 0 -9.33301 2.5 -12 7.5s-2.33398 9.83301 0.999023 14.5l28.5 44.5c11 17.667 21 36.167 30 55.5s16.333 38.5 22 57.5s7.5 35.833 5.5 50.5
s-8.83301 21.834 -20.5 21.501s-26.334 -5.83301 -44.001 -16.5s-37.5 -25.334 -59.5 -44.001s-44.5 -39.167 -67.5 -61.5s-45.667 -45.5 -68 -69.5l-61 -67c-18.333 -20.667 -33.833 -38.834 -46.5 -54.501s-20.667 -26.167 -24 -31.5c-0.666992 -1.33301 -6.5 -3 -17.5 -5
s-22.333 -2.83301 -34 -2.5s-21.5 2 -29.5 5s-9.33301 8.83301 -4 17.5l142 253l62 109c3.33301 4.66699 7.33301 7 12 7h62c5.33301 0 9.33301 -2.33301 12 -7s2.66699 -9.33398 0 -14.001l-111 -200l44 47.5c16.667 17.667 34.5 35.334 53.5 53.001s38.833 34.667 59.5 51
s41.5 30.166 62.5 41.499s41.667 19.5 62 24.5s39.833 5.16699 58.5 0.5c13.333 -3.33301 23.5 -9.5 30.5 -18.5s11.667 -19.5 14 -31.5s2.66602 -24.5 0.999023 -37.5s-4.5 -25.5 -8.5 -37.5l-8 -22c-2.66699 -7.33301 -5.66699 -14.666 -9 -21.999
c29.333 27.333 57.333 48.666 84 63.999c8.66699 4.66699 18.334 9 29.001 13s21.5 6.83301 32.5 8.5s21.5 1.33398 31.5 -0.999023s19 -7.83301 27 -16.5c9.33301 -10 13.5 -22.833 12.5 -38.5s-4.5 -32.667 -10.5 -51s-13.667 -37.166 -23 -56.499l-25.5 -54.5
c-7.66699 -17 -13.167 -32 -16.5 -45s-2.66602 -22.333 2.00098 -28s15 -7.16699 31 -4.5s39.667 11.667 71 27c42 20 88.667 50.167 140 90.5s106.333 89.833 165 148.5z" />
    <glyph glyph-name="n" unicode="n" horiz-adv-x="690" 
d="M690 300c7.33301 7.33301 13.998 7.33594 19.998 0.00292969s5.66699 -13.666 -1 -18.999l-62 -56.5c-26.667 -23.667 -56.334 -48.5 -89.001 -74.5s-66.5 -50.833 -101.5 -74.5s-68.167 -42.5 -99.5 -56.5s-59.333 -20.833 -84 -20.5s-42.667 11.5 -54 33.5
c-9.33301 18.667 -10.166 40.5 -2.49902 65.5s17.834 50.5 30.501 76.5l35.5 76c11 24.667 15.167 46.667 12.5 66c-2.66699 18 -12.5 24.667 -29.5 20s-37.667 -16 -62 -34s-50.5 -40.333 -78.5 -67s-54.5 -53.167 -79.5 -79.5s-46.5 -50 -64.5 -71s-29 -34.833 -33 -41.5
l-7 -12c-2 -3.33301 -5.66699 -5 -11 -5h-61c-5.33301 -0.666992 -9.5 1.33301 -12.5 6s-2.83301 9.66699 0.5 15l143 253l61 109c2 4.66699 5.66699 7 11 7h62c5.33301 0 9.33301 -2.33301 12 -7s2.66699 -9.33398 0 -14.001l-103 -186c16.667 18 35.167 36.667 55.5 56
s41.5 37.166 63.5 53.499s44.5 30.5 67.5 42.5s45.5 19.667 67.5 23c19.333 2.66699 35.833 0.5 49.5 -6.5s23.667 -17.333 30 -31s9.33301 -29.5 9 -47.5s-4.83301 -36.333 -13.5 -55l-34.5 -71.5c-11.667 -23.667 -21.5 -45.167 -29.5 -64.5s-12.833 -35.5 -14.5 -48.5
s2.33301 -20.833 12 -23.5s26 1.16602 49 11.499s55.167 29.166 96.5 56.499c38.667 25.333 78.334 55.333 119.001 90z" />
    <glyph glyph-name="o" unicode="o" horiz-adv-x="518" 
d="M75 213c13.333 -11.333 28 -20.668 44 -28.001s33 -12.666 51 -15.999c30 50 46.5 92 49.5 126s-2 60.333 -15 79s-31 29.667 -54 33s-45.167 -0.333984 -66.5 -11.001c-28 -14 -45.667 -33.167 -53 -57.5s-5.33301 -48.833 6 -73.5c15.333 11.333 31.5 19.5 48.5 24.5
s34.167 6.5 51.5 4.5c7.33301 -0.666992 11.5 -4.5 12.5 -11.5s-1.83301 -11.833 -8.5 -14.5c-22 -9.33301 -44 -27.666 -66 -54.999zM58 190.998c-28 -39.333 -45.002 -73.002 -51.002 -101.002s-3.5 -46 7.5 -54s28.833 -4.16699 53.5 11.5s53.334 47.834 86.001 96.501
c-18 4.66699 -35.167 10.834 -51.5 18.501s-31.166 17.167 -44.499 28.5zM517.998 299.996c3.33301 2 6.83203 2.83301 10.499 2.5s6.5 -1.83301 8.5 -4.5c6 -7.33301 5.33301 -14 -2 -20c-35.333 -28.667 -69.166 -52.334 -101.499 -71.001
s-63.166 -33.334 -92.499 -44.001s-57.166 -17.667 -83.499 -21s-50.833 -4 -73.5 -2c-26 -40 -51.5 -71.5 -76.5 -94.5s-48.333 -38.833 -70 -47.5s-40.834 -11 -57.501 -7s-29.5 13 -38.5 27s-13.667 32 -14 54s4.83398 46.667 15.501 74
c7.33301 18.667 17.166 36.834 29.499 54.501s26.166 33.167 41.499 46.5c-8 16.667 -12.667 34.334 -14 53.001c-1.33301 26 4.5 49.167 17.5 69.5s29.5 36.333 49.5 48s42 17.834 66 18.501s46.333 -6 67 -20c14 -9.33301 24.833 -20.833 32.5 -34.5
s12.5 -28.334 14.5 -44.001s1.66699 -32 -1 -49s-6.66699 -33.5 -12 -49.5c-8 -24 -19.333 -48.333 -34 -73c42 -2 89.5 6.83301 142.5 26.5s111.5 55.5 175.5 107.5z" />
    <glyph glyph-name="p" unicode="p" horiz-adv-x="701" 
d="M701 300c2.66699 2.66699 5.82227 3.99707 9.48926 3.99707s6.83398 -1.33301 9.50098 -4c6.66699 -5.33301 7 -11.666 1 -18.999c-38 -40.667 -75.667 -73 -113 -97s-73.666 -42.5 -108.999 -55.5s-69.833 -21.667 -103.5 -26s-66.5 -6.83301 -98.5 -7.5
c-1.33301 -0.666992 -6.5 -5.16699 -15.5 -13.5s-21.167 -18 -36.5 -29s-33.666 -22 -54.999 -33s-45 -19.5 -71 -25.5c-39.333 -9.33301 -70.166 -10.5 -92.499 -3.5s-35 17.5 -38 31.5s4.66699 29.5 23 46.5s49.166 30.5 92.499 40.5
c18.667 4.66699 37.834 7.66699 57.501 9s40.167 2.33301 61.5 3c20.667 22 37.334 43.667 50.001 65s21.167 40.5 25.5 57.5s4.16602 30.667 -0.500977 41s-14 15.333 -28 15s-32.667 -7.16602 -56 -20.499s-51.666 -35.333 -84.999 -66
c-32 -29.333 -65.167 -63.333 -99.5 -102s-68 -78.5 -101 -119.5l-95.5 -122l-83 -109.5l-40 -53c-12 -16 -22.667 -29.667 -32 -41c-2.66699 -3.33301 -6 -5 -10 -5h-62c-5.33301 0 -9.5 2.33301 -12.5 7s-2.83301 9.33398 0.5 14.001l92.5 143l103.5 160l106.5 163
l103.5 152l26.5 37l25.5 35c2 3.33301 5.66699 5 11 5h61c5.33301 0 9.33301 -2.5 12 -7.5s2.33398 -9.83301 -0.999023 -14.5l-59.5 -83l-67 -97.5l-70.5 -106l-70 -107.5l106 129c36.667 42.667 72.834 81.334 108.501 116.001s70 63.5 103 86.5s62.833 36.5 89.5 40.5
c32.667 4.66699 57.834 1.66699 75.501 -9s28.167 -26.167 31.5 -46.5s-0.166992 -44 -10.5 -71s-26.833 -54.5 -49.5 -82.5c28.667 1.33301 58.334 4.66602 89.001 9.99902s61.834 14.333 93.501 27s63.834 30 96.501 52s66 51 100 87zM100.988 29.9971
c16 7.33301 31.834 16.332 47.501 26.999s30.834 22.334 45.501 35.001c-16.667 -0.666992 -35.5 -2.5 -56.5 -5.5s-41.167 -7.5 -60.5 -13.5c-24 -8 -40.667 -16.833 -50 -26.5s-12.333 -17.5 -9 -23.5s12.166 -9 26.499 -9s33.166 5.33301 56.499 16z" />
    <glyph glyph-name="q" unicode="q" horiz-adv-x="585" 
d="M200 283c-0.666992 25.333 -5.33203 41.8359 -13.999 49.5029s-19.334 9.5 -32.001 5.5s-26.167 -12.167 -40.5 -24.5s-27.333 -26.333 -39 -42s-21 -31.167 -28 -46.5s-9.5 -27.833 -7.5 -37.5s9.33301 -14.834 22 -15.501s33 5.66602 61 18.999l38 46
c12.667 15.333 26 30.666 40 45.999zM585.002 300.003c7.33301 4.66699 14.0049 4.00293 20.0049 -1.99707c2 -3.33301 3 -6.83301 3 -10.5s-1.66699 -6.83398 -5 -9.50098l-122 -102c-43.333 -35.333 -88 -67.5 -134 -96.5s-93 -52.167 -141 -69.5s-96 -24 -144 -20
c-4.66699 -6 -9 -12 -13 -18s-8 -11.667 -12 -17c14 -53.333 21.833 -103.166 23.5 -149.499s-1 -88.833 -8 -127.5s-17.333 -73.334 -31 -104.001s-28.834 -57 -45.501 -79c-19.333 -24.667 -40.166 -43.834 -62.499 -57.501s-43.5 -21.334 -63.5 -23.001
s-37.833 3.16602 -53.5 14.499s-26.334 29.333 -32.001 54s-5.33398 56.5 0.999023 95.5s21.333 85.667 45 140s57.167 116.333 100.5 186s99.333 147.5 168 233.5c-29.333 -10.667 -53 -12.5 -71 -5.5s-30.333 19.333 -37 37s-7.66699 38.334 -3 62.001
s15.334 46.5 32.001 68.5c5.33301 6.66699 11 13.334 17 20.001s12.667 12.667 20 18c16 13.333 33.167 23.5 51.5 30.5s36.166 10.5 53.499 10.5c21.333 0 39.166 -5.83301 53.499 -17.5s24.166 -28.5 29.499 -50.5c7.33301 9.33301 15 18.5 23 27.5l25 27.5
c2.66699 2.66699 6 4 10 4h62c6 0 10.167 -2.66699 12.5 -8s1.5 -10.333 -2.5 -15c-56.667 -62 -107.334 -120.333 -152.001 -175s-85 -106.334 -121 -155.001c44 -1.33301 88.167 7 132.5 25s88 41 131 69s84.667 58.833 125 92.5zM16.0068 -75.9941l-58.9971 -93.4971
c-20 -33 -38.167 -66.333 -54.5 -100s-30.333 -66.834 -42 -99.501s-18.834 -63.334 -21.501 -92.001c-3.33301 -31.333 -2 -54 4 -68s14.667 -21.333 26 -22s24.5 4.83301 39.5 16.5s30.167 27.167 45.5 46.5c15.333 20 29.333 43.667 42 71s22.167 58.166 28.5 92.499
s9.16602 72.333 8.49902 114s-6.33398 86.5 -17.001 134.5z" />
    <glyph glyph-name="r" unicode="r" horiz-adv-x="505" 
d="M19 280c-2.66699 -2.66699 -5.83203 -3.83496 -9.49902 -3.50195s-6.83398 2.16602 -9.50098 5.49902c-6 6 -6 12 0 18l86 74c-4 29.333 -1.16699 53.5 8.5 72.5s21.334 32.667 35.001 41s26.667 10.833 39 7.5s19.166 -12.666 20.499 -27.999
c0.666992 -8 -0.666016 -15.833 -3.99902 -23.5s-7.66602 -15.167 -12.999 -22.5s-11.166 -14.166 -17.499 -20.499s-12.5 -12.166 -18.5 -17.499c9.33301 -22 21.666 -40.333 36.999 -55s33.666 -28.667 54.999 -42c-15.333 -18 -31.833 -39.5 -49.5 -64.5
s-33.5 -50 -47.5 -75s-24.167 -47.667 -30.5 -68s-6 -34.666 1 -42.999s22.667 -8.5 47 -0.5s60.166 27.667 107.499 59c26.667 18 53.334 37.333 80.001 58s51.334 40.834 74.001 60.501l59 53l36 34.5c6 6 12.667 6 20 0c5.33301 -6.66699 5.33301 -13.334 0 -20.001
c-10.667 -10.667 -26.334 -25.334 -47.001 -44.001l-70.5 -61c-26.333 -22 -54.333 -44.167 -84 -66.5s-58.834 -42.166 -87.501 -59.499c-12 -7.33301 -26 -15 -42 -23s-32.167 -14.667 -48.5 -20s-32.333 -8.33301 -48 -9s-29.5 3 -41.5 11
c-14 9.33301 -22.833 21.166 -26.5 35.499s-4 30 -1 47s8.5 34.667 16.5 53s17 36 27 53s20 33 30 48s18.667 27.5 26 37.5c-17.333 20 -29 40.333 -35 61l-36 -31zM128.002 412.999c17.333 16.667 27.667 29.6709 31 39.0039s3.33301 15 0 17
c-2 1.33301 -5 1.16602 -9 -0.500977s-7.83301 -4.83398 -11.5 -9.50098s-6.66699 -10.834 -9 -18.501s-2.83301 -16.834 -1.5 -27.501z" />
    <glyph glyph-name="s" unicode="s" horiz-adv-x="425" 
d="M425 300c6.66699 6 13.335 5.66895 20.002 -0.998047c2.66699 -2.66699 4 -5.83398 4 -9.50098s-1.66699 -6.83398 -5 -9.50098c-30.667 -30 -61 -53.5 -91 -70.5s-60 -30.667 -90 -41s-59.833 -18.5 -89.5 -24.5s-59.5 -12.667 -89.5 -20
c3.33301 -20 5.5 -39.333 6.5 -58s0 -36.334 -3 -53.001s-8.66699 -32.167 -17 -46.5s-20.5 -26.833 -36.5 -37.5c-26 -17.333 -50.167 -24 -72.5 -20s-39.5 14.5 -51.5 31.5s-16.833 38.167 -14.5 63.5s15.5 50.666 39.5 75.999c12 12.667 25 23.167 39 31.5
s28.667 15.833 44 22.5c-3.33301 24 -7.5 50.667 -12.5 80s-6.83301 58 -5.5 86c0.666992 16.667 3 32.667 7 48s10.667 29 20 41c9.33301 12.667 19.166 22 29.499 28s19.833 9 28.5 9s15.667 -2.66699 21 -8s7.66602 -13 6.99902 -23s-5.33398 -22.167 -14.001 -36.5
s-22.334 -30.5 -41.001 -48.5c-0.666992 -24.667 1.5 -50.834 6.5 -78.501s10.167 -54.167 15.5 -79.5c28.667 6.66699 57.334 12.834 86.001 18.501s57.5 13.334 86.5 23.001s57.833 22.834 86.5 39.501s57.334 39 86.001 67zM22.001 105.002
c-30 -15.333 -52.501 -30.999 -67.501 -46.999s-24.667 -31.333 -29 -46s-4.5 -27.834 -0.5 -39.501s10.333 -20.5 19 -26.5s18.334 -8.16699 29.001 -6.5s20.167 8.5 28.5 20.5s14.833 29.667 19.5 53s5 54 1 92zM63 353.003c11.333 12 18.5 22 21.5 30s3.5 12.333 1.5 13
s-5.16699 -2.33301 -9.5 -9s-8.83301 -18 -13.5 -34z" />
    <glyph glyph-name="t" unicode="t" 
d="M690 652c3.33301 1.33301 6.6709 1.33105 10.0039 -0.00195312s5.66602 -4 6.99902 -8c1.33301 -3.33301 1.33301 -6.66602 0 -9.99902s-4 -5.66602 -8 -6.99902c-58 -21.333 -119.667 -33.666 -185 -36.999s-133 -2.66602 -203 2.00098l-22.5 -29l-45.5 -59.5l-59 -80
l-64 -91.5l-61.5 -93.5c-19.667 -31 -36.334 -59.667 -50.001 -86s-23.667 -49.333 -30 -69s-7 -33.834 -2 -42.501s16.667 -10.834 35 -6.50098s45.166 17.166 80.499 38.499c28.667 17.333 57.834 37.333 87.501 60l83.5 66.5c26 21.667 48.833 41.667 68.5 60l42.5 40.5
c2.66699 2.66699 5.83398 4 9.50098 4s6.83398 -1.33301 9.50098 -4c6.66699 -6.66699 7 -13.334 1 -20.001c-10.667 -10.667 -26.334 -25.334 -47.001 -44.001l-70.5 -61c-26.333 -22 -54.5 -44.167 -84.5 -66.5s-59.333 -42.166 -88 -59.499
c-11.333 -7.33301 -25.333 -15.333 -42 -24s-33.834 -15.667 -51.501 -21s-34.834 -7.83301 -51.501 -7.5s-30.667 6.16602 -42 17.499c-12 11.333 -17.833 26.833 -17.5 46.5s4.66602 42.334 12.999 68.001s20.166 53.167 35.499 82.5s32.666 59 51.999 89
c20.667 32.667 42.334 64.834 65.001 96.501l64.5 87.5l55 70.5l36.5 44.5c-56 5.33301 -113.833 12 -173.5 20s-118.334 13.5 -176.001 16.5s-112.667 1.33301 -165 -5s-99.5 -20.833 -141.5 -43.5c-3.33301 -2 -6.83301 -2.5 -10.5 -1.5s-6.5 3.16699 -8.5 6.5
c-1.33301 3.33301 -1.5 7 -0.5 11s3.16699 6.66699 6.5 8c44.667 24.667 94.834 40.334 150.501 47.001s113.667 8.5 174 5.5s121.833 -8.83301 184.5 -17.5s123 -15.667 181 -21l61.5 73.5c17.667 20.333 30.834 34.833 39.501 43.5c2.66699 2.66699 6 4 10 4h61
c6 0 10.333 -2.66699 13 -8s1.66699 -10.333 -3 -15l-35 -39.5l-56 -65.5c64.667 -4 127.167 -4.16699 187.5 -0.5s116.833 15.167 169.5 34.5z" />
    <glyph glyph-name="u" unicode="u" horiz-adv-x="648" 
d="M648 300c7.33301 4.66699 14.001 4.00293 20.001 -1.99707c2 -3.33301 3 -6.83301 3 -10.5s-1.66699 -6.83398 -5 -9.50098l-60.5 -48.5l-86.5 -67.5c-32 -24 -65.5 -47.667 -100.5 -71s-68.667 -43.166 -101 -59.499s-62.333 -27.333 -90 -33
s-49.834 -2.83398 -66.501 8.49902c-16 10.667 -25.167 25.167 -27.5 43.5s-0.333008 38.5 6 60.5s16.166 45 29.499 69s27.333 47 42 69c-6.66699 -6 -15.834 -13.833 -27.501 -23.5s-24.667 -19.667 -39 -30s-29.333 -20.5 -45 -30.5s-31.167 -18.167 -46.5 -24.5
s-29.666 -10.333 -42.999 -12s-25 0.833008 -35 7.5c-12 7.33301 -19.5 17.166 -22.5 29.499s-2.66699 25.833 1 40.5s9.66699 30 18 46s17.833 32 28.5 48c14 21.333 28.333 41.333 43 60l35 45c3.33301 3.33301 7 5 11 5h61c5.33301 0 9.33301 -2.5 12 -7.5
s2.33398 -9.83301 -0.999023 -14.5c-2 -2.66699 -4.5 -5.83398 -7.5 -9.50098l-10.5 -13.5c-44.667 -55.333 -76 -97.666 -94 -126.999s-26 -48.666 -24 -57.999s11.667 -10.333 29 -3s39 19.833 65 37.5s54 39.167 84 64.5s58.667 51 86 77c2 2 5.66699 3.33301 11 4
s11.5 1 18.5 1s14.167 -0.166992 21.5 -0.5s13.666 -0.5 18.999 -0.5c6.66699 0.666992 11.167 -1.83301 13.5 -7.5s1.5 -10.834 -2.5 -15.501c-12.667 -14 -26.5 -30.667 -41.5 -50s-29.833 -39.833 -44.5 -61.5s-28.334 -43.334 -41.001 -65.001s-22.667 -41.5 -30 -59.5
s-11.166 -33.5 -11.499 -46.5s4.5 -21.167 14.5 -24.5s25.833 -1.33301 47.5 6s50.834 22 87.501 44c26.667 16 54.167 34 82.5 54l82 60.5l74 58z" />
    <glyph glyph-name="v" unicode="v" horiz-adv-x="598" 
d="M598 300c3.33301 2 6.82617 2.50293 10.4932 1.50293s6.16699 -3.16699 7.5 -6.5c4.66699 -8 3 -14.333 -5 -19c-54 -30.667 -103.333 -46.5 -148 -47.5s-87 13.5 -127 43.5l-44 -43.5l-51 -48l-56 -49.5c-19.333 -16.667 -38.666 -32.334 -57.999 -47.001l-47 -33.5
c-18.667 -13 -38.167 -24.333 -58.5 -34s-40.166 -16.167 -59.499 -19.5s-36 -0.333008 -50 9c-20 13.333 -29.833 31.833 -29.5 55.5s6.33301 49.334 18 77.001s26.834 55.667 45.501 84s36.667 54.166 54 77.499l20.5 29l17.5 24c2.66699 4 6.33398 6 11.001 6h62
c5.33301 0 9.33301 -2.33301 12 -7s2.33398 -9.33398 -0.999023 -14.001c-13.333 -19.333 -28.166 -39.333 -44.499 -60s-33.166 -44 -50.499 -70c-20 -29.333 -36.833 -58.333 -50.5 -87s-20.5 -51.167 -20.5 -67.5s9.33301 -23.333 28 -21s50.667 19.5 96 51.5
c24 16.667 48 35.167 72 55.5l69 60.5l60 56.5l44 43.5c5.33301 5.33301 11.666 5.66602 18.999 0.999023c36.667 -29.333 74.834 -44.5 114.501 -45.5s86.167 13.833 139.5 44.5z" />
    <glyph glyph-name="w" unicode="w" horiz-adv-x="875" 
d="M875 300c3.33301 2 6.82812 2.5 10.4951 1.5s6.5 -3.16699 8.5 -6.5c3.33301 -8 1.66602 -14.333 -5.00098 -19c-54.667 -30.667 -104.5 -46.5 -149.5 -47.5s-87.167 13.5 -126.5 43.5l-44 -43.5l-51 -48l-56 -49.5c-19.333 -16.667 -38.666 -32.334 -57.999 -47.001
l-47 -33c-18.667 -12.667 -38.167 -24 -58.5 -34s-40.166 -16.667 -59.499 -20s-36 -0.333008 -50 9c-15.333 10 -24.5 22.833 -27.5 38.5s-2.5 32.5 1.5 50.5s10.167 36 18.5 54s16.833 34.333 25.5 49c-14 -13.333 -28.667 -26.5 -44 -39.5s-30.666 -25.167 -45.999 -36.5
c-10 -8 -22.833 -17.5 -38.5 -28.5s-32.167 -20.667 -49.5 -29s-34.5 -14 -51.5 -17s-31.833 -0.166992 -44.5 8.5c-16.667 11.333 -25.334 26.666 -26.001 45.999s3.5 40.333 12.5 63s21 45.834 36 69.501s29.833 45.5 44.5 65.5c7.33301 10.667 14.5 20.334 21.5 29.001
s12.833 16.667 17.5 24c2 4 5.66699 6 11 6h62c5.33301 0 9.33301 -2.33301 12 -7s2.33398 -9.33398 -0.999023 -14.001l-79 -108c-21.333 -31.333 -37.333 -58.833 -48 -82.5s-14.5 -40.5 -11.5 -50.5s13.833 -11.833 32.5 -5.5s46.667 23.833 84 52.5
c11.333 8.66699 26.166 20.834 44.499 36.501l55 48.5l50.5 47c15.333 14.667 25.333 25.334 30 32.001c2.66699 4 6.33398 6 11.001 6h62c4 0 8 -2.16699 12 -6.5s2.66699 -11.166 -4 -20.499l-25.5 -34.5l-27.5 -38.5c-26.667 -39.333 -46.5 -74 -59.5 -104
s-17.5 -51.333 -13.5 -64s17.833 -15.167 41.5 -7.5s58.834 29.167 105.501 64.5c22 16.667 43.833 34.334 65.5 53.001l61.5 55l53 50.5l39 38.5c4.66699 4.66699 9.5 5.66699 14.5 3s11.333 -6.83398 19 -12.501s17.5 -11.834 29.5 -18.501s27.667 -11.334 47 -14.001
c20.667 -3.33301 44.334 -2 71.001 4s57.334 18.667 92.001 38z" />
    <glyph glyph-name="x" unicode="x" horiz-adv-x="613" 
d="M570 385c2.66699 3.33301 5.83203 5.16699 9.49902 5.5s7.16699 -1.16699 10.5 -4.5c6 -6 6.33301 -12.333 1 -19c-22 -25.333 -45.5 -48.166 -70.5 -68.499s-50.833 -39 -77.5 -56s-53.334 -32.5 -80.001 -46.5l-79 -40c6.66699 -35.333 14.834 -61.5 24.501 -78.5
s19 -29.333 28 -37s16.667 -12.834 23 -15.501s9.5 -7 9.5 -13c0 -4 -1.5 -7.33301 -4.5 -10s-6.5 -4 -10.5 -4c-20.667 0 -38.834 3 -54.501 9s-29.334 14.5 -41.001 25.5s-21.667 23.667 -30 38s-15.166 30.166 -20.499 47.499c-22 -12 -42.5 -24 -61.5 -36
s-35.167 -24.667 -48.5 -38s-23.833 -27.833 -31.5 -43.5s-11.5 -33.167 -11.5 -52.5c0 -4 -1.5 -7.33301 -4.5 -10s-6.16699 -4 -9.5 -4c-9.33301 0 -14 4.66699 -14 14c0 23.333 4.33301 44.333 13 63s20.834 35.834 36.501 51.501s34 30.167 55 43.5
s43.833 26.333 68.5 39c-7.33301 32 -12 64.5 -14 97.5l-6 96.5c0 3.33301 1.33301 6.5 4 9.5s6 4.5 10 4.5h61c4.66699 0 8.16699 -1.66699 10.5 -5s3.83301 -7.5 4.5 -12.5s1 -11 1 -18v-20.5c1.33301 -17.333 2.5 -35.5 3.5 -54.5s2.83301 -38.167 5.5 -57.5l75 38
c25.333 13.333 50.5 28 75.5 44s49.333 33.667 73 53s45.834 41 66.501 65z" />
    <glyph glyph-name="y" unicode="y" horiz-adv-x="664" 
d="M664 300c6 6.66699 12.6719 7 20.0049 1c2.66699 -2.66699 4 -5.83398 4 -9.50098s-1.33301 -6.83398 -4 -9.50098c-30.667 -32.667 -63.834 -61 -99.501 -85s-72.667 -45.333 -111 -64s-77.833 -34.834 -118.5 -48.501s-81.334 -26.167 -122.001 -37.5
c-0.666992 -0.666992 -7.83398 -11.167 -21.501 -31.5s-32.334 -45.833 -56.001 -76.5s-51.5 -63.667 -83.5 -99s-66.667 -67.833 -104 -97.5s-76.333 -54 -117 -73s-81.334 -27.5 -122.001 -25.5c-26 1.33301 -46.667 10.333 -62 27s-21.333 38.5 -18 65.5
s18.166 57.5 44.499 91.5s68.5 69 126.5 105c43.333 27.333 92.333 49.5 147 66.5s112.334 33.833 173.001 50.5l3 1c22.667 34.667 45.334 72 68.001 112s45.667 83.333 69 130l-34 -31c-14.667 -13.333 -31.5 -27.666 -50.5 -42.999s-39.167 -30.666 -60.5 -45.999
s-42.166 -28.333 -62.499 -39s-39.5 -17.667 -57.5 -21s-33 -1 -45 7c-13.333 8.66699 -21.333 19.667 -24 33s-2 28 2 44s10.833 32.833 20.5 50.5s20.167 35.167 31.5 52.5c14.667 22 29.5 42.5 44.5 61.5l35.5 45.5c3.33301 3.33301 7 5 11 5h62
c5.33301 0 9.5 -2.5 12.5 -7.5s2.5 -9.83301 -1.5 -14.5c-8.66699 -9.33301 -20.834 -24 -36.501 -44l-47.5 -63.5c-16 -22.333 -30.5 -44.166 -43.5 -65.499s-20.5 -38.166 -22.5 -50.499s3 -18.166 15 -17.499s35 11.334 69 32.001c20 12 40.167 26.167 60.5 42.5
s39.666 32.666 57.999 48.999l50.5 46.5l38 36c5.33301 4.66699 13.833 8.16699 25.5 10.5s23 3.16602 34 2.49902s20 -3 27 -7s8.83301 -9.66699 5.5 -17c-23.333 -50 -47 -96.667 -71 -140s-47.667 -84 -71 -122c37.333 10.667 74.5 22.667 111.5 36s73 28.666 108 45.999
s68.5 37 100.5 59s61.667 47.667 89 77zM120.005 16c-54 -14.667 -105.664 -30.001 -154.997 -46.001s-93 -36 -131 -60c-42 -26.667 -75.167 -52.667 -99.5 -78s-40.833 -48.5 -49.5 -69.5s-10.167 -38.667 -4.5 -53s17 -23.166 34 -26.499s39.167 -0.5 66.5 8.5
s58.666 26.5 93.999 52.5s73.666 61.167 114.999 105.5s84.666 99.833 129.999 166.5z" />
    <glyph glyph-name="z" unicode="z" horiz-adv-x="716" 
d="M716 300c6 6 12.335 6.00195 19.002 0.00195312c2.66699 -2.66699 4.16699 -5.83398 4.5 -9.50098s-1.16699 -6.83398 -4.5 -9.50098c-32 -34 -68.667 -63.333 -110 -88s-85.333 -46.167 -132 -64.5s-95.167 -34.166 -145.5 -47.499s-100.166 -25.666 -149.499 -36.999
c-3.33301 -34 -13.5 -69.667 -30.5 -107s-37.833 -73 -62.5 -107s-51.334 -64.833 -80.001 -92.5s-55.667 -48.834 -81 -63.501c-52 -30 -98.833 -46 -140.5 -48s-75.334 5 -101.001 21s-41.834 39 -48.501 69s-1.16699 62.333 16.5 97s49.5 69.5 95.5 104.5
s108.667 65.5 188 91.5c25.333 8 51.5 15.5 78.5 22.5l82.5 21.5c0 24.667 -3.83301 44.834 -11.5 60.501s-16.334 28.167 -26.001 37.5s-18.834 16.166 -27.501 20.499s-13.667 8.16602 -15 11.499c-2.66699 5.33301 -2.66699 9.5 0 12.5s7.16699 6.5 13.5 10.5l24 15
c9.66699 6 19.834 14.667 30.501 26c7.33301 8 14.333 17.5 21 28.5s12 22 16 33s6.33301 21 7 30s-1.16602 15.5 -5.49902 19.5s-11.666 4.33301 -21.999 1s-24.166 -12 -41.499 -26c-11.333 -8.66699 -21.833 -17.667 -31.5 -27l-26.5 -26
c-2.66699 -2.66699 -5.83398 -4 -9.50098 -4s-6.83398 1.33301 -9.50098 4c-6.66699 6 -7 12.667 -1 20c10.667 10.667 20.834 20.334 30.501 29.001s19.167 16.667 28.5 24c27.333 22 52 35.667 74 41s40.333 4.83301 55 -1.5s25.5 -17.333 32.5 -33
s8.83301 -33.334 5.5 -53.001s-12.333 -40 -27 -61s-35.667 -39.833 -63 -56.5c20 -14.667 35.167 -31.834 45.5 -51.501s16.166 -41.167 17.499 -64.5c48 10.667 96.333 22.5 145 35.5s95.5 28.333 140.5 46s87.333 38.334 127 62.001s74.5 51.5 104.5 83.5z
M-86.998 -276.998c24.667 18 48.333 39.001 71 63.001s42.834 49.167 60.501 75.5s32.5 53.5 44.5 81.5s20 55 24 81l-77.5 -20c-25 -6.66699 -49.167 -13.667 -72.5 -21c-54 -17.333 -99.333 -37 -136 -59s-66.167 -44.333 -88.5 -67s-37.833 -44.834 -46.5 -66.501
s-11.834 -41.167 -9.50098 -58.5s9.83301 -31.833 22.5 -43.5s29.167 -18.834 49.5 -21.501s44 0.333008 71 9s56.167 24.334 87.5 47.001z" />
    <glyph glyph-name="braceleft" unicode="{" horiz-adv-x="428" 
d="M576 995c4 0 7.33203 -1.33105 9.99902 -3.99805s4.16699 -5.5 4.5 -8.5s-0.5 -6.16699 -2.5 -9.5s-5 -5.33301 -9 -6c-32.667 -6.66699 -60.5 -21.667 -83.5 -45s-43 -51.333 -60 -84s-32.167 -67.667 -45.5 -105l-39.5 -108c-13 -34.667 -27.167 -65.834 -42.5 -93.501
s-33.333 -47.834 -54 -60.501c6 -14 6.83301 -32.833 2.5 -56.5s-10.833 -48.334 -19.5 -74.001s-18 -50.334 -28 -74.001s-18 -41.834 -24 -54.501l-36.5 -85.5c-11.667 -28.333 -21 -55.166 -28 -80.499s-10.667 -49 -11 -71s4.83398 -40.667 15.501 -56
c4.66699 -6.66699 4.16699 -12.667 -1.5 -18s-11.5 -5.66602 -17.5 -0.999023c-25.333 18 -40.5 41.5 -45.5 70.5s-4.33301 61 2 96s16.833 71.333 31.5 109l44 109.5c14.667 35.333 27.667 68.333 39 99s16.666 56.334 15.999 77.001c-8 -2 -16 -2.83301 -24 -2.5
s-15 2 -21 5s-10.667 7.16699 -14 12.5s-4 12 -2 20c2 10 6.33301 17.333 13 22s14 7.16699 22 7.5s16 -1.66699 24 -6s14.667 -10.833 20 -19.5c14.667 13.333 28.834 35.333 42.501 66s27.834 64.834 42.501 102.501s30.667 76.5 48 116.5s37.166 76.167 59.499 108.5
s47.5 58.166 75.5 77.499s60.333 27.333 97 24zM184.999 487.002c-5.33301 7.33301 -10.502 11 -15.502 11s-8.16699 -1.33301 -9.5 -4s-0.166016 -5 3.50098 -7s10.834 -2 21.501 0z" />
    <glyph glyph-name="bar" unicode="|" horiz-adv-x="329" 
d="M131 965c0 8.66699 2.83496 15.334 8.50195 20.001s12 7 19 7s13.333 -2.33301 19 -7s8.5 -11.334 8.5 -20.001l-1 -965c0 -9.33301 -2.83301 -16.166 -8.5 -20.499s-11.834 -6.5 -18.501 -6.5s-12.834 2.16699 -18.501 6.5s-8.5 11.166 -8.5 20.499v965z" />
    <glyph glyph-name="braceright" unicode="}" horiz-adv-x="458" 
d="M-116 -112c-4 0 -7.16504 1.33301 -9.49805 4s-3.66602 5.5 -3.99902 8.5s0.333984 6 2.00098 9s4.5 4.83301 8.5 5.5c32.667 6.66699 60.667 21.667 84 45s43.5 51.333 60.5 84s32.167 67.834 45.5 105.501l39.5 108.5c13 34.667 27 65.834 42 93.501
s32.833 47.834 53.5 60.501c-6 13.333 -6.83301 31.833 -2.5 55.5s10.833 48.334 19.5 74.001s18 50.167 28 73.5l24 55l36.5 85.5c11.667 28.333 21 55.333 28 81s10.667 49.334 11 71.001s-4.83398 40.167 -15.501 55.5c-4.66699 6.66699 -4.16699 12.667 1.5 18
s11.5 5.66602 17.5 0.999023c25.333 -18 40.666 -41.5 45.999 -70.5s4.66602 -60.833 -2.00098 -95.5s-17.167 -70.834 -31.5 -108.501s-29 -74.334 -44 -110.001s-28 -68.834 -39 -99.501s-16.167 -56 -15.5 -76c8 2 15.833 2.83301 23.5 2.5s14.5 -2 20.5 -5
s10.667 -7.16699 14 -12.5s4 -12.333 2 -21c-2 -9.33301 -6.33301 -16.333 -13 -21s-14 -7.16699 -22 -7.5s-16.167 1.66699 -24.5 6s-14.833 10.833 -19.5 19.5c-14.667 -14 -28.834 -36.333 -42.501 -67s-27.834 -64.834 -42.501 -102.501s-30.667 -76.5 -48 -116.5
s-37.166 -76 -59.499 -108s-47.5 -57.667 -75.5 -77s-60.333 -27.333 -97 -24zM275.002 395c3.33301 -5.33301 6.83301 -8.5 10.5 -9.5s6.83398 -1.16699 9.50098 -0.5c4.66699 1.33301 6.16699 4 4.5 8s-9.83398 4.66699 -24.501 2z" />
    <glyph glyph-name="asciitilde" unicode="~" horiz-adv-x="528" 
d="M94 230c-5.33301 -2 -9.99902 -0.833984 -13.999 3.49902s-3.66699 8.83301 1 13.5c20.667 19.333 41 31.5 61 36.5s39.5 6 58.5 3s37.833 -8.5 56.5 -16.5s37.167 -15.333 55.5 -22s36.666 -11.167 54.999 -13.5s36.833 0.833984 55.5 9.50098
c5.33301 2.66699 9.33301 1.5 12 -3.5s1.33398 -10.167 -3.99902 -15.5c-20.667 -18.667 -40.834 -30.5 -60.501 -35.5s-39 -6.16699 -58 -3.5s-37.667 8 -56 16s-36.5 15.333 -54.5 22s-36 11.167 -54 13.5s-36 -0.166992 -54 -7.5z" />
    <glyph glyph-name="quoteleft" unicode="&#x2018;" horiz-adv-x="248" 
d="M73 534c5.33301 18.667 12.834 35.3291 22.501 49.9961s20.167 26.667 31.5 36c12 10 24.167 17.333 36.5 22s23.166 5.33398 32.499 2.00098c3.33301 -1.33301 5.16602 -3.83301 5.49902 -7.5s-1.16699 -6.16699 -4.5 -7.5c-15.333 -5.33301 -28.833 -15.5 -40.5 -30.5
s-21.167 -30.833 -28.5 -47.5c8.66699 -3.33301 15.5 -8.66602 20.5 -15.999s7.5 -15.666 7.5 -24.999c0 -5.33301 -0.833008 -9.66602 -2.5 -12.999l-4.5 -9l-6 -8c-8.66699 -8.66699 -17.667 -13.334 -27 -14.001s-17.666 1.5 -24.999 6.5s-13 12.833 -17 23.5
s-4.33301 23.334 -1 38.001z" />
    <glyph glyph-name="quoteright" unicode="&#x2019;" horiz-adv-x="232" 
d="M165 562c-5.33301 -18.667 -12.833 -35.333 -22.5 -50s-20.167 -26.667 -31.5 -36c-12 -10 -24.167 -17.333 -36.5 -22s-23.166 -5.33398 -32.499 -2.00098c-3.33301 1.33301 -5.16602 3.83301 -5.49902 7.5s1.16699 6.16699 4.5 7.5
c15.333 5.33301 28.833 15.5 40.5 30.5s21.167 30.833 28.5 47.5c-8.66699 3.33301 -15.5 8.66602 -20.5 15.999s-7.5 15.666 -7.5 24.999c0 4.66699 0.666992 8.83398 2 12.501s2.66602 6.83398 3.99902 9.50098c2 2.66699 4.33301 5.33398 7 8.00098
c8.66699 8.66699 17.667 13.334 27 14.001s17.666 -1.5 24.999 -6.5s12.833 -12.833 16.5 -23.5s4.16699 -23.334 1.5 -38.001z" />
    <glyph glyph-name="quotesinglbase" unicode="&#x201a;" horiz-adv-x="281" 
d="M183 177c-5.33301 -18.667 -12.833 -35.333 -22.5 -50s-20.167 -26.667 -31.5 -36c-12 -10 -24.167 -17.333 -36.5 -22s-23.166 -5.33398 -32.499 -2.00098c-3.33301 1.33301 -5.16602 3.83301 -5.49902 7.5s1.16699 6.16699 4.5 7.5
c15.333 5.33301 28.833 15.5 40.5 30.5s21.167 30.833 28.5 47.5c-8.66699 3.33301 -15.5 8.66602 -20.5 15.999s-7.5 15.666 -7.5 24.999c0 4.66699 0.666992 8.83398 2 12.501s2.66602 6.83398 3.99902 9.50098c2 2.66699 4.33301 5.33398 7 8.00098
c8.66699 8.66699 17.667 13.334 27 14.001s17.666 -1.5 24.999 -6.5s12.833 -12.833 16.5 -23.5s4.16699 -23.334 1.5 -38.001z" />
    <glyph glyph-name="quotedblleft" unicode="&#x201c;" horiz-adv-x="361" 
d="M186 534c5.33301 18.667 12.834 35.3291 22.501 49.9961s20.167 26.667 31.5 36c12 10 24.167 17.333 36.5 22s23.166 5.33398 32.499 2.00098c3.33301 -1.33301 5.16602 -3.83301 5.49902 -7.5s-1.16699 -6.16699 -4.5 -7.5c-15.333 -5.33301 -28.833 -15.5 -40.5 -30.5
s-21.167 -30.833 -28.5 -47.5c8.66699 -3.33301 15.5 -8.66602 20.5 -15.999s7.5 -15.666 7.5 -24.999c0 -5.33301 -0.833008 -9.66602 -2.5 -12.999l-4.5 -9l-6 -8c-8.66699 -8.66699 -17.667 -13.334 -27 -14.001s-17.666 1.5 -24.999 6.5s-13 12.833 -17 23.5
s-4.33301 23.334 -1 38.001zM59.001 533.995c5.33301 18.667 12.834 35.3291 22.501 49.9961s20.167 26.667 31.5 36c12 10 24.167 17.333 36.5 22s23.166 5.33398 32.499 2.00098c3.33301 -1.33301 5.16602 -3.83301 5.49902 -7.5s-1.16699 -6.16699 -4.5 -7.5
c-15.333 -5.33301 -28.833 -15.5 -40.5 -30.5s-21.167 -30.833 -28.5 -47.5c8.66699 -3.33301 15.5 -8.66602 20.5 -15.999s7.5 -15.666 7.5 -24.999c0 -5.33301 -0.833008 -9.66602 -2.5 -12.999l-4.5 -9l-6 -8c-8.66699 -8.66699 -17.667 -13.334 -27 -14.001
s-17.666 1.5 -24.999 6.5s-13 12.833 -17 23.5s-4.33301 23.334 -1 38.001z" />
    <glyph glyph-name="quotedblright" unicode="&#x201d;" horiz-adv-x="387" 
d="M178 562c-5.33301 -18.667 -12.833 -35.333 -22.5 -50s-20.167 -26.667 -31.5 -36c-12 -10 -24.167 -17.333 -36.5 -22s-23.166 -5.33398 -32.499 -2.00098c-3.33301 1.33301 -5.16602 3.83301 -5.49902 7.5s1.16699 6.16699 4.5 7.5
c15.333 5.33301 28.833 15.5 40.5 30.5s21.167 30.833 28.5 47.5c-8.66699 3.33301 -15.5 8.66602 -20.5 15.999s-7.5 15.666 -7.5 24.999c0 4.66699 0.666992 8.83398 2 12.501s2.66602 6.83398 3.99902 9.50098c2 2.66699 4.33301 5.33398 7 8.00098
c8.66699 8.66699 17.667 13.334 27 14.001s17.666 -1.5 24.999 -6.5s12.833 -12.833 16.5 -23.5s4.16699 -23.334 1.5 -38.001zM305 562.001c-5.33301 -18.667 -12.833 -35.333 -22.5 -50s-20.167 -26.667 -31.5 -36c-12 -10 -24.167 -17.333 -36.5 -22
s-23.166 -5.33398 -32.499 -2.00098c-3.33301 1.33301 -5.16602 3.83301 -5.49902 7.5s1.16699 6.16699 4.5 7.5c15.333 5.33301 28.833 15.5 40.5 30.5s21.167 30.833 28.5 47.5c-8.66699 3.33301 -15.5 8.66602 -20.5 15.999s-7.5 15.666 -7.5 24.999
c0 4.66699 0.666992 8.83398 2 12.501s2.66602 6.83398 3.99902 9.50098c2 2.66699 4.33301 5.33398 7 8.00098c8.66699 8.66699 17.667 13.334 27 14.001s17.666 -1.5 24.999 -6.5s12.833 -12.833 16.5 -23.5s4.16699 -23.334 1.5 -38.001z" />
    <glyph glyph-name="quotedblbase" unicode="&#x201e;" horiz-adv-x="459" 
d="M187 177c-5.33301 -18.667 -12.833 -35.333 -22.5 -50s-20.167 -26.667 -31.5 -36c-12 -10 -24.167 -17.333 -36.5 -22s-23.166 -5.33398 -32.499 -2.00098c-3.33301 1.33301 -5.16602 3.83301 -5.49902 7.5s1.16699 6.16699 4.5 7.5
c15.333 5.33301 28.833 15.5 40.5 30.5s21.167 30.833 28.5 47.5c-8.66699 3.33301 -15.5 8.66602 -20.5 15.999s-7.5 15.666 -7.5 24.999c0 4.66699 0.666992 8.83398 2 12.501s2.66602 6.83398 3.99902 9.50098c2 2.66699 4.33301 5.33398 7 8.00098
c8.66699 8.66699 17.667 13.334 27 14.001s17.666 -1.5 24.999 -6.5s12.833 -12.833 16.5 -23.5s4.16699 -23.334 1.5 -38.001zM356 177.001c-5.33301 -18.667 -12.833 -35.333 -22.5 -50s-20.167 -26.667 -31.5 -36c-12 -10 -24.167 -17.333 -36.5 -22
s-23.166 -5.33398 -32.499 -2.00098c-3.33301 1.33301 -5.16602 3.83301 -5.49902 7.5s1.16699 6.16699 4.5 7.5c15.333 5.33301 28.833 15.5 40.5 30.5s21.167 30.833 28.5 47.5c-8.66699 3.33301 -15.5 8.66602 -20.5 15.999s-7.5 15.666 -7.5 24.999
c0 4.66699 0.666992 8.83398 2 12.501s2.66602 6.83398 3.99902 9.50098c2 2.66699 4.33301 5.33398 7 8.00098c8.66699 8.66699 17.667 13.334 27 14.001s17.666 -1.5 24.999 -6.5s12.833 -12.833 16.5 -23.5s4.16699 -23.334 1.5 -38.001z" />
    <glyph glyph-name="fraction" unicode="&#x2044;" horiz-adv-x="356" 
d="M412 973c3.33301 8.66699 8.50293 14.167 15.5029 16.5s13.667 2.16602 20 -0.500977s11.5 -7.16699 15.5 -13.5s4.33301 -13.833 1 -22.5l-367 -968c-3.33301 -8.66699 -8.33301 -14.167 -15 -16.5s-13.334 -2.16602 -20.001 0.500977s-11.834 7 -15.501 13
s-3.83398 13.333 -0.500977 22z" />
    <glyph glyph-name="a.001" unicode="&#xe000;" horiz-adv-x="578" 
d="M578 300c2.66699 3.33301 6.00488 4.99902 10.0049 4.99902s7.33301 -1.66699 10 -5c2.66699 -2.66699 4 -5.83398 4 -9.50098s-1.33301 -6.83398 -4 -9.50098c-10.667 -10.667 -26.334 -25.5 -47.001 -44.5s-44.167 -39.5 -70.5 -61.5s-54.333 -44.167 -84 -66.5
s-58.834 -42.166 -87.501 -59.499c-12 -7.33301 -25.833 -15 -41.5 -23s-31.834 -14.667 -48.501 -20s-32.834 -8.16602 -48.501 -8.49902s-29.5 3.5 -41.5 11.5s-20.167 17.833 -24.5 29.5s-6 24.5 -5 38.5s4.33301 29 10 45s12.834 32.333 21.501 49
c-28 -18.667 -52.333 -29.667 -73 -33s-37.667 -1.5 -51 5.5s-22.833 18.167 -28.5 33.5s-6.83398 33 -3.50098 53c-49.333 -49.333 -103.333 -89.833 -162 -121.5s-119.834 -58 -183.501 -79s-128.5 -38.667 -194.5 -53l-196 -44.5
c-64.667 -15.333 -127.167 -32.666 -187.5 -51.999s-116.833 -44.333 -169.5 -75s-100 -69.167 -142 -115.5s-76.667 -103.833 -104 -172.5c-2 -4 -4.66699 -6.66699 -8 -8s-6.66602 -1.66602 -9.99902 -0.999023s-5.83301 2.5 -7.5 5.5s-1.83398 6.83301 -0.500977 11.5
c29.333 72.667 66.666 133.334 111.999 182.001s96 89.167 152 121.5s116.333 58.666 181 78.999s130.834 38.666 198.501 54.999l205 48.5c69 16 135.833 36 200.5 60s126 54.167 184 90.5s110.333 82.5 157 138.5c11.333 19.333 28 36.833 50 52.5
s44.667 25.834 68 30.501s45 2.33398 65 -6.99902s34 -29 42 -59c7.33301 9.33301 14.5 19.166 21.5 29.499s13.5 15.5 19.5 15.5h61c5.33301 0 9.5 -2.5 12.5 -7.5s2.83301 -9.83301 -0.5 -14.5l-31 -45l-40 -58c-14 -20.667 -27.5 -41.834 -40.5 -63.501
s-23.833 -41.667 -32.5 -60s-14.5 -34.5 -17.5 -48.5s-1.5 -23.833 4.5 -29.5s17.667 -6 35 -1s42 16.833 74 35.5c29.333 17.333 59.333 37.5 90 60.5s59.167 45.667 85.5 68s49.5 42.833 69.5 61.5zM202.005 283.999c-1.33301 22.667 -6.33691 39.6621 -15.0039 50.9951
c-7.33301 8.66699 -16.666 11.834 -27.999 9.50098s-23.333 -8.16602 -36 -17.499s-25 -21 -37 -35s-22.167 -28.167 -30.5 -42.5s-14 -27.833 -17 -40.5s-1.5 -22 4.5 -28c4.66699 -5.33301 11.834 -8.16602 21.501 -8.49902s20.334 1.83398 32.001 6.50098
s23.834 11.834 36.501 21.501s24.667 21.5 36 35.5z" />
    <glyph glyph-name="b.001" unicode="&#xe001;" horiz-adv-x="1400" 
d="M1400 300c2.66699 3.33301 5.83203 5 9.49902 5s6.83398 -1.66699 9.50098 -5c6 -6 6 -12.667 0 -20c-26.667 -24.667 -52.834 -44.167 -78.501 -58.5s-51.334 -25.5 -77.001 -33.5s-51.334 -13.833 -77.001 -17.5s-51.5 -7.16699 -77.5 -10.5
c-11.333 -23.333 -28.333 -46.833 -51 -70.5s-51.667 -44.834 -87 -63.501c-31.333 -16 -57.666 -21.667 -78.999 -17s-34.666 14.5 -39.999 29.5s-1.33301 33 12 54s39 39.5 77 55.5c13.333 6 26.833 11 40.5 15s27.167 7.66699 40.5 11
c18.667 32.667 26.834 55.5 24.501 68.5s-10.666 19.333 -24.999 19s-32.333 -6.33301 -54 -18s-42.167 -25.834 -61.5 -42.501l-19.5 -31l-15.5 -25c-3.33301 -4.66699 -7.33301 -7 -12 -7h-62c-5.33301 0 -9.33301 2.33301 -12 7s-2.66699 9.33398 0 14.001
c12.667 21.333 26.834 43.833 42.501 67.5l50.5 73.5l29.5 41l31.5 42c-57.333 -14 -114.5 -27 -171.5 -39s-113 -25.5 -168 -40.5s-107.833 -32.5 -158.5 -52.5s-97.834 -45 -141.501 -75s-83 -66.333 -118 -109s-64.5 -94 -88.5 -154c-2 -4 -4.66699 -6.66699 -8 -8
s-6.66602 -1.66602 -9.99902 -0.999023s-5.83301 2.5 -7.5 5.5s-1.83398 6.83301 -0.500977 11.5c26 64 58 118.5 96 163.5s80.333 83.167 127 114.5s97.167 57.5 151.5 78.5s110.5 39.333 168.5 55s117 30 177 43s119.667 27.5 179 43.5c38 50 76.333 97.833 115 143.5
s75 86.5 109 122.5c46 47.333 89.833 84.666 131.5 111.999s79.834 46.5 114.501 57.5s64.834 14.833 90.501 11.5s45 -11.833 58 -25.5s19 -31.834 18 -54.501s-10.833 -47.667 -29.5 -75c-14.667 -21.333 -35.667 -44.166 -63 -68.499s-61.833 -49.166 -103.5 -74.499
s-91.167 -50.666 -148.5 -75.999s-123 -50 -197 -74l-60 -80.5l-52 -73.5c30.667 18 58 28.833 82 32.5s43.833 1.5 59.5 -6.5s26.167 -20.833 31.5 -38.5s4.66602 -38.5 -2.00098 -62.5c22.667 2.66699 45.667 6 69 10s46.666 9.66699 69.999 17
s46.666 17.666 69.999 30.999s47 31 71 53zM1464 812c-40 -19.333 -79.334 -45.332 -118.001 -77.999s-75.667 -68 -111 -106c-28 -30 -54 -59.667 -78 -89l-66 -82c66 22.667 124.5 45.667 175.5 69s95.333 46.666 133 69.999s68.834 46 93.501 68s43.667 43 57 63
c14.667 22 23.167 41 25.5 57s-0.5 28 -8.5 36s-20.833 11.667 -38.5 11s-39.167 -7 -64.5 -19zM928.997 72.001c12 9.33301 24.001 19.667 36.001 31s22.667 23.333 32 36c-8 -2 -18.5 -5.66699 -31.5 -11s-25.833 -11.5 -38.5 -18.5s-23.834 -14.833 -33.501 -23.5
s-15.167 -17.667 -16.5 -27c-1.33301 -6.66699 2 -10 10 -10s22 7.66699 42 23z" />
    <glyph glyph-name="c.001" unicode="&#xe002;" horiz-adv-x="1887" 
d="M1616 242c-2.66699 -3.33301 -5.83008 -4.83203 -9.49707 -4.49902s-6.83398 2.16602 -9.50098 5.49902c-2.66699 2.66699 -3.83398 5.83398 -3.50098 9.50098s1.83301 6.83398 4.5 9.50098c13.333 12 23.666 24.667 30.999 38s10.5 22.833 9.5 28.5
s-7 4.83398 -18 -2.49902s-28.5 -25.666 -52.5 -54.999c-12.667 -15.333 -25.667 -33.5 -39 -54.5s-24.833 -42.167 -34.5 -63.5s-16.334 -40.833 -20.001 -58.5s-2 -30.834 5 -39.501s20.5 -11.167 40.5 -7.5s49 16.5 87 38.5c30 17.333 60 37 90 59s57.833 43.333 83.5 64
l67 56l39.5 35c2.66699 2.66699 5.83398 4 9.50098 4s6.83398 -1.66699 9.50098 -5c6 -7.33301 5.66699 -13.666 -1 -18.999c-7.33301 -7.33301 -20.5 -19.333 -39.5 -36s-41.667 -35.5 -68 -56.5l-85.5 -65c-30.667 -22.333 -61 -42.5 -91 -60.5
c-13.333 -8 -29.666 -16.833 -48.999 -26.5s-39 -17 -59 -22s-39.167 -6.16699 -57.5 -3.5s-33.166 12.667 -44.499 30s-14.833 39.166 -10.5 65.499s13.166 54.5 26.499 84.5c-50.667 -42 -105 -76.667 -163 -104s-118 -50.333 -180 -69s-124.833 -34.834 -188.5 -48.501
s-126.334 -28 -188.001 -43s-121.5 -32.333 -179.5 -52s-111.833 -44.834 -161.5 -75.501s-94.5 -68.667 -134.5 -114s-73.333 -101 -100 -167c-2 -4 -4.66699 -6.66699 -8 -8s-6.66602 -1.66602 -9.99902 -0.999023s-5.83301 2.5 -7.5 5.5s-1.83398 6.83301 -0.500977 11.5
c29.333 72.667 66.666 133.334 111.999 182.001s96 89.167 152 121.5s116.333 58.666 181 78.999s130.834 38.666 198.501 54.999l205 48.5c69 16 135.833 36 200.5 60s126 54.167 184 90.5s110.333 82.5 157 138.5c12 14.667 24.5 28.167 37.5 40.5s25.833 22.333 38.5 30
s24.834 12.667 36.501 15s22.167 1.5 31.5 -2.5c12 -5.33301 19.833 -13.333 23.5 -24s4.16699 -22.834 1.5 -36.501s-8.33398 -27.5 -17.001 -41.5s-19.334 -27 -32.001 -39z" />
    <glyph glyph-name="d.001" unicode="&#xe003;" horiz-adv-x="1247" 
d="M1247 300c2.66699 3.33301 5.8291 4.99707 9.49609 4.99707s6.83398 -1.66699 9.50098 -5c3.33301 -2.66699 5 -5.83398 5 -9.50098s-1.66699 -6.83398 -5 -9.50098l-46.5 -44.5c-20.333 -19 -43.666 -39.5 -69.999 -61.5s-54.5 -44.167 -84.5 -66.5
s-59.333 -42.166 -88 -59.499c-12 -7.33301 -25.833 -15 -41.5 -23s-31.667 -14.667 -48 -20s-32.5 -8.16602 -48.5 -8.49902s-30 3.5 -42 11.5c-12.667 8 -21 18.833 -25 32.5s-5.5 28.167 -4.5 43.5s3.83301 31.333 8.5 48s10 32 16 46
c-28.667 -20.667 -54 -34.5 -76 -41.5s-40.5 -8.83301 -55.5 -5.5s-26.833 10.666 -35.5 21.999s-13.667 25 -15 41s0.666992 33.167 6 51.5s14.333 36.166 27 53.499c10 14 23 27.333 39 40s33.5 22.834 52.5 30.501s37.333 11.167 55 10.5s33.5 -5.66699 47.5 -15
s24 -24.666 30 -45.999l27.5 42.5l27.5 40.5c-52.667 -6.66699 -107 -9.16699 -163 -7.5s-111.333 2.83398 -166 3.50098s-108 -1.33301 -160 -6s-100.167 -16.667 -144.5 -36s-84.333 -47.833 -120 -85.5s-64.5 -89.167 -86.5 -154.5c-2 -4 -4.66699 -6.66699 -8 -8
s-6.66602 -1.66602 -9.99902 -0.999023s-5.83301 2.5 -7.5 5.5s-1.83398 6.83301 -0.500977 11.5c26.667 71.333 59.167 127.166 97.5 167.499s80.666 70.5 126.999 90.5s96.166 32.167 149.499 36.5s108.5 6.16602 165.5 5.49902l174 -2
c59 -0.666992 117.833 3.66602 176.5 12.999c54 72.667 108.333 134.834 163 186.501s107.167 93.834 157.5 126.501s97.166 56.667 140.499 72s80.833 23.333 112.5 24s56.334 -5.33301 74.001 -18s25.834 -30.334 24.501 -53.001
c-1.33301 -18 -9.66602 -38.667 -24.999 -62s-39.666 -48.333 -72.999 -75c-32 -26 -66.167 -49.167 -102.5 -69.5s-72.5 -38.166 -108.5 -53.499s-70.5 -28.666 -103.5 -39.999s-62 -20.666 -87 -27.999s-45.167 -12.666 -60.5 -15.999s-23.333 -5.33301 -24 -6
c-2.66699 -1.33301 -9.66699 -10 -21 -26l-40.5 -59.5c-15.667 -23.667 -32 -49.834 -49 -78.501s-32.167 -56.667 -45.5 -84s-23.666 -52.333 -30.999 -75s-8.83301 -40 -4.5 -52s15.5 -17 33.5 -15s45.667 14 83 36c29.333 17.333 59.333 37.5 90 60.5
s59.167 45.667 85.5 68l70 61.5c20.333 18.667 34.5 32 42.5 40zM1061 458.997c38 10 76.6689 21.332 116.002 33.999s78.166 27.334 116.499 44.001s75.333 35 111 55s68.5 42.333 98.5 67c44 36 70.667 65.833 80 89.5s6.5 39.834 -8.5 48.501s-39.5 9.5 -73.5 2.5
s-72 -22.5 -114 -46.5c-30 -17.333 -59.667 -37 -89 -59s-57.833 -45.833 -85.5 -71.5s-54.334 -52.334 -80.001 -80.001s-49.5 -55.5 -71.5 -83.5zM737.997 176.996c11.333 6.66699 23.833 14.666 37.5 23.999s28.167 21 43.5 35l12 23c4 8 8.66699 16 14 24
c0 8.66699 -1.16699 17 -3.5 25s-5.66602 15 -9.99902 21s-9.83301 10.333 -16.5 13s-14.334 3.33398 -23.001 2.00098c-14 -2.66699 -27.833 -10 -41.5 -22s-25.834 -26 -36.501 -42s-19.167 -32.333 -25.5 -49s-9.16602 -30.834 -8.49902 -42.501s5.5 -19.167 14.5 -22.5
s23.5 0.333984 43.5 11.001z" />
    <glyph glyph-name="e.001" unicode="&#xe004;" horiz-adv-x="1855" 
d="M1855 300c7.33301 6 14.0039 5.66797 20.0039 -0.999023c6 -7.33301 5.66699 -13.666 -1 -18.999c-7.33301 -7.33301 -20.5 -19.333 -39.5 -36s-41.667 -35.5 -68 -56.5l-85.5 -65c-30.667 -22.333 -61 -42.5 -91 -60.5c-13.333 -8 -29.333 -16.667 -48 -26
s-37.834 -16.5 -57.501 -21.5s-38.5 -6.5 -56.5 -4.5s-33 10.667 -45 26c-14.667 19.333 -20 42.833 -16 70.5s12.333 55.5 25 83.5c-50.667 -42 -105 -76.667 -163 -104s-118 -50.333 -180 -69s-124.833 -34.834 -188.5 -48.501s-126.334 -28 -188.001 -43
s-121.334 -32.333 -179.001 -52s-111.5 -44.834 -161.5 -75.501s-95 -68.667 -135 -114s-73.333 -101 -100 -167c-2 -4 -4.66699 -6.66699 -8 -8s-6.66602 -1.66602 -9.99902 -0.999023s-5.83301 2.5 -7.5 5.5s-1.83398 6.83301 -0.500977 11.5
c29.333 72.667 66.5 133.167 111.5 181.5s95.333 88.666 151 120.999s115.5 58.666 179.5 78.999s129.667 38.666 197 54.999l203.5 48c68.333 15.667 134.666 35.334 198.999 59.001s125.666 53.167 183.999 88.5s110.833 80.333 157.5 135l7 8
c23.333 26 46.333 44.5 69 55.5s42 15.667 58 14s26.667 -9.5 32 -23.5s2.33301 -33 -9 -57c-8 -17.333 -22.833 -35.666 -44.5 -54.999s-52.167 -37.666 -91.5 -54.999c-4.66699 -4 -9.83398 -11.833 -15.501 -23.5s-10.167 -24.334 -13.5 -38.001s-4.5 -26.667 -3.5 -39
s6 -21.333 15 -27s22.833 -6.33398 41.5 -2.00098s44.334 16.5 77.001 36.5c30 17.333 60 37 90 59s57.833 43.333 83.5 64s47.834 39.334 66.501 56.001zM1493 214.001c19.333 8.66699 35.6689 18.666 49.002 29.999s23.833 22.333 31.5 33s12.667 20 15 28
s2.16602 12.667 -0.500977 14c-4.66699 2 -15.334 -5.16699 -32.001 -21.5s-37.667 -44.166 -63 -83.499z" />
    <glyph glyph-name="f.001" unicode="&#xe005;" horiz-adv-x="1502" 
d="M1502 300c3.33301 2.66699 6.83398 3.83203 10.501 3.49902s6.83398 -1.83301 9.50098 -4.5c6 -7.33301 5.33301 -14 -2 -20c-40 -34 -84 -63.167 -132 -87.5s-97.333 -44.666 -148 -60.999s-101.334 -29 -152.001 -38s-98 -14.833 -142 -17.5l-23 -50
c-0.666992 -2 -0.5 -10 0.5 -24s1.5 -30.833 1.5 -50.5s-1 -40.667 -3 -63s-5.83301 -43.166 -11.5 -62.499s-13.834 -35.666 -24.501 -48.999s-24.667 -20.333 -42 -21c-22 -0.666992 -36.5 7 -43.5 23s-9.83301 35.333 -8.5 58s5 45.834 11 69.501s11.333 42.5 16 56.5
c13.333 41.333 32 88.666 56 141.999s52 108.666 84 165.999c-57.333 -14.667 -114.833 -28 -172.5 -40s-114 -25.333 -169 -40s-108 -32 -159 -52s-98.5 -45.167 -142.5 -75.5s-83.667 -66.833 -119 -109.5s-65 -94 -89 -154c-2 -4 -4.66699 -6.66699 -8 -8
s-6.66602 -1.66602 -9.99902 -0.999023s-5.83301 2.5 -7.5 5.5s-1.83398 6.83301 -0.500977 11.5c25.333 63.333 57 117.5 95 162.5s80.333 83.333 127 115s96.834 57.834 150.501 78.501s109.334 38.834 167.001 54.501s116.5 30 176.5 43s119.667 27.5 179 43.5
c28.667 49.333 59.667 97.666 93 144.999s68.333 90.333 105 129s74.334 71.5 113.001 98.5s77.667 44.833 117 53.5c21.333 4.66699 39.666 5.16699 54.999 1.5s26.666 -10.834 33.999 -21.501s10.333 -24.334 9 -41.001s-8 -35.334 -20 -56.001
c-11.333 -19.333 -27.833 -40.833 -49.5 -64.5s-49.5 -48.834 -83.5 -75.501s-74.333 -54.667 -121 -84s-101 -59.333 -163 -90c-19.333 -32 -38 -64.5 -56 -97.5l-51 -97.5c42.667 3.33301 88 9.33301 136 18s95.833 20.834 143.5 36.501s94.167 35.167 139.5 58.5
s86.666 51 123.999 83zM1360 648.998c-26 -18 -51.499 -39.166 -76.499 -63.499s-48.667 -50 -71 -77s-43.5 -54.5 -63.5 -82.5s-38.333 -55 -55 -81c108 56.667 191.167 108.667 249.5 156s97.166 89 116.499 125c14 27.333 19 45.5 15 54.5s-12.5 12.5 -25.5 10.5
s-28.167 -7.33301 -45.5 -16s-32 -17.334 -44 -26.001zM897.002 -38.001c-19.333 -50 -30.667 -88 -34 -114s-3 -40.667 1 -44c2 -2 5 -0.166992 9 5.5s7.83301 15.167 11.5 28.5s6.66699 30.333 9 51s3.5 45 3.5 73z" />
    <glyph glyph-name="g.001" unicode="&#xe006;" horiz-adv-x="2065" 
d="M2065 300c2.66699 3.33301 5.83398 5.00195 9.5 5.00195c3.66699 0 6.83398 -1.66699 9.50098 -5c2.66699 -2.66699 4 -5.83398 4 -9.50098s-1.33301 -6.83398 -4 -9.50098c-32.667 -32 -67.167 -60 -103.5 -84s-74 -45.167 -113 -63.5s-78.667 -34.333 -119 -48
s-80.5 -26.167 -120.5 -37.5c-0.666992 -0.666992 -7.66699 -11.167 -21 -31.5s-31.5 -45.5 -54.5 -75.5s-50.333 -62.5 -82 -97.5s-65.667 -67.333 -102 -97s-74.833 -54.5 -115.5 -74.5s-81.334 -29.667 -122.001 -29c-27.333 0 -49.333 8.33301 -66 25
s-23.667 38.667 -21 66s17.167 58.333 43.5 93s68.833 70 127.5 106c18 11.333 38.5 22.166 61.5 32.499s46.5 19.833 70.5 28.5s47.333 16.5 70 23.5s43 13 61 18s32.5 8.83301 43.5 11.5s16.833 4.33398 17.5 5.00098l36.5 58.5l37.5 64.5
c-32 -22 -59.667 -35.667 -83 -41s-42.5 -4.66602 -57.5 2.00098s-25.5 18 -31.5 34s-7.33301 33.667 -4 53c-49.333 -48 -103.333 -87.5 -162 -118.5s-119.667 -56.833 -183 -77.5s-127.833 -38.167 -193.5 -52.5l-195 -44c-64.333 -15 -126.5 -32.167 -186.5 -51.5
s-116 -44.333 -168 -75s-98.833 -69 -140.5 -115s-76.167 -103.333 -103.5 -172c-2 -4 -4.66699 -6.66699 -8 -8s-6.66602 -1.66602 -9.99902 -0.999023s-5.83301 2.5 -7.5 5.5s-1.83398 6.83301 -0.500977 11.5c29.333 72.667 66.666 133.334 111.999 182.001
s96 89.167 152 121.5s116.333 58.666 181 78.999s130.834 38.666 198.501 54.999l205 48.5c69 16 135.833 36 200.5 60s126 54.167 184 90.5s110.333 82.5 157 138.5c10 14 23 27.333 39 40c15.333 12 32.166 21.833 50.499 29.5s36.333 11.5 54 11.5
s33.5 -4.16699 47.5 -12.5s24.667 -22.5 32 -42.5l11 25.5c3.33301 7.66699 8.33301 11.5 15 11.5h61c5.33301 0 9.33301 -2 12 -6s3 -8.33301 1 -13c-23.333 -50 -46.833 -96.5 -70.5 -139.5s-47.167 -83.5 -70.5 -121.5c36.667 10.667 73.334 22.667 110.001 36
s72.667 28.666 108 45.999s69.5 37 102.5 59s64.167 47.333 93.5 76zM1316 -220.998c36.667 33.333 72.0029 70.668 106.003 112.001s65.333 83.333 94 126c-54.667 -15.333 -106.334 -31 -155.001 -47s-92.334 -36.333 -131.001 -61
c-45.333 -28 -80.5 -55.833 -105.5 -83.5s-41.333 -52.667 -49 -75s-7.33398 -40.5 0.999023 -54.5s23.333 -21.167 45 -21.5s49 7.66699 82 24s70.5 43.166 112.5 80.499zM1646 236.004l12.5 24c4.33301 8 8.16602 16 11.499 24c0 11.333 -1.33301 21.333 -4 30
s-6 15.667 -10 21c-10 12.667 -21.667 17.667 -35 15s-26.5 -10 -39.5 -22s-25.333 -26.833 -37 -44.5s-21 -35.167 -28 -52.5s-10.667 -32.5 -11 -45.5s4 -21 13 -24s23.833 1 44.5 12s48.334 31.833 83.001 62.5z" />
    <glyph glyph-name="h.001" unicode="&#xe007;" horiz-adv-x="1510" 
d="M1510 300c2.66699 2.66699 5.83203 3.99805 9.49902 3.99805s6.83398 -1.33301 9.50098 -4c6 -7.33301 6 -14 0 -20c-21.333 -21.333 -44.833 -42.833 -70.5 -64.5s-52.334 -42.667 -80.001 -63s-55.667 -39.666 -84 -57.999s-55.833 -34.833 -82.5 -49.5
c-12.667 -7.33301 -29.334 -16 -50.001 -26s-42 -18.833 -64 -26.5s-43.167 -12.167 -63.5 -13.5s-35.833 3.66699 -46.5 15c-9.33301 9.33301 -13.166 22 -11.499 38s6.5 33.833 14.5 53.5s18 40 30 61l34.5 60l28.5 51c8 15 11.833 26.167 11.5 33.5s-5.83301 10 -16.5 8
s-29 -10.667 -55 -26c-15.333 -8.66699 -30.333 -18.334 -45 -29.001s-28.834 -21.667 -42.501 -33s-26.334 -22.5 -38.001 -33.5s-21.834 -21.5 -30.501 -31.5c-3.33301 -3.33301 -7 -5 -11 -5h-61c-5.33301 0 -9.5 2.33301 -12.5 7s-2.83301 9.33398 0.5 14.001
c12 20.667 25.667 42.5 41 65.5l49 72.5l31 44l33 45c-56.667 -14 -113.5 -27.167 -170.5 -39.5s-112.5 -25.833 -166.5 -40.5s-106.167 -32 -156.5 -52s-97.166 -45 -140.499 -75s-82.333 -66.333 -117 -109s-64 -93.667 -88 -153c-2 -4 -4.66699 -6.66699 -8 -8
s-6.66602 -1.66602 -9.99902 -0.999023s-5.83301 2.5 -7.5 5.5s-1.83398 6.83301 -0.500977 11.5c25.333 63.333 57 117.333 95 162s80.167 82.834 126.5 114.501s96.333 58 150 79s109.167 39.333 166.5 55s116 30 176 43s119.333 27.5 178 43.5l115 141.5
c38.667 45.667 75 86.167 109 121.5c46 47.333 89.833 84.666 131.5 111.999s79.834 46.5 114.501 57.5s64.667 14.833 90 11.5s44.5 -11.833 57.5 -25.5s19 -31.834 18 -54.501s-10.833 -47.667 -29.5 -75c-14.667 -21.333 -35.5 -44.166 -62.5 -68.499
s-61.5 -49.166 -103.5 -74.499s-91.5 -50.666 -148.5 -75.999s-122.833 -50 -197.5 -74l-71 -96l-60 -85l28 20c13.333 9.33301 28.666 19.166 45.999 29.499s35.333 19.833 54 28.5s36.334 14.834 53.001 18.501s30.834 3.5 42.501 -0.5s18.834 -14 21.501 -30
c2 -12.667 -0.666992 -28.167 -8 -46.5s-16.666 -37.833 -27.999 -58.5s-23.5 -41.334 -36.5 -62.001s-24.167 -39.834 -33.5 -57.501s-15.5 -32.5 -18.5 -44.5s-0.333008 -19.5 8 -22.5s23.666 -0.5 45.999 7.5s54.5 23.667 96.5 47c26 14.667 53 31 81 49s55.5 37 82.5 57
s53 40.5 78 61.5s48.167 42.167 69.5 63.5zM1404 781.998c-28 -18 -56 -39.833 -84 -65.5s-55.5 -52.834 -82.5 -81.501s-53 -58.167 -78 -88.5l-69.5 -86.5c66 22.667 124.833 45.5 176.5 68.5s96.5 46 134.5 69s69.167 45.667 93.5 68s42.5 43.833 54.5 64.5
c13.333 23.333 21 42 23 56s0 24.5 -6 31.5s-15.167 10.833 -27.5 11.5s-26 -1 -41 -5s-30.833 -9.66699 -47.5 -17s-32 -15.666 -46 -24.999z" />
    <glyph glyph-name="i.001" unicode="&#xe008;" horiz-adv-x="1834" 
d="M1834 300c2.66699 3.33301 5.83008 5 9.49707 5s6.83398 -1.66699 9.50098 -5c3.33301 -2.66699 5 -5.83398 5 -9.50098s-1.33301 -6.83398 -4 -9.50098l-26 -25l-47 -43l-62.5 -53.5c-23 -19 -47 -37.667 -72 -56s-50.167 -35.166 -75.5 -50.499
s-49.5 -27.833 -72.5 -37.5s-44.5 -15.5 -64.5 -17.5s-36.667 1.66699 -50 11c-12.667 8.66699 -21 19.334 -25 32.001s-5 26.667 -3 42s6.5 31.833 13.5 49.5s15.5 35.5 25.5 53.5c-50.667 -41.333 -105 -75.5 -163 -102.5s-117.833 -49.833 -179.5 -68.5
s-124.334 -34.667 -188.001 -48s-126.167 -27.5 -187.5 -42.5s-120.666 -32.167 -177.999 -51.5s-110.833 -44.5 -160.5 -75.5s-94.5 -69 -134.5 -114s-73 -100.5 -99 -166.5c-2 -4 -4.66699 -6.66699 -8 -8s-6.66602 -1.66602 -9.99902 -0.999023s-5.83301 2.5 -7.5 5.5
s-1.83398 6.83301 -0.500977 11.5c29.333 72.667 66.666 133.334 111.999 182.001s96 89.167 152 121.5s116.333 58.666 181 78.999s130.834 38.666 198.501 54.999l205 48.5c69 16 135.833 36 200.5 60s126 54.167 184 90.5s110.333 82.5 157 138.5l38 52
c2.66699 4 6.33398 6 11.001 6h62c5.33301 0 9.33301 -2.5 12 -7.5s2.33398 -9.83301 -0.999023 -14.5c-48 -63.333 -84.5 -115.333 -109.5 -156s-40.833 -72.334 -47.5 -95.001s-5.33398 -37.167 3.99902 -43.5s24 -6.33301 44 0s44.167 17.833 72.5 34.5
s58.5 36.834 90.5 60.501s64.333 49.5 97 77.5s63.334 56.667 92.001 86zM1590 489c14 0 25.999 -5 35.999 -15c12 -12 17.167 -24.5 15.5 -37.5s-7 -24 -16 -33s-20.167 -14.333 -33.5 -16s-25.666 3.5 -36.999 15.5c-8 8 -12.833 16.833 -14.5 26.5s-0.666992 19 3 28
s9.5 16.5 17.5 22.5s17.667 9 29 9z" />
    <glyph glyph-name="j.001" unicode="&#xe009;" horiz-adv-x="1903" 
d="M1903 300c2.66699 3.33301 5.83398 5.00195 9.50098 5.00195s6.83398 -1.66699 9.50098 -5c3.33301 -2.66699 5 -5.83398 5 -9.50098s-1.33301 -6.83398 -4 -9.50098c-34 -36 -72 -66.833 -114 -92.5s-86.333 -48 -133 -67s-94.667 -35.667 -144 -50
s-98.333 -27.5 -147 -39.5c-54 -76 -107.667 -140 -161 -192c-62.667 -62 -120.167 -106.167 -172.5 -132.5s-96.5 -39.833 -132.5 -40.5c-14.667 -2 -29 -0.166992 -43 5.5s-25 14.5 -33 26.5s-11.5 27 -10.5 45s9.5 38.667 25.5 62c12.667 19.333 30.667 39.833 54 61.5
s53 43.5 89 65.5c38.667 24 83.667 44.167 135 60.5s106.333 31.833 165 46.5l50.5 78.5c17 27.667 34.167 57.167 51.5 88.5c-50 -45.333 -104.167 -82.5 -162.5 -111.5s-118.833 -53.333 -181.5 -73s-126.5 -36.5 -191.5 -50.5s-128.833 -28.5 -191.5 -43.5
s-123.5 -32.167 -182.5 -51.5s-114 -44.5 -165 -75.5s-97 -69.333 -138 -115s-74.833 -102.167 -101.5 -169.5c-2 -4 -4.66699 -6.66699 -8 -8s-6.66602 -1.66602 -9.99902 -0.999023s-5.83301 2.5 -7.5 5.5s-1.83398 6.83301 -0.500977 11.5
c29.333 72.667 66.666 133.334 111.999 182.001s96 89.167 152 121.5s116.333 58.666 181 78.999s130.834 38.666 198.501 54.999l205 48.5c69 16 135.833 36 200.5 60s126 54.167 184 90.5s110.333 82.5 157 138.5l24 47c2 4.66699 6.33301 7 13 7h61
c5.33301 0 9.33301 -2 12 -6s2.66699 -8.66699 0 -14c-25.333 -52 -51 -100 -77 -144s-51.667 -85 -77 -123c45.333 11.333 90.666 23.833 135.999 37.5s89.333 29.5 132 47.5s83.167 39 121.5 63s73.166 52.333 104.499 85zM1063 -230.998
c38.667 30.667 76.167 66.667 112.5 108s70.166 84 101.499 128c-51.333 -13.333 -99.166 -27.5 -143.499 -42.5s-83.5 -32.833 -117.5 -53.5c-10.667 -6 -21.167 -12.667 -31.5 -20s-20.5 -15 -30.5 -23c-46 -36.667 -74.667 -69.167 -86 -97.5
s-10.166 -48.5 3.50098 -60.5s37.667 -13.833 72 -5.5s74.166 30.5 119.499 66.5zM1548 489.002c12.667 0 24.666 -5 35.999 -15c12 -12 17.167 -24.5 15.5 -37.5s-7 -24 -16 -33s-20.167 -14.333 -33.5 -16s-26 3.5 -38 15.5c-8 8 -12.667 16.833 -14 26.5
s-0.166016 19 3.50098 28s9.5 16.5 17.5 22.5s17.667 9 29 9z" />
    <glyph glyph-name="k.001" unicode="&#xe00a;" horiz-adv-x="1498" 
d="M1498 300c2.66699 3.33301 5.83789 5.00098 9.50488 5.00098s6.83398 -1.66699 9.50098 -5c2.66699 -2.66699 4 -5.83398 4 -9.50098s-1.66699 -6.83398 -5 -9.50098c-86.667 -82 -165.334 -145.833 -236.001 -191.5s-133 -71.167 -187 -76.5
c-46 -5.33301 -85.667 4.83398 -119 30.501s-59.666 68.167 -78.999 127.5c-29.333 -42.667 -50.666 -75.667 -63.999 -99c-3.33301 -4 -7.33301 -6 -12 -6h-62c-5.33301 0 -9.33301 2.16699 -12 6.5s-2.33398 9.16602 0.999023 14.499c16 26.667 36.5 58.334 61.5 95.001
l82.5 118l33 44.5l34 45.5c-57.333 -14 -114.5 -27 -171.5 -39s-112.833 -25.5 -167.5 -40.5s-107.334 -32.5 -158.001 -52.5s-97.834 -45 -141.501 -75s-83 -66.333 -118 -109s-64.5 -94 -88.5 -154c-2 -4 -4.66699 -6.66699 -8 -8s-6.66602 -1.66602 -9.99902 -0.999023
s-5.83301 2.5 -7.5 5.5s-1.83398 6.83301 -0.500977 11.5c25.333 63.333 57 117.5 95 162.5s80.5 83.333 127.5 115s97.5 58 151.5 79s110 39.333 168 55s117 30 177 43s119.667 27.5 179 43.5l113.5 143.5c37.667 45.667 72.5 84.834 104.5 117.501
c45.333 46.667 88.666 83.667 129.999 111s79.166 46.666 113.499 57.999s64.333 15.666 90 12.999s45.334 -10.5 59.001 -23.5s20.5 -30.333 20.5 -52s-8.33301 -45.834 -25 -72.501c-14 -22 -34.333 -45.333 -61 -70s-60.834 -50 -102.501 -76s-91.5 -52.167 -149.5 -78.5
s-125 -51.833 -201 -76.5l-89 -119c14.667 7.33301 31.5 15 50.5 23s38.333 15.167 58 21.5s39 11.333 58 15s35.833 4.5 50.5 2.5c4.66699 -0.666992 8 -2.5 10 -5.5s2.66699 -6.33301 2 -10s-2.16699 -6.66699 -4.5 -9s-5.83301 -3.16602 -10.5 -2.49902
c-15.333 2 -33.833 0.5 -55.5 -4.5s-43.834 -11.667 -66.501 -20s-44.334 -17.5 -65.001 -27.5s-37.667 -19 -51 -27c10.667 -59.333 24.167 -106 40.5 -140s37 -56 62 -66s55.667 -8.5 92 4.5s80.5 37.167 132.5 72.5c32 22 65.167 47.333 99.5 76s70.5 60.667 108.5 96z
M1106 460.001c68 22.667 127.83 46.166 179.497 70.499s96.334 48.5 134.001 72.5s68.5 47.167 92.5 69.5s42.333 43.5 55 63.5c20 32.667 25.333 59 16 79c-8 16 -21.333 23.167 -40 21.5s-38.5 -7.5 -59.5 -17.5s-41 -21.5 -60 -34.5s-32.833 -22.833 -41.5 -29.5
c-25.333 -19.333 -50.166 -40.666 -74.499 -63.999s-48.166 -47.833 -71.499 -73.5s-45.833 -52 -67.5 -79z" />
    <glyph glyph-name="l.001" unicode="&#xe00b;" horiz-adv-x="1422" 
d="M1422 300c6.66699 6.66699 13.3301 6.65918 19.9971 -0.0078125c2.66699 -2.66699 4.16699 -5.83398 4.5 -9.50098s-1.16699 -6.83398 -4.5 -9.50098c-25.333 -26.667 -58.5 -56.667 -99.5 -90s-85.333 -65.5 -133 -96.5s-96.167 -58.333 -145.5 -82
s-95 -39.5 -137 -47.5c-21.333 -3.33301 -41.666 -2.5 -60.999 2.5s-33.666 15.833 -42.999 32.5c-10.667 19.333 -14.834 42 -12.501 68s8.16602 52.833 17.499 80.5s20.833 54.834 34.5 81.501s26.5 50 38.5 70l18 29l20 30.5l20 29.5
c-56.667 -14 -113.334 -27 -170.001 -39s-112 -25.5 -166 -40.5s-106 -32.5 -156 -52.5s-96.667 -45 -140 -75s-82.333 -66.167 -117 -108.5s-63.667 -93.166 -87 -152.499c-2 -4 -4.66699 -6.66699 -8 -8s-6.66602 -1.66602 -9.99902 -0.999023s-5.83301 2.5 -7.5 5.5
s-1.83398 6.83301 -0.500977 11.5c25.333 63.333 56.833 117.333 94.5 162s79.5 82.667 125.5 114s95.667 57.5 149 78.5s108.5 39.333 165.5 55s115.333 30 175 43s118.834 27.167 177.501 42.5c55.333 75.333 110.666 139.5 165.999 192.5s108.333 96.333 159 130
s97.834 58.334 141.501 74.001s81.5 23.834 113.5 24.501s57 -5.33301 75 -18s26.333 -30.334 25 -53.001c-1.33301 -18 -9.66602 -38.667 -24.999 -62s-39.666 -48.333 -72.999 -75c-32 -26 -66.167 -49.167 -102.5 -69.5s-72.5 -38.166 -108.5 -53.499
s-70.333 -28.666 -103 -39.999s-61.667 -20.666 -87 -27.999s-45.666 -12.666 -60.999 -15.999s-23.333 -5.33301 -24 -6l-38 -53.5l-38 -56.5c-29.333 -45.333 -53.666 -87.166 -72.999 -125.499s-32.333 -71.5 -39 -99.5s-6.5 -49.833 0.5 -65.5
s22.167 -23.334 45.5 -23.001s55.333 9.33301 96 27s91 45.834 151 84.501c48 31.333 93.167 63.833 135.5 97.5s76.166 63.834 101.499 90.501zM1107 458.992c38 10 76.833 21.333 116.5 34s78.667 27.167 117 43.5s75.333 34.5 111 54.5s68.167 42.667 97.5 68
c44 37.333 70.5 67.666 79.5 90.999s6 39.333 -9 48s-39.5 9.33398 -73.5 2.00098s-72 -23.333 -114 -48c-30 -17.333 -59.667 -37 -89 -59s-57.833 -45.833 -85.5 -71.5s-54.167 -52.167 -79.5 -79.5s-49 -55 -71 -83z" />
    <glyph glyph-name="m.001" unicode="&#xe00c;" horiz-adv-x="2351" 
d="M2351 300c2.66699 3.33301 5.83203 5.00391 9.49805 5.00391c3.66699 0 7.16699 -1.66699 10.5 -5c2.66699 -2.66699 4 -5.83398 4 -9.50098s-1.33301 -6.83398 -4 -9.50098c-30.667 -31.333 -64.167 -62.833 -100.5 -94.5s-73.166 -60.667 -110.499 -87
s-74 -48.666 -110 -66.999s-69.333 -29.833 -100 -34.5c-18.667 -2.66699 -35.167 -1.66699 -49.5 3s-25.166 13.667 -32.499 27c-5.33301 10.667 -7.16602 22.834 -5.49902 36.501s5 28 10 43s11.167 30.333 18.5 46l21 45.5c22.667 52 27.834 81.333 15.501 88
s-38.833 -6 -79.5 -38c-20.667 -16.667 -40.667 -35.167 -60 -55.5s-36.666 -41.166 -51.999 -62.499c-3.33301 -4 -7.33301 -6 -12 -6h-61c-5.33301 0 -9.33301 2.5 -12 7.5s-2.33398 9.83301 0.999023 14.5l28.5 44.5c11 17.667 21 36.167 30 55.5s16.333 38.5 22 57.5
s7.5 35.833 5.5 50.5s-8.83301 21.834 -20.5 21.501s-26.334 -5.83301 -44.001 -16.5s-37.5 -25.334 -59.5 -44.001s-44.5 -39.167 -67.5 -61.5s-45.667 -45.5 -68 -69.5l-61 -67c-18.333 -20.667 -33.833 -38.834 -46.5 -54.501s-20.667 -26.167 -24 -31.5
c-0.666992 -1.33301 -6.5 -3 -17.5 -5s-22.333 -2.83301 -34 -2.5s-21.5 2 -29.5 5s-9.33301 8.83301 -4 17.5l142 253l6 11c-50 -44.667 -104.167 -81.167 -162.5 -109.5s-118.666 -52.333 -180.999 -72s-125.833 -36.334 -190.5 -50.001s-128.167 -28 -190.5 -43
s-122.833 -32.333 -181.5 -52s-113.334 -44.834 -164.001 -75.501s-96.334 -68.834 -137.001 -114.501s-74.334 -101.834 -101.001 -168.501c-2 -4 -4.66699 -6.66699 -8 -8s-6.66602 -1.66602 -9.99902 -0.999023s-5.83301 2.5 -7.5 5.5s-1.83398 6.83301 -0.500977 11.5
c29.333 72.667 66.666 133.334 111.999 182.001s96 89.167 152 121.5s116.333 58.666 181 78.999s130.834 38.666 198.501 54.999l205 48.5c69 16 135.833 36 200.5 60s126 54.167 184 90.5s110.333 82.5 157 138.5c3.33301 4.66699 7.33301 7 12 7h62
c5.33301 0 9.33301 -2.33301 12 -7s2.66699 -9.33398 0 -14.001l-111 -200l44 47.5c16.667 17.667 34.5 35.334 53.5 53.001s38.833 34.667 59.5 51s41.5 30.166 62.5 41.499s41.667 19.5 62 24.5s39.833 5.16699 58.5 0.5c13.333 -3.33301 23.5 -9.5 30.5 -18.5
s11.667 -19.5 14 -31.5s2.66602 -24.5 0.999023 -37.5s-4.5 -25.5 -8.5 -37.5l-17 -44c29.333 27.333 57.333 48.666 84 63.999c8.66699 4.66699 18.334 9 29.001 13s21.5 6.83301 32.5 8.5s21.5 1.33398 31.5 -0.999023s19 -7.83301 27 -16.5
c9.33301 -10 13.5 -22.833 12.5 -38.5s-4.5 -32.667 -10.5 -51s-13.667 -37.166 -23 -56.499l-25.5 -54.5c-7.66699 -17 -13.167 -32 -16.5 -45s-2.66602 -22.333 2.00098 -28s15 -7.16699 31 -4.5s39.667 11.667 71 27c42 20 88.667 50.167 140 90.5
s106.333 89.833 165 148.5z" />
    <glyph glyph-name="n.001" unicode="&#xe00d;" horiz-adv-x="2070" 
d="M2070 300c7.33301 7.33301 14 7.33691 20 0.00390625s5.66699 -13.666 -1 -18.999l-62 -56.5c-26.667 -23.667 -56.334 -48.5 -89.001 -74.5s-66.5 -50.833 -101.5 -74.5s-68.167 -42.5 -99.5 -56.5s-59.333 -20.833 -84 -20.5s-42.667 11.5 -54 33.5
c-9.33301 18.667 -10.166 40.5 -2.49902 65.5s17.834 50.5 30.501 76.5l35.5 76c11 24.667 15.167 46.667 12.5 66c-2.66699 18 -12.5 24.667 -29.5 20s-37.667 -16 -62 -34s-50.5 -40.333 -78.5 -67s-54.5 -53.167 -79.5 -79.5s-46.5 -50 -64.5 -71s-29 -34.833 -33 -41.5
l-7 -12c-2 -3.33301 -5.66699 -5 -11 -5h-61c-5.33301 -0.666992 -9.5 1.33301 -12.5 6s-2.83301 9.66699 0.5 15l143 253l7 13c-50 -44.667 -104.167 -81.334 -162.5 -110.001s-118.666 -52.834 -180.999 -72.501s-125.833 -36.5 -190.5 -50.5
s-128.334 -28.5 -191.001 -43.5s-123.334 -32.167 -182.001 -51.5s-113.5 -44.5 -164.5 -75.5s-96.833 -69.167 -137.5 -114.5s-74.334 -101.666 -101.001 -168.999c-2 -4 -4.66699 -6.66699 -8 -8s-6.66602 -1.66602 -9.99902 -0.999023s-5.83301 2.5 -7.5 5.5
s-1.83398 6.83301 -0.500977 11.5c29.333 72.667 66.666 133.334 111.999 182.001s96 89.167 152 121.5s116.333 58.666 181 78.999s130.834 38.666 198.501 54.999l205 48.5c69 16 135.833 36 200.5 60s126 54.167 184 90.5s110.333 82.5 157 138.5
c2 4.66699 5.66699 7 11 7h62c5.33301 0 9.33301 -2.33301 12 -7s2.66699 -9.33398 0 -14.001l-103 -186c16.667 18 35.167 36.667 55.5 56s41.5 37.166 63.5 53.499s44.5 30.5 67.5 42.5s45.5 19.667 67.5 23c19.333 2.66699 35.833 0.5 49.5 -6.5s23.667 -17.333 30 -31
s9.33301 -29.5 9 -47.5s-4.83301 -36.333 -13.5 -55l-34.5 -71.5c-11.667 -23.667 -21.5 -45.167 -29.5 -64.5s-12.833 -35.5 -14.5 -48.5s2.33301 -20.833 12 -23.5s26 1.16602 49 11.499s55.167 29.166 96.5 56.499c38.667 25.333 78.334 55.333 119.001 90z" />
    <glyph glyph-name="o.001" unicode="&#xe00e;" horiz-adv-x="1958" 
d="M1958 300c3.33301 2 6.83398 2.83105 10.501 2.49805s6.5 -1.83301 8.5 -4.5c6 -7.33301 5.33301 -14 -2 -20c-35.333 -28.667 -69.166 -52.334 -101.499 -71.001s-63.166 -33.334 -92.499 -44.001s-57.166 -17.667 -83.499 -21s-50.833 -4 -73.5 -2
c-26 -40 -51.5 -71.5 -76.5 -94.5s-48.333 -38.833 -70 -47.5s-40.834 -11 -57.501 -7s-29.5 13 -38.5 27s-13.833 32 -14.5 54s4.66602 46.667 15.999 74c7.33301 18.667 17.166 36.834 29.499 54.501s26.166 33.167 41.499 46.5c-8 16.667 -12.667 34.334 -14 53.001v12
c-49.333 -49.333 -103.333 -89.833 -162 -121.5s-119.667 -58 -183 -79s-128.166 -38.667 -194.499 -53l-196 -44.5c-64.333 -15.333 -126.833 -32.666 -187.5 -51.999s-117.334 -44.333 -170.001 -75s-100 -69.167 -142 -115.5s-76.667 -103.833 -104 -172.5
c-2 -4 -4.66699 -6.66699 -8 -8s-6.66602 -1.66602 -9.99902 -0.999023s-5.83301 2.5 -7.5 5.5s-1.83398 6.83301 -0.500977 11.5c29.333 72.667 66.666 133.334 111.999 182.001s96 89.167 152 121.5s116.167 58.666 180.5 78.999s130.5 38.5 198.5 54.5l205 48.5
c68.667 16.333 135.334 36.333 200.001 60s126 53.5 184 89.5s110.333 82 157 138c10 12.667 22 23.667 36 33s29 15.833 45 19.5s32.167 4.33398 48.5 2.00098s31.833 -8.5 46.5 -18.5c14 -9.33301 24.833 -20.833 32.5 -34.5s12.5 -28.334 14.5 -44.001
s1.66699 -32 -1 -49s-6.66699 -33.5 -12 -49.5c-8 -24 -19.333 -48.333 -34 -73c42 -2 89.5 6.83301 142.5 26.5s111.5 55.5 175.5 107.5zM1515 212.998c13.333 -11.333 28 -20.668 44 -28.001s33 -12.666 51 -15.999c30 50 46.5 92 49.5 126s-2 60.333 -15 79
s-31 29.667 -54 33s-45.167 -0.333984 -66.5 -11.001c-28 -14 -45.667 -33.167 -53 -57.5s-5.33301 -48.833 6 -73.5c15.333 11.333 31.5 19.5 48.5 24.5s34.167 6.5 51.5 4.5c7.33301 -0.666992 11.5 -4.5 12.5 -11.5s-1.83301 -11.833 -8.5 -14.5
c-22 -9.33301 -44 -27.666 -66 -54.999zM1498 190.996c-28 -39.333 -45.002 -73.002 -51.002 -101.002s-3.5 -46 7.5 -54s28.833 -4.16699 53.5 11.5s53.334 47.834 86.001 96.501c-18 4.66699 -35.167 10.834 -51.5 18.501s-31.166 17.167 -44.499 28.5z" />
    <glyph glyph-name="p.001" unicode="&#xe00f;" horiz-adv-x="2101" 
d="M2101 300c2.66699 2.66699 5.82617 4 9.49219 4c3.66699 0 6.83398 -1.33301 9.50098 -4c6.66699 -5.33301 7 -11.666 1 -18.999c-38 -40.667 -75.667 -73 -113 -97s-73.666 -42.5 -108.999 -55.5s-69.833 -21.667 -103.5 -26s-66.5 -6.83301 -98.5 -7.5
c-1.33301 -0.666992 -6.5 -5.16699 -15.5 -13.5s-21.167 -18 -36.5 -29s-33.666 -22 -54.999 -33s-45 -19.5 -71 -25.5c-39.333 -9.33301 -70.166 -10.5 -92.499 -3.5s-35 17.5 -38 31.5s4.66699 29.5 23 46.5s49.166 30.5 92.499 40.5
c18.667 4.66699 37.834 7.66699 57.501 9s40.167 2.33301 61.5 3c20.667 22 37.334 43.667 50.001 65s21.167 40.5 25.5 57.5s4.16602 30.667 -0.500977 41s-14 15.333 -28 15s-32.667 -7.16602 -56 -20.499s-51.666 -35.333 -84.999 -66
c-32 -29.333 -65.167 -63.333 -99.5 -102s-68 -78.5 -101 -119.5l-95.5 -122l-83 -109.5l-40 -53c-12 -16 -22.667 -29.667 -32 -41c-2.66699 -3.33301 -6 -5 -10 -5h-62c-5.33301 0 -9.5 2.33301 -12.5 7s-2.83301 9.33398 0.5 14.001l84 129l93 144l96.5 148.5l95.5 142.5
c-50.667 -39.333 -104.834 -71.833 -162.501 -97.5s-117.167 -47.334 -178.5 -65.001s-123.333 -33.167 -186 -46.5s-124.334 -27.5 -185.001 -42.5s-119.167 -32.333 -175.5 -52s-109 -44.834 -158 -75.501s-93 -68.334 -132 -113.001s-71.5 -99.667 -97.5 -165
c-2 -4 -4.66699 -6.66699 -8 -8s-6.66602 -1.66602 -9.99902 -0.999023s-5.83301 2.5 -7.5 5.5s-1.83398 6.83301 -0.500977 11.5c29.333 72.667 66.666 133.334 111.999 182.001s96 89.167 152 121.5s116.167 58.666 180.5 78.999s130.333 38.666 198 54.999l204 48.5
c68.333 16 134.833 35.833 199.5 59.5s126 53.5 184 89.5s110.333 81.667 157 137l1 1l2 2c2 3.33301 5.66699 5 11 5h61c5.33301 0 9.33301 -2.5 12 -7.5s2.33398 -9.83301 -0.999023 -14.5l-59.5 -83l-67 -97.5l-70.5 -106l-70 -107.5l106 129
c36.667 42.667 72.834 81.334 108.501 116.001s70 63.5 103 86.5s62.833 36.5 89.5 40.5c32.667 4.66699 57.834 1.66699 75.501 -9s28.167 -26.167 31.5 -46.5s-0.166992 -44 -10.5 -71s-26.833 -54.5 -49.5 -82.5c28.667 1.33301 58.334 4.66602 89.001 9.99902
s61.834 14.333 93.501 27s63.834 30 96.501 52s66 51 100 87zM1500.99 30c16 7.33301 31.834 16.332 47.501 26.999s30.834 22.334 45.501 35.001c-16.667 -0.666992 -35.5 -2.5 -56.5 -5.5s-41.167 -7.5 -60.5 -13.5c-24 -8 -40.667 -16.833 -50 -26.5
s-12.333 -17.5 -9 -23.5s12.166 -9 26.499 -9s33.166 5.33301 56.499 16z" />
    <glyph glyph-name="q.001" unicode="&#xe010;" horiz-adv-x="2058" 
d="M2058 300c7.33301 4.66699 14.0059 4.00488 20.0059 -1.99512c2 -3.33301 3 -6.83301 3 -10.5s-1.66699 -6.83398 -5 -9.50098l-122 -102c-43.333 -35.333 -88 -67.5 -134 -96.5s-93 -52.167 -141 -69.5s-96 -24 -144 -20l-25 -35
c14 -53.333 21.833 -103.166 23.5 -149.499s-1 -88.833 -8 -127.5s-17.333 -73.334 -31 -104.001s-28.834 -57 -45.501 -79c-19.333 -24.667 -40.166 -43.834 -62.499 -57.501s-43.5 -21.334 -63.5 -23.001s-37.833 3.16602 -53.5 14.499s-26.334 29.333 -32.001 54
s-5.33398 56.5 0.999023 95.5s21.333 85.667 45 140s57.167 116.333 100.5 186s99.333 147.5 168 233.5c-20.667 -8 -38.667 -11 -54 -9s-27.666 7.16699 -36.999 15.5s-15.833 19.333 -19.5 33s-4.5 28.5 -2.5 44.5c-49.333 -48 -103.333 -87.333 -162 -118
s-119.667 -56.334 -183 -77.001s-127.833 -38.167 -193.5 -52.5l-194 -44c-63.667 -15 -125.667 -32.167 -186 -51.5s-116.333 -44.5 -168 -75.5s-98.334 -69.5 -140.001 -115.5s-76.167 -103 -103.5 -171c-2 -4 -4.66699 -6.66699 -8 -8
s-6.66602 -1.66602 -9.99902 -0.999023s-5.83301 2.5 -7.5 5.5s-1.83398 6.83301 -0.500977 11.5c29.333 72.667 66.666 133.334 111.999 182.001s96 89.167 152 121.5s116.333 58.666 181 78.999s130.834 38.666 198.501 54.999l205 48.5c69 16 135.833 36 200.5 60
s126 54.167 184 90.5s110.333 82.5 157 138.5c5.33301 6.66699 11 13.334 17 20.001s12.667 12.667 20 18c16 13.333 33.167 23.5 51.5 30.5s36.166 10.5 53.499 10.5c21.333 0 39.166 -5.83301 53.499 -17.5s24.166 -28.5 29.499 -50.5c7.33301 9.33301 15 18.5 23 27.5
l25 27.5c2.66699 2.66699 6 4 10 4h62c6 0 10.167 -2.66699 12.5 -8s1.5 -10.333 -2.5 -15c-56.667 -62 -107.334 -120.333 -152.001 -175s-85 -106.334 -121 -155.001c44 -1.33301 88.167 7 132.5 25s88 41 131 69s84.667 58.833 125 92.5zM1489.01 -75.9951
l-58.9971 -93.4971c-20 -33 -38.167 -66.333 -54.5 -100s-30.333 -66.834 -42 -99.501s-18.834 -63.334 -21.501 -92.001c-3.33301 -31.333 -2 -54 4 -68s14.667 -21.333 26 -22s24.5 4.83301 39.5 16.5s30.167 27.167 45.5 46.5c15.333 20 29.333 43.667 42 71
s22.167 58.166 28.5 92.499s9.16602 72.333 8.49902 114s-6.33398 86.5 -17.001 134.5zM1673.01 283.008c-0.666992 25.333 -5.33203 41.8359 -13.999 49.5029s-19.334 9.5 -32.001 5.5s-26.167 -12.167 -40.5 -24.5s-27.333 -26.333 -39 -42s-21 -31.167 -28 -46.5
s-9.5 -27.833 -7.5 -37.5s9.33301 -14.834 22 -15.501s33 5.66602 61 18.999l38 46c12.667 15.333 26 30.666 40 45.999z" />
    <glyph glyph-name="r.001" unicode="&#xe011;" horiz-adv-x="1877" 
d="M1391 280c-1.33301 -1.33301 -2.33008 -2.00293 -2.99707 -2.00293c-50.667 -41.333 -104.834 -75.333 -162.501 -102s-117.334 -49.167 -179.001 -67.5s-124 -34.166 -187 -47.499s-125 -27.333 -186 -42s-120.167 -31.834 -177.5 -51.501
s-110.666 -44.834 -159.999 -75.501s-93.833 -68.5 -133.5 -113.5s-72.5 -100.5 -98.5 -166.5c-2 -4 -4.66699 -6.66699 -8 -8s-6.66602 -1.66602 -9.99902 -0.999023s-5.83301 2.5 -7.5 5.5s-1.83398 6.83301 -0.500977 11.5c27.333 67.333 61.166 124.166 101.499 170.499
s85.666 85.5 135.999 117.5s104.5 58.333 162.5 79s117.833 38.834 179.5 54.501s124.167 30.5 187.5 44.5s125.833 30.167 187.5 48.5s121.167 40.5 178.5 66.5s111 59 161 99l86 74c-4 29.333 -1.16699 53.5 8.5 72.5s21.334 32.667 35.001 41s26.667 10.833 39 7.5
s19.166 -12.666 20.499 -27.999c0.666992 -8 -0.666016 -15.833 -3.99902 -23.5s-7.66602 -15.167 -12.999 -22.5s-11.166 -14.166 -17.499 -20.499s-12.5 -12.166 -18.5 -17.499c9.33301 -22 21.666 -40.333 36.999 -55s33.666 -28.667 54.999 -42
c-15.333 -18 -31.833 -39.5 -49.5 -64.5s-33.5 -50 -47.5 -75s-24.167 -47.667 -30.5 -68s-6 -34.666 1 -42.999s22.667 -8.5 47 -0.5s60.166 27.667 107.499 59c26.667 18 53.334 37.333 80.001 58s51.334 40.834 74.001 60.501l59 53l36 34.5c6 6 12.667 6 20 0
c5.33301 -6.66699 5.33301 -13.334 0 -20.001c-10.667 -10.667 -26.334 -25.334 -47.001 -44.001l-70.5 -61c-26.333 -22 -54.333 -44.167 -84 -66.5s-58.834 -42.166 -87.501 -59.499c-12 -7.33301 -26 -15 -42 -23s-32.167 -14.667 -48.5 -20s-32.333 -8.33301 -48 -9
s-29.5 3 -41.5 11c-14 9.33301 -22.833 21.166 -26.5 35.499s-4 30 -1 47s8.5 34.667 16.5 53s17 36 27 53s20 33 30 48s18.667 27.5 26 37.5c-17.333 20 -29 40.333 -35 61zM1500 412.997c17.333 16.667 27.667 29.6709 31 39.0039s3.33301 15 0 17
c-2 1.33301 -5 1.16602 -9 -0.500977s-7.83301 -4.83398 -11.5 -9.50098s-6.66699 -10.834 -9 -18.501s-2.83301 -16.834 -1.5 -27.501z" />
    <glyph glyph-name="s.001" unicode="&#xe012;" horiz-adv-x="1845" 
d="M1845 300c6.66699 6 13.3379 5.66699 20.0049 -1c2.66699 -2.66699 4 -5.83398 4 -9.50098s-1.66699 -6.83398 -5 -9.50098c-30.667 -30 -61 -53.5 -91 -70.5s-60 -30.667 -90 -41s-59.833 -18.5 -89.5 -24.5s-59.5 -12.667 -89.5 -20c3.33301 -20 5.5 -39.333 6.5 -58
s0 -36.334 -3 -53.001s-8.66699 -32.167 -17 -46.5s-20.5 -26.833 -36.5 -37.5c-26 -17.333 -50.167 -24 -72.5 -20s-39.5 14.5 -51.5 31.5s-16.833 38.167 -14.5 63.5s15.5 50.666 39.5 75.999c12 12.667 25 23.167 39 31.5s28.667 15.833 44 22.5
c-2.66699 18 -5.83398 37.667 -9.50098 59s-6.16699 43 -7.5 65c-50 -47.333 -104.167 -86 -162.5 -116s-119 -55.333 -182 -76s-127.333 -38 -193 -52s-130.334 -28.5 -194.001 -43.5s-125.334 -32.333 -185.001 -52s-115.334 -44.834 -167.001 -75.501
s-98.334 -69 -140.001 -115s-75.834 -103 -102.501 -171c-2 -4 -4.66699 -6.66699 -8 -8s-6.66602 -1.66602 -9.99902 -0.999023s-5.83301 2.5 -7.5 5.5s-1.83398 6.83301 -0.500977 11.5c28.667 70.667 64.667 129.834 108 177.501s91.833 87.5 145.5 119.5
s111.334 58.333 173.001 79s125 39 190 55l197.5 46.5c66.667 15 131.667 33.167 195 54.5s124.166 47.833 182.499 79.5s111.5 71.834 159.5 120.501v3c0.666992 16.667 3 32.667 7 48s10.667 29 20 41c9.33301 12.667 19.166 22 29.499 28s19.833 9 28.5 9
s15.667 -2.66699 21 -8s7.66602 -13 6.99902 -23s-5.16699 -22.167 -13.5 -36.5s-22.166 -30.5 -41.499 -48.5c-0.666992 -24.667 1.5 -50.834 6.5 -78.501s10.167 -54.167 15.5 -79.5c28.667 6.66699 57.334 12.834 86.001 18.501s57.5 13.334 86.5 23.001
s57.833 22.834 86.5 39.501s57.334 39 86.001 67zM1442 105c-30 -15.333 -52.501 -30.999 -67.501 -46.999s-24.667 -31.333 -29 -46s-4.5 -27.834 -0.5 -39.501s10.333 -20.5 19 -26.5s18.334 -8.16699 29.001 -6.5s20.167 8.5 28.5 20.5s14.833 29.667 19.5 53s5 54 1 92z
M1483 353.001c11.333 12 18.5 22 21.5 30s3.5 12.333 1.5 13s-5.16699 -2.33301 -9.5 -9s-8.83301 -18 -13.5 -34z" />
    <glyph glyph-name="t.001" unicode="&#xe013;" 
d="M781 711c9.33301 2 15.8398 -0.496094 19.5068 -7.49609s0.833984 -13.167 -8.49902 -18.5c-38 -21.333 -76.333 -38.5 -115 -51.5s-77.834 -22.667 -117.501 -29s-79.5 -10.166 -119.5 -11.499s-80 -0.666016 -120 2.00098c-2 -2 -5 -3 -9 -3l-22.5 -29l-45.5 -59.5
l-59 -80l-64 -91.5l-61.5 -93.5c-19.667 -31 -36.334 -59.667 -50.001 -86s-23.667 -49.333 -30 -69s-7 -33.834 -2 -42.501s16.667 -10.834 35 -6.50098s45.166 17.166 80.499 38.499c28.667 17.333 57.834 37.333 87.501 60l83.5 66.5c26 21.667 48.833 41.667 68.5 60
l42.5 40.5c2.66699 2.66699 5.83398 4 9.50098 4s6.83398 -1.33301 9.50098 -4c6.66699 -6.66699 7 -13.334 1 -20.001c-10.667 -10.667 -26.334 -25.334 -47.001 -44.001l-70.5 -61c-26.333 -22 -54.5 -44.167 -84.5 -66.5s-59.333 -42.166 -88 -59.499
c-11.333 -7.33301 -25.333 -15.333 -42 -24s-33.834 -15.667 -51.501 -21s-34.834 -7.83301 -51.501 -7.5s-30.667 6.16602 -42 17.499c-12 11.333 -17.833 26.833 -17.5 46.5s4.66602 42.334 12.999 68.001s20.166 53.167 35.499 82.5s32.666 59 51.999 89
c20.667 32.667 42.334 64.834 65.001 96.501l64.5 87.5l55 70.5l36.5 44.5l3 4c-60.667 6.66699 -121 15 -181 25s-119.333 18.5 -178 25.5s-116.5 11 -173.5 12s-112.333 -4.33301 -166 -16s-105.667 -31.167 -156 -58.5s-98.166 -65.333 -143.499 -114
c-3.33301 -3.33301 -6.83301 -5 -10.5 -5s-6.83398 1 -9.50098 3s-4.5 4.5 -5.5 7.5s0.166992 6.5 3.5 10.5c48 50.667 98.5 90.167 151.5 118.5s107.667 48.666 164 60.999s114.166 18.166 173.499 17.499s119.666 -4.5 180.999 -11.5s123 -15.5 185 -25.5s124 -18 186 -24
l59.5 71c17 19.333 29.833 33.333 38.5 42c2.66699 2.66699 6 4 10 4h61c6 0 10.333 -2.66699 13 -8s1.66699 -10.333 -3 -15l-34 -38l-53 -62c38 -2 76 -2.16699 114 -0.5s75.5 5.66699 112.5 12s73.667 15.666 110 27.999s72.166 28.5 107.499 48.5z" />
    <glyph glyph-name="u.001" unicode="&#xe014;" horiz-adv-x="2040" 
d="M2040 300c7.33301 4.66699 14.0029 4.00391 20.0029 -1.99609c2 -3.33301 3 -6.83301 3 -10.5s-1.66699 -6.83398 -5 -9.50098l-60.5 -48.5l-86.5 -67.5c-32 -24 -65.5 -47.667 -100.5 -71s-68.667 -43.166 -101 -59.499s-62.333 -27.333 -90 -33
s-49.834 -2.83398 -66.501 8.49902c-16 10.667 -25.167 25.167 -27.5 43.5s-0.333008 38.5 6 60.5s16.166 45 29.499 69s27.333 47 42 69c-6.66699 -6 -15.834 -13.833 -27.501 -23.5s-24.667 -19.667 -39 -30s-29.333 -20.5 -45 -30.5s-31.167 -18.167 -46.5 -24.5
s-29.666 -10.333 -42.999 -12s-25 0.833008 -35 7.5c-10.667 6.66699 -17.667 15.167 -21 25.5s-4 21.666 -2 33.999s6 25.666 12 39.999s13.333 28.5 22 42.5c-50.667 -39.333 -104.834 -71.666 -162.501 -96.999s-117 -46.833 -178 -64.5s-122.833 -33.167 -185.5 -46.5
s-124.167 -27.5 -184.5 -42.5s-118.833 -32.333 -175.5 -52s-109.334 -44.834 -158.001 -75.501s-92.5 -68.334 -131.5 -113.001s-71.5 -99.667 -97.5 -165c-2 -4 -4.66699 -6.66699 -8 -8s-6.66602 -1.66602 -9.99902 -0.999023s-5.83301 2.5 -7.5 5.5
s-1.83398 6.83301 -0.500977 11.5c29.333 72.667 66.666 133.334 111.999 182.001s96 89.167 152 121.5s116.333 58.666 181 78.999s130.834 38.666 198.501 54.999l205 48.5c69 16 135.833 36 200.5 60s126 54.167 184 90.5s110.333 82.5 157 138.5v-1l1 1
c3.33301 3.33301 7 5 11 5h61c5.33301 0 9.33301 -2.5 12 -7.5s2.33398 -9.83301 -0.999023 -14.5l-18 -23c-44.667 -55.333 -76 -97.666 -94 -126.999s-26 -48.666 -24 -57.999s11.667 -10.333 29 -3s39 19.833 65 37.5s54 39.167 84 64.5s58.667 51 86 77
c2 2 5.66699 3.33301 11 4s11.5 1 18.5 1s14.167 -0.166992 21.5 -0.5s13.666 -0.5 18.999 -0.5c6.66699 0.666992 11.167 -1.83301 13.5 -7.5s1.5 -10.834 -2.5 -15.501c-12.667 -14 -26.5 -30.667 -41.5 -50s-29.833 -39.833 -44.5 -61.5s-28.334 -43.334 -41.001 -65.001
s-22.667 -41.5 -30 -59.5s-11.166 -33.5 -11.499 -46.5s4.5 -21.167 14.5 -24.5s25.833 -1.33301 47.5 6s50.834 22 87.501 44c26.667 16 54.167 34 82.5 54l82 60.5l74 58z" />
    <glyph glyph-name="v.001" unicode="&#xe015;" horiz-adv-x="2030" 
d="M2030 300c3.33301 2 6.83105 2.50391 10.498 1.50391s6.16699 -3.16699 7.5 -6.5c4.66699 -8 3 -14.333 -5 -19c-54 -30.667 -103.333 -46.5 -148 -47.5s-87 13.5 -127 43.5l-44 -43.5l-51 -48l-56 -49.5c-19.333 -16.667 -38.666 -32.334 -57.999 -47.001l-47 -33.5
c-18.667 -13 -38.167 -24.333 -58.5 -34s-40.166 -16.167 -59.499 -19.5s-36 -0.333008 -50 9c-15.333 10 -24.5 23.333 -27.5 40s-2 35 3 55s13.167 40.833 24.5 62.5s24 43.167 38 64.5c-50.667 -39.333 -104.834 -71.833 -162.501 -97.5s-117.167 -47.5 -178.5 -65.5
s-123.333 -33.667 -186 -47s-124.334 -27.333 -185.001 -42s-119.334 -32 -176.001 -52s-109.334 -45.333 -158.001 -76s-92.667 -68.334 -132 -113.001s-72 -99.667 -98 -165c-2 -4 -4.66699 -6.66699 -8 -8s-6.66602 -1.66602 -9.99902 -0.999023s-5.83301 2.5 -7.5 5.5
s-1.83398 6.83301 -0.500977 11.5c29.333 72.667 66.666 133.334 111.999 182.001s96 89.167 152 121.5s116.333 58.666 181 78.999s130.834 38.666 198.501 54.999l205 48.5c69 16 135.833 36 200.5 60s126 54.167 184 90.5s110.333 82.5 157 138.5
c2.66699 4 6.33398 6 11.001 6h62c5.33301 0 9.33301 -2.33301 12 -7s2.33398 -9.33398 -0.999023 -14.001c-13.333 -19.333 -28.166 -39.333 -44.499 -60s-33.166 -44 -50.499 -70c-20 -29.333 -36.833 -58.333 -50.5 -87s-20.5 -51.167 -20.5 -67.5
s9.33301 -23.333 28 -21s50.667 19.5 96 51.5c24 16.667 48 35.167 72 55.5l69 60.5l60 56.5l44 43.5c5.33301 5.33301 11.666 5.66602 18.999 0.999023c36.667 -29.333 74.834 -44.5 114.501 -45.5s86.167 13.833 139.5 44.5z" />
    <glyph glyph-name="w.001" unicode="&#xe016;" horiz-adv-x="2324" 
d="M2324 300c3.33301 2 6.83105 2.50293 10.498 1.50293s6.5 -3.16699 8.5 -6.5c3.33301 -8 1.66602 -14.333 -5.00098 -19c-54.667 -30.667 -104.5 -46.5 -149.5 -47.5s-87.167 13.5 -126.5 43.5l-44 -43.5l-51 -48l-56 -49.5
c-19.333 -16.667 -38.666 -32.334 -57.999 -47.001l-47 -33c-18.667 -12.667 -38.167 -24 -58.5 -34s-40.166 -16.667 -59.499 -20s-36 -0.333008 -50 9c-15.333 10 -24.5 22.833 -27.5 38.5s-2.5 32.5 1.5 50.5s10.167 36 18.5 54s16.833 34.333 25.5 49
c-14 -13.333 -28.667 -26.5 -44 -39.5s-30.666 -25.167 -45.999 -36.5c-10 -8 -22.833 -17.5 -38.5 -28.5s-32.167 -20.667 -49.5 -29s-34.5 -14 -51.5 -17s-31.833 -0.166992 -44.5 8.5c-12 8 -19.667 18.333 -23 31s-3.5 26.667 -0.5 42s8.5 31.5 16.5 48.5
s17 34.167 27 51.5c-50.667 -40 -104.834 -72.833 -162.501 -98.5s-117.167 -47.5 -178.5 -65.5s-123.5 -33.667 -186.5 -47s-124.833 -27.333 -185.5 -42s-119.334 -31.834 -176.001 -51.501s-109.5 -44.834 -158.5 -75.501s-93.167 -68.5 -132.5 -113.5
s-72 -100.167 -98 -165.5c-2 -4 -4.66699 -6.66699 -8 -8s-6.66602 -1.66602 -9.99902 -0.999023s-5.83301 2.5 -7.5 5.5s-1.83398 6.83301 -0.500977 11.5c29.333 72.667 66.666 133.334 111.999 182.001s96 89.167 152 121.5s116.333 58.666 181 78.999
s130.834 38.666 198.501 54.999l205 48.5c69 16 135.833 36 200.5 60s126 54.167 184 90.5s110.333 82.5 157 138.5c2 4 5.66699 6 11 6h62c5.33301 0 9.33301 -2.33301 12 -7s2.33398 -9.33398 -0.999023 -14.001l-79 -108c-21.333 -31.333 -37.333 -58.833 -48 -82.5
s-14.5 -40.5 -11.5 -50.5s13.833 -11.833 32.5 -5.5s46.667 23.833 84 52.5c11.333 8.66699 26.166 20.834 44.499 36.501l55 48.5l50.5 47c15.333 14.667 25.333 25.334 30 32.001c2.66699 4 6.33398 6 11.001 6h62c4 0 8 -2.16699 12 -6.5s2.66699 -11.166 -4 -20.499
l-25.5 -34.5l-27.5 -38.5c-26.667 -39.333 -46.5 -74 -59.5 -104s-17.5 -51.333 -13.5 -64s17.833 -15.167 41.5 -7.5s58.834 29.167 105.501 64.5c22 16.667 43.833 34.334 65.5 53.001l61.5 55l53 50.5l39 38.5c4.66699 4.66699 9.5 5.66699 14.5 3
s11.333 -6.83398 19 -12.501s17.5 -11.834 29.5 -18.501s27.667 -11.334 47 -14.001c20.667 -3.33301 44.334 -2 71 4c26.667 6 57.334 18.667 92 38z" />
    <glyph glyph-name="x.001" unicode="&#xe017;" horiz-adv-x="1900" 
d="M1467 341c0.666992 3.33301 2.3291 6.16992 4.99609 8.50293s5.66699 3.5 9 3.5h61c4.66699 0 8.16699 -1.66699 10.5 -5s3.83301 -7.5 4.5 -12.5s1 -11 1 -18v-20.5c1.33301 -17.333 2.5 -35.5 3.5 -54.5s2.83301 -38.167 5.5 -57.5l75 38
c25.333 13.333 50.5 28 75.5 44s49.333 33.667 73 53s45.834 41 66.501 65c2.66699 3.33301 5.83398 5.16602 9.50098 5.49902s7.16699 -1.16699 10.5 -4.5c6 -6 6.33301 -12.333 1 -19c-22 -25.333 -45.5 -48.166 -70.5 -68.499s-50.833 -39 -77.5 -56
s-53.334 -32.5 -80.001 -46.5l-79 -40c6.66699 -35.333 14.834 -61.5 24.501 -78.5s19 -29.333 28 -37s16.667 -12.834 23 -15.501s9.5 -7 9.5 -13c0 -4 -1.5 -7.33301 -4.5 -10s-6.5 -4 -10.5 -4c-20.667 0 -38.834 3 -54.501 9s-29.334 14.5 -41.001 25.5
s-21.667 23.667 -30 38s-15.166 30.166 -20.499 47.499c-22 -12 -42.5 -24 -61.5 -36s-35.167 -24.667 -48.5 -38s-23.833 -27.833 -31.5 -43.5s-11.5 -33.167 -11.5 -52.5c0 -4 -1.5 -7.33301 -4.5 -10s-6.16699 -4 -9.5 -4c-9.33301 0 -14 4.66699 -14 14
c0 23.333 4.33301 44.333 13 63s20.834 35.834 36.501 51.501s34 30.167 55 43.5s43.833 26.333 68.5 39c-5.33301 25.333 -9.33301 51.333 -12 78s-4.66699 52.667 -6 78c-48.667 -54.667 -102.334 -99.334 -161.001 -134.001s-120.167 -63.5 -184.5 -86.5
s-130.333 -42.167 -198 -57.5l-201 -46c-66.333 -15.333 -130.666 -32.5 -192.999 -51.5s-120.666 -44 -174.999 -75s-103.166 -69.833 -146.499 -116.5s-79 -105.334 -107 -176.001c-2 -4 -4.66699 -6.66699 -8 -8s-6.66602 -1.66602 -9.99902 -0.999023
s-5.83301 2.5 -7.5 5.5s-1.83398 6.83301 -0.500977 11.5c29.333 72.667 66.666 133.334 111.999 182.001s96 89.167 152 121.5s116.333 58.666 181 78.999s130.834 38.666 198.501 54.999l205 48.5c69 16 135.833 36 200.5 60s126 54.167 184 90.5s110.333 82.5 157 138.5z
" />
    <glyph glyph-name="y.001" unicode="&#xe018;" horiz-adv-x="2095" 
d="M2095 300c6 6.66699 12.6729 7.00293 20.0059 1.00293c2.66699 -2.66699 4 -5.83398 4 -9.50098s-1.33301 -6.83398 -4 -9.50098c-30.667 -32.667 -63.834 -61 -99.501 -85s-72.667 -45.333 -111 -64s-77.833 -34.834 -118.5 -48.501s-81.334 -26.167 -122.001 -37.5
c-0.666992 -0.666992 -7.83398 -11.167 -21.501 -31.5s-32.334 -45.833 -56.001 -76.5s-51.5 -63.667 -83.5 -99s-66.667 -67.833 -104 -97.5s-76.333 -54 -117 -73s-81.334 -27.5 -122.001 -25.5c-26 1.33301 -46.667 10.333 -62 27s-21.333 38.5 -18 65.5
s18.166 57.5 44.499 91.5s68.5 69 126.5 105c43.333 27.333 92.333 49.5 147 66.5s112.334 33.833 173.001 50.5l3 1c22.667 34.667 45.334 72 68.001 112s45.667 83.333 69 130l-34 -31c-14.667 -13.333 -31.5 -27.666 -50.5 -42.999s-39.167 -30.666 -60.5 -45.999
s-42.166 -28.333 -62.499 -39s-39.5 -17.667 -57.5 -21s-33 -1 -45 7c-11.333 7.33301 -18.833 16.666 -22.5 27.999s-4.16699 24 -1.5 38s7.5 28.667 14.5 44s15.167 31 24.5 47c-50.667 -38.667 -104.834 -70.5 -162.501 -95.5s-117 -46.333 -178 -64
s-122.667 -33.167 -185 -46.5s-123.666 -27.333 -183.999 -42s-118.5 -32 -174.5 -52s-108.333 -45.333 -157 -76s-92.334 -68.334 -131.001 -113.001s-71 -99.334 -97 -164.001c-2 -4 -4.66699 -6.66699 -8 -8s-6.66602 -1.66602 -9.99902 -0.999023s-5.83301 2.5 -7.5 5.5
s-1.83398 6.83301 -0.500977 11.5c29.333 72.667 66.666 133.334 111.999 182.001s96 89.167 152 121.5s116.333 58.666 181 78.999s130.834 38.666 198.501 54.999l205 48.5c69 16 135.833 36 200.5 60s126 54.167 184 90.5s110.333 82.5 157 138.5
c3.33301 3.33301 7 5 11 5h62c5.33301 0 9.5 -2.5 12.5 -7.5s2.5 -9.83301 -1.5 -14.5c-8.66699 -9.33301 -20.834 -24 -36.501 -44l-47.5 -63.5c-16 -22.333 -30.5 -44.166 -43.5 -65.499s-20.5 -38.166 -22.5 -50.499s3 -18.166 15 -17.499s35 11.334 69 32.001
c20 12 40.167 26.167 60.5 42.5s39.666 32.666 57.999 48.999l50.5 46.5l38 36c5.33301 4.66699 13.833 8.16699 25.5 10.5s23 3.16602 34 2.49902s20 -3 27 -7s8.83301 -9.66699 5.5 -17c-23.333 -50 -47 -96.667 -71 -140s-47.667 -84 -71 -122
c37.333 10.667 74.5 22.667 111.5 36s73 28.666 108 45.999s68.5 37 100.5 59s61.667 47.667 89 77zM1551.01 16.0029c-54 -14.667 -105.664 -30.001 -154.997 -46.001s-93 -36 -131 -60c-42 -26.667 -75.167 -52.667 -99.5 -78s-40.833 -48.5 -49.5 -69.5
s-10.167 -38.667 -4.5 -53s17 -23.166 34 -26.499s39.167 -0.5 66.5 8.5s58.666 26.5 93.999 52.5s73.666 61.167 114.999 105.5s84.666 99.833 129.999 166.5z" />
    <glyph glyph-name="z.001" unicode="&#xe019;" horiz-adv-x="2185" 
d="M1489 280c-48 -58 -101.332 -105.499 -159.999 -142.499s-120.5 -67.667 -185.5 -92s-131.833 -44.333 -200.5 -60l-204.5 -46.5c-67.667 -15.333 -133.334 -32.5 -197.001 -51.5s-123.167 -44 -178.5 -75s-105 -70.167 -149 -117.5s-80.333 -106.666 -109 -177.999
c-2 -4 -4.66699 -6.66699 -8 -8s-6.66602 -1.66602 -9.99902 -0.999023s-5.83301 2.5 -7.5 5.5s-1.83398 6.83301 -0.500977 11.5c29.333 72.667 66.666 133.334 111.999 182.001s96 89.167 152 121.5s116.333 58.666 181 78.999s130.834 38.666 198.501 54.999l205 48.5
c69 16 135.833 36 200.5 60s126 54.167 184 90.5s110.333 82.5 157 138.5c10.667 10.667 20.834 20.334 30.501 29.001s19.167 16.667 28.5 24c27.333 22 52 35.667 74 41s40.333 4.83301 55 -1.5s25.5 -17.333 32.5 -33s8.83301 -33.334 5.5 -53.001s-12.333 -40 -27 -61
s-35.667 -39.833 -63 -56.5c20 -14.667 35.167 -31.834 45.5 -51.501s16.166 -41.167 17.499 -64.5c48 10.667 96.333 22.5 145 35.5s95.5 28.333 140.5 46s87.333 38.334 127 62.001s74.5 51.5 104.5 83.5c6 6 12.333 6 19 0
c2.66699 -2.66699 4.16699 -5.83398 4.5 -9.50098s-1.16699 -6.83398 -4.5 -9.50098c-32 -34 -68.667 -63.333 -110 -88s-85.333 -46.167 -132 -64.5s-95.167 -34.166 -145.5 -47.499s-100.166 -25.666 -149.499 -36.999c-3.33301 -34 -13.5 -69.667 -30.5 -107
s-37.833 -73 -62.5 -107s-51.334 -64.833 -80.001 -92.5s-55.667 -48.834 -81 -63.501c-52 -30 -98.833 -46 -140.5 -48s-75.334 5 -101.001 21s-41.834 39 -48.501 69s-1.16699 62.333 16.5 97s49.5 69.5 95.5 104.5s108.667 65.5 188 91.5c25.333 8 51.5 15.5 78.5 22.5
l82.5 21.5c0 24.667 -3.83301 44.834 -11.5 60.501s-16.334 28.167 -26.001 37.5s-18.834 16.166 -27.501 20.499s-13.667 8.16602 -15 11.499c-2.66699 5.33301 -2.66699 9.5 0 12.5s7.16699 6.5 13.5 10.5l24 15c9.66699 6 19.834 14.667 30.501 26
c7.33301 8 14.333 17.5 21 28.5s12 22 16 33s6.33301 21 7 30s-1.16602 15.5 -5.49902 19.5s-11.666 4.33301 -21.999 1s-24.166 -12 -41.499 -26c-11.333 -8.66699 -21.833 -17.667 -31.5 -27zM1382 -276.999c24.667 18 48.333 39.001 71 63.001s42.834 49.167 60.501 75.5
s32.5 53.5 44.5 81.5s20 55 24 81l-77.5 -20c-25 -6.66699 -49.167 -13.667 -72.5 -21c-54 -17.333 -99.333 -37 -136 -59s-66.167 -44.333 -88.5 -67s-37.833 -44.834 -46.5 -66.501s-11.834 -41.167 -9.50098 -58.5s9.83301 -31.833 22.5 -43.5
s29.167 -18.834 49.5 -21.501s44 0.333008 71 9s56.167 24.334 87.5 47.001z" />
    <glyph glyph-name="a.002" unicode="&#xe01a;" horiz-adv-x="2142" 
d="M578 300c52 54 108.829 96.833 170.496 128.5s126 56.5 193 74.5s135.5 31.5 205.5 40.5l208 26.5c68.667 8.66699 135.834 19.334 201.501 32.001s127.5 31.667 185.5 57s111.333 59.333 160 102s90.667 98.334 126 167.001c2 3.33301 4.83301 5.5 8.5 6.5
s7.16699 1 10.5 0s5.83301 -2.83301 7.5 -5.5s1.5 -6.33398 -0.5 -11.001c-36.667 -70 -79.834 -126.833 -129.501 -170.5s-104.167 -78.834 -163.5 -105.501s-122.166 -46.834 -188.499 -60.501s-134.166 -25.167 -203.499 -34.5l-209 -28.5
c-70 -9.66699 -138.333 -23.5 -205 -41.5s-130.5 -42.5 -191.5 -73.5s-117.167 -72.833 -168.5 -125.5c-11.333 -11.333 -27.333 -26.333 -48 -45l-70 -60.5l-82.5 -65.5c-29 -22 -57.5 -41.333 -85.5 -58c-12 -7.33301 -25.833 -15 -41.5 -23s-31.834 -14.667 -48.501 -20
s-32.834 -8.16602 -48.501 -8.49902s-29.5 3.5 -41.5 11.5s-20.167 17.833 -24.5 29.5s-6 24.5 -5 38.5s4.33301 29 10 45s12.834 32.333 21.501 49c-35.333 -23.333 -65.166 -34.833 -89.499 -34.5s-42.166 8 -53.499 23s-16.166 35.333 -14.499 61s10.5 52.167 26.5 79.5
c11.333 19.333 28 36.833 50 52.5s44.667 25.834 68 30.501s45 2.33398 65 -6.99902s34 -29 42 -59c7.33301 9.33301 14.5 19.166 21.5 29.499s13.5 15.5 19.5 15.5h61c5.33301 0 9.5 -2.5 12.5 -7.5s2.83301 -9.83301 -0.5 -14.5l-31 -45l-40 -58
c-14 -20.667 -27.5 -41.834 -40.5 -63.501s-23.833 -41.667 -32.5 -60s-14.5 -34.5 -17.5 -48.5s-1.5 -23.833 4.5 -29.5s17.667 -6 35 -1s42 16.833 74 35.5c29.333 17.333 59.333 37.5 90 60.5s59.167 45.667 85.5 68s49.5 42.833 69.5 61.5zM201.996 284
c-1.33301 22.667 -6.33691 39.6621 -15.0039 50.9951c-7.33301 8.66699 -16.666 11.834 -27.999 9.50098s-23.333 -8.16602 -36 -17.499s-25 -21 -37 -35s-22.167 -28.167 -30.5 -42.5s-14 -27.833 -17 -40.5s-1.5 -22 4.5 -28
c4.66699 -5.33301 11.834 -8.16602 21.501 -8.49902s20.334 1.83398 32.001 6.50098s23.834 11.834 36.501 21.501s24.667 21.5 36 35.5z" />
    <glyph glyph-name="b.002" unicode="&#xe01b;" horiz-adv-x="2099" 
d="M522 300l2.99707 2.99805c53.333 52.667 111.166 94.334 173.499 125.001s126.833 55 193.5 73s134.834 31.5 204.501 40.5l207 26.5c68.333 8.66699 135 19.5 200 32.5s126.333 32.333 184 58s110.667 59.834 159 102.501s90.166 98.334 125.499 167.001
c2 3.33301 4.83301 5.5 8.5 6.5s7.16699 1 10.5 0s5.83301 -2.83301 7.5 -5.5s1.5 -6.33398 -0.5 -11.001c-36.667 -70 -79.834 -127 -129.501 -171s-104 -79.5 -163 -106.5s-121.667 -47.5 -188 -61.5s-134 -25.833 -203 -35.5l-208.5 -28.5
c-70 -9.33301 -138.333 -23 -205 -41s-130.667 -42.333 -192 -73s-118 -71.667 -170 -123c-26 -24 -52 -43 -78 -57s-51.667 -25 -77 -33s-50.666 -13.833 -75.999 -17.5s-51 -7.16699 -77 -10.5c-11.333 -23.333 -28.333 -46.833 -51 -70.5s-51.667 -44.834 -87 -63.501
c-31.333 -16 -57.666 -21.667 -78.999 -17s-34.666 14.5 -39.999 29.5s-1.33301 33 12 54s39 39.5 77 55.5c13.333 6 26.833 11 40.5 15s27.167 7.66699 40.5 11c18.667 32.667 26.834 55.5 24.501 68.5s-10.666 19.333 -24.999 19s-32.333 -6.33301 -54 -18
s-42.167 -25.834 -61.5 -42.501l-19.5 -31l-15.5 -25c-3.33301 -4.66699 -7.33301 -7 -12 -7h-62c-5.33301 0 -9.33301 2.33301 -12 7s-2.66699 9.33398 0 14.001c12.667 21.333 26.834 43.833 42.501 67.5l50.5 73.5l75.5 102.5l80.5 103l80.5 96.5
c26.333 30.667 51.5 58.334 75.5 83.001c46 47.333 89.833 84.666 131.5 111.999s79.834 46.5 114.501 57.5s64.834 14.833 90.501 11.5s45 -11.833 58 -25.5s19 -31.834 18 -54.501s-10.833 -47.667 -29.5 -75c-14.667 -21.333 -35.667 -44.166 -63 -68.499
s-61.833 -49.166 -103.5 -74.499s-91.167 -50.666 -148.5 -75.999s-123 -50 -197 -74l-60 -80.5l-52 -73.5c30.667 18 58 28.833 82 32.5s43.833 1.5 59.5 -6.5s26.167 -20.833 31.5 -38.5s4.66602 -38.5 -2.00098 -62.5c22.667 2.66699 45.667 6 69 10
s46.666 9.66699 69.999 17s46.666 17.666 69.999 30.999s47 31 71 53zM585.997 811.998c-40 -19.333 -79.334 -45.332 -118.001 -77.999s-75.667 -68 -111 -106c-28 -30 -54 -59.667 -78 -89l-66 -82c66 22.667 124.5 45.667 175.5 69s95.333 46.666 133 69.999
s68.834 46 93.501 68s43.667 43 57 63c14.667 22 23.167 41 25.5 57s-0.5 28 -8.5 36s-20.833 11.667 -38.5 11s-39.167 -7 -64.5 -19zM50.9961 71.999c12 9.33301 24.001 19.667 36.001 31s22.667 23.333 32 36c-8 -2 -18.5 -5.66699 -31.5 -11s-25.833 -11.5 -38.5 -18.5
s-23.834 -14.833 -33.501 -23.5s-15.167 -17.667 -16.5 -27c-1.33301 -6.66699 2 -10 10 -10s22 7.66699 42 23z" />
    <glyph glyph-name="c.002" unicode="&#xe01c;" horiz-adv-x="1934" 
d="M120 242c-2.66699 -3.33301 -5.82617 -4.83398 -9.49316 -4.50098s-6.83398 2.16602 -9.50098 5.49902c-2.66699 2.66699 -3.83398 5.83398 -3.50098 9.50098s1.83301 6.83398 4.5 9.50098c13.333 12 23.666 24.667 30.999 38s10.5 22.833 9.5 28.5
s-7 4.83398 -18 -2.49902s-28.5 -25.666 -52.5 -54.999c-12.667 -15.333 -25.667 -33.5 -39 -54.5s-24.833 -42.167 -34.5 -63.5s-16.334 -40.833 -20.001 -58.5s-2 -30.834 5 -39.501s20.5 -11.167 40.5 -7.5s49 16.5 87 38.5c30 17.333 60 36.833 90 58.5
s57.833 42.834 83.5 63.501l67 56c19 16.667 32.167 28.667 39.5 36c54 52 112.333 93.333 175 124s127.667 54.834 195 72.501s135.833 31.167 205.5 40.5l207 27.5c68.333 9 135 20.167 200 33.5s126.333 33 184 59s110.5 60.5 158.5 103.5s89.667 98.833 125 167.5
c2 3.33301 4.83301 5.5 8.5 6.5s7.16699 1 10.5 0s5.83301 -2.83301 7.5 -5.5s1.5 -6.33398 -0.5 -11.001c-36.667 -70 -79.834 -127 -129.501 -171s-103.834 -79.667 -162.501 -107s-121 -48.166 -187 -62.499s-133.5 -26.333 -202.5 -36l-208.5 -29
c-70 -9.66699 -138.5 -23.334 -205.5 -41.001s-131.333 -41.667 -193 -72s-118.834 -70.833 -171.501 -121.5c-8 -8 -21.667 -20.5 -41 -37.5s-42 -35.833 -68 -56.5s-54 -41.834 -84 -63.501s-59.667 -41.167 -89 -58.5c-13.333 -8 -29.666 -16.833 -48.999 -26.5
s-39 -17 -59 -22s-39.167 -6.16699 -57.5 -3.5s-33.166 12.667 -44.499 30c-9.33301 14 -13.333 31.5 -12 52.5s6.33301 43.5 15 67.5s20.167 48.167 34.5 72.5s30.166 46.833 47.499 67.5c12 14.667 24.5 28.167 37.5 40.5s25.833 22.333 38.5 30s24.834 12.667 36.501 15
s22.167 1.5 31.5 -2.5c12 -5.33301 19.833 -13.333 23.5 -24s4.16699 -22.834 1.5 -36.501s-8.33398 -27.5 -17.001 -41.5s-19.334 -27 -32.001 -39z" />
    <glyph glyph-name="d.002" unicode="&#xe01d;" horiz-adv-x="2196" 
d="M604 300c53.333 53.333 111.166 95.665 173.499 126.998s127 56 194 74s135.333 31.667 205 41l207.5 27c68.667 8.66699 135.667 19.5 201 32.5s126.833 32.333 184.5 58s110.667 59.667 159 102s90.166 97.833 125.499 166.5c2 3.33301 4.83301 5.5 8.5 6.5
s7.16699 1 10.5 0s5.83301 -2.83301 7.5 -5.5s1.5 -6.33398 -0.5 -11.001c-36.667 -70 -79.834 -127 -129.501 -171s-104 -79.5 -163 -106.5s-121.5 -47.667 -187.5 -62s-133.667 -26.333 -203 -36l-209 -28.5c-70 -9.33301 -138.5 -23 -205.5 -41
s-131.167 -42.167 -192.5 -72.5s-118 -71.166 -170 -122.499c-11.333 -11.333 -27.333 -26.333 -48 -45l-69.5 -60.5c-25.667 -21.667 -53.167 -43.5 -82.5 -65.5s-58 -41.333 -86 -58c-12 -7.33301 -25.833 -15 -41.5 -23s-31.667 -14.667 -48 -20
s-32.5 -8.16602 -48.5 -8.49902s-30 3.5 -42 11.5c-12.667 8 -21 18.833 -25 32.5s-5.5 28.167 -4.5 43.5s3.83301 31.333 8.5 48s10 32 16 46c-28.667 -20.667 -54 -34.5 -76 -41.5s-40.5 -8.83301 -55.5 -5.5s-26.833 10.666 -35.5 21.999s-13.667 25 -15 41
s0.666992 33.167 6 51.5s14.333 36.166 27 53.499c10 14 23 27.333 39 40s33.5 22.834 52.5 30.501s37.333 11.167 55 10.5s33.5 -5.66699 47.5 -15s24 -24.666 30 -45.999c57.333 91.333 116 169.333 176 234s118 118 174 160s108.667 73.333 158 94
s92.166 32.667 128.499 36s64.833 -1.33398 85.5 -14.001s30.334 -31.334 29.001 -56.001c-1.33301 -18 -9.66602 -38.667 -24.999 -62s-39.666 -48.333 -72.999 -75c-32 -26 -66.167 -49.167 -102.5 -69.5s-72.5 -38.166 -108.5 -53.499s-70.5 -28.666 -103.5 -39.999
s-62 -20.666 -87 -27.999s-45.167 -12.666 -60.5 -15.999s-23.333 -5.33301 -24 -6c-2.66699 -1.33301 -9.66699 -10 -21 -26l-40.5 -59.5c-15.667 -23.667 -32 -49.834 -49 -78.501s-32.167 -56.667 -45.5 -84s-23.666 -52.333 -30.999 -75s-8.83301 -40 -4.5 -52
s15.5 -17 33.5 -15s45.667 14 83 36c29.333 17.333 59.333 37.5 90 60.5s59.167 45.667 85.5 68l70 61.5c20.333 18.667 34.5 32 42.5 40zM418 458.999c38 10 76.6689 21.332 116.002 33.999s78.166 27.334 116.499 44.001s75.333 35 111 55s68.5 42.333 98.5 67
c44 36 70.667 65.833 80 89.5s6.5 39.834 -8.5 48.501s-39.5 9.5 -73.5 2.5s-72 -22.5 -114 -46.5c-30 -17.333 -59.667 -37 -89 -59s-57.833 -45.833 -85.5 -71.5s-54.334 -52.334 -80.001 -80.001s-49.5 -55.5 -71.5 -83.5zM95.002 176.998
c11.333 6.66699 23.833 14.666 37.5 23.999s28.167 21 43.5 35l12 23c4 8 8.66699 16 14 24c0 8.66699 -1.16699 17 -3.5 25s-5.66602 15 -9.99902 21s-9.83301 10.333 -16.5 13s-14.334 3.33398 -23.001 2.00098c-14 -2.66699 -27.833 -10 -41.5 -22
s-25.834 -26 -36.501 -42s-19.167 -32.333 -25.5 -49s-9.16602 -30.834 -8.49902 -42.501s5.5 -19.167 14.5 -22.5s23.5 0.333984 43.5 11.001z" />
    <glyph glyph-name="e.002" unicode="&#xe01e;" horiz-adv-x="1962" 
d="M394 300c54 52 112.339 93.499 175.006 124.499s127.667 55.333 195 73s135.833 31.167 205.5 40.5l207 27.5c68.333 9 135 20.167 200 33.5s126.333 32.833 184 58.5s110.5 60 158.5 103s89.667 98.833 125 167.5c2 3.33301 4.83301 5.5 8.5 6.5s7.16699 1 10.5 0
s5.83301 -2.83301 7.5 -5.5s1.5 -6.33398 -0.5 -11.001c-36.667 -70 -79.834 -127 -129.501 -171s-103.834 -79.667 -162.501 -107s-121 -48.166 -187 -62.499s-133.5 -26.5 -202.5 -36.5l-208.5 -29.5c-70 -9.66699 -138.5 -23.334 -205.5 -41.001
s-131.333 -41.667 -193 -72s-118.834 -70.833 -171.501 -121.5l-42 -37.5c-19.333 -17 -41.833 -35.667 -67.5 -56l-83 -63c-29.667 -21.667 -59.167 -41.167 -88.5 -58.5c-13.333 -8 -29.333 -16.667 -48 -26s-37.834 -16.5 -57.501 -21.5s-38.5 -6.5 -56.5 -4.5
s-33 10.667 -45 26c-13.333 17.333 -18.833 38.5 -16.5 63.5s8.66602 50.333 18.999 76s22.666 49.834 36.999 72.501s27.166 40 38.499 52c23.333 26 46.333 44.5 69 55.5s42 15.667 58 14s26.667 -9.5 32 -23.5s2.33301 -33 -9 -57
c-8 -17.333 -22.833 -35.666 -44.5 -54.999s-52.167 -37.666 -91.5 -54.999c-4.66699 -4 -9.83398 -11.833 -15.501 -23.5s-10.167 -24.334 -13.5 -38.001s-4.5 -26.667 -3.5 -39s6 -21.333 15 -27s22.833 -6.33398 41.5 -2.00098s44.334 16.5 77.001 36.5
c30 17.333 60 37 90 59s57.833 43.333 83.5 64s47.834 39.334 66.501 56.001zM32.0059 213.999c19.333 8.66699 35.6689 18.666 49.002 29.999s23.833 22.333 31.5 33s12.667 20 15 28s2.16602 12.667 -0.500977 14c-4.66699 2 -15.334 -5.16699 -32.001 -21.5
s-37.667 -44.166 -63 -83.499z" />
    </font>
</defs>
</svg>
