<?xml version="1.0" standalone="no"?>
<!DOCTYPE svg PUBLIC "-//W3C//DTD SVG 1.1//EN" "http://www.w3.org/Graphics/SVG/1.1/DTD/svg11.dtd" >
<svg>
<metadata>
Created by FontForge 20090914 at Sat Feb 23 17:55:52 2019
 By www-data
Copyright (c) 2019 by Creative Lab. All rights reserved.
</metadata>
<defs>
<font id="MyloveScript" horiz-adv-x="428" >
  <font-face 
    font-family="Mylove Script"
    font-weight="400"
    font-stretch="normal"
    units-per-em="1000"
    panose-1="2 0 5 7 2 0 0 2 0 2"
    ascent="750"
    descent="-250"
    x-height="478.998"
    cap-height="932.004"
    bbox="-1435.5 -585.895 2695.57 1111.56"
    underline-thickness="50"
    underline-position="-50"
    unicode-range="U+000D-U+E16B"
  />
<missing-glyph horiz-adv-x="360" 
 />
    <glyph glyph-name=".notdef" horiz-adv-x="360" 
 />
    <glyph glyph-name="NULL" horiz-adv-x="0" 
 />
    <glyph glyph-name="NULL" horiz-adv-x="0" 
 />
    <glyph glyph-name="nonmarkingreturn" unicode="&#xd;" horiz-adv-x="360" 
 />
    <glyph glyph-name="space" unicode=" " horiz-adv-x="360" 
 />
    <glyph glyph-name="exclam" unicode="!" horiz-adv-x="313" 
d="M122 105c15.333 -2 27.167 -9.66699 35.5 -23s11.5 -26.666 9.5 -39.999c-1.33301 -7.33301 -4.16602 -14 -8.49902 -20s-9.5 -11.167 -15.5 -15.5s-12.5 -7.33301 -19.5 -9s-13.833 -1.83398 -20.5 -0.500977c-17.333 2 -29.333 9.5 -36 22.5
s-8.83398 26.333 -6.50098 40s8.83301 25.5 19.5 35.5s24.667 13.333 42 10zM173.001 154c-2 -8 -7.16699 -13.001 -15.5 -15.001s-17.5 -2 -27.5 0s-19.333 5.33301 -28 10s-14 9.66699 -16 15c18.667 142.667 35.667 257 51 343s29 149.667 41 191s22.167 63.333 30.5 66
s14.5 -8.16602 18.5 -32.499s6.16699 -59 6.5 -104s-1.66699 -94.667 -6 -149s-11 -110 -20 -167s-20.5 -109.5 -34.5 -157.5z" />
    <glyph glyph-name="quotedbl" unicode="&#x22;" horiz-adv-x="525" 
d="M93 613c-4.66699 -3.33301 -8.83008 -4.50293 -12.4971 -3.50293s-6.5 3 -8.5 6s-2.66699 6.33301 -2 10s3 6.83398 7 9.50098c6.66699 5.33301 14.5 12.833 23.5 22.5s18 20.834 27 33.501s17.167 26.167 24.5 40.5s13 28.5 17 42.5c-15.333 2 -27.833 7.66699 -37.5 17
s-16.334 20.166 -20.001 32.499s-4.16699 25 -1.5 38s9 23.833 19 32.5s20.167 14.5 30.5 17.5s20.166 3.83301 29.499 2.5s18.166 -4.66602 26.499 -9.99902s15.166 -11.666 20.499 -18.999c8 -12 11.667 -26 11 -42s-4.66699 -33 -12 -51s-17 -36.167 -29 -54.5
s-24.667 -35.5 -38 -51.5s-26.666 -30.5 -39.999 -43.5s-25 -22.833 -35 -29.5zM284.004 612.997c-4.66699 -3.33301 -8.83008 -4.50293 -12.4971 -3.50293s-6.5 3 -8.5 6s-2.66699 6.33301 -2 10s3 6.83398 7 9.50098c6.66699 5.33301 14.5 12.833 23.5 22.5
s18 20.834 27 33.501s17.167 26.167 24.5 40.5s13 28.5 17 42.5c-15.333 2 -27.833 7.66699 -37.5 17s-16.334 20.166 -20.001 32.499s-4.16699 25 -1.5 38s9 23.833 19 32.5s20.167 14.5 30.5 17.5s20.166 3.83301 29.499 2.5s18.166 -4.66602 26.499 -9.99902
s15.166 -11.666 20.499 -18.999c8 -12 11.667 -26 11 -42s-4.66699 -33 -12 -51s-17 -36.167 -29 -54.5s-24.667 -35.5 -38 -51.5s-26.666 -30.5 -39.999 -43.5s-25 -22.833 -35 -29.5z" />
    <glyph glyph-name="numbersign" unicode="#" horiz-adv-x="600" 
d="M497 223c6 0 11.3301 -2.16699 15.9971 -6.5s7 -9.83301 7 -16.5s-2.16699 -12.167 -6.5 -16.5s-9.83301 -6.5 -16.5 -6.5l-136 -1l-49 -150c-2.66699 -7.33301 -7.16699 -12.666 -13.5 -15.999s-13.166 -4 -20.499 -2c-7.33301 2.66699 -12.833 7.33398 -16.5 14.001
s-4.16699 13.667 -1.5 21l43 133l-61 -1l-49 -149c-2 -7.33301 -6.33301 -12.666 -13 -15.999s-13.667 -4 -21 -2c-7.33301 2.66699 -12.666 7.33398 -15.999 14.001s-4 13.667 -2 21l43 132l-59 -1c-6.66699 0 -12.167 2.33301 -16.5 7s-6.5 10 -6.5 16
c0 6.66699 2.16699 12.167 6.5 16.5s9.83301 6.5 16.5 6.5l74 1l16 49l-121 -1c-6.66699 0 -12.167 2.16699 -16.5 6.5s-6.5 9.83301 -6.5 16.5c-0.666992 6 1.33301 11.333 6 16s10.334 7 17.001 7h136l48 150c2.66699 7.33301 7.33398 12.666 14.001 15.999s13.667 4 21 2
c7.33301 -2.66699 12.666 -7.33398 15.999 -14.001s4 -13.667 2 -21l-43 -132h61l48 149c2.66699 7.33301 7.33398 12.666 14.001 15.999s13.667 4 21 2c7.33301 -2.66699 12.666 -7.33398 15.999 -14.001s4 -13.667 2 -21l-43 -131h58c6.66699 0 12.167 -2.16699 16.5 -6.5
s6.5 -9.83301 6.5 -16.5s-2 -12.167 -6 -16.5s-9.33301 -6.5 -16 -6.5h-75l-15 -49zM256.997 221h61l16 49h-61z" />
    <glyph glyph-name="dollar" unicode="$" horiz-adv-x="464" 
d="M181 -29c-1.33301 -9.33301 -5.16797 -15.665 -11.501 -18.998s-13 -4.5 -20 -3.5s-12.833 4.16699 -17.5 9.5s-6.33398 12.666 -5.00098 21.999l5 31c-20 6.66699 -36.667 18 -50 34s-22 34.667 -26 56s-2.66699 44.333 4 69s19.667 48.667 39 72
c2.66699 3.33301 5.83398 5 9.50098 5s6.83398 -1 9.50098 -3s4.33398 -4.83301 5.00098 -8.5s-0.333008 -7.16699 -3 -10.5c-15.333 -18.667 -26 -37.834 -32 -57.501s-8 -38 -6 -55s7.66699 -32 17 -45s22 -22.5 38 -28.5l50 300
c-0.666992 3.33301 -3.83398 12 -9.50098 26s-12.167 31.333 -19.5 52s-13.833 43.667 -19.5 69s-8.83398 51 -9.50098 77s2.66602 51.333 9.99902 76s21 46.334 41 65.001c20.667 20.667 45.334 33 74.001 37c1.33301 7.33301 2.5 15.166 3.5 23.499s2.66699 16 5 23
s5.83301 12.5 10.5 16.5s11.334 5.33301 20.001 4c8 -1.33301 13.667 -4.5 17 -9.5s5.16602 -10.833 5.49902 -17.5s-0.333984 -13.834 -2.00098 -21.501s-2.83398 -14.5 -3.50098 -20.5c18.667 -4 35.834 -11.833 51.501 -23.5s28.167 -26.5 37.5 -44.5
c12.667 -24.667 16.834 -54.334 12.501 -89.001s-21.5 -74 -51.5 -118c-2.66699 -4 -5.83398 -6 -9.50098 -6s-7 1 -10 3s-5 4.66699 -6 8s-0.166992 7 2.5 11c19.333 27.333 32.833 53.833 40.5 79.5s9.83398 48.834 6.50098 69.501s-11.666 38.334 -24.999 53.001
s-31.333 24.667 -54 30l-54 -322c0.666992 -6 3.83398 -15.667 9.50098 -29s11.834 -29 18.501 -47s13.167 -38 19.5 -60s10.166 -44.167 11.499 -66.5s-0.5 -44.5 -5.5 -66.5s-15.167 -42 -30.5 -60c-14 -15.333 -28.333 -27.333 -43 -36s-29.334 -14.667 -44.001 -18z
M212.998 496.001l35.999 216c-18.667 -8.66699 -32.167 -23.167 -40.5 -43.5s-13.166 -41.833 -14.499 -64.5s0 -44.167 4 -64.5s9 -34.833 15 -43.5zM222.997 219.001l-26.999 -158c19.333 18.667 30.166 41.667 32.499 69s0.5 57 -5.5 89z" />
    <glyph glyph-name="percent" unicode="%" horiz-adv-x="489" 
d="M195 689c6 -0.666992 9.99902 -4.00195 11.999 -10.002s0.666992 -11 -4 -15c10 3.33301 18.833 2.5 26.5 -2.5s13 -13.333 16 -25s3.16699 -26.5 0.5 -44.5s-9.33398 -38 -20.001 -60c6.66699 0 14.167 1.33301 22.5 4s16.5 6.33398 24.5 11.001
s15.333 9.33398 22 14.001s11.334 9 14.001 13c4 6 8.33301 14.5 13 25.5s9.66699 21.167 15 30.5c6.66699 10.667 14 17 22 19s14.833 1.16699 20.5 -2.5s9.66699 -9 12 -16s1.5 -13.833 -2.5 -20.5c-21.333 -40 -43.666 -84.667 -66.999 -134l-70.5 -152l-70.5 -155.5
l-68 -144.5c-4 -8 -9.5 -12.833 -16.5 -14.5s-13.667 -1 -20 2s-11 7.83301 -14 14.5s-2.5 14 1.5 22l54.5 116l55 121l55 120.5l54.5 115.5c-27.333 -14.667 -51.333 -19.667 -72 -15c-22 -36 -43.833 -58 -65.5 -66s-39.834 -6.33301 -54.501 5s-24 30.5 -28 57.5
s0.333008 57.5 13 91.5c10.667 27.333 25.834 50.5 45.501 69.5s44.167 27.5 73.5 25.5zM302.999 220.998c-11.333 -10 -20.4971 -23.5 -27.4971 -40.5s-12.167 -34.667 -15.5 -53s-4.5 -35.5 -3.5 -51.5s4.33301 -27.5 10 -34.5s13.834 -7.83301 24.501 -2.5
s24 20.333 40 45c-10 7.33301 -17 16.833 -21 28.5s-5.83301 23.834 -5.5 36.501s2.66602 24.834 6.99902 36.501s9.83301 21.667 16.5 30s14.167 13.833 22.5 16.5s16.833 1 25.5 -5c10 -7.33301 15.833 -18 17.5 -32s0.5 -29.333 -3.5 -46s-10.5 -33.834 -19.5 -51.501
s-19.167 -33.834 -30.5 -48.501s-23.5 -26.5 -36.5 -35.5s-25.833 -13.167 -38.5 -12.5c-15.333 0.666992 -27.333 6.16699 -36 16.5s-14.667 23.333 -18 39s-3.83301 33 -1.5 52s7 37.5 14 55.5s16.333 34.333 28 49s25.167 25.667 40.5 33c4 2 7.66699 2.16699 11 0.5
s5.66602 -4 6.99902 -7s1.66602 -6.33301 0.999023 -10s-3.33398 -6.5 -8.00098 -8.5zM345.002 107.998c10 18.667 16.3359 35.666 19.0029 50.999s3.16699 27 1.5 35s-4.83398 11.5 -9.50098 10.5s-10 -7.83301 -16 -20.5
c-4.66699 -11.333 -7.33398 -24.666 -8.00098 -39.999s3.66602 -27.333 12.999 -36zM195.005 660.997c-16.667 -3.33301 -30.668 -12.667 -42.001 -28s-20 -32.5 -26 -51.5s-9.33301 -37.667 -10 -56s1.5 -32.333 6.5 -42s12.667 -12.667 23 -9s23.5 17.834 39.5 42.501
c-12 8.66699 -19.833 20 -23.5 34s-4.5 28.333 -2.5 43s6.33301 28.167 13 40.5s14.334 21.166 23.001 26.499h-1zM199.004 540.996c8 16 13.667 30.832 17 44.499s5 25 5 34s-1.66699 14.833 -5 17.5s-7.33301 1 -12 -5c-4 -5.33301 -7.66699 -12.166 -11 -20.499
s-5.5 -16.833 -6.5 -25.5s-0.5 -17.167 1.5 -25.5s5.66699 -14.833 11 -19.5z" />
    <glyph glyph-name="ampersand" unicode="&#x26;" horiz-adv-x="687" 
d="M478 396c-8.66699 3.33301 -11.6631 9.33691 -8.99609 18.0039c1.33301 3.33301 3.66602 5.83301 6.99902 7.5s6.66602 1.83398 9.99902 0.500977c20 -6.66699 33.833 -17.5 41.5 -32.5s10.667 -32 9 -51s-7 -39.333 -16 -61s-19.5 -42.667 -31.5 -63
s-24.5 -38.833 -37.5 -55.5s-24.833 -30 -35.5 -40c12.667 -25.333 29.167 -44.333 49.5 -57s40.666 -19.834 60.999 -21.501s38.166 1.66602 53.499 9.99902s24.333 21.5 27 39.5c1.33301 9.33301 6.33301 13.333 15 12c9.33301 -2 13.333 -7.33301 12 -16
c-2 -12 -8 -23.667 -18 -35s-22.667 -21.166 -38 -29.499s-32.333 -14.5 -51 -18.5s-37.834 -4.33301 -57.501 -1s-38.834 11 -57.501 23s-35.667 29.667 -51 53c-29.333 -16.667 -59.666 -26.834 -90.999 -30.501s-60.166 -0.666992 -86.499 9s-48.166 26 -65.499 49
s-26.333 52.5 -27 88.5c0 22 3.83301 44.833 11.5 68.5s20.167 47.167 37.5 70.5c10 14 21.5 26.333 34.5 37s27 20.5 42 29.5s30.667 17 47 24l49.5 20.5c8.66699 47.333 21 85.333 37 114s33 49.834 51 63.501s35.667 21 53 22s32.333 -2.5 45 -10.5
s21.667 -19.5 27 -34.5s4.33301 -31.5 -3 -49.5s-21.833 -36.333 -43.5 -55s-53.167 -36 -94.5 -52c-4 -23.333 -6.83301 -47.833 -8.5 -73.5s-1.83398 -51.334 -0.500977 -77.001s4.33301 -50.834 9 -75.501s11 -48 19 -70c22.667 22 43.167 48 61.5 78
s30.833 59.667 37.5 89c4 17.333 4.83301 34.166 2.5 50.499s-11.5 27.166 -27.5 32.499zM347.004 102.004c-11.333 22 -20.334 45.835 -27.001 71.502s-11.5 52.167 -14.5 79.5s-4.16699 54.666 -3.5 81.999s2.66699 53.333 6 78
c-41.333 -16.667 -74.166 -38.834 -98.499 -66.501s-41.333 -56.667 -51 -87s-12.167 -59.5 -7.5 -87.5s15.167 -50.833 31.5 -68.5s38.5 -27.667 66.5 -30s60.667 7.16699 98 28.5zM391.003 474.006c30.667 12.667 54.6689 26.666 72.002 41.999c16.667 14 27.5 28 32.5 42
s6.33301 25.667 4 35s-7.83301 15.333 -16.5 18s-18.334 0 -29.001 -8s-21.834 -22.167 -33.501 -42.5s-21.5 -49.166 -29.5 -86.499z" />
    <glyph glyph-name="quotesingle" unicode="'" horiz-adv-x="312" 
d="M75 616c-4.66699 -3.33301 -8.83008 -4.50293 -12.4971 -3.50293s-6.5 3 -8.5 6s-2.66699 6.33301 -2 10s3 6.83398 7 9.50098c6.66699 5.33301 14.5 12.833 23.5 22.5s18 20.834 27 33.501s17.167 26.167 24.5 40.5s13 28.5 17 42.5c-15.333 2 -27.833 7.66699 -37.5 17
s-16.334 20.166 -20.001 32.499s-4.16699 25 -1.5 38s9 23.833 19 32.5s20.167 14.5 30.5 17.5s20.166 3.83301 29.499 2.5s18.166 -4.66602 26.499 -9.99902s15.166 -11.666 20.499 -18.999c8 -12 11.667 -26 11 -42s-4.66699 -33 -12 -51s-17 -36.167 -29 -54.5
s-24.667 -35.5 -38 -51.5s-26.666 -30.5 -39.999 -43.5s-25 -22.833 -35 -29.5z" />
    <glyph glyph-name="parenleft" unicode="(" horiz-adv-x="338" 
d="M142 24c4 -7.33301 2.83008 -13.3291 -3.50293 -17.9961s-12.166 -4.66699 -17.499 0c-25.333 21.333 -42.166 52.833 -50.499 94.5s-9.83301 89.334 -4.5 143.001s16.666 111.334 33.999 173.001s39.166 123.5 65.499 185.5s56.333 121.833 90 179.5
s69.167 109.167 106.5 154.5s75.666 82.666 114.999 111.999s78.333 46.333 117 51c4 0.666992 7.33301 0 10 -2s4.5 -4.5 5.5 -7.5s0.833008 -6 -0.5 -9s-3.66602 -5.16699 -6.99902 -6.5c-34 -17.333 -68 -42.833 -102 -76.5s-67.167 -72.834 -99.5 -117.501
s-63.166 -93.334 -92.499 -146.001s-55.833 -106.5 -79.5 -161.5s-44.167 -109.833 -61.5 -164.5s-30.166 -106.334 -38.499 -155.001s-11.666 -92.834 -9.99902 -132.501s9.5 -71.834 23.5 -96.501z" />
    <glyph glyph-name="parenright" unicode=")" horiz-adv-x="532" 
d="M390 1073c-4 7.33301 -2.99805 13.3311 3.00195 17.998s11.667 4.66699 17 0c25.333 -21.333 42.166 -52.666 50.499 -93.999s9.83301 -88.833 4.5 -142.5s-16.666 -111.5 -33.999 -173.5s-39.166 -123.833 -65.499 -185.5s-56.333 -121.334 -90 -179.001
s-69.167 -109.334 -106.5 -155.001s-75.666 -83.167 -114.999 -112.5s-78.333 -46.333 -117 -51c-4 -0.666992 -7.33301 0 -10 2s-4.5 4.5 -5.5 7.5s-0.833008 6 0.5 9s3.66602 5.5 6.99902 7.5c34 16.667 68 41.834 102 75.501s67.167 72.834 99.5 117.501
s63.166 93.334 92.499 146.001s56 106.5 80 161.5s44.667 109.833 62 164.5s30.166 106.334 38.499 155.001s11.666 92.667 9.99902 132s-9.5 71.666 -23.5 96.999z" />
    <glyph glyph-name="asterisk" unicode="*" horiz-adv-x="327" 
d="M74 813c-7.33301 0 -12.832 2.50098 -16.499 7.50098s-5.5 10.333 -5.5 16s2 10.834 6 15.501s9.66699 7 17 7l33 -1c-3.33301 4 -7.16602 8.16699 -11.499 12.5s-8 9 -11 14s-4.5 10.167 -4.5 15.5s2.66699 10.333 8 15s10.666 6.5 15.999 5.5s10.333 -3.5 15 -7.5
s9.16699 -8.83301 13.5 -14.5s8.5 -10.834 12.5 -15.501l8 38c1.33301 6.66699 4.5 11.5 9.5 14.5s10.333 4.16699 16 3.5s10.5 -3.33398 14.5 -8.00098s5.66699 -11 5 -19l-5 -22l10.5 8c4.33301 3.33301 8.66602 6 12.999 8s8.83301 2.83301 13.5 2.5
s9 -3.16602 13 -8.49902s5.66699 -11 5 -17s-3.66699 -11 -9 -15l-18 -14h13.5c5 0 10 -0.666992 15 -2s9.16699 -3.83301 12.5 -7.5s5 -8.83398 5 -15.501c0 -7.33301 -2.16699 -12.5 -6.5 -15.5s-9.33301 -5 -15 -6s-11.834 -1.16699 -18.501 -0.5s-12.334 1 -17.001 1
c3.33301 -4 7.33301 -8.33301 12 -13s8.33398 -9.5 11.001 -14.5s4 -10 4 -15s-2.66699 -9.83301 -8 -14.5s-10.666 -6.5 -15.999 -5.5s-10.333 3.5 -15 7.5s-9.16699 8.66699 -13.5 14l-12.5 15l-7 -37c-1.33301 -6.66699 -4.66602 -11.5 -9.99902 -14.5
s-10.833 -4.16699 -16.5 -3.5s-10.5 3.33398 -14.5 8.00098s-5.66699 11 -5 19l5 22c-2.66699 -2 -6 -4.66699 -10 -8s-8.33301 -6 -13 -8s-9.33398 -2.83301 -14.001 -2.5s-9 3.16602 -13 8.49902s-5.66699 11 -5 17s3.66699 11 9 15l17 14z" />
    <glyph glyph-name="plus" unicode="+" horiz-adv-x="533" 
d="M237 403c0 8.66699 2.83301 15.334 8.5 20.001s12 7 19 7s13.333 -2.33301 19 -7s8.5 -11.334 8.5 -20.001v-135h135c9.33301 0 16.333 -2.83301 21 -8.5s7 -12 7 -19s-2.33301 -13.333 -7 -19s-11.667 -8.5 -21 -8.5h-135v-136
c0 -9.33301 -2.83301 -16.166 -8.5 -20.499s-12 -6.5 -19 -6.5s-13.333 2.16699 -19 6.5s-8.5 11.166 -8.5 20.499v136h-135c-9.33301 0 -16.333 2.83301 -21 8.5s-7 12 -7 19s2.33301 13.333 7 19s11.667 8.5 21 8.5h135v135z" />
    <glyph glyph-name="comma" unicode="," horiz-adv-x="295" 
d="M64 -125c-4.66699 -3.33301 -8.83008 -4.50293 -12.4971 -3.50293s-6.5 3 -8.5 6s-2.66699 6.33301 -2 10s3 6.83398 7 9.50098c6.66699 5.33301 14.5 12.833 23.5 22.5s18 20.834 27 33.501s17.167 26.167 24.5 40.5s13 28.5 17 42.5
c-15.333 2 -27.833 7.66699 -37.5 17s-16.334 20.166 -20.001 32.499s-4.16699 25 -1.5 38s9 23.833 19 32.5s20.167 14.5 30.5 17.5s20.166 3.83301 29.499 2.5s18.166 -4.66602 26.499 -9.99902s15.166 -11.666 20.499 -18.999c8 -12 11.667 -26 11 -42
s-4.66699 -33 -12 -51s-17 -36.167 -29 -54.5s-24.667 -35.5 -38 -51.5s-26.666 -30.5 -39.999 -43.5s-25 -22.833 -35 -29.5z" />
    <glyph glyph-name="hyphen" unicode="-" horiz-adv-x="683" 
d="M539 253c8.66699 0 15.334 -2.83301 20.001 -8.5s7 -12 7 -19s-2.33301 -13.333 -7 -19s-11.334 -8.5 -20.001 -8.5h-382c-9.33301 0 -16.333 2.83301 -21 8.5s-7 12 -7 19s2.33301 13.333 7 19s11.667 8.5 21 8.5h382z" />
    <glyph glyph-name="period" unicode="." horiz-adv-x="270" 
d="M134 1c-15.333 0 -28.5029 4 -39.5029 12s-19 18 -24 30s-6.66699 24.833 -5 38.5s7.83398 25.834 18.501 36.501s22 17.167 34 19.5s23.5 1.83301 34.5 -1.5s20.833 -9.33301 29.5 -18s14.834 -18.334 18.501 -29.001s4.33398 -22 2.00098 -34
s-8.83301 -23.333 -19.5 -34c-12 -13.333 -28.333 -20 -49 -20z" />
    <glyph glyph-name="slash" unicode="/" horiz-adv-x="507" 
d="M387 1010c2.66699 8.66699 7.5 14.1689 14.5 16.502s13.667 2.33301 20 0s11.5 -6.5 15.5 -12.5s4.33301 -13.333 1 -22l-337 -974c-2.66699 -8.66699 -7.5 -14.334 -14.5 -17.001s-13.667 -2.83398 -20 -0.500977s-11.5 6.5 -15.5 12.5s-4.66699 13.333 -2 22z" />
    <glyph glyph-name="zero" unicode="0" horiz-adv-x="500" 
d="M384 282c8 43.333 12.332 85.666 12.999 126.999s-2.66602 76 -9.99902 104c-8 29.333 -18.333 48.833 -31 58.5s-26.5 11.667 -41.5 6s-30.5 -17.834 -46.5 -36.501s-31 -41.5 -45 -68.5s-26.333 -56.833 -37 -89.5s-18.667 -66 -24 -100
c-8 -53.333 -9.5 -97.166 -4.5 -131.499s14 -60 27 -77s28.833 -25.167 47.5 -24.5s37.667 9.83398 57 27.501s37.5 43.667 54.5 78s30.5 76.5 40.5 126.5zM126.999 476c10.667 24.667 23.002 47.501 37.002 68.501s29 38.667 45 53s33 24.5 51 30.5s36.667 7 56 3
c22.667 -5.33301 41.167 -15.5 55.5 -30.5s25.5 -32.833 33.5 -53.5s13.333 -43.334 16 -68.001s3.66699 -49 3 -73s-2.16699 -46.667 -4.5 -68s-4.83301 -39 -7.5 -53c-12 -64.667 -29.667 -118.167 -53 -160.5s-49 -73.833 -77 -94.5s-56.167 -30.5 -84.5 -29.5
s-52.833 12.833 -73.5 35.5s-35.834 56 -45.501 100s-9.83398 98.667 -0.500977 164c4 30 10.167 60 18.5 90s18.5 58.667 30.5 86z" />
    <glyph glyph-name="one" unicode="1" horiz-adv-x="299" 
d="M157 634l98 3.99805l-83 -611c8 0 16.333 -0.166992 25 -0.5s13 -4.83301 13 -13.5s-4.66699 -13 -14 -13h-156c-4.66699 0 -8.16699 1.33301 -10.5 4s-3.5 5.83398 -3.5 9.50098s1.16699 6.83398 3.5 9.50098s5.83301 4 10.5 4h31l76 561l-114 -37z" />
    <glyph glyph-name="two" unicode="2" horiz-adv-x="605" 
d="M160 93c-19.333 2.66699 -35.333 1.83105 -48 -2.50195s-22 -9.66602 -28 -15.999s-8.83301 -12.5 -8.5 -18.5s3.83301 -9.33301 10.5 -10s16.167 2.33301 28.5 9s27.5 19.334 45.5 38.001zM496 100.997c-10.667 -30 -24.8301 -50.3369 -42.4971 -61.0039
s-37.5 -15.334 -59.5 -14.001s-45.667 6.5 -71 15.5l-76 27.5c-22 -21.333 -43.667 -38.166 -65 -50.499s-41.666 -18.5 -60.999 -18.5s-35 3.66699 -47 11s-20.333 16.333 -25 27s-5.33398 21.834 -2.00098 33.501s10.666 21.834 21.999 30.501s26.5 14.667 45.5 18
s41.833 2.33301 68.5 -3c13.333 15.333 30.166 37.333 50.499 66s40.166 60.334 59.499 95.001s36.666 70.167 51.999 106.5s25 70.166 29 101.499c1.33301 12 1.5 25.167 0.5 39.5s-4 26.5 -9 36.5s-12.5 16.5 -22.5 19.5s-23 -0.833008 -39 -11.5
c-17.333 -11.333 -32.5 -26.166 -45.5 -44.499s-21.5 -39.166 -25.5 -62.499c0 30.667 6.83301 57.334 20.5 80.001s30.167 40.5 49.5 53.5s40 21 62 24s41.833 -0.166992 59.5 -9.5s31.334 -24.833 41.001 -46.5s12.167 -50.834 7.5 -87.501
c-4 -29.333 -12.5 -61.166 -25.5 -95.499s-28.833 -68.833 -47.5 -103.5s-39.334 -68.334 -62.001 -101.001s-46 -61.667 -70 -87l63.5 -23c21 -7.33301 41.333 -11.833 61 -13.5s38.334 0.833008 56.001 7.5s33.5 20 47.5 40z" />
    <glyph glyph-name="three" unicode="3" horiz-adv-x="507" 
d="M105 224c-14 -28 -20.3301 -54.0068 -18.9971 -78.0068s7.5 -44.667 18.5 -62s25.333 -30.333 43 -39s36.167 -11.667 55.5 -9c21.333 2.66699 40 11.5 56 26.5s28.333 32.833 37 53.5s12.5 42.667 11.5 66s-7.83301 44.833 -20.5 64.5s-32.167 36 -58.5 49
s-60.5 19.5 -102.5 19.5c-2.66699 0 -6.16699 -0.166992 -10.5 -0.5s-8.5 -0.166016 -12.5 0.500977s-7.33301 2 -10 4s-4 5.33301 -4 10c0.666992 8.66699 5.16699 13 13.5 13h26.5c21.333 0 43.666 2.83301 66.999 8.5s45.166 14 65.499 25s37.5 25 51.5 42
s22.333 36.833 25 59.5c2.66699 24 0.666992 44 -6 60s-15.667 28 -27 36s-24.166 11.833 -38.499 11.5s-28 -4.83301 -41 -13.5s-24.333 -21.5 -34 -38.5s-15.5 -38.5 -17.5 -64.5c-2 34 3 62.333 15 85s27.667 39.834 47 51.501s40.333 17.834 63 18.501
s43.834 -4.16602 63.501 -14.499s36 -25.833 49 -46.5s19.167 -46.667 18.5 -78c-0.666992 -18.667 -4.83398 -36.167 -12.501 -52.5s-17.834 -31.166 -30.501 -44.499s-27.334 -24.833 -44.001 -34.5s-34 -17.5 -52 -23.5c34 -10.667 60.333 -26.667 79 -48
s30.667 -44.666 36 -69.999s4.33301 -51.166 -3 -77.499s-19.833 -49.833 -37.5 -70.5s-40.167 -37 -67.5 -49s-58.333 -16.667 -93 -14c-31.333 2.66699 -58 11.334 -80 26.001s-37.833 32.667 -47.5 54s-12.5 44.666 -8.5 69.999s16 50 36 74z" />
    <glyph glyph-name="four" unicode="4" horiz-adv-x="561" 
d="M332 546c-14.667 -39.333 -32.8311 -76.167 -54.498 -110.5s-44.834 -66.5 -69.501 -96.5l149 -1l40 293c1.33301 8.66699 5.66602 13 12.999 13h74c4 0 7.33301 -1.66699 10 -5s3.66699 -7 3 -11l-83 -615c-2.66699 -7.33301 -7.33398 -11 -14.001 -11h-74
c-4 0 -7.5 1.5 -10.5 4.5s-3.83301 6.5 -2.5 10.5l40 294h-277c39.333 10.667 70.833 24.667 94.5 42s44 36.5 61 57.5s32.833 43.167 47.5 66.5s32.334 46.333 53.001 69z" />
    <glyph glyph-name="five" unicode="5" horiz-adv-x="554" 
d="M471 609c-9.33301 -20 -23.833 -35.3369 -43.5 -46.0039s-41 -17.167 -64 -19.5s-46 -1.16602 -69 3.50098s-42.167 12.334 -57.5 23.001l-24 -193c62 -2 112.167 -12.5 150.5 -31.5s66.5 -42.5 84.5 -70.5s26.5 -58 25.5 -90s-10 -61.667 -27 -89
s-41.333 -50.166 -73 -68.499s-68.834 -27.5 -111.501 -27.5c-38 0 -71.333 6.33301 -100 19s-50.334 29.5 -65.001 50.5s-21.334 44.833 -20.001 71.5s13 53.667 35 81c-15.333 -31.333 -20.666 -59.666 -15.999 -84.999s15.334 -46.333 32.001 -63
s37.334 -28.167 62.001 -34.5s49.167 -6.5 73.5 -0.5s46.333 19 66 39s32.834 48.333 39.501 85c4 22 3 44 -3 66s-18.5 41.833 -37.5 59.5s-45.333 32.167 -79 43.5s-75.834 17 -126.501 17c-4 0 -7.5 1.66699 -10.5 5s-3.83301 7.33301 -2.5 12l30 233
c1.33301 8 6 12 14 12h73c4 0 8.16699 -2.33301 12.5 -7s11 -9.83398 20 -15.501s21.167 -10.667 36.5 -15s36 -6.16602 62 -5.49902c8.66699 0 18.334 0.833008 29.001 2.5s21.167 4.16699 31.5 7.5s20.166 7.5 29.499 12.5s17 11.167 23 18.5z" />
    <glyph glyph-name="six" unicode="6" horiz-adv-x="510" 
d="M435 603c-22.667 -4.66699 -44.1719 -14 -64.5049 -28s-39.5 -31 -57.5 -51s-34.333 -42.167 -49 -66.5s-27.334 -49.166 -38.001 -74.499c35.333 6.66699 65.333 7.16699 90 1.5s44.834 -15.834 60.501 -30.501s26.667 -32.834 33 -54.501s8.66602 -44.5 6.99902 -68.5
s-7 -48.167 -16 -72.5s-21.5 -47.166 -37.5 -68.499c-29.333 -38.667 -61.666 -64 -96.999 -76s-67.666 -11.5 -96.999 1.5s-52.666 37.667 -69.999 74s-22.666 83.5 -15.999 141.5c2.66699 23.333 6.83398 46.166 12.501 68.499s12.834 44.833 21.501 67.5
c14 34.667 31.333 68 52 100s44.5 59.333 71.5 82s56.833 39.334 89.5 50.001s67.667 12 105 4zM213.995 352c-7.33301 -19.333 -13.6641 -39.834 -18.9971 -61.501s-9.33301 -43.667 -12 -66s-3.33398 -44.166 -2.00098 -65.499s5.33301 -40.666 12 -57.999
c8.66699 -22.667 19.167 -38 31.5 -46s25.333 -10.667 39 -8s27.167 9.5 40.5 20.5s25.666 24.167 36.999 39.5c14.667 18.667 26.167 39 34.5 61s13.166 43.5 14.499 64.5s-1 40.667 -7 59s-16.167 33.5 -30.5 45.5s-33 19.667 -56 23s-50.5 0.666016 -82.5 -8.00098z" />
    <glyph glyph-name="seven" unicode="7" horiz-adv-x="561" 
d="M424 345h-108.001c-39.333 -49.333 -67.166 -95.166 -83.499 -137.499s-27.166 -79 -32.499 -110s-8.83301 -55.5 -10.5 -73.5s-7.5 -27 -17.5 -27h-74c-4 0 -7.33301 1.5 -10 4.5s-4 6.5 -4 10.5c4.66699 42 11 79.5 19 112.5s17.333 62.667 28 89
s22.5 50.166 35.5 71.499s26.5 41.333 40.5 60h-95l117 28l41 47.5l39.5 46c13 15.667 26 32.167 39 49.5s25.833 37 38.5 59c-18.667 -5.33301 -37.5 -7.83301 -56.5 -7.5s-37.5 1.5 -55.5 3.5s-34.833 4 -50.5 6s-29.834 2.33301 -42.501 1
s-23.167 -5.66602 -31.5 -12.999s-13.833 -19 -16.5 -35c-1.33301 25.333 1.83398 43.5 9.50098 54.5s18.667 17.833 33 20.5s31.166 2.66699 50.499 0s39.5 -5 60.5 -7s42.167 -2.5 63.5 -1.5s41.333 6.83301 60 17.5c2 0.666992 4.33301 1 7 1h74
c5.33301 0 9.16602 -2 11.499 -6s2.5 -8.33301 0.5 -13c-13.333 -25.333 -26.666 -47.833 -39.999 -67.5s-26.833 -38.334 -40.5 -56.001s-27.5 -34.5 -41.5 -50.5l-43 -49z" />
    <glyph glyph-name="eight" unicode="8" horiz-adv-x="525" 
d="M248 305c-51.333 -41.333 -87.501 -78 -108.501 -110s-31.5 -59 -31.5 -81c0 -23.333 9 -41 27 -53s38.667 -18 62 -18c14 0 28.167 2.16699 42.5 6.5s27.333 11 39 20s21 20.333 28 34s10.5 29.5 10.5 47.5c0 20 -5.16699 42.667 -15.5 68s-28.166 54 -53.499 86z
M227.999 324c-22 28 -37.834 54.3379 -47.501 79.0049s-14.5 48 -14.5 70c0 25.333 5.5 48.166 16.5 68.499s25 37.5 42 51.5s36.167 24.833 57.5 32.5s42 11.5 62 11.5c14.667 0 28.5 -2.16699 41.5 -6.5s24.5 -10.833 34.5 -19.5s18 -19.834 24 -33.501
s9 -29.834 9 -48.501c0 -23.333 -4 -44.5 -12 -63.5s-18.833 -36 -32.5 -51s-29.167 -28.5 -46.5 -40.5s-35 -22.333 -53 -31c30 -42 51.333 -79.833 64 -113.5s19 -63.5 19 -89.5c0 -24.667 -4.66699 -45.834 -14 -63.501s-21.833 -32.334 -37.5 -44.001
s-33.334 -20.334 -53.001 -26.001s-39.5 -8.5 -59.5 -8.5c-19.333 0 -38.166 2.5 -56.499 7.5s-34.666 12.333 -48.999 22s-25.833 21.5 -34.5 35.5s-13 30.333 -13 49c0 26.667 11.5 57.834 34.5 93.501s62.5 75.167 118.5 118.5zM295.998 368.005
c15.333 8 30.667 16.8369 46 26.5039s29.166 20.667 41.499 33s22.333 26.166 30 41.499s11.5 32.666 11.5 51.999c0 22.667 -5.16699 39 -15.5 49s-23.166 15 -38.499 15c-12.667 0 -25.834 -3.16699 -39.501 -9.5s-26.167 -15 -37.5 -26s-20.666 -24.167 -27.999 -39.5
s-11 -32.333 -11 -51c0 -14.667 2.66699 -29.834 8 -45.501s14.333 -31.834 27 -48.501z" />
    <glyph glyph-name="nine" unicode="9" horiz-adv-x="521" 
d="M73 36c22 8.66699 42.832 20.668 62.499 36.001s38 32.833 55 52.5s32.667 40.834 47 63.501s27.166 45.667 38.499 69c-28 -4 -53.5 -2.33301 -76.5 5s-42.333 19.333 -58 36s-26.667 37.167 -33 61.5s-6.5 51.166 -0.5 80.499c7.33301 37.333 20 68.666 38 93.999
s38.333 44.833 61 58.5s46.5 21.167 71.5 22.5s48 -3.66699 69 -15s38.5 -28.833 52.5 -52.5s21.667 -53.834 23 -90.501c1.33301 -29.333 -1.83398 -60.166 -9.50098 -92.499s-19 -64.333 -34 -96s-33.167 -61.834 -54.5 -90.501s-45.166 -53.667 -71.499 -75
s-54.666 -38.166 -84.999 -50.499s-62.166 -17.833 -95.499 -16.5zM288.999 288.001c9.33301 23.333 17 48 23 74s9.33301 51.333 10 76c0.666992 33.333 -2.83301 60.333 -10.5 81s-17.667 35.5 -30 44.5s-26 12.667 -41 11s-29.5 -8.16699 -43.5 -19.5
s-26.833 -27.333 -38.5 -48s-19.834 -45.334 -24.501 -74.001c-4.66699 -27.333 -3.16699 -53.5 4.5 -78.5s23.834 -44.167 48.501 -57.5c15.333 -8 31.833 -12.667 49.5 -14s35.167 0.333984 52.5 5.00098z" />
    <glyph glyph-name="colon" unicode=":" horiz-adv-x="330" 
d="M160 268c-15.333 0 -28.5029 4 -39.5029 12s-19 18 -24 30s-6.66699 24.833 -5 38.5s7.83398 25.834 18.501 36.501s22 17.167 34 19.5s23.5 1.83301 34.5 -1.5s20.833 -9.33301 29.5 -18s14.834 -18.334 18.501 -29.001s4.33398 -22 2.00098 -34
s-8.83301 -23.333 -19.5 -34c-12 -13.333 -28.333 -20 -49 -20zM159.997 54c-15.333 0 -28.5029 4 -39.5029 12s-19 18 -24 30s-6.66699 24.833 -5 38.5s7.83398 25.834 18.501 36.501s22 17.167 34 19.5s23.5 1.83301 34.5 -1.5s20.833 -9.33301 29.5 -18
s14.834 -18.334 18.501 -29.001s4.33398 -22 2.00098 -34s-8.83301 -23.333 -19.5 -34c-12 -13.333 -28.333 -20 -49 -20z" />
    <glyph glyph-name="semicolon" unicode=";" horiz-adv-x="345" 
d="M167 267c-15.333 0 -28.5029 4 -39.5029 12s-19 18 -24 30s-6.66699 24.833 -5 38.5s7.83398 25.834 18.501 36.501s22 17.167 34 19.5s23.5 1.83301 34.5 -1.5s20.833 -9.33301 29.5 -18s14.834 -18.334 18.501 -29.001s4.33398 -22 2.00098 -34
s-8.83301 -23.333 -19.5 -34c-12 -13.333 -28.333 -20 -49 -20zM82.9971 -125c-4.66699 -3.33301 -8.83008 -4.50293 -12.4971 -3.50293s-6.5 3 -8.5 6s-2.66699 6.33301 -2 10s3 6.83398 7 9.50098c6.66699 5.33301 14.5 12.833 23.5 22.5s18 20.834 27 33.501
s17.167 26.167 24.5 40.5s13 28.5 17 42.5c-15.333 2 -27.833 7.66699 -37.5 17s-16.334 20.166 -20.001 32.499s-4.16699 25 -1.5 38s9 23.833 19 32.5s20.167 14.5 30.5 17.5s20.166 3.83301 29.499 2.5s18.166 -4.66602 26.499 -9.99902s15.166 -11.666 20.499 -18.999
c8 -12 11.667 -26 11 -42s-4.66699 -33 -12 -51s-17 -36.167 -29 -54.5s-24.667 -35.5 -38 -51.5s-26.666 -30.5 -39.999 -43.5s-25 -22.833 -35 -29.5z" />
    <glyph glyph-name="less" unicode="&#x3c;" horiz-adv-x="482" 
d="M215 249l137 -62.002c8 -4 13 -9.5 15 -16.5s1.66699 -13.667 -1 -20s-7.33398 -11.166 -14.001 -14.499s-14 -3 -22 1l-193 87c-9.33301 4 -14.833 11 -16.5 21s1.5 18.667 9.5 26l200 90c8 4 15.333 4.33301 22 1s11.334 -8.16602 14.001 -14.499s3 -13 1 -20
s-7 -12.5 -15 -16.5z" />
    <glyph glyph-name="equal" unicode="=" horiz-adv-x="522" 
d="M385 346c8.66699 0 15.334 -2.83301 20.001 -8.5s7 -12 7 -19s-2.33301 -13.333 -7 -19s-11.334 -8.5 -20.001 -8.5h-257c-9.33301 0 -16.166 2.83301 -20.499 8.5s-6.5 12 -6.5 19s2.16699 13.333 6.5 19s11.166 8.5 20.499 8.5h257zM385 209
c8.66699 0 15.334 -2.83301 20.001 -8.5s7 -12 7 -19s-2.33301 -13.333 -7 -19s-11.334 -8.5 -20.001 -8.5h-257c-9.33301 0 -16.166 2.83301 -20.499 8.5s-6.5 12 -6.5 19s2.16699 13.333 6.5 19s11.166 8.5 20.499 8.5h257z" />
    <glyph glyph-name="greater" unicode="&#x3e;" horiz-adv-x="524" 
d="M155 311c-8 4 -13 9.50195 -15 16.502s-1.66699 13.667 1 20s7.33398 11.166 14.001 14.499s14 3 22 -1l200 -90c8 -7.33301 11.167 -16 9.5 -26s-7.16699 -17 -16.5 -21l-193 -87c-8 -4 -15.333 -4.33301 -22 -1s-11.334 8.16602 -14.001 14.499s-3 13 -1 20
s7 12.5 15 16.5l137 62z" />
    <glyph glyph-name="question" unicode="?" horiz-adv-x="600" 
d="M107 110c12 0 22.5029 -3.33496 31.5029 -10.002s15.5 -14.667 19.5 -24s5.16699 -19.5 3.5 -30.5s-6.83398 -20.833 -15.501 -29.5c-12.667 -13.333 -26.334 -19 -41.001 -17s-26.834 7.83301 -36.501 17.5s-15.5 21.834 -17.5 36.501s3.66699 28.334 17 41.001
c10.667 10.667 23.667 16 39 16zM527.003 814.998c-3.33301 -22.667 -10.335 -43.8359 -21.002 -63.5029s-23.667 -38.667 -39 -57s-32.833 -36.333 -52.5 -54l-60.5 -53.5l-89 -80.5c-30 -28.333 -56.5 -59.666 -79.5 -93.999s-41 -72.833 -54 -115.5
s-17.167 -91.334 -12.5 -146.001c0 -4.66699 -1.33301 -8.16699 -4 -10.5s-5.66699 -3.66602 -9 -3.99902s-6.5 0.5 -9.5 2.5s-4.83301 5.33301 -5.5 10c-5.33301 63.333 -2.16602 119.5 9.50098 168.5s28 92.833 49 131.5s45 73.334 72 104.001s53.5 59.334 79.5 86.001
c30.667 31.333 57.834 61.666 81.501 90.999s38.167 60.666 43.5 93.999c3.33301 22 2.16602 43.167 -3.50098 63.5s-14.834 37.666 -27.501 51.999s-28.667 24 -48 29s-41 2.83301 -65 -6.5c-21.333 -11.333 -39.666 -27.166 -54.999 -47.499
s-26.833 -42.666 -34.5 -66.999s-11 -49.333 -10 -75s7.16699 -48.834 18.5 -69.501c2 -4 2.16699 -7.66699 0.5 -11s-4 -5.83301 -7 -7.5s-6.33301 -2.16699 -10 -1.5s-6.5 3 -8.5 7c-12 23.333 -18.833 49.333 -20.5 78s1.66602 57 9.99902 85s21.333 54 39 78
s40.167 43 67.5 57c32.667 16.667 65.334 24.334 98.001 23.001s61.5 -10.166 86.5 -26.499s44.333 -39 58 -68s17.834 -62.833 12.501 -101.5z" />
    <glyph glyph-name="at" unicode="@" horiz-adv-x="833" 
d="M434 480l28.998 56.002c-13.333 12 -27.166 14.667 -41.499 8s-27.166 -17.334 -38.499 -32.001s-20 -30.5 -26 -47.5s-7.83301 -29.667 -5.5 -38s9.83301 -9.33301 22.5 -3s32.667 25.166 60 56.499zM715.998 317.002c2 3.33301 4.83203 5.33105 8.49902 5.99805
s7.16699 0 10.5 -2s5.33301 -4.83301 6 -8.5s0 -7.16699 -2 -10.5c-19.333 -30 -42.333 -58.833 -69 -86.5s-56 -52 -88 -73s-65.833 -37.333 -101.5 -49s-72.167 -16.5 -109.5 -14.5c-54.667 2.66699 -100 16.5 -136 41.5s-63.5 56.5 -82.5 94.5s-30.333 80.5 -34 127.5
s-0.5 94.167 9.5 141.5s26.333 92.5 49 135.5s50.334 79.5 83.001 109.5s69.834 51.333 111.501 64s86.834 12.667 135.501 0c42 -11.333 74 -32.5 96 -63.5s36.167 -66.5 42.5 -106.5s5.5 -81.333 -2.5 -124s-21 -81.334 -39 -116.001
c-11.333 -22 -23.833 -41.833 -37.5 -59.5s-27.667 -32.5 -42 -44.5s-29 -20.667 -44 -26s-29.5 -6 -43.5 -2c-16 4 -27.667 11.167 -35 21.5s-11.833 22.5 -13.5 36.5s-1 28.833 2 44.5s7.16699 31.167 12.5 46.5c-21.333 -17.333 -41.333 -26 -60 -26
s-33.334 6.16699 -44.001 18.5s-16.167 29.833 -16.5 52.5s7.5 48.334 23.5 77.001c6.66699 12 14.5 23 23.5 33s19 18.5 30 25.5s23 12 36 15s26.5 3.16699 40.5 0.5c18.667 -4 33 -14 43 -30l5.5 11c1.66699 3.33301 5.16699 5 10.5 5h62c5.33301 0 9.16602 -2 11.499 -6
s2.5 -8.33301 0.5 -13c-43.333 -88 -72.5 -155.5 -87.5 -202.5s-18.5 -72.167 -10.5 -75.5c6.66699 -3.33301 14.5 -2.83301 23.5 1.5s18.5 11.833 28.5 22.5s20 23.667 30 39s19.333 32.333 28 51c22.667 48.667 35.834 94 39.501 136s0.5 78.833 -9.5 110.5
s-25.833 57.334 -47.5 77.001s-46.167 31.667 -73.5 36s-56.333 -0.166992 -87 -13.5s-60.334 -37 -89.001 -71c-28.667 -34.667 -51.5 -71.667 -68.5 -111s-28.5 -79 -34.5 -119s-6.66699 -78.667 -2 -116s14 -71 28 -101s32.5 -55.167 55.5 -75.5
s50.167 -33.166 81.5 -38.499c32.667 -6 65.834 -3.5 99.501 7.5s65.667 26.667 96 47s58.166 43.833 83.499 70.5s46.333 53 63 79z" />
    <glyph glyph-name="A" unicode="A" horiz-adv-x="1169" 
d="M676 755c-3.33301 -14.667 0.492188 -26.3291 11.4922 -34.9961s26.5 -13 46.5 -13c22 0 42 3 60 9s33.333 13.833 46 23.5s22.5 20.667 29.5 33s10.5 25.166 10.5 38.499c0 20 -9 36.167 -27 48.5s-40.667 18.5 -68 18.5c-24 0 -47.333 -4.5 -70 -13.5
s-44 -20.5 -64 -34.5s-38.5 -29.667 -55.5 -47s-31.5 -34.333 -43.5 -51l-16 -22c-13.333 -19.333 -26.5 -41.833 -39.5 -67.5s-24.833 -52.834 -35.5 -81.501s-19.167 -58.334 -25.5 -89.001s-9.5 -60.334 -9.5 -89.001c0 -18.667 1.83301 -38 5.5 -58
s9.83398 -38.333 18.501 -55s20 -30.334 34 -41.001s31 -16 51 -16c22 0 45.333 6.5 70 19.5s49.167 30.667 73.5 53s47.333 48.666 69 78.999s40.167 62.833 55.5 97.5c11.333 32.667 24.333 66.667 39 102s31.334 72 50.001 110c1.33301 4.66699 4.66602 7 9.99902 7h65
c3.33301 0 6.16602 -1.16699 8.49902 -3.5s3.5 -5.16602 3.5 -8.49902c0 -2 -0.333008 -3.66699 -1 -5c-19.333 -40 -37.833 -81.667 -55.5 -125s-33.167 -86.5 -46.5 -129.5s-23.833 -85.333 -31.5 -127s-11.5 -80.834 -11.5 -117.501
c1.33301 -44.667 7.5 -76.167 18.5 -94.5s25.833 -27.5 44.5 -27.5c13.333 0 28.166 4.83301 44.499 14.5s33.333 22.334 51 38.001s35.334 33 53.001 52s34.334 38 50.001 57l43 54l31.5 41.5c2.66699 2.66699 6 4 10 4c7.33301 0 11 -4 11 -12
c0 -2.66699 -0.666992 -4.66699 -2 -6c-31.333 -43.333 -62.666 -82.666 -93.999 -117.999s-61.333 -65.5 -90 -90.5s-55.667 -44.333 -81 -58s-47.666 -20.5 -66.999 -20.5c-35.333 0 -62.833 15 -82.5 45s-29.5 73.667 -29.5 131c0 48.667 8.66699 108.334 26 179.001
c-38.667 -56 -82 -98.833 -130 -128.5s-93.667 -44.5 -137 -44.5c-22 0 -42.667 4.33301 -62 13s-36.166 21.667 -50.499 39s-25.666 39.5 -33.999 66.5s-12.5 59.167 -12.5 96.5c0 26.667 2.83301 55.5 8.5 86.5s13.834 61.833 24.501 92.5s23.334 60.334 38.001 89.001
s31 54.334 49 77.001c18 24 37.5 46.167 58.5 66.5s43.667 38 68 53s50.166 26.667 77.499 35s55.666 12.5 84.999 12.5c27.333 0 50.833 -2.66699 70.5 -8s35.667 -12.333 48 -21s21.5 -18.834 27.5 -30.501s9 -23.834 9 -36.501c0 -16.667 -4.16699 -32.834 -12.5 -48.501
s-20.166 -29.5 -35.499 -41.5s-33.666 -21.667 -54.999 -29s-45 -11 -71 -11c-12.667 0 -24.5 1.5 -35.5 4.5s-19.667 7.5 -26 13.5s-9.66602 13.5 -9.99902 22.5s4.16699 19.833 13.5 32.5z" />
    <glyph glyph-name="B" unicode="B" horiz-adv-x="875" 
d="M430 870c48 7.33301 88.501 6.16895 121.501 -3.49805s58.667 -24.334 77 -44.001s29.333 -42.834 33 -69.501s0 -53.167 -11 -79.5s-29 -51 -54 -74s-57.167 -40.833 -96.5 -53.5c-4 -1.33301 -8.16699 -2.33301 -12.5 -3s-8.83301 -1.66699 -13.5 -3
c44.667 -16 80.5 -38.667 107.5 -68s45.333 -62 55 -98s10.667 -73.667 3 -113s-23.834 -77 -48.501 -113c20.667 0 43.167 3.66699 67.5 11s49.166 17.833 74.499 31.5s50.166 29.834 74.499 48.501s46.833 39 67.5 61c4.66699 4.66699 10.667 4.66699 18 0
c2 -2.66699 3.16699 -5.66699 3.5 -9s-0.833984 -6.33301 -3.50098 -9c-24 -25.333 -49.833 -48 -77.5 -68s-55.667 -36.833 -84 -50.5s-56 -24 -83 -31s-52.167 -9.83301 -75.5 -8.5c-21.333 -25.333 -45.666 -47.333 -72.999 -66s-55.5 -33.5 -84.5 -44.5
s-57.5 -18.5 -85.5 -22.5s-53.167 -4 -75.5 0s-40.666 11.833 -54.999 23.5s-22.166 27.167 -23.499 46.5c0 9.33301 1.66699 19 5 29s9 19.667 17 29c14.667 18 37.167 32.833 67.5 44.5s67.833 15.5 112.5 11.5l124 -19c24.667 35.333 40.834 72.333 48.501 111
s6.16699 75.167 -4.5 109.5s-30.667 65 -60 92s-68.333 46.5 -117 58.5l-147 -347c-2.66699 -4.66699 -6.33398 -7 -11.001 -7h-65c-4 0 -7.33301 1.83301 -10 5.5s-3 7.5 -1 11.5l70 165.5l76 178l73.5 169.5l62.5 139c-63.333 -17.333 -121.833 -47.166 -175.5 -89.499
s-95.5 -94.833 -125.5 -157.5c10.667 37.333 26.5 71.666 47.5 102.999s45.333 58.833 73 82.5s58 43.167 91 58.5s67.167 25.666 102.5 30.999zM484.001 134.003l-108.999 16.998c-43.333 4 -78.333 0.5 -105 -10.5s-45.5 -24.5 -56.5 -40.5s-14 -32 -9 -48
s17.5 -27 37.5 -33c17.333 -5.33301 37.666 -4.66602 60.999 2.00098s46.5 16.167 69.5 28.5s44.5 26.333 64.5 42s35.667 29.834 47 42.501zM384.002 561.001c28.667 2 55.832 9.66797 81.499 23.001s48.167 29.5 67.5 48.5s34.5 39.667 45.5 62s16.333 43.666 16 63.999
s-7.16602 38.333 -20.499 54s-34.666 26.5 -63.999 32.5c-16.667 -34.667 -35.834 -76.667 -57.501 -126z" />
    <glyph glyph-name="C" unicode="C" horiz-adv-x="912" 
d="M732 780c-0.666992 -29.333 4.99902 -49.667 16.999 -61s27 -17 45 -17s37.333 3.5 58 10.5s39.334 14.5 56.001 22.5c26 12.667 46.167 26.5 60.5 41.5s23 29.5 26 43.5s0.833008 26.5 -6.5 37.5s-19.666 18.833 -36.999 23.5s-39.333 5.16699 -66 1.5
s-57.334 -12.834 -92.001 -27.501c-37.333 -15.333 -72.5 -35.666 -105.5 -60.999s-64.833 -55 -95.5 -89c-29.333 -35.333 -56.5 -72 -81.5 -110s-46.833 -76.667 -65.5 -116s-34 -78.5 -46 -117.5s-19.667 -77.167 -23 -114.5c-5.33301 -59.333 -0.333008 -108 15 -146
s38 -64.667 68 -80s65.667 -19 107 -11s85 28.333 131 61c16 12 33.667 27 53 45s38.666 37.333 57.999 58s38 42 56 64s34 42.667 48 62c1.33301 2.66699 3.66602 4.16699 6.99902 4.5s6.66602 -0.5 9.99902 -2.5c2.66699 -1.33301 4.33398 -3.83301 5.00098 -7.5
s0 -7.16699 -2 -10.5c-12 -16.667 -26.667 -35.5 -44 -56.5s-36 -42.333 -56 -64s-40.5 -42.334 -61.5 -62.001s-40.833 -36.167 -59.5 -49.5c-30.667 -22 -62.667 -39.667 -96 -53s-66.166 -21.5 -98.499 -24.5s-62.666 -0.666992 -90.999 7s-53.333 21.334 -75 41.001
s-38.5 45.667 -50.5 78s-17.333 71.5 -16 117.5c0.666992 40 6.66699 81.333 18 124s26 84.667 44 126s38.833 81.166 62.5 119.499s48.5 73.5 74.5 105.5l20 23c39.333 44 81.666 81.833 126.999 113.5s92.666 54.167 141.999 67.5c44.667 12 83.5 17.667 116.5 17
s59.833 -5.5 80.5 -14.5s35.334 -21.167 44.001 -36.5s10.667 -32 6 -50s-15.667 -36 -33 -54s-41.333 -34.333 -72 -49c-11.333 -5.33301 -24.666 -10.666 -39.999 -15.999s-30.833 -9.33301 -46.5 -12s-31 -3.5 -46 -2.5s-27.333 5 -37 12s-16 17.5 -19 31.5
s-0.833008 33 6.5 57z" />
    <glyph glyph-name="D" unicode="D" horiz-adv-x="819" 
d="M315 849c57.333 3.33301 105.835 -1.33008 145.502 -13.9971s71.667 -31.334 96 -56.001s41.833 -53.834 52.5 -87.501s16.167 -69.834 16.5 -108.501s-3.83398 -78.5 -12.501 -119.5s-20.334 -80.667 -35.001 -119s-31.667 -74.333 -51 -108s-39.333 -62.5 -60 -86.5
c22.667 -2.66699 49.667 -0.833984 81 5.49902s63.333 16.166 96 29.499s64.334 29.833 95.001 49.5s57.334 41.5 80.001 65.5c2.66699 2 5.66699 3 9 3s6 -1 8 -3c6 -6 6.33301 -12 1 -18c-26 -27.333 -56.333 -51.833 -91 -73.5s-70 -39.334 -106 -53.001
s-71 -23.167 -105 -28.5s-63.667 -5.33301 -89 0c-31.333 -33.333 -65 -61.666 -101 -84.999s-74 -39.666 -114 -48.999c-30 -7.33301 -55.667 -8.33301 -77 -3s-37.833 14.333 -49.5 27s-18.5 27.5 -20.5 44.5s1.33301 33.5 10 49.5s22.667 30.167 42 42.5
s44.666 19.833 75.999 22.5c25.333 2.66699 52.5 1.83398 81.5 -2.49902s57.5 -8.83301 85.5 -13.5c22.667 25.333 45.667 58.166 69 98.499s43.666 83.333 60.999 129s30.333 92.167 39 139.5s9.66699 91 3 131s-22.5 74.333 -47.5 103s-62.167 47.334 -111.5 56.001
l-62.5 -139l-71.5 -164.5l-73.5 -172l-67.5 -160.5c-2 -4.66699 -5.33301 -7 -10 -7h-66c-4 0 -7.16699 1.83301 -9.5 5.5s-2.83301 7.5 -1.5 11.5l67.5 159l72.5 170l70 163.5l62 139.5c-36 -5.33301 -71.5 -15 -106.5 -29s-68.5 -34 -100.5 -60
c31.333 40 65.833 68.5 103.5 85.5s76.5 26.833 116.5 29.5zM219.002 37.0039c18 8 38.9971 19.833 62.9971 35.5s49.667 37.5 77 65.5l-75 11.5c-24.667 3.66699 -47.667 4.5 -69 2.5c-24 -2.66699 -43.667 -8.66699 -59 -18s-26.666 -19.833 -33.999 -31.5
s-10.666 -23.667 -9.99902 -36s5.16699 -22.333 13.5 -30s20.333 -12 36 -13s34.834 3.5 57.501 13.5z" />
    <glyph glyph-name="E" unicode="E" horiz-adv-x="679" 
d="M385 669c-8.66699 28.667 -9.49707 57.499 -2.49707 86.499s19.167 55 36.5 78s39 41.833 65 56.5s54 22 84 22c25.333 0 44.833 -5.33301 58.5 -16s20.5 -25.667 20.5 -45c0 -14 -3 -27.667 -9 -41s-14.167 -25.333 -24.5 -36s-22.5 -19.334 -36.5 -26.001
s-29 -11 -45 -13c32.667 20 55.167 41.167 67.5 63.5s17.166 40.5 14.499 54.5s-11.334 21.333 -26.001 22s-33 -10 -55 -32c-8 -8 -16 -17.333 -24 -28s-14.833 -22.667 -20.5 -36s-9.5 -28 -11.5 -44s-1.33301 -33.333 2 -52c4 -24.667 16.5 -45.5 37.5 -62.5
s46.167 -29.167 75.5 -36.5c6 -2 9 -6 9 -12c0 -2.66699 -0.666992 -5.16699 -2 -7.5s-3.33301 -3.5 -6 -3.5c-70 -18.667 -130 -43 -180 -73s-90.667 -62.5 -122 -97.5s-54.333 -71 -69 -108s-22 -71.5 -22 -103.5c0 -21.333 2.83301 -41.166 8.5 -59.499
s13.834 -34.333 24.501 -48s23.834 -24 39.501 -31s33.5 -9.5 53.5 -7.5c19.333 2 42.666 9.83301 69.999 23.5s56.666 32.334 87.999 56.001s63.833 51.334 97.5 83.001s66.167 66.5 97.5 104.5c2.66699 2.66699 5.66699 4 9 4c8 0 12 -3.66699 12 -11
c0 -2 -0.333008 -3.66699 -1 -5l-2 -4c-36.667 -44.667 -73.834 -85.167 -111.501 -121.5s-74.167 -67 -109.5 -92s-69 -44 -101 -57s-61 -18.5 -87 -16.5c-28 0 -53.333 5 -76 15s-42 23.667 -58 41s-28.333 37.833 -37 61.5s-13 49.167 -13 76.5
c0 33.333 7 68.166 21 104.499s36 71.666 66 105.999s68.5 66.5 115.5 96.5s103.5 55.333 169.5 76c-48 20.667 -78.333 52.334 -91 95.001z" />
    <glyph glyph-name="F" unicode="F" horiz-adv-x="971" 
d="M187 588c32 26 65.5039 43.498 100.504 52.498s71 13.5 108 13.5s74.667 -2.16699 113 -6.5s76.5 -6.83301 114.5 -7.5l77 149c27.333 47.333 55 80.333 83 99s53.167 27.167 75.5 25.5s40.833 -11.5 55.5 -29.5s22.167 -39.667 22.5 -65s-7.5 -52 -23.5 -80
s-43.333 -53.333 -82 -76c-40.667 -22.667 -82.334 -37 -125.001 -43l-70 -148c18 -2 35.5 -3.16699 52.5 -3.5s33.5 1.33398 49.5 5.00098s31.333 9.5 46 17.5s28 19.667 40 35c2 3.33301 4.66699 5 8 5s6.33301 -0.666992 9 -2c7.33301 -6 8 -12 2 -18
c-14.667 -18 -30.5 -31.833 -47.5 -41.5s-34.833 -16.5 -53.5 -20.5s-37.834 -5.66699 -57.501 -5s-39.5 2 -59.5 4l-107 -233c-32 -68 -63.5 -119.5 -94.5 -154.5s-60.333 -58.167 -88 -69.5s-52.5 -12.833 -74.5 -4.5s-39.667 22.166 -53 41.499s-21.166 42 -23.499 68
s2.16699 51.333 13.5 76c12 25.333 32.667 47.333 62 66s69.666 28 120.999 28c3.33301 0 6.16602 -1.33301 8.49902 -4s3.5 -5.66699 3.5 -9c0 -8 -4 -12 -12 -12c-37.333 0 -68 -6 -92 -18s-42.333 -26.833 -55 -44.5s-20 -36.167 -22 -55.5s0.166992 -36.166 6.5 -50.499
s16.166 -24.5 29.499 -30.5s29.5 -4.33301 48.5 5s39.833 28 62.5 56s46.667 68.667 72 122l106 233c-22.667 2 -44 1.83301 -64 -0.5s-37.667 -9.16602 -53 -20.499c-2.66699 -2.66699 -5.66699 -3.66699 -9 -3s-6 2.66699 -8 6c-4.66699 6 -3.66699 11.667 3 17
c20 14 42 22.333 66 25s49.667 2.66699 77 0l62 134c-36.667 1.33301 -73.667 4.33301 -111 9s-74 7.5 -110 8.5s-71.167 -1.33301 -105.5 -7s-66.833 -18.5 -97.5 -38.5zM788.004 776.998l-68.998 -128.997c38 7.33301 70 18.5 96 33.5s46.667 31.833 62 50.5
c12 15.333 20.667 31.166 26 47.499s7.5 31.166 6.5 44.499s-4.66699 24 -11 32s-14.833 11.167 -25.5 9.5s-23.334 -9.33398 -38.001 -23.001s-30.334 -35.5 -47.001 -65.5z" />
    <glyph glyph-name="G" unicode="G" horiz-adv-x="1084" 
d="M573 40c-37.333 -2 -72.1699 -6.33203 -104.503 -12.999s-62.5 -18.334 -90.5 -35.001c-22.667 -14 -40.334 -31.167 -53.001 -51.5s-21 -40.833 -25 -61.5s-4 -40.167 0 -58.5s11.333 -32.5 22 -42.5s24.334 -14.167 41.001 -12.5s35.834 12 57.501 31
s45.334 48 71.001 87s52.834 91.167 81.501 156.5zM263.996 474.001c12 69.333 32.4961 134.013 61.4961 194.013s65.833 111 110.5 153c40.667 37.333 81 63.166 121 77.499s77 19.666 111 15.999s63.333 -14.834 88 -33.501s41.667 -42.167 51 -70.5s9.5 -60 0.5 -95
s-29.833 -70.833 -62.5 -107.5c-12.667 -14 -28 -26.833 -46 -38.5s-37.5 -21.334 -58.5 -29.001s-42.167 -12.834 -63.5 -15.501s-41.166 -1.83398 -59.499 2.49902s-34.166 12.666 -47.499 24.999s-22.666 29.5 -27.999 51.5c18.667 -26 40.834 -43.167 66.501 -51.5
s52 -10.166 79 -5.49902s52.833 14 77.5 28s45.667 30.667 63 50c24.667 28 41.5 55 50.5 81s12.5 50.333 10.5 73c-2.66699 19.333 -9.16699 36.666 -19.5 51.999s-23.5 28 -39.5 38c-21.333 12.667 -43.166 17.667 -65.499 15s-44.166 -9.83398 -65.499 -21.501
s-41.333 -26 -60 -43s-34.667 -33.5 -48 -49.5c-14.667 -17.333 -29.167 -35.833 -43.5 -55.5s-27.5 -41.834 -39.5 -66.501s-22.667 -52.5 -32 -83.5s-16.333 -66.5 -21 -106.5c-7.33301 -58.667 -6.16602 -105.667 3.50098 -141s24.834 -60.5 45.501 -75.5
s45.167 -20.833 73.5 -17.5s57.5 14 87.5 32s59 42.667 87 74s52.333 67.666 73 108.999c7.33301 18 14.166 36 20.499 54l18.5 53c2 5.33301 6 8 12 8h68c4 0 7.33301 -1.66699 10 -5s3.33398 -7.33301 2.00098 -12l-41 -113l-45 -120.5l-46 -120l-44 -111.5
c30 2 62.667 9.16699 98 21.5s71 28.5 107 48.5s71.167 43.333 105.5 70s65.5 56 93.5 88c6 7.33301 12 8 18 2s6.33301 -12 1 -18c-30.667 -35.333 -64.5 -67 -101.5 -95s-74.667 -52.333 -113 -73s-76.333 -37 -114 -49s-72.5 -19 -104.5 -21
c-8.66699 -20.667 -18.834 -43.167 -30.501 -67.5s-24.5 -48.5 -38.5 -72.5s-29.167 -47.333 -45.5 -70s-33.833 -42.5 -52.5 -59.5s-38.334 -30.833 -59.001 -41.5s-42.334 -16 -65.001 -16c-32 0 -58 10.333 -78 31s-31.833 46.167 -35.5 76.5s2 62.5 17 96.5
s41.833 64 80.5 90c31.333 20.667 65.666 34.167 102.999 40.5s76.666 10.833 117.999 13.5l102 263c-30 -36.667 -62.667 -66.334 -98 -89.001s-70.166 -37.834 -104.499 -45.501s-67 -7.83398 -98 -0.500977s-57 22.333 -78 45s-36 53.5 -45 92.5s-8.5 86.167 1.5 141.5z
" />
    <glyph glyph-name="H" unicode="H" horiz-adv-x="1271" 
d="M481 358c21.333 29.333 44 50.502 68 63.502s48.333 22.5 73 28.5l165 424c-38.667 -16.667 -78.167 -26 -118.5 -28s-81 -1.33301 -122 2s-81.667 7 -122 11s-79.5 4 -117.5 0c26 11.333 52.5 18.166 79.5 20.499s54.167 2.83301 81.5 1.5s54.833 -3.5 82.5 -6.5
s55.334 -4.5 83.001 -4.5s55.5 2.66699 83.5 8s56 15.666 84 30.999l14 4h60c0 -0.666992 0.833008 -1.33398 2.5 -2.00098s3.33398 -1.5 5.00098 -2.5s3 -2.5 4 -4.5s0.833008 -4.33301 -0.5 -7l-167 -433c37.333 2.66699 73 2.66699 107 0s69 -4.66699 105 -6l178 448l6 4
c2 0.666992 3.66699 1.66699 5 3h65c0 -1.33301 2.5 -2.83301 7.5 -4.5s6.16699 -5.5 3.5 -11.5l-174 -438c36 4 69.833 14.167 101.5 30.5s60.167 44.166 85.5 83.499c-9.33301 -26 -20.666 -47.833 -33.999 -65.5s-28.5 -31.667 -45.5 -42s-35.5 -18 -55.5 -23
s-40.667 -8.16699 -62 -9.5c-2.66699 -7.33301 -7.83398 -19.5 -15.501 -36.5l-26 -60.5c-9.66699 -23.333 -19.5 -48.333 -29.5 -75s-19 -52.834 -27 -78.501s-14.333 -50 -19 -73s-6.16699 -42.333 -4.5 -58s7.16699 -26.667 16.5 -33s23.666 -5.83301 42.999 1.5
c24 9.33301 51.167 24.5 81.5 45.5s60.5 44.833 90.5 71.5s58.167 54.334 84.5 83.001s47.833 55.334 64.5 80.001c6 6 11.667 7 17 3c6.66699 -4.66699 7.66699 -10.334 3 -17.001c-17.333 -25.333 -39.666 -52.833 -66.999 -82.5s-56.5 -58.167 -87.5 -85.5
s-62.333 -51.833 -94 -73.5s-59.834 -37.5 -84.501 -47.5c-14 -5.33301 -28.667 -9.5 -44 -12.5s-29.666 -3.66699 -42.999 -2s-25.333 6.5 -36 14.5s-18.334 20.333 -23.001 37c-5.33301 15.333 -7.16602 33.666 -5.49902 54.999s5.5 44.166 11.5 68.499
s13.5 49.333 22.5 75s18.333 50.667 28 75l28.5 69l24 56.5c-36 2 -71.167 4.33301 -105.5 7s-69.833 2.33398 -106.5 -0.999023l-31 -78c-11.333 -29.333 -24 -59.666 -38 -90.999s-29.333 -62.666 -46 -93.999s-34.667 -60.166 -54 -86.499s-40 -48.833 -62 -67.5
s-45.667 -31.334 -71 -38.001c-16.667 -4.66699 -32.334 -6 -47.001 -4s-27.834 6.5 -39.501 13.5s-21.5 16 -29.5 27s-13.333 23.167 -16 36.5c-2 7.33301 1 12.333 9 15c3.33301 0.666992 6.33301 0.166992 9 -1.5s4.66699 -4.5 6 -8.5c3.33301 -16 11 -29 23 -39
c16.667 -14.667 34.667 -16.334 54 -5.00098s39 29.833 59 55.5s39.667 56.334 59 92.001s36.833 70.667 52.5 105s29.167 65.333 40.5 93l24 57.5c-21.333 -6 -42.833 -14.167 -64.5 -24.5s-43.5 -23.166 -65.5 -38.499z" />
    <glyph glyph-name="I" unicode="I" horiz-adv-x="845" 
d="M312 857c20 25.333 43.333 43.5039 70 54.5039s54.667 17.833 84 20.5s59.166 2.66699 89.499 0s58.5 -5.33398 84.5 -8.00098c27.333 -2.66699 54.166 -4.83398 80.499 -6.50098s52.833 -1.83398 79.5 -0.500977c5.33301 0 9 -1.83301 11 -5.5s2.33301 -7.5 1 -11.5
c-9.33301 -24.667 -18.833 -52.334 -28.5 -83.001l-31.5 -99l-51.5 -157.5c-18.333 -55 -38.166 -109.333 -59.499 -163s-44.666 -105.334 -69.999 -155.001s-52.833 -93.834 -82.5 -132.501s-61.834 -70.167 -96.501 -94.5s-72 -38.5 -112 -42.5
c-31.333 -2.66699 -59.333 2.16602 -84 14.499s-44.5 29.5 -59.5 51.5s-24.5 47.667 -28.5 77s-1 59.5 9 90.5s28.167 61.833 54.5 92.5s62.166 58 107.499 82c3.33301 2 6.5 2.5 9.5 1.5s5.5 -2.83301 7.5 -5.5c1.33301 -3.33301 1.5 -6.66602 0.5 -9.99902
s-3.16699 -5.66602 -6.5 -6.99902l-8 -5c-44.667 -25.333 -78.5 -53.666 -101.5 -84.999s-37.5 -62.166 -43.5 -92.499s-4.66699 -58.5 4 -84.5s22.334 -46.333 41.001 -61s41.167 -21.834 67.5 -21.501s53.833 11.5 82.5 33.5c30.667 23.333 59.667 55.5 87 96.5
s53.166 86.5 77.499 136.5s46.833 102.167 67.5 156.5s39.334 106.5 56.001 156.5l44 136.5l31 97.5l23 69c-35.333 2 -70.666 5 -105.999 9s-70.333 6 -105 6s-68.5 -3.5 -101.5 -10.5s-64.167 -20.5 -93.5 -40.5z" />
    <glyph glyph-name="J" unicode="J" horiz-adv-x="1060" 
d="M299 679c6 58.667 19.501 103.166 40.501 133.499s47 51.666 78 63.999s65.667 18.333 104 18s77.833 -2 118.5 -5s81.5 -4.33301 122.5 -4s79.5 7.16602 115.5 20.499c2 6.66699 6.33301 10 13 10h67c4.66699 0 8.16699 -1.66699 10.5 -5s2.83301 -7 1.5 -11
l-133 -382.5c-44.667 -131 -94.667 -259.833 -150 -386.5c30.667 -3.33301 63.167 -1.16602 97.5 6.50098s68.166 19.334 101.499 35.001s65.166 34.5 95.499 56.5s56.5 45.667 78.5 71c6 7.33301 12 8 18 2s6.33301 -12 1 -18c-24.667 -28 -53.334 -53.833 -86.001 -77.5
s-67 -43.667 -103 -60s-72.333 -28.333 -109 -36s-71.667 -9.16699 -105 -4.5l-46 -97.5c-16.667 -34.333 -34.834 -68.166 -54.501 -101.499s-41 -65 -64 -95s-47.333 -56 -73 -78s-53.167 -39 -82.5 -51s-60 -16.667 -92 -14c-36 3.33301 -66 13.166 -90 29.499
s-42.667 36.333 -56 60s-21.166 50 -23.499 79s0.333984 58.5 8.00098 88.5s20.334 59 38.001 87s39.834 53 66.501 75c26 22 54.333 37.667 85 47s62.667 15 96 17s67.333 1.5 102 -1.5s69.667 -6.5 105 -10.5c53.333 120.667 101.666 243.5 144.999 368.5l128 367.5
c-36.667 -10.667 -73.667 -15.667 -111 -15s-74.166 2.66699 -110.499 6s-71.833 5.33301 -106.5 6s-67 -4.5 -97 -15.5s-57.333 -30.167 -82 -57.5s-45.334 -67.666 -62.001 -120.999zM437.001 -155.001c16 21.333 30.999 43.668 44.999 67.001s27.167 46.666 39.5 69.999
s23.666 46.333 33.999 69l29.5 64c-33.333 4 -66.666 7.5 -99.999 10.5s-65.5 3.5 -96.5 1.5s-60.5 -7.33301 -88.5 -16s-53.667 -23 -77 -43c-28.667 -24 -51 -50.333 -67 -79s-26.5 -57 -31.5 -85s-5 -54.833 0 -80.5s13.833 -47.667 26.5 -66s28.834 -32 48.501 -41
s42 -11 67 -6s51.833 18.167 80.5 39.5s58.667 53 90 95z" />
    <glyph glyph-name="K" unicode="K" horiz-adv-x="833" 
d="M565 897c-34.667 -99.333 -69.5 -193.328 -104.5 -281.995l-100.5 -249c58.667 22 111.667 46.833 159 74.5s90.833 59 130.5 94s76 74.333 109 118s64.167 92.5 93.5 146.5c2 3.33301 4.66699 5.33301 8 6s6.33301 0.333984 9 -0.999023
c6.66699 -4.66699 8.33398 -10.334 5.00098 -17.001c-30 -54.667 -61.833 -104.167 -95.5 -148.5s-70.667 -84.5 -111 -120.5s-84.666 -68.333 -132.999 -97s-102.166 -54 -161.499 -76c22.667 -10 42 -23 58 -39s29.667 -34 41 -54s20.833 -41.333 28.5 -64l22.5 -69
c12 -37.333 24.833 -70.333 38.5 -99s30.167 -52 49.5 -70s42.666 -30.667 69.999 -38s60.666 -8 99.999 -2c8 1.33301 13 -2 15 -10c0.666992 -4 -0.166016 -7.16699 -2.49902 -9.5s-5.16602 -4.16602 -8.49902 -5.49902c-53.333 -8 -98.5 -10.333 -135.5 -7
s-68.833 13.833 -95.5 31.5s-49.334 43 -68.001 76s-36 75.167 -52 126.5c-5.33301 18 -11 36 -17 54s-12.833 35.333 -20.5 52s-16.667 32 -27 46s-22.5 26.667 -36.5 38l-40 -90.5c-14 -30.333 -29.167 -59.333 -45.5 -87s-34 -52.834 -53 -75.501
s-40.167 -41.334 -63.5 -56.001c-20 -12.667 -40 -20.5 -60 -23.5s-38.333 -2 -55 3s-31 13.667 -43 26s-20 28.166 -24 47.499c-1.33301 4 -1 7.33301 1 10s4.5 4.16699 7.5 4.5s5.83301 -0.166992 8.5 -1.5s4.66699 -4 6 -8
c7.33301 -21.333 16.166 -35.166 26.499 -41.499s21.5 -8 33.5 -5s24 9.33301 36 19s23.333 20.167 34 31.5c13.333 14 26.666 30.833 39.999 50.5s26.666 42.5 39.999 68.5c24 48 49.333 104.333 76 169l5 11c1.33301 1.33301 6.16602 12.166 14.499 32.499l31 78
l40.5 105.5l44 115l41.5 107l31.5 82c-38.667 -16.667 -78.167 -26 -118.5 -28s-81 -1.33301 -122 2s-81.667 7 -122 11s-79.5 4 -117.5 0c26 11.333 52.5 18.166 79.5 20.499s54.167 2.83301 81.5 1.5s54.833 -3.5 82.5 -6.5s55.334 -4.5 83.001 -4.5s55.5 2.66699 83.5 8
s56 15.666 84 30.999l14 4h60c0 -0.666992 0.833008 -1.33398 2.5 -2.00098s3.33398 -1.5 5.00098 -2.5s3 -2.5 4 -4.5s0.833008 -4.33301 -0.5 -7z" />
    <glyph glyph-name="L" unicode="L" horiz-adv-x="1039" 
d="M271 737c27.333 22 55.501 37.3301 84.501 45.9971s59.167 13 90.5 13s63.666 -3 96.999 -9l105 -19c10.667 16.667 23.167 34.334 37.5 53.001s29.833 35.334 46.5 50.001s34.167 26.334 52.5 35.001s36.833 11.334 55.5 8.00098c16 -3.33301 28.5 -10.833 37.5 -22.5
s12.833 -25.834 11.5 -42.501c-1.33301 -18 -7.5 -34.333 -18.5 -49s-24.333 -27 -40 -37s-32.667 -17.667 -51 -23s-35.5 -8 -51.5 -8c-29.333 -48.667 -57.333 -103 -84 -163l-77.5 -180.5l-72.5 -172.5c-23.333 -54.667 -46.666 -101 -69.999 -139l143.5 -58.5
c47 -19 93.833 -32.167 140.5 -39.5s93.667 -6.66602 141 2.00098s95.666 30.667 144.999 66c2.66699 2 5.83398 2.66699 9.50098 2s6.5 -2.66699 8.5 -6c4.66699 -7.33301 3.66699 -13.333 -3 -18c-35.333 -24.667 -69.666 -43 -102.999 -55s-66.5 -19.333 -99.5 -22
s-65.833 -1.33398 -98.5 3.99902s-65.334 13.166 -98.001 23.499s-65.667 22.5 -99 36.5l-102 42c-25.333 -38.667 -56.166 -71.167 -92.499 -97.5s-75.5 -41.166 -117.5 -44.499c-32 -2 -58.333 2 -79 12s-36 23.167 -46 39.5s-14.5 34.333 -13.5 54s7 38 18 55
s27.333 31.167 49 42.5s48.167 17 79.5 17c22 0 44.167 -2.33301 66.5 -7s45.166 -10.667 68.499 -18c22.667 41.333 45.167 88.666 67.5 141.999l69 166l73 171c25 56.667 52.167 109.334 81.5 158.001l-98.5 18.5c-31.667 5.66699 -62.334 9.16699 -92.001 10.5
s-58.667 -0.5 -87 -5.5s-56.5 -15.167 -84.5 -30.5zM214.001 -33.0029c22.667 13.333 43.667 30.166 63 50.499s36 42.5 50 66.5c-54 17.333 -98 24.166 -132 20.499s-59.667 -12.5 -77 -26.5s-27.333 -30.667 -30 -50s0.833008 -36.166 10.5 -50.499
s24.5 -23.666 44.5 -27.999s43.667 1.5 71 17.5zM745.001 758.997c23.333 0.666992 43.499 6 60.499 16s30.333 21.167 40 33.5s15.834 24.166 18.501 35.499s1.66699 19 -3 23s-13 2.83301 -25 -3.5s-27.667 -21.166 -47 -44.499l-20.5 -26
c-7.66699 -10 -15.5 -21.333 -23.5 -34z" />
    <glyph glyph-name="M" unicode="M" horiz-adv-x="2148" 
d="M1117 216l31.0059 115.507c10.667 41 19 81.5 25 121.5c4.66699 30 6.16699 58.833 4.5 86.5s-6.16699 52 -13.5 73s-17.333 37.5 -30 49.5s-28 17.5 -46 16.5s-38.333 -9.33301 -61 -25s-47.334 -40.834 -74.001 -75.501c-23.333 -29.333 -46.833 -64.333 -70.5 -105
s-46.334 -83 -68.001 -127s-41.834 -87.833 -60.501 -131.5s-34.667 -83.834 -48 -120.501l-39.5 -114.5c-11 -31.667 -19.167 -54.167 -24.5 -67.5c-2 -5.33301 -6 -8 -12 -8h-69c-5.33301 0 -9.33301 1.83301 -12 5.5s-3 7.83398 -1 12.501c6 14 15.667 40.333 29 79
l47 139l59.5 177.5l65 195.5l63 193.5l55.5 170.5c-38 -18 -75.833 -29.667 -113.5 -35s-75.5 -8.5 -113.5 -9.5l-114.5 -3c-38.333 -1 -76.833 -6.5 -115.5 -16.5c26.667 11.333 53.334 19.666 80.001 24.999s53.334 9.33301 80.001 12s53.167 4.66699 79.5 6
s52.5 4 78.5 8s52 9.83301 78 17.5s51.667 18.834 77 33.501c2 1.33301 6.5 1.83301 13.5 1.5s14.667 -1 23 -2s16.166 -2.16699 23.499 -3.5s12.333 -2 15 -2c4.66699 -0.666992 8.16699 -2.66699 10.5 -6s2.83301 -7 1.5 -11l-169 -515
c15.333 31.333 33.166 65 53.499 101s42.666 70 66.999 102s50.5 60.167 78.5 84.5s58 40.5 90 48.5c32.667 8 62.667 6.16699 90 -5.5s49 -31.834 65 -60.501c10.667 -19.333 18.5 -41.5 23.5 -66.5s6.5 -53.167 4.5 -84.5c44 95.333 92.667 171.666 146 228.999
s105 97.333 155 120c18.667 8 37.5 14 56.5 18s37.5 5 55.5 3s35 -7 51 -15s30.333 -20 43 -36c16.667 -20.667 26.667 -47.334 30 -80.001s2.33301 -69 -3 -109s-13.833 -82.333 -25.5 -127s-24.334 -89.334 -38.001 -134.001l-40.5 -131
c-13.333 -42.667 -24.166 -82 -32.499 -118s-13.166 -67.167 -14.499 -93.5s3 -45.666 13 -57.999s27 -16.666 51 -12.999s57 18.167 99 43.5c29.333 17.333 59.5 39 90.5 65s61.167 53.333 90.5 82s56.666 57 81.999 85l66 73c3.33301 3.33301 6.83301 5 10.5 5
s6.66699 -1.16699 9 -3.5s3.66602 -5.33301 4 -9c0.333008 -3.66699 -1.16699 -6.83398 -4.5 -9.50098c-18.667 -21.333 -41.5 -46 -68.5 -74l-86.5 -86.5c-30.667 -29.667 -62.167 -58.167 -94.5 -85.5s-63.5 -51 -93.5 -71c-46 -30 -86.667 -48.167 -122 -54.5
s-63.666 -2.16602 -84.999 12.501c-20.667 14 -34 34.167 -40 60.5s-6.83301 56.833 -2.5 91.5s12.166 72.334 23.499 113.001s23.833 82.667 37.5 126l41 131c13.667 44 24.667 86.167 33 126.5s12.666 78.166 12.999 113.499s-5.83398 66.333 -18.501 93
c-7.33301 15.333 -16.833 27.666 -28.5 36.999s-25.834 14.166 -42.501 14.499s-36 -4.5 -58 -14.5s-47 -26.333 -75 -49c-44 -36 -87 -85.167 -129 -147.5s-80 -139.5 -114 -231.5c-3.33301 -14.667 -7.16602 -29.334 -11.499 -44.001s-11.333 -29.334 -21 -44.001
s-23 -29 -40 -43s-39.5 -27.667 -67.5 -41z" />
    <glyph glyph-name="N" unicode="N" horiz-adv-x="1626" 
d="M357 797c29.333 16 58.8369 27.6699 88.5039 35.0029s59.167 12.666 88.5 15.999s58.5 5.66602 87.5 6.99902s58 3.66602 87 6.99902s57.667 8.83301 86 16.5s56.5 19.834 84.5 36.501c1.33301 0.666992 4 1 8 1l67 -7c4 -0.666992 7.16699 -2.83398 9.5 -6.50098
s2.83301 -7.16699 1.5 -10.5l-113 -345c36.667 64 75.667 115.833 117 155.5s81.333 68 120 85s74.5 23.167 107.5 18.5s59.833 -19.667 80.5 -45c18 -22 29.333 -47.667 34 -77s5 -61 1 -95s-11.167 -69.833 -21.5 -107.5s-21.833 -75.334 -34.5 -113.001l-38 -111
c-12.667 -36.333 -23 -70.666 -31 -102.999s-12.833 -61.666 -14.5 -87.999s2.16602 -48.5 11.499 -66.5c4.66699 -8 11 -14.167 19 -18.5s17.833 -6.16602 29.5 -5.49902s25.334 4.16699 41.001 10.5s33.5 16.166 53.5 29.499c26 18 53 39.167 81 63.5
s55.167 49.666 81.5 75.999l74.5 77.5l62 67c6 7.33301 12 8 18 2s6.33301 -12.333 1 -19l-66.5 -71.5l-78 -79l-80 -75c-26.333 -23.667 -50.833 -43.5 -73.5 -59.5c-27.333 -19.333 -51.666 -34.166 -72.999 -44.499s-40.5 -17.5 -57.5 -21.5s-31.667 -4.83301 -44 -2.5
s-23.166 6.5 -32.499 12.5c-22 14.667 -36.5 35 -43.5 61s-9.33301 55.667 -7 89s8.5 69.333 18.5 108s21.5 78.167 34.5 118.5l39 121c13 40.333 24 78.666 33 114.999s14.667 69.5 17 99.5s-1.16699 55.333 -10.5 76c-4 8.66699 -9.5 16.834 -16.5 24.501
s-15.333 13.5 -25 17.5s-20.834 5.66699 -33.501 5s-26.667 -4.66699 -42 -12c-19.333 -8.66699 -39.833 -20.834 -61.5 -36.501s-43.667 -35 -66 -58s-44.5 -49.833 -66.5 -80.5s-42.667 -65.334 -62 -104.001c-22.667 -45.333 -42.834 -91.666 -60.501 -138.999
s-34.334 -95 -50.001 -143l-47 -144.5c-15.667 -48.333 -32.834 -95.833 -51.501 -142.5c-2 -5.33301 -6 -8 -12 -8h-70c-4 0 -7.33301 1.66699 -10 5s-3.33398 7.33301 -2.00098 12c6 14 15.667 40.333 29 79l47.5 138.5l59 176.5l64 194.5l63 192.5l55.5 170
c-42 -20 -83.833 -32.167 -125.5 -36.5s-83.5 -7 -125.5 -8s-84.333 -3 -127 -6s-85.334 -12.833 -128.001 -29.5z" />
    <glyph glyph-name="O" unicode="O" horiz-adv-x="1050" 
d="M362 506l12.5146 34.4971c4.33301 11.667 9.16602 23.5 14.499 35.5c27.333 66.667 58.166 122.5 92.499 167.5s69.333 80.667 105 107s70.667 44.333 105 54s64.666 12.5 90.999 8.5s47.5 -14 63.5 -30s23.667 -36.333 23 -61s-11 -52.667 -31 -84
s-52.667 -64.666 -98 -99.999c-15.333 -12 -32 -23.5 -50 -34.5s-36.667 -20.667 -56 -29s-39 -15.166 -59 -20.499s-39.667 -8 -59 -8c40 15.333 78 32.5 114 51.5s67.667 39.167 95 60.5c20 15.333 37.167 30 51.5 44s26.5 27.667 36.5 41
c16.667 23.333 26.667 45.333 30 66s0.5 37.5 -8.5 50.5s-23.333 20.5 -43 22.5s-43.834 -4 -72.501 -18c-32 -15.333 -61.333 -35.5 -88 -60.5s-50.834 -52.667 -72.501 -83s-40.667 -62.166 -57 -95.499s-30.5 -66 -42.5 -98l-10 -26
c-6.66699 -18.667 -13.834 -41.5 -21.501 -68.5s-14.5 -56 -20.5 -87s-10.167 -62.333 -12.5 -94s-1.16602 -61.667 3.50098 -90s13.834 -53.333 27.501 -75s33.167 -37.834 58.5 -48.501c17.333 -7.33301 35.666 -9.66602 54.999 -6.99902s38.666 8.16699 57.999 16.5
s38.166 19 56.499 32s35.166 26.167 50.499 39.5c36 32.667 69.5 71 100.5 115s58 90 81 138s41.333 96.333 55 145s21.5 93.834 23.5 135.501s-2.5 78.167 -13.5 109.5s-29.5 53.666 -55.5 66.999c-2.66699 2 -4.5 4.5 -5.5 7.5s-0.833008 6.16699 0.5 9.5
s3.66602 5.33301 6.99902 6s6.33301 0.333984 9 -0.999023c18 -9.33301 32.833 -21.833 44.5 -37.5s20.5 -33.667 26.5 -54s9.66699 -42.5 11 -66.5s0.666016 -48.333 -2.00098 -73c-4 -36 -12.167 -74.667 -24.5 -116s-28 -83 -47 -125s-41 -82.833 -66 -122.5
s-52.667 -76.167 -83 -109.5s-62.833 -62 -97.5 -86s-70.667 -41.333 -108 -52c-16.667 -4.66699 -33.334 -7.66699 -50.001 -9s-32.667 -0.333008 -48 3c-34.667 6 -62.334 18.667 -83.001 38s-36.334 42.833 -47.001 70.5s-16.834 58.167 -18.501 91.5
s-0.833984 66.666 2.49902 99.999s8.5 65.333 15.5 96s14.167 57.667 21.5 81z" />
    <glyph glyph-name="P" unicode="P" horiz-adv-x="1098" 
d="M512 916c7.33301 0 11.6631 -3.67285 12.9961 -11.0059c1.33301 -2 1.33301 -4.66699 0 -8l-24 -63h-2l-225 -595l58.5 134c20.333 48 42.166 96.167 65.499 144.5s48.333 95 75 140s55.834 84.833 87.501 119.5s66.334 62.334 104.001 83.001s78.834 31 123.501 31
c32.667 0 59.5 -7.83301 80.5 -23.5s36.5 -36.667 46.5 -63s14.667 -56.5 14 -90.5s-6.5 -69.333 -17.5 -106s-27 -73.167 -48 -109.5s-46.833 -70.166 -77.5 -101.499s-66 -58.5 -106 -81.5s-84.333 -39.167 -133 -48.5c-33.333 -6.66699 -60.333 -8 -81 -4
s-36 10.833 -46 20.5s-15.167 21 -15.5 34s3.66699 25.5 12 37.5s20.333 22.167 36 30.5s34.167 12.5 55.5 12.5c22.667 0.666992 45.834 -2.5 69.501 -9.5s46.5 -16.167 68.5 -27.5c45.333 32 82.833 69.833 112.5 113.5s51.834 87.5 66.501 131.5s21.5 85.333 20.5 124
s-9.16699 69.334 -24.5 92.001s-38 34.334 -68 35.001s-67 -15 -111 -47c-32 -24 -61.833 -53.833 -89.5 -89.5s-53.334 -74.334 -77.001 -116.001s-45.667 -85.167 -66 -130.5l-58.5 -132c-12 -28 -25.667 -58.333 -41 -91l-45.5 -96.5l-42.5 -88.5
c-13.333 -27.333 -24.666 -49.666 -33.999 -66.999c-16.667 -0.666992 -31 -1 -43 -1h-45l325 875c-38.667 -16.667 -78.167 -26 -118.5 -28s-81 -1.16699 -122 2.5s-81.5 7.5 -121.5 11.5s-79 4 -117 0c26 10.667 52.333 17.334 79 20.001s53.667 3.33398 81 2.00098
s54.666 -3.5 81.999 -6.5s54.833 -4.5 82.5 -4.5s55.334 2.5 83.001 7.5s55.5 14.833 83.5 29.5l1 2c2 4.66699 6 7 12 7h62zM622.997 346.994c-19.333 8 -38.667 14.667 -58 20s-38 8 -56 8c-21.333 -0.666992 -38.5 -5 -51.5 -13s-21.5 -16.833 -25.5 -26.5
s-3.5 -19 1.5 -28s15.333 -14.5 31 -16.5s36.5 1 62.5 9s58 23.667 96 47z" />
    <glyph glyph-name="Q" unicode="Q" horiz-adv-x="1150" 
d="M968 39c-29.333 -18 -56.168 -29.3408 -80.501 -34.0078s-47.166 -5.33398 -68.499 -2.00098s-41.5 10 -60.5 20s-37.167 21 -54.5 33c-47.333 -33.333 -93.666 -54.166 -138.999 -62.499s-85.666 -4 -120.999 13s-63.166 46.667 -83.499 89s-28.5 97.5 -24.5 165.5
c2 34.667 6.83301 70.167 14.5 106.5s17.167 72.5 28.5 108.5c-36.667 -5.33301 -71.834 -7.16602 -105.501 -5.49902s-61.167 10.834 -82.5 27.501c30 -5.33301 61.5 -7.5 94.5 -6.5s66.833 4.5 101.5 10.5l12.5 35c4.33301 12 9.16602 24 14.499 36
c22 52.667 46.167 98.834 72.5 138.501s53.833 73.167 82.5 100.5s57.167 49 85.5 65s55.5 27 81.5 33c25.333 6 45.166 8 59.499 6s22.5 -2.66699 24.5 -2c1.33301 0 6.33301 -1.16699 15 -3.5s17.834 -7 27.501 -14s18.5 -16.333 26.5 -28s12 -26.5 12 -44.5
c-0.666992 -24.667 -11 -53 -31 -85s-53.333 -66.333 -100 -103c-37.333 -28.667 -81.666 -55.167 -132.999 -79.5s-105.333 -44.166 -162 -59.499c-6.66699 -18.667 -13.667 -42 -21 -70s-13.5 -58 -18.5 -90s-8.16699 -64.5 -9.5 -97.5s0.833984 -64 6.50098 -93
s15.667 -54.333 30 -76s34.833 -36.834 61.5 -45.501c25.333 -8 51.5 -6.83301 78.5 3.5s54.167 24.5 81.5 42.5c-23.333 17.333 -47 33.5 -71 48.5s-50.667 23.833 -80 26.5c36 9.33301 70.667 9.33301 104 0s64 -22.666 92 -39.999c34 30 66 65.5 96 106.5
s56.833 84.5 80.5 130.5s43.167 92.833 58.5 140.5s25.333 93.167 30 136.5c2.66699 22.667 3.66699 45 3 67s-3.5 42.167 -8.5 60.5s-12.5 34.666 -22.5 48.999s-23 25.5 -39 33.5c-6 4.66699 -7.66699 10.334 -5 17.001c1.33301 3.33301 3.66602 5.33301 6.99902 6
s6.33301 0.333984 9 -0.999023c18 -9.33301 33 -22.166 45 -38.499s21 -34.666 27 -54.999s9.66699 -42.5 11 -66.5s0.666016 -48.667 -2.00098 -74c-5.33301 -44 -15.666 -90.333 -30.999 -139s-34.833 -96.5 -58.5 -143.5s-50.834 -91.5 -81.501 -133.5
s-63.334 -78.333 -98.001 -109l2 -2l57.5 -36.5c17 -10.333 33.5 -18 49.5 -23s32.667 -7.16699 50 -6.5s37 5.33398 59 14.001zM702.998 839.992c-43.333 -31.333 -82.502 -71.668 -117.502 -121.001s-63.167 -101.333 -84.5 -156
c-3.33301 -6.66699 -6.16602 -13.167 -8.49902 -19.5l-7.5 -19.5c52 15.333 101.5 34.5 148.5 57.5s87.5 47.833 121.5 74.5c43.333 32.667 74.333 64 93 94c19.333 29.333 28.5 54.5 27.5 75.5s-9 36.333 -24 46s-35.667 12.334 -62 8.00098s-55.166 -17.5 -86.499 -39.5z
" />
    <glyph glyph-name="R" unicode="R" horiz-adv-x="1018" 
d="M416 874c-38.667 -16.667 -78.1738 -25.9951 -118.507 -27.9951s-81 -1.33301 -122 2s-81.667 7 -122 11s-79.5 4 -117.5 0c26 11.333 52.5 18.166 79.5 20.499s54.167 2.83301 81.5 1.5s54.833 -3.5 82.5 -6.5s55.334 -4.5 83.001 -4.5s55.5 2.66699 83.5 8
s56 15.666 84 30.999c2.66699 2 5.33398 3 8.00098 3h2l4 1h60c0 -0.666992 0.833008 -1.33398 2.5 -2.00098s3.33398 -1.5 5.00098 -2.5s3 -2.5 4 -4.5s0.833008 -4.33301 -0.5 -7l-245 -657l58 133c20 48 41.667 95.667 65 143s48.166 93.166 74.499 137.499
s55.5 83.5 87.5 117.5s66.667 61.167 104 81.5s78.333 30.5 123 30.5c39.333 0 70.833 -12.167 94.5 -36.5s38.334 -55.5 44.001 -93.5s2.5 -80.167 -9.5 -126.5s-33.833 -91.5 -65.5 -135.5s-73.167 -84.333 -124.5 -121s-113.333 -64 -186 -82
c16 -32.667 31.333 -67.334 46 -104.001s33.667 -70.5 57 -101.5s53.666 -56.833 90.999 -77.5s86 -31 146 -31c3.33301 0 6.16602 -1 8.49902 -3s3.5 -4.66699 3.5 -8s-1.16699 -6.33301 -3.5 -9s-5.16602 -3.66699 -8.49902 -3
c-47.333 2.66699 -87.166 7.33398 -119.499 14.001s-60.166 16 -83.499 28s-43.166 26.667 -59.499 44s-31.5 37.666 -45.5 60.999s-28.333 49.833 -43 79.5l-51 99.5c-25.333 -2 -45.666 0 -60.999 6s-26.833 14 -34.5 24s-11.667 21.167 -12 33.5
s2.33398 23.333 8.00098 33s13.834 17 24.501 22s23 5.83301 37 2.5c10 -1.33301 22.333 -8.33301 37 -21s28.667 -29.667 42 -51c40 14 78.167 33.5 114.5 58.5s69 53.333 98 85s53.167 65.834 72.5 102.501s32 74 38 112c6.66699 40 5.33398 73.5 -3.99902 100.5
s-24.333 45.833 -45 56.5s-45.834 12.5 -75.501 5.5s-61.5 -24.167 -95.5 -51.5c-30.667 -24 -59 -53.667 -85 -89s-50.333 -73.333 -73 -114s-43.834 -82.834 -63.501 -126.501l-56.5 -126.5l-41 -91.5l-46 -97.5l-43.5 -89.5l-33.5 -67.5h-42
c-10.667 0 -20.5 0.166992 -29.5 0.5s-13.833 0.5 -14.5 0.5zM452.993 308.005c-11.333 18.667 -21 30.999 -29 36.999c-12 10.667 -20.833 14 -26.5 10s-7.66699 -10.333 -6 -19s7.5 -16.667 17.5 -24s24.667 -8.66602 44 -3.99902z" />
    <glyph glyph-name="S" unicode="S" horiz-adv-x="790" 
d="M399 580c19.333 6.66699 38.1729 16.3301 56.5059 28.9971s35.166 27 50.499 43s28.833 33 40.5 51s20.5 36 26.5 54c8 25.333 10 47.333 6 66s-12 32.834 -24 42.501s-26.5 15 -43.5 16s-34.167 -3.33301 -51.5 -13s-33.833 -25 -49.5 -46
s-27.834 -48.167 -36.501 -81.5c-6.66699 -26.667 -10.167 -54.834 -10.5 -84.501s1 -60.667 4 -93s7 -65.333 12 -99s9 -67.5 12 -101.5s4.5 -67.667 4.5 -101s-3 -65.666 -9 -96.999c34.667 -7.33301 69.667 -9 105 -5s70.166 12.333 104.499 25s67.833 29 100.5 49
s63.667 42.333 93 67c3.33301 2.66699 6.5 3.66699 9.5 3s5.5 -2.33398 7.5 -5.00098s3 -5.66699 3 -9s-1.66699 -6.33301 -5 -9c-79.333 -64 -154.5 -107 -225.5 -129s-136.833 -25.333 -197.5 -10c-8.66699 -31.333 -21.167 -61.166 -37.5 -89.499
s-38.5 -54.833 -66.5 -79.5c-30 -26 -58.333 -43.833 -85 -53.5s-50.667 -13.167 -72 -10.5s-39.333 10.334 -54 23.001s-25 28.167 -31 46.5s-6.83301 38.166 -2.5 59.499s14.5 42 30.5 62c21.333 26 52.166 47.167 92.499 63.5s87.166 21.833 140.499 16.5
c6.66699 38.667 8.83398 78.834 6.50098 120.501s-6.16602 83.667 -11.499 126l-15.5 125.5c-5 41.333 -6.5 81 -4.5 119s9 73.667 21 107s32 63 60 89c15.333 14.667 32.833 26.334 52.5 35.001s40.834 13.667 63.501 15c27.333 1.33301 51.5 -3.16699 72.5 -13.5
s37 -25 48 -44s16 -41.667 15 -68s-9.83301 -54.833 -26.5 -85.5c-8.66699 -16 -19.334 -31.5 -32.001 -46.5s-26.834 -28.333 -42.501 -40s-32.334 -21.167 -50.001 -28.5s-35.834 -11 -54.501 -11zM222.007 17.9961c18.667 20.667 33.666 42.501 44.999 65.501
s19.666 46.833 24.999 71.5c-48.667 4.66699 -91.334 -0.333008 -128.001 -15s-64 -34 -82 -58c-10.667 -13.333 -17.667 -27.5 -21 -42.5s-3.66602 -29.167 -0.999023 -42.5s8.33398 -24.5 17.001 -33.5s20 -13.667 34 -14s30.333 4.66699 49 15
s39.334 28.166 62.001 53.499z" />
    <glyph glyph-name="T" unicode="T" horiz-adv-x="823" 
d="M1137 934c-25.333 -20.667 -53.168 -35.5 -83.501 -44.5s-62.333 -14.667 -96 -17s-68.5 -2.33301 -104.5 0s-71.667 5.16602 -107 8.49902l-73.5 -189.5l-78.5 -205l-80 -198c-26.667 -63.667 -52.334 -119.834 -77.001 -168.501
c-22.667 -45.333 -46.167 -82.166 -70.5 -110.499s-48.333 -50 -72 -65s-46.334 -24 -68.001 -27s-41.167 -1.5 -58.5 4.5s-31.833 15.667 -43.5 29s-19.5 29 -23.5 47c-1.33301 3.33301 -1 6.5 1 9.5s4.66699 5.16699 8 6.5c8.66699 1.33301 13.667 -2 15 -10
c5.33301 -17.333 14 -31.666 26 -42.999c10.667 -9.33301 22.334 -12.5 35.001 -9.5s25.667 9.5 39 19.5s26.333 22.667 39 38s24.334 30.833 35.001 46.5s20 30.5 28 44.5l18 32c24.667 48 50.167 103.5 76.5 166.5l79.5 196l78.5 203.5l73.5 189
c-33.333 1.33301 -65.666 1.16602 -96.999 -0.500977s-61.5 -6.16699 -90.5 -13.5s-56.5 -18.166 -82.5 -32.499s-50 -33.5 -72 -57.5c32.667 42.667 70.5 73.5 113.5 92.5s88.5 31 136.5 36s97.833 5.33301 149.5 1s102.5 -8 152.5 -11s98.5 -3 145.5 0
s89.833 13.833 128.5 32.5z" />
    <glyph glyph-name="U" unicode="U" horiz-adv-x="907" 
d="M907 300c4.66699 6.66699 10.333 7.66699 17 3c2.66699 -2 4.33398 -4.66699 5.00098 -8s-0.333008 -6.66602 -3 -9.99902c-12.667 -18 -29.167 -39.667 -49.5 -65s-42.833 -51.666 -67.5 -78.999s-50.834 -54.333 -78.501 -81s-55.167 -49.834 -82.5 -69.501
s-53.666 -34.5 -78.999 -44.5s-48 -12 -68 -6c-16 4 -28.333 12.167 -37 24.5s-14.334 28 -17.001 47s-2.66699 40.833 0 65.5s7.33398 51.667 14.001 81c8 34 18.333 70 31 108s26.667 77 42 117l48 119.5l50 115.5l-51.5 -80c-22.333 -34 -47.666 -70.333 -75.999 -109
s-59 -77.334 -92 -116.001s-66 -72.5 -99 -101.5s-65.5 -50.333 -97.5 -64s-61 -14.834 -87 -3.50098c-23.333 10 -39 27.167 -47 51.5s-10.5 53.333 -7.5 87s10.5 70.667 22.5 111s26.167 81.5 42.5 123.5s34.333 83.5 54 124.5l56.5 114l49.5 92.5l33.5 59
c4 4 7.66699 6 11 6h66c4.66699 0 8.16699 -2.16699 10.5 -6.5s2.16602 -8.5 -0.500977 -12.5l-26.5 -48l-48 -91l-58.5 -118.5c-20.667 -43 -40.334 -86.5 -59.001 -130.5s-34.834 -86.5 -48.501 -127.5s-23 -77 -28 -108s-4 -55.5 3 -73.5s21.833 -25.667 44.5 -23
c14 2 30.167 9 48.5 21s36.5 25.833 54.5 41.5s35 31.834 51 48.501s29 30.667 39 42c33.333 38.667 66.333 80.834 99 126.501l94 137c30 45.667 57.667 89.667 83 132l66 111.5l15 30.5l13 26.5c2 4.66699 5.66699 7 11 7h65c4.66699 0 8.16699 -1.83301 10.5 -5.5
s2.5 -7.83398 0.5 -12.501l-80 -168l-84 -188c-27.333 -64 -52.666 -127.167 -75.999 -189.5s-42.333 -119.833 -57 -172.5c-14 -50.667 -20.833 -89.167 -20.5 -115.5s5.66602 -43.333 15.999 -51s24.833 -7.5 43.5 0.5s39.334 20.833 62.001 38.5s46.5 38.667 71.5 63
s49 49 72 74l64 72c19.667 23 35.167 41.833 46.5 56.5z" />
    <glyph glyph-name="V" unicode="V" horiz-adv-x="761" 
d="M114 734c33.333 57.333 73.165 99.333 119.498 126s100.5 43.667 162.5 51c3.33301 0 10 0.333008 20 1s20 0.666992 30 0s18.333 -2.33398 25 -5.00098s8 -7.33398 4 -14.001c-7.33301 -12.667 -19.833 -37.334 -37.5 -74.001l-60.5 -130l-70.5 -162.5
c-24.333 -58.333 -46.5 -115.5 -66.5 -171.5c-14.667 -42 -27 -82.667 -37 -122s-16.5 -74.333 -19.5 -105s-1.5 -55.167 4.5 -73.5s17.5 -27.833 34.5 -28.5s40.167 9.5 69.5 30.5s66 55.5 110 103.5c28.667 31.333 56.834 64.833 84.501 100.5s53.834 71 78.501 106
l68 100l52 80.5c24.667 38.667 47.834 76.667 69.501 114l60 104.5l48.5 87.5l34 65c1.33301 2.66699 3.66602 4.5 6.99902 5.5s6.33301 0.833008 9 -0.5c7.33301 -5.33301 9 -11 5 -17l-43.5 -82.5c-19.667 -37 -43.5 -79.5 -71.5 -127.5l-93 -154.5
c-34 -55 -69.833 -109.667 -107.5 -164s-76.167 -106.166 -115.5 -155.499s-78 -92.166 -116 -128.499s-74.667 -64.333 -110 -84s-67.666 -26.834 -96.999 -21.501c-28.667 5.33301 -47.834 21.833 -57.501 49.5s-12.5 62.167 -8.5 103.5s13.167 87.833 27.5 139.5
s31.5 104.334 51.5 158.001s41.167 106.167 63.5 157.5l62.5 138.5l49 101.5c13.333 26.667 21.333 42.334 24 47.001c-54 -8 -101.667 -23.833 -143 -47.5s-81 -57.5 -119 -101.5z" />
    <glyph glyph-name="W" unicode="W" horiz-adv-x="1223" 
d="M138 723c19.333 32 39.5078 59.1621 60.5078 81.4951s43.333 40.833 67 55.5s49 26.167 76 34.5s56.167 14.5 87.5 18.5c8 0.666992 19 0.833984 33 0.500977s25.667 -0.5 35 -0.5c5.33301 0 9.16602 -2.16699 11.499 -6.5s2.16602 -8.83301 -0.500977 -13.5l-59 -105
l-64.5 -121c-21.667 -42 -42.5 -85 -62.5 -129s-37.833 -87 -53.5 -129s-28.167 -82.167 -37.5 -120.5s-14.333 -73.166 -15 -104.499c-0.666992 -38 4.66602 -63.833 15.999 -77.5s26 -19.334 44 -17.001s38 10.666 60 24.999s43.667 30.833 65 49.5s40.833 37.5 58.5 56.5
l40.5 44.5c37.333 43.333 74.5 90.5 111.5 141.5l106.5 153.5l94.5 149l75.5 128l34 69c2.66699 4.66699 6.66699 7 12 7h66c4.66699 0 8.5 -2 11.5 -6s2.83301 -8.33301 -0.5 -13c-8.66699 -14 -20.334 -36 -35.001 -66l-49.5 -104.5l-57.5 -130l-58 -142.5
c-18.667 -48 -35.834 -95.167 -51.501 -141.5s-28.167 -88.666 -37.5 -126.999s-14.833 -71.5 -16.5 -99.5s2 -47.5 11 -58.5s24.5 -12.5 46.5 -4.5s51.667 29 89 63c21.333 19.333 43.666 41.5 66.999 66.5l71 80c24 28.333 47.333 57.333 70 87l65 86
c20.667 27.667 39.334 53.834 56.001 78.501l42 64l70 115.5l61 105.5l49 88l34 65c1.33301 2.66699 3.66602 4.5 6.99902 5.5s6.66602 0.833008 9.99902 -0.5c2.66699 -1.33301 4.5 -3.66602 5.5 -6.99902s0.833008 -6.66602 -0.5 -9.99902
c-18.667 -36.667 -41.5 -79.167 -68.5 -127.5l-88.5 -153l-102.5 -164.5c-36.333 -56 -73.5 -109.667 -111.5 -161s-76.167 -98.833 -114.5 -142.5s-75.5 -80.5 -111.5 -110.5c-12 -10 -25.333 -20 -40 -30s-30 -18.5 -46 -25.5s-32.167 -11.333 -48.5 -13
s-32.166 0.833008 -47.499 7.5c-24 10 -39.167 30 -45.5 60s-7 65.333 -2 106s14.333 84.334 28 131.001s28.5 91.834 44.5 135.501s31.667 83.5 47 119.5l36 83c-39.333 -63.333 -82.333 -127.833 -129 -193.5s-93.334 -125.834 -140.001 -180.501
c-19.333 -22 -42 -46.5 -68 -73.5s-53.333 -51 -82 -72s-57.667 -36.667 -87 -47s-57.333 -9.83301 -84 1.5c-25.333 10.667 -42.333 29 -51 55s-12.334 55 -11.001 87s6 64.5 14 97.5s16 61.833 24 86.5c24 74.667 56.333 155.167 97 241.5s86 172.5 136 258.5
c-28 -4.66699 -54.167 -11.167 -78.5 -19.5s-47.333 -19 -69 -32s-42.5 -28.5 -62.5 -46.5s-39.667 -38.667 -59 -62z" />
    <glyph glyph-name="X" unicode="X" horiz-adv-x="1059" 
d="M90 23c23.333 10.667 47.502 26.6709 72.502 48.0039s49.833 46.166 74.5 74.499s49.334 59.166 74.001 92.499l72.5 101l69 100.5l63.5 90.5c-22.667 60.667 -43.334 121.334 -62.001 182.001l-54 183c-1.33301 3.33301 -1.16602 6.5 0.500977 9.5
s4.16699 4.83301 7.5 5.5c3.33301 1.33301 6.33301 1.16602 9 -0.500977s4.33398 -4.16699 5.00098 -7.5l52.5 -174.5c17.667 -57.667 37.167 -115.5 58.5 -173.5c33.333 45.333 67.833 88.5 103.5 129.5s73.167 76.333 112.5 106s80.666 52.334 123.999 68.001
s89.666 21.167 138.999 16.5c-44 -10 -86 -27.833 -126 -53.5s-78.5 -56.5 -115.5 -92.5s-72.5 -75.833 -106.5 -119.5l-100 -134.5c22 -54 46.167 -106.333 72.5 -157s55.333 -96.834 87 -138.501s66 -77.667 103 -108s77.5 -51.833 121.5 -64.5
c3.33301 -1.33301 5.5 -3.33301 6.5 -6s1.16699 -5.5 0.5 -8.5s-2.33398 -5.5 -5.00098 -7.5s-5.66699 -2.33301 -9 -1c-45.333 13.333 -87 35.166 -125 65.499s-73.167 66.333 -105.5 108s-62 87.667 -89 138s-51.5 102.166 -73.5 155.499l-104.5 -149.5
c-35.667 -51 -72.334 -97.333 -110.001 -139s-76.667 -75.5 -117 -101.5s-82.5 -38.333 -126.5 -37z" />
    <glyph glyph-name="Y" unicode="Y" horiz-adv-x="1126" 
d="M1126 300c2 2.66699 4.6582 4.16699 7.99121 4.5s6.33301 -0.5 9 -2.5c6 -6 6.33301 -12.333 1 -19c-26.667 -30.667 -58.667 -59.834 -96 -87.501s-76.666 -52.667 -117.999 -75s-83.166 -41.5 -125.499 -57.5s-82.166 -27.667 -119.499 -35l-40 -86
c-39.333 -86 -80.666 -153.667 -123.999 -203s-85.333 -85.666 -126 -108.999c-40 -23.333 -77.833 -35.166 -113.5 -35.499s-66.667 7.16699 -93 22.5s-47 36.833 -62 64.5s-22 57.334 -21 89.001s11.167 63.834 30.5 96.501s50 62 92 88
c20.667 13.333 45.5 24.333 74.5 33s59.833 16 92.5 22s66.167 11.167 100.5 15.5s67.166 8.83301 98.499 13.5l98.5 261l108.5 295c-59.333 -104.667 -118.166 -187.167 -176.499 -247.5s-111.5 -101.833 -159.5 -124.5c-42.667 -20 -76.834 -28.333 -102.501 -25
s-44.667 15.333 -57 36s-19 48.167 -20 82.5s1.83301 72 8.5 113s16 83.833 28 128.5s24.833 87.5 38.5 128.5s27.167 78.833 40.5 113.5s24.666 62.334 33.999 83.001c-38.667 -14 -78 -21.167 -118 -21.5s-80.167 2 -120.5 7l-120 15.5
c-39.667 5.33301 -78.167 6.66602 -115.5 3.99902c26.667 10 53.5 15.833 80.5 17.5s54 1.33398 81 -0.999023s54.333 -5.66602 82 -9.99902s55.334 -7 83.001 -8s55.5 0.666992 83.5 5s56.333 13.5 85 27.5c36.667 -0.666992 60.667 -1.83398 72 -3.50098
s15.666 -5.5 12.999 -11.5l-2 -5c0 -1.33301 -0.166992 -2.33301 -0.5 -3s-0.5 -1.33398 -0.5 -2.00098c-4 -8.66699 -11.333 -25.834 -22 -51.501s-22.667 -56.334 -36 -92.001s-26.833 -74.667 -40.5 -117s-26 -84.166 -37 -125.499s-19.5 -80.5 -25.5 -117.5
s-7.83301 -68.167 -5.5 -93.5s9.83301 -43 22.5 -53s32.667 -9 60 3c28.667 12.667 60 33.167 94 61.5s68.833 64.833 104.5 109.5s71.834 97.334 108.501 158.001s72.334 129.667 107.001 207c0.666992 2 6.5 4.16699 17.5 6.5s22.5 3.66602 34.5 3.99902
s22.333 -0.833984 31 -3.50098s11.667 -8 9 -16l-62.5 -179.5l-64.5 -184.5l-66.5 -181.5c-22.333 -59.667 -45.166 -116.834 -68.499 -171.501c34.667 6.66699 71.834 18 111.501 34s78.834 34.833 117.501 56.5s75.334 45.5 110.001 71.5s64.334 53 89.001 81zM580.991 11
c-30 -4.66699 -61 -9.16309 -93 -13.4961s-63 -9.33301 -93 -15s-58.333 -12.5 -85 -20.5s-49.667 -17.333 -69 -28c-35.333 -20.667 -61.5 -44.834 -78.5 -72.501s-26.5 -55.334 -28.5 -83.001s2.5 -53.334 13.5 -77.001s26.667 -41.667 47 -54s44.333 -17 72 -14
s57.167 17.167 88.5 42.5c28.667 23.333 54 48.166 76 74.499s41.667 53.833 59 82.5s33.333 58 48 88z" />
    <glyph glyph-name="Z" unicode="Z" horiz-adv-x="932" 
d="M335 760c-4 -4.66699 -8.66602 -6.00293 -13.999 -4.00293c-35.333 -9.33301 -71.333 -13.833 -108 -13.5s-73.167 2.33301 -109.5 6l-108.5 10.5c-36 3.33301 -71 3 -105 -1c34 14.667 68.667 22.167 104 22.5s70.833 -1.16699 106.5 -4.5s71.667 -5.83301 108 -7.5
s72.833 2.5 109.5 12.5c30 51.333 63.167 87.666 99.5 108.999s70.833 31 103.5 29s60.834 -13.667 84.501 -35s38.167 -48.5 43.5 -81.5s-1.16699 -70.333 -19.5 -112s-53.5 -83.5 -105.5 -125.5c28.667 -22 50.5 -49.5 65.5 -82.5s25 -68.333 30 -106
s6 -75.834 3 -114.501s-8.5 -74.334 -16.5 -107.001c24.667 -2.66699 51.5 -2.16699 80.5 1.5s58 11.334 87 23.001s57.167 27.334 84.5 47.001s52 44.167 74 73.5c6 6 12 6.33301 18 1c4.66699 -6 5 -12 1 -18c-26.667 -33.333 -54.834 -60.666 -84.501 -81.999
s-59.834 -37.666 -90.501 -48.999s-61 -18.5 -91 -21.5s-58.333 -2.83301 -85 0.5c-8 -28.667 -18.833 -57.334 -32.5 -86.001s-29.5 -55.667 -47.5 -81s-37.833 -48.833 -59.5 -70.5s-44.5 -39.834 -68.5 -54.501c-36.667 -22.667 -71.5 -37.334 -104.5 -44.001
s-62.833 -7 -89.5 -1s-49.834 17 -69.501 33s-35 34.833 -46 56.5s-17 45.334 -18 71.001s3.83301 51 14.5 76s27.834 48.833 51.501 71.5s54.5 42 92.5 58c24 10 48.333 16.833 73 20.5s49.167 5.33398 73.5 5.00098s48.666 -2.16602 72.999 -5.49902s48.5 -7 72.5 -11
c7.33301 28.667 12.666 59.667 15.999 93s3.5 66.333 0.5 99s-10 63.667 -21 93s-26.833 54.666 -47.5 75.999c-32.667 -14.667 -59 -22.167 -79 -22.5s-35 3.33398 -45 11.001s-15.167 17.167 -15.5 28.5s2.83398 21.666 9.50098 30.999c13.333 18 32 27.333 56 28
s47.333 -2.33301 70 -9c31.333 24.667 55.666 50.334 72.999 77.001s29 52.334 35 77.001s6.83301 47 2.5 67s-13 35.5 -26 46.5s-29.667 16.333 -50 16s-43.166 -8.16602 -68.499 -23.499c-33.333 -19.333 -61.666 -48.333 -84.999 -87zM408.001 -54.0029
c22.667 30 42.334 61.835 59.001 95.502s30.667 68.167 42 103.5c-23.333 4 -46.666 7.5 -69.999 10.5s-46.5 4.66699 -69.5 5s-45.833 -1.33398 -68.5 -5.00098s-45.334 -10.167 -68.001 -19.5c-37.333 -15.333 -66.666 -34 -87.999 -56s-36 -44.833 -44 -68.5
s-10.333 -47 -7 -70s11.166 -43.333 23.499 -61s28.666 -31.334 48.999 -41.001s43.333 -13 69 -10s53.167 13.667 82.5 32s59.333 46.5 90 84.5zM411.001 565.999c-11.333 6.66699 -21 9.83203 -29 9.49902s-14.667 -2.16602 -20 -5.49902c-6 -4 -9.83301 -8.5 -11.5 -13.5
s-0.666992 -8.83301 3 -11.5s10.167 -2.66699 19.5 0s22 9.66699 38 21z" />
    <glyph glyph-name="bracketleft" unicode="[" horiz-adv-x="554" 
d="M182 -28h-102l377 1088h160c4.66699 0 8.16699 -1.5 10.5 -4.5s3.5 -6.16699 3.5 -9.5s-1.16699 -6.5 -3.5 -9.5s-5.83301 -4.5 -10.5 -4.5h-67l-358 -1032h63c4.66699 0 8.16699 -1.5 10.5 -4.5s3.5 -6.16699 3.5 -9.5s-1.16699 -6.5 -3.5 -9.5
s-5.83301 -4.5 -10.5 -4.5h-73z" />
    <glyph glyph-name="backslash" unicode="\" horiz-adv-x="414" 
d="M332 39c2.66699 -8.66699 2.00195 -16.002 -1.99805 -22.002s-9.33301 -10.167 -16 -12.5s-13.334 -2.16602 -20.001 0.500977s-11.334 8.33398 -14.001 17.001l-337 974c-3.33301 8.66699 -3 16 1 22s9.16699 10.167 15.5 12.5s13 2.33301 20 0
s11.833 -7.83301 14.5 -16.5z" />
    <glyph glyph-name="bracketright" unicode="]" horiz-adv-x="509" 
d="M-72 -24c-4.66699 0 -8.16699 1.5 -10.5 4.5s-3.5 6.16699 -3.5 9.5s1.16699 6.5 3.5 9.5s5.83301 4.5 10.5 4.5h68l357 1032h-63c-4.66699 0 -8.16699 1.5 -10.5 4.5s-3.5 6.16699 -3.5 9.5s1.16699 6.5 3.5 9.5s5.83301 4.5 10.5 4.5h175l-376 -1088h-161z" />
    <glyph glyph-name="asciicircum" unicode="^" horiz-adv-x="390" 
d="M142 766c-4 -8 -9.5 -12.833 -16.5 -14.5s-13.667 -1 -20 2s-11 7.83301 -14 14.5s-2.5 14 1.5 22l77 157c6.66699 7.33301 14.667 10.333 24 9s16.333 -6.33301 21 -15l73 -151c4 -8 4.33301 -15.333 1 -22s-8 -11.5 -14 -14.5s-12.667 -3.66699 -20 -2
s-13 6.5 -17 14.5l-48 100z" />
    <glyph glyph-name="underscore" unicode="_" horiz-adv-x="833" 
d="M661 0c8.66699 0 15.334 -3 20.001 -9s7 -12.5 7 -19.5s-2.33301 -13.333 -7 -19s-11.334 -8.5 -20.001 -8.5h-502c-9.33301 0 -16.333 2.83301 -21 8.5s-7 12 -7 19s2.33301 13.5 7 19.5s11.667 9 21 9h502z" />
    <glyph glyph-name="grave" unicode="`" horiz-adv-x="356" 
d="M98 826c-2.66699 -3.33301 -5.66895 -4.99805 -9.00195 -4.99805s-6.33301 1 -9 3s-4.5 4.5 -5.5 7.5s-0.5 6.5 1.5 10.5c10.667 20.667 22.167 34.334 34.5 41.001s24.5 9.16699 36.5 7.5s23.833 -6.16699 35.5 -13.5s22.5 -15 32.5 -23l26.5 -20.5
c7.66699 -5.66699 13.834 -7.83398 18.501 -6.50098c6.66699 2.66699 12 1 16 -5s3.66699 -11.667 -1 -17c-15.333 -16.667 -29.166 -26.334 -41.499 -29.001s-23.5 -1.5 -33.5 3.5s-19.333 12.167 -28 21.5s-17 17.666 -25 24.999s-16 11.833 -24 13.5
s-16.333 -2.83301 -25 -13.5z" />
    <glyph glyph-name="a" unicode="a" horiz-adv-x="582" 
d="M582 300c2 4 5.67188 5.99902 11.0049 5.99902c4 0 7.16699 -1.5 9.5 -4.5s3.5 -6.16699 3.5 -9.5c0 -2.66699 -0.666992 -5.33398 -2 -8.00098c-73.333 -98.667 -139.833 -170.334 -199.5 -215.001s-108.834 -67 -147.501 -67c-28 0 -49.333 10 -64 30
s-22 48.333 -22 85c0 22.667 3.66699 50.334 11 83.001c-17.333 -14.667 -34.333 -25.5 -51 -32.5s-32.667 -10.5 -48 -10.5c-25.333 0 -46.166 8.66699 -62.499 26s-24.5 42.333 -24.5 75c0 15.333 1.33301 29.333 4 42c4.66699 24 13 47.5 25 70.5s26.667 43.667 44 62
s36.666 33 57.999 44s43.666 16.5 66.999 16.5c16 0 32.667 -3 50 -9s32.666 -15 45.999 -27l7 12.5c2 3.66699 5.66699 5.5 11 5.5h74c4 0 7.33301 -1.5 10 -4.5s4 -6.16699 4 -9.5c0 -2 -0.666992 -4.33301 -2 -7c-4.66699 -7.33301 -10.834 -18.666 -18.501 -33.999
l-25.5 -53.5c-9.33301 -20.333 -18.833 -42.166 -28.5 -65.499s-18.5 -46.666 -26.5 -69.999s-14.5 -45.833 -19.5 -67.5s-7.5 -41.167 -7.5 -58.5c0 -16 2.66699 -29.833 8 -41.5s14.666 -17.5 27.999 -17.5c12 0 27.667 5.83301 47 17.5s41.333 28.5 66 50.5
s51 48.667 79 80s56.667 66.666 86 105.999zM198.005 254.999c16.667 52 42.665 111 77.998 177c-17.333 17.333 -35 26 -53 26s-35.333 -7.66699 -52 -23s-31.167 -34 -43.5 -56s-22.166 -45.333 -29.499 -70s-11 -46.334 -11 -65.001c0 -14 2.33301 -25.333 7 -34
s12 -13 22 -13c8.66699 0 16.834 2 24.501 6s15 8.83301 22 14.5s13.5 11.834 19.5 18.501s11.333 13 16 19z" />
    <glyph glyph-name="b" unicode="b" horiz-adv-x="636" 
d="M636 300c2.66699 2.66699 5.8291 4.1709 9.49609 4.50391s6.83398 -1.16699 9.50098 -4.5c2.66699 -2.66699 4.16699 -5.83398 4.5 -9.50098s-1.16699 -6.83398 -4.5 -9.50098c-30.667 -31.333 -59 -57.5 -85 -78.5s-51.833 -38.667 -77.5 -53s-52.167 -26.333 -79.5 -36
s-57.666 -19.167 -90.999 -28.5c-11.333 -21.333 -25 -41.666 -41 -60.999s-34 -35 -54 -47c-19.333 -11.333 -36.5 -17.666 -51.5 -18.999s-27.5 0.833984 -37.5 6.50098s-17 13.667 -21 24s-4 21.333 0 33s12.333 22.834 25 33.501s30.667 19 54 25
c3.33301 1.33301 6.83301 2.33301 10.5 3s7.5 1.66699 11.5 3c4.66699 3.33301 10.167 12.166 16.5 26.499s11.833 30.5 16.5 48.5s8.33398 36.667 11.001 56s2.33398 35.666 -0.999023 48.999s-9.83301 22.166 -19.5 26.499s-24.167 1.16602 -43.5 -9.50098
c-25.333 -14 -48.5 -32.833 -69.5 -56.5s-38.167 -49.167 -51.5 -76.5c-1.33301 -3.33301 -6.66602 -5.66602 -15.999 -6.99902s-19 -2 -29 -2c-12 0 -25.333 0.666992 -40 2c-4 0 -7.5 1.5 -10.5 4.5s-4.16699 6.5 -3.5 10.5l10 73c3.33301 23.333 7.33301 46.333 12 69
c24 126 54.667 233.5 92 322.5s77.5 162.5 120.5 220.5s87 101.667 132 131s87 47.5 126 54.5s73.333 3.83301 103 -9.5s50.5 -34 62.5 -62s13.5 -61.833 4.5 -101.5s-32.5 -82.667 -70.5 -129s-92.333 -94.166 -163 -143.499s-161.667 -98 -273 -146
c-9.33301 -32.667 -17.833 -67 -25.5 -103s-14.5 -74 -20.5 -114c20 27.333 42 49.833 66 67.5s47.5 30.167 70.5 37.5s44.667 9.66602 65 6.99902s37 -10.834 50 -24.501s21.167 -32.834 24.5 -57.501s-0.333984 -55.334 -11.001 -92.001l-14 -40
c28.667 8 55 16.833 79 26.5s47.5 21.167 70.5 34.5s46.333 29.833 70 49.5s49.5 43.5 77.5 71.5zM192.995 50.0039c-15.333 -5.33301 -28 -12.333 -38 -21s-14.333 -17.667 -13 -27c18.667 12 35.667 28 51 48zM355.995 884.004c-19.333 -20.667 -38 -43.6689 -56 -69.002
s-35 -52.666 -51 -81.999c-20.667 -36.667 -39.834 -76.667 -57.501 -120s-33.834 -90.666 -48.501 -141.999c52 22.667 102.667 47.667 152 75s94.5 56.333 135.5 87s76.667 62.667 107 96s52.5 68 66.5 104c11.333 30 16.333 55.5 15 76.5s-7.33301 37.333 -18 49
s-25.167 19 -43.5 22s-38.666 1.5 -60.999 -4.5s-45.666 -16.667 -69.999 -32s-47.833 -35.333 -70.5 -60z" />
    <glyph glyph-name="c" unicode="c" horiz-adv-x="494" 
d="M494 300c5.33301 7.33301 11.668 8.00684 19.001 2.00684c2.66699 -2 4.33398 -4.83301 5.00098 -8.5s-0.333008 -7.16699 -3 -10.5c-28.667 -35.333 -62.5 -71.666 -101.5 -108.999s-80.5 -70 -124.5 -98c-49.333 -32 -92.333 -53 -129 -63s-67.5 -12 -92.5 -6
s-44.667 18.667 -59 38s-24 42.666 -29 69.999s-5.5 57.166 -1.5 89.499s11.333 64.166 22 95.499c9.33301 27.333 21.333 53.666 36 78.999s31.167 47.5 49.5 66.5s38.666 34.167 60.999 45.5s45.833 17 70.5 17c22.667 0 41 -7.5 55 -22.5s21.167 -35.167 21.5 -60.5
s-7 -54.333 -22 -87s-40.5 -66.334 -76.5 -101.001c-6.66699 -5.33301 -13.334 -5.33301 -20.001 0c-6 7.33301 -6 14 0 20c22.667 22 40.5 44.167 53.5 66.5s21.833 43 26.5 62s5.66699 35 3 48s-8.66699 21 -18 24s-21.333 -0.166992 -36 -9.5s-31.667 -27 -51 -53
c-20 -26.667 -37 -56.334 -51 -89.001s-24 -64.834 -30 -96.501s-7.33301 -60.5 -4 -86.5s13 -45.5 29 -58.5s38.5 -17.333 67.5 -13s66.167 20.833 111.5 49.5c36 23.333 72.5 51.666 109.5 84.999s73.167 71.333 108.5 114z" />
    <glyph glyph-name="d" unicode="d" horiz-adv-x="667" 
d="M393 473c46.667 20.667 93.999 44 141.999 70s93 54.333 135 85s79.333 63.5 112 98.5s56.667 71.5 72 109.5c15.333 37.333 19.833 68.333 13.5 93s-19.333 42.334 -39 53.001s-43.334 14.167 -71.001 10.5s-55.167 -14.834 -82.5 -33.501
c-33.333 -22.667 -64.666 -53.5 -93.999 -92.5s-56 -81.167 -80 -126.5s-45.167 -91.5 -63.5 -138.5s-33.166 -89.833 -44.499 -128.5zM666.999 300c6 7.33301 12.3311 8.00195 18.998 2.00195c7.33301 -6 8 -12.333 2 -19c-24 -29.333 -51.833 -60.166 -83.5 -92.499
s-64.167 -61.333 -97.5 -87s-66.666 -45.167 -99.999 -58.5s-63.333 -16 -90 -8c-19.333 6 -34.333 16.5 -45 31.5s-18.5 32.333 -23.5 52s-7.5 40.834 -7.5 63.501s1 44.667 3 66l-38 -33c-12.667 -10.667 -26 -20 -40 -28s-28.667 -14 -44 -18s-32.333 -5 -51 -3
c-26 2.66699 -46.5 14 -61.5 34s-18.5 51 -10.5 93c0 1.33301 0.166992 2.16602 0.5 2.49902s0.5 1.16602 0.5 2.49902c4.66699 21.333 12.167 43.166 22.5 65.499s23.333 42.666 39 60.999s33.667 33.666 54 45.999s42.5 19.166 66.5 20.499
c18.667 1.33301 37.167 -0.833984 55.5 -6.50098s34.833 -15.167 49.5 -28.5c28.667 104.667 62.334 193.334 101.001 266.001s79 131.834 121 177.501s84 79 126 100s80.667 32 116 33s65.5 -6.66699 90.5 -23s41.667 -38.833 50 -67.5s6.5 -62.667 -5.5 -102
s-37.5 -81.166 -76.5 -125.499s-93.167 -90.333 -162.5 -138s-157 -94.167 -263 -139.5l-18 -72c-7.33301 -30 -13.5 -61.333 -18.5 -94s-7.66699 -64.167 -8 -94.5s4 -54.333 13 -72s23.833 -26.667 44.5 -27s49.667 13.167 87 40.5c17.333 12.667 34.5 26.5 51.5 41.5
s33.333 30.5 49 46.5l44.5 47.5c14 15.667 26.667 30.5 38 44.5zM215.997 261.002c13.333 12.667 25.333 27.3311 36 43.998l4 22.5l4 23.5c3.33301 13.333 6.33301 26.333 9 39s5.66699 25 9 37c-17.333 20.667 -35.333 30.834 -54 30.501s-36.5 -7.16602 -53.5 -20.499
s-32.333 -31.166 -46 -53.499s-24.5 -45 -32.5 -68s-12.5 -44.333 -13.5 -64s3 -33.834 12 -42.501s23.667 -9.66699 44 -3s47.5 25 81.5 55z" />
    <glyph glyph-name="e" unicode="e" horiz-adv-x="446" 
d="M446 300c2 3.33301 4.83496 5.33496 8.50195 6.00195s7.16699 -0.333008 10.5 -3c3.33301 -2 5.16602 -4.83301 5.49902 -8.5s-0.5 -7.16699 -2.5 -10.5c-30.667 -43.333 -64.834 -86.333 -102.501 -129s-77.5 -79 -119.5 -109c-39.333 -28.667 -78 -47.334 -116 -56.001
c-46 -11.333 -81.833 -9.16602 -107.5 6.50098s-43 39.167 -52 70.5s-10.5 67.666 -4.5 108.999s17.333 82.666 34 123.999c15.333 38 34.5 73 57.5 105s48.5 57.667 76.5 77c26 18 49.833 28.667 71.5 32s39.334 1.5 53.001 -5.5s22.167 -18.167 25.5 -33.5
s0 -32.833 -10 -52.5s-27.833 -40.167 -53.5 -61.5s-60.834 -41.333 -105.501 -60l-10.5 -4l-10.5 -4c-10.667 -23.333 -19.5 -48.5 -26.5 -75.5s-11.167 -53 -12.5 -78s0.5 -47.333 5.5 -67s14.333 -34 28 -43s32 -11 55 -6s51.833 19.833 86.5 44.5
c40 28.667 78.5 64 115.5 106s70.5 84 100.5 126zM113.002 330.002c17.333 7.33301 33 15.168 47 23.501s26.333 16.5 37 24.5c20.667 15.333 35.667 29.833 45 43.5s14.333 24.667 15 33s-2.83301 13.333 -10.5 15s-18 -1.83301 -31 -10.5s-28.333 -23.334 -46 -44.001
s-36.5 -49 -56.5 -85z" />
    <glyph glyph-name="f" unicode="f" horiz-adv-x="487" 
d="M125 347c80.667 32.667 142.666 66.4971 185.999 101.497s72.333 67.833 87 98.5c14 28.667 18.333 49.834 13 63.501s-16.166 20.667 -32.499 21s-35.666 -5.16699 -57.999 -16.5s-43.5 -28 -63.5 -50c-28 -31.333 -51.833 -64.166 -71.5 -98.499
s-39.834 -74.166 -60.501 -119.499zM486.999 299.997c2 3.33301 4.8291 5.33008 8.49609 5.99707s7.16699 -0.333008 10.5 -3c6.66699 -5.33301 7.66699 -11.666 3 -18.999c-44.667 -57.333 -91.834 -103.5 -141.501 -138.5s-98.834 -60.833 -147.501 -77.5
c-40 -13.333 -78.5 -20.666 -115.5 -21.999s-71.5 2.66699 -103.5 12c-1.33301 -2.66699 -2.16602 -5.16699 -2.49902 -7.5s-1.16602 -4.5 -2.49902 -6.5c24 -32.667 40 -65.167 48 -97.5s10.333 -62.666 7 -90.999s-11.166 -54.166 -23.499 -77.499
s-26.5 -42.166 -42.5 -56.499s-32.5 -23.5 -49.5 -27.5s-32.333 -1.5 -46 7.5s-24 25.5 -31 49.5s-8.5 57.167 -4.5 99.5s14.833 94.666 32.5 156.999s44.834 135.833 81.501 220.5l16 36l16 36c7.33301 17.333 15 34.5 23 51.5l23 50.5
c32.667 70.667 67.334 126.667 104.001 168s71.834 71.166 105.501 89.499s64.667 26.666 93 24.999s50.333 -10.5 66 -26.5s23.5 -37.333 23.5 -64s-11.167 -56 -33.5 -88s-57.333 -65 -105 -99s-111.5 -66 -191.5 -96l-96 -228c28 -8 59 -11.167 93 -9.5
s69.667 8.5 107 20.5c46 15.333 92.667 39.833 140 73.5s92.333 77.834 135 132.501zM-16.0049 11.9941c-8 -22 -16.168 -47.333 -24.501 -76s-15.166 -57.334 -20.499 -86.001c-5.33301 -30.667 -6.16602 -55.167 -2.49902 -73.5s9.66699 -29.5 18 -33.5
s18.166 -0.5 29.499 10.5s22 30.167 32 57.5c10 28 13 59.333 9 94s-17.667 70.334 -41 107.001z" />
    <glyph glyph-name="g" unicode="g" horiz-adv-x="654" 
d="M654 300c5.33301 6.66699 12.001 7.66309 20.001 2.99609c6.66699 -6 7.33398 -12.667 2.00098 -20c-33.333 -43.333 -67.166 -79.666 -101.499 -108.999s-69.333 -53.833 -105 -73.5s-72 -35.5 -109 -47.5s-74.167 -22.333 -111.5 -31l-35.5 -85
c-13.667 -32 -29 -65.5 -46 -100.5s-35.667 -70.167 -56 -105.5s-42.166 -68.666 -65.499 -99.999c-13.333 -17.333 -28 -34.833 -44 -52.5s-33.5 -34 -52.5 -49s-39.167 -28 -60.5 -39s-43.333 -18.5 -66 -22.5c-30.667 -6 -58.834 -5.66699 -84.501 1
s-47.667 18.167 -66 34.5s-32.5 37 -42.5 62s-14.667 53.167 -14 84.5c0.666992 22.667 4.83398 46.167 12.501 70.5s19.834 48.5 36.501 72.5s37.667 47.333 63 70s56 43.667 92 63c27.333 14.667 54.666 27.334 81.999 38.001s54.833 20 82.5 28s55.167 15 82.5 21
s54.666 11.667 81.999 17c9.33301 21.333 18.166 43.166 26.499 65.499s17.166 44.833 26.499 67.5c-13.333 -12 -27.5 -22.167 -42.5 -30.5s-30 -14.166 -45 -17.499s-29.667 -4.16602 -44 -2.49902s-27.166 6.16699 -38.499 13.5s-20.333 17 -27 29
s-11.334 25.833 -14.001 41.5s-3.16699 32.334 -1.5 50.001s5.16699 35.5 10.5 53.5c8 28.667 20.333 56.834 37 84.501s36.834 50.667 60.501 69s50 30.666 79 36.999s60.167 3.16602 93.5 -9.50098c15.333 -6 29.666 -14.667 42.999 -26l9.5 24.5l8.5 21.5
c2.66699 6 7 9 13 9h73c5.33301 0 9.16602 -2 11.499 -6s2.83301 -8.33301 1.5 -13l-82.5 -217.5l-85.5 -219.5c40.667 10.667 78.5 22.167 113.5 34.5s68 27.666 99 45.999s61.167 40.833 90.5 67.5s59 59.334 89 98.001zM160.001 162.996
c24.667 18 47.999 42.332 69.999 72.999l73 191c-20.667 20.667 -41 30.834 -61 30.501s-38.833 -7.33301 -56.5 -21s-33.5 -32.167 -47.5 -55.5s-25.667 -47.833 -35 -73.5s-15.666 -50.667 -18.999 -75s-3 -44.333 1 -60s12 -25.167 24 -28.5s29 3 51 19zM-24 -321.005
c30 44 57.668 92.833 83.001 146.5s51 111.5 77 173.5c-51.333 -10.667 -102.166 -22.667 -152.499 -36s-100.5 -33.666 -150.5 -60.999c-45.333 -24.667 -82 -52.334 -110 -83.001s-48.333 -61.667 -61 -93s-18.834 -61.5 -18.501 -90.5s6.16602 -53.833 17.499 -74.5
s27.5 -36 48.5 -46s45.167 -11.5 72.5 -4.5s57.5 23.833 90.5 50.5s67.5 66 103.5 118z" />
    <glyph glyph-name="h" unicode="h" horiz-adv-x="646" 
d="M646 300c2.66699 4 5.66309 6.00488 8.99609 6.00488s6.33301 -1 9 -3s4.5 -4.83301 5.5 -8.5s0.5 -7.16699 -1.5 -10.5c-13.333 -19.333 -30 -40 -50 -62s-41.333 -43.667 -64 -65s-45.5 -41.166 -68.5 -59.499s-44.5 -33.833 -64.5 -46.5
c-27.333 -17.333 -54.166 -28.833 -80.499 -34.5s-49.166 -3.83398 -68.499 5.49902c-16 7.33301 -27.333 18.666 -34 33.999s-10.334 33 -11.001 53s0.833008 41.167 4.5 63.5s8.33398 44.166 14.001 65.499s11.5 41.5 17.5 60.5s10.667 34.833 14 47.5
c15.333 56.667 17 88.834 5 96.501s-37 -11.166 -75 -56.499c-15.333 -18.667 -30 -38.834 -44 -60.501s-26.667 -43 -38 -64s-21 -40.833 -29 -59.5s-14 -34.334 -18 -47.001c-0.666992 -3.33301 -2.33398 -5.83301 -5.00098 -7.5s-5.66699 -2.5 -9 -2.5h-74
c-9.33301 1.33301 -13.333 6.33301 -12 15c3.33301 24.667 6.83301 48.5 10.5 71.5s7.5 45.833 11.5 68.5c23.333 125.333 53.5 233.333 90.5 324s76.833 166.167 119.5 226.5s86.334 107 131.001 140s86.5 54.833 125.5 65.5s73.5 11.334 103.5 2.00098
s51.5 -25.833 64.5 -49.5s15.5 -53.5 7.5 -89.5s-30 -75.667 -66 -119s-88 -88.833 -156 -136.5s-155.667 -94.834 -263 -141.501c-25.333 -77.333 -46.333 -164.333 -63 -261c10.667 20 23.834 42.667 39.501 68s33.167 49.5 52.5 72.5s39.833 43 61.5 60
s43.834 26.833 66.501 29.5c22.667 3.33301 40.167 -1.5 52.5 -14.5s19.5 -29.833 21.5 -50.5c1.33301 -10.667 -0.166992 -25.834 -4.5 -45.501s-9.83301 -41.667 -16.5 -66l-20.5 -75.5c-7 -26 -12.667 -50.667 -17 -74s-6.5 -44 -6.5 -62s3.83301 -31 11.5 -39
s20 -9.66699 37 -5s40.5 18 70.5 40c20 14 40 29.833 60 47.5s39.167 35.667 57.5 54s35 36.166 50 53.499s27.167 32.666 36.5 45.999zM394.996 939.005c-25.333 -24 -49.167 -50.832 -71.5 -80.499s-43 -61 -62 -94s-36.167 -67.167 -51.5 -102.5s-29 -70 -41 -104
c44.667 20 90.5 43.167 137.5 69.5s90.667 54.166 131 83.499s75.333 59.5 105 90.5s50.167 61.167 61.5 90.5c10.667 29.333 15.167 53 13.5 71s-7.5 31.333 -17.5 40s-23.5 13 -40.5 13s-35 -3.16699 -54 -9.5s-38.167 -15.333 -57.5 -27s-37 -25.167 -53 -40.5z" />
    <glyph glyph-name="i" unicode="i" horiz-adv-x="374" 
d="M99 573c12 0 22.5039 -3.33594 31.5039 -10.0029s15.5 -14.667 19.5 -24s5.16699 -19.5 3.5 -30.5s-6.83398 -20.833 -15.501 -29.5c-12.667 -12.667 -26.334 -18.167 -41.001 -16.5s-26.834 7.33398 -36.501 17.001s-15.334 21.834 -17.001 36.501
s3.83301 28.334 16.5 41.001c10.667 10.667 23.667 16 39 16zM374.004 299.997c2.66699 4 5.66504 6 8.99805 6s6.33301 -1 9 -3s4.5 -4.83301 5.5 -8.5s0.5 -7.16699 -1.5 -10.5l-47 -60c-17.333 -21.333 -36 -42.5 -56 -63.5s-40.667 -40.667 -62 -59
s-42.666 -33.666 -63.999 -45.999s-42.166 -20.5 -62.499 -24.5s-39.166 -2 -56.499 6s-30.666 20.667 -39.999 38s-15.5 37.833 -18.5 61.5s-3.33301 49.5 -1 77.5s6.16602 56.667 11.499 86c4 22 8.83301 44 14.5 66s11.5 43 17.5 63c2 6.66699 6.33301 10 13 10h78
c8 -3.33301 11 -9 9 -17c-4 -13.333 -8.83301 -30.333 -14.5 -51s-11.334 -43.167 -17.001 -67.5s-10.667 -49 -15 -74s-6.83301 -48.167 -7.5 -69.5s1 -39.833 5 -55.5s11.5 -25.834 22.5 -30.501s26 -3 45 5s43.167 25 72.5 51c46 41.333 96.333 98 151 170z" />
    <glyph glyph-name="j" unicode="j" horiz-adv-x="392" 
d="M392 300c2 3.33301 4.83398 5.33398 8.50098 6.00098s7.16699 0 10.5 -2c7.33301 -5.33301 8.66602 -11.666 3.99902 -18.999c-33.333 -48.667 -66.166 -90.667 -98.499 -126s-64.5 -65.666 -96.5 -90.999s-63.5 -47 -94.5 -65s-61.833 -34 -92.5 -48
c-15.333 -58 -32.166 -110.833 -50.499 -158.5s-39.166 -92.167 -62.499 -133.5c-34 -59.333 -68.833 -102.333 -104.5 -129s-69.167 -41.667 -100.5 -45c-26 -2.66699 -48.833 2 -68.5 14s-34 28.833 -43 50.5s-11.667 47.167 -8 76.5s16 60.166 37 92.499
s51.333 65.166 91 98.499s91.167 65 154.5 95l24 11.5l24 10.5c15.333 54 29 111.667 41 173s23 124.333 33 189c3.33301 21.333 6.5 43 9.5 65s6.16699 43.667 9.5 65c2 8 6.66699 12 14 12h73c4.66699 0 8.5 -1.5 11.5 -4.5s3.83301 -6.83301 2.5 -11.5
c-11.333 -84.667 -23.333 -163 -36 -235s-26.667 -139 -42 -201c38 18.667 73.167 38.667 105.5 60s62.666 44.666 90.999 69.999s55.166 52.833 80.499 82.5s49.666 62.167 72.999 97.5zM81.001 572.001c12 0 22.5 -3.33496 31.5 -10.002s15.5 -14.834 19.5 -24.501
s5.16699 -20 3.5 -31s-6.83398 -20.833 -15.501 -29.5c-13.333 -12.667 -27.166 -18.167 -41.499 -16.5s-26.5 7.33398 -36.5 17.001s-15.833 21.834 -17.5 36.501s3.83301 28.334 16.5 41.001c5.33301 5.33301 11.333 9.5 18 12.5s14 4.5 22 4.5zM-165.999 -302.001
c18.667 35.333 34.832 71 48.499 107s25.167 68.667 34.5 98c-39.333 -18 -76.666 -37.333 -111.999 -58s-69.666 -47.667 -102.999 -81c-28.667 -28.667 -49.167 -57.667 -61.5 -87s-18.333 -55.5 -18 -78.5s6.33301 -41 18 -54s27.167 -17.167 46.5 -12.5
s41.666 20 66.999 46s52 66 80 120z" />
    <glyph glyph-name="k" unicode="k" horiz-adv-x="506" 
d="M506 300c2.66699 3.33301 5.83203 5.17285 9.49902 5.50586s6.83398 -0.833984 9.50098 -3.50098c3.33301 -2.66699 5.16602 -5.83398 5.49902 -9.50098s-0.833984 -6.83398 -3.50098 -9.50098c-47.333 -57.333 -89 -102.666 -125 -135.999
s-67.167 -57.666 -93.5 -72.999s-48.833 -22.833 -67.5 -22.5s-34.334 5.83301 -47.001 16.5c-13.333 11.333 -24 27 -32 47s-15 41 -21 63l-18 63.5c-6 20.333 -13.333 36.833 -22 49.5c-1.33301 -1.33301 -3.16602 -8.33301 -5.49902 -21
s-4.66602 -26.834 -6.99902 -42.501l-6.5 -44.5c-2 -14 -3 -23 -3 -27c-1.33301 -8 -6 -12 -14 -12h-73c-4.66699 0 -8.33398 1.5 -11.001 4.5s-3.66699 6.5 -3 10.5c3.33301 25.333 6.83301 49.5 10.5 72.5s7.5 45.833 11.5 68.5c23.333 125.333 53.5 233.166 90.5 323.499
s76.833 165.833 119.5 226.5s86.334 107.334 131.001 140.001s86.5 54.334 125.5 65.001s73.5 11.5 103.5 2.5s51.5 -25.5 64.5 -49.5s15.5 -54 7.5 -90s-30 -75.667 -66 -119s-88 -88.833 -156 -136.5s-155.667 -94.834 -263 -141.501
c-9.33301 -30 -18.166 -61 -26.499 -93s-16.166 -66 -23.499 -102l10 4l10 4c19.333 29.333 39.666 53.666 60.999 72.999c8.66699 8 18.167 15.5 28.5 22.5s20.833 12.333 31.5 16s21.334 5 32.001 4s21.334 -4.83301 32.001 -11.5c12 -8 19.333 -15.333 22 -22
s3 -11.834 1 -15.501s-5.5 -5.5 -10.5 -5.5s-9.83301 2.66699 -14.5 8c-11.333 14 -24.166 20.167 -38.499 18.5s-28.5 -7.33398 -42.5 -17.001s-27 -21.334 -39 -35.001s-21.667 -25.5 -29 -35.5c13.333 -4 23.666 -12.167 30.999 -24.5s13 -27 17 -44
s7.16699 -34.833 9.5 -53.5s5.16602 -36.167 8.49902 -52.5s7.83301 -30.333 13.5 -42s13.667 -18.834 24 -21.501s24.166 0.333008 41.499 9s39 25.334 65 50.001c19.333 17.333 40 37.833 62 61.5s46.333 51.5 73 83.5zM372.998 914.007
c-48 -50.667 -88.334 -106.5 -121.001 -167.5s-60.334 -124.167 -83.001 -189.5c35.333 16 72.333 34.5 111 55.5s76.334 44 113.001 69s71 52 103 81s58.667 59.167 80 90.5c8.66699 12.667 16.834 28.334 24.501 47.001s11.834 37 12.501 55s-3.33301 34 -12 48
s-24.334 22.667 -47.001 26c-15.333 2.66699 -32 -0.333008 -50 -9s-35.333 -19.334 -52 -32.001s-32 -26 -46 -40s-25 -25.333 -33 -34z" />
    <glyph glyph-name="l" unicode="l" horiz-adv-x="486" 
d="M486 300c5.33301 6.66699 11.6689 7.66992 19.002 3.00293c3.33301 -2 5.33301 -4.83301 6 -8.5s0 -7.16699 -2 -10.5c-21.333 -30.667 -46.666 -62.834 -75.999 -96.501s-60.833 -64.667 -94.5 -93s-68.334 -51.5 -104.001 -69.5s-69.834 -26.333 -102.501 -25
c-34 1.33301 -61.333 10.166 -82 26.499s-35.834 38 -45.501 65s-14.5 58.5 -14.5 94.5s3.33301 74 10 114c8.66699 52.667 21.834 106.834 39.501 162.501s36.5 108.334 56.5 158.001s39.833 94 59.5 133s36.167 67.5 49.5 85.5c43.333 59.333 87.5 104.333 132.5 135
s87.333 49.667 127 57s74.5 4.5 104.5 -8.5s51.167 -33.5 63.5 -61.5s14.166 -62 5.49902 -102s-32 -83.167 -70 -129.5s-92.5 -94.333 -163.5 -144s-162.5 -98.5 -274.5 -146.5c-7.33301 -22 -15 -49.833 -23 -83.5s-14.333 -68.5 -19 -104.5s-6 -70.333 -4 -103
s9.83301 -58.334 23.5 -77.001s34.167 -27.834 61.5 -27.501s64.333 15.5 111 45.5c42 26.667 80.5 59.167 115.5 97.5s65.167 76.166 90.5 113.499zM140.003 473.003c46 20 92.8311 43 140.498 69s92.667 54.5 135 85.5s80 64 113 99s57.167 71.5 72.5 109.5
c14.667 36 19.167 66.333 13.5 91s-18.167 42.167 -37.5 52.5s-43.666 12.5 -72.999 6.5s-60 -21.333 -92 -46c-47.333 -36.667 -90.666 -85 -129.999 -145c-28 -42.667 -53.833 -90.5 -77.5 -143.5s-45.167 -112.5 -64.5 -178.5z" />
    <glyph glyph-name="m" unicode="m" horiz-adv-x="911" 
d="M911 300c2 3.33301 5 5.32715 9 5.99414s7.66699 0 11 -2s5.16602 -4.83301 5.49902 -8.5s-0.5 -7.16699 -2.5 -10.5c-18 -26.667 -38.5 -53.5 -61.5 -80.5s-47.333 -52.667 -73 -77s-52 -47.166 -79 -68.499s-53.833 -40 -80.5 -56c-14 -8 -30.667 -16.167 -50 -24.5
s-38.333 -13.666 -57 -15.999s-35.167 -0.333008 -49.5 6s-23.833 19.5 -28.5 39.5c-3.33301 14 -3 30.333 1 49s9.66699 38.5 17 59.5s15.333 42.333 24 64s16 42.5 22 62.5c5.33301 18.667 9 37.167 11 55.5s0.833008 32.666 -3.5 42.999s-12.5 15.333 -24.5 15
s-29.333 -9.5 -52 -27.5c-21.333 -17.333 -42 -39.666 -62 -66.999s-37.667 -61 -53 -101c-3.33301 -8 -8.66602 -12 -15.999 -12l-76 2c-8.66699 3.33301 -11.334 9.33301 -8.00098 18c5.33301 17.333 10.833 37.333 16.5 60s9.83398 44.667 12.501 66s3.5 40.333 2.5 57
s-5 27.667 -12 33s-17.833 3.33301 -32.5 -6s-34.334 -29.666 -59.001 -60.999c-17.333 -22 -33.333 -46.167 -48 -72.5s-28.167 -52.666 -40.5 -78.999s-23 -51.166 -32 -74.499l-21.5 -57c-2.66699 -7.33301 -5 -13.5 -7 -18.5s-6.33301 -7.5 -13 -7.5h-73
c-5.33301 0 -9.33301 2 -12 6s-3 8 -1 12c2.66699 7.33301 7.16699 20.5 13.5 39.5l21.5 67l25 82l25 84.5l14.5 47c4.33301 14.667 8.16602 28.334 11.499 41.001c2 6.66699 6.66699 10 14 10h73c4.66699 0 8.33398 -2 11.001 -6s3.33398 -8 2.00098 -12l-39 -133
c10 18 21.167 36.833 33.5 56.5s25.833 38.334 40.5 56.001s30.5 32.834 47.5 45.501s35.167 21 54.5 25c20 4 37.667 2.83301 53 -3.5s27.5 -16.5 36.5 -30.5s14.833 -31 17.5 -51s2 -41.333 -2 -64c32 44.667 66 76.167 102 94.5s67.5 25.166 94.5 20.499
s46.833 -20 59.5 -46s11.667 -61.333 -3 -106c-4.66699 -14 -11.334 -31.333 -20.001 -52s-17 -41.667 -25 -63s-14.667 -41.666 -20 -60.999s-6.5 -34.333 -3.5 -45s11.333 -15.834 25 -15.501s34.834 9.5 63.501 27.5c25.333 16 50.833 34.667 76.5 56s50.5 44 74.5 68
s46.167 48.167 66.5 72.5s37.833 47.166 52.5 68.499z" />
    <glyph glyph-name="n" unicode="n" horiz-adv-x="678" 
d="M678 300c2 3.33301 4.83398 5.33203 8.50098 5.99902s7.16699 0 10.5 -2c7.33301 -6 8.33301 -12.333 3 -19c-18 -26 -37.833 -52.167 -59.5 -78.5s-44.5 -51.666 -68.5 -75.999s-48.833 -47 -74.5 -68s-51.5 -39.5 -77.5 -55.5c-17.333 -10 -34.333 -18.667 -51 -26
s-34.334 -11 -53.001 -11c-21.333 0 -37.666 4.66699 -48.999 14s-19 21.5 -23 36.5s-5.33301 31.833 -4 50.5s4.16602 37.5 8.49902 56.5s9.33301 37.333 15 55s10.834 32.5 15.501 44.5l13 37.5c5.33301 15 10.166 30.333 14.499 46s7.33301 30.834 9 45.501
s0.5 26.667 -3.5 36c-5.33301 14 -17.166 17.667 -35.499 11s-43.166 -26 -74.499 -58c-18 -18 -35.333 -37.833 -52 -59.5s-31.834 -43 -45.501 -64s-25.667 -41 -36 -60s-17.833 -34.833 -22.5 -47.5l-19 -59c-5.33301 -16.667 -9.33301 -28.667 -12 -36
c-3.33301 -5.33301 -7.66602 -8 -12.999 -8h-74c-4.66699 0 -8.33398 2 -11.001 6s-3.33398 8.33301 -2.00098 13c2.66699 6.66699 7.16699 19.5 13.5 38.5l21.5 66l25 81l25 84.5l14.5 48.5c4.33301 15 8.16602 28.833 11.499 41.5c2 6.66699 6.66699 10 14 10h73
c4.66699 0 8.33398 -1.83301 11.001 -5.5s3.33398 -7.83398 2.00098 -12.501l-42 -143c13.333 20.667 30.333 44.334 51 71.001s43.167 51.167 67.5 73.5s49.5 40.333 75.5 54s51.333 17.5 76 11.5c15.333 -4 27.5 -10.833 36.5 -20.5s15.333 -21.167 19 -34.5
s5.16699 -27.666 4.5 -42.999s-2.66699 -30 -6 -44c-3.33301 -13.333 -9.66602 -31.833 -18.999 -55.5l-28.5 -75c-9.66699 -26.333 -18.167 -51.833 -25.5 -76.5s-10.333 -45 -9 -61s8.5 -25.333 21.5 -28s34.5 5 64.5 23c25.333 15.333 50.666 33.833 75.999 55.5
s49.666 44.667 72.999 69s45 48.666 65 72.999s37.333 47.166 52 68.499z" />
    <glyph glyph-name="o" unicode="o" horiz-adv-x="626" 
d="M626 300c1.33301 3.33301 3.82812 5.49805 7.49512 6.49805s7.16699 0.5 10.5 -1.5s5.5 -4.83301 6.5 -8.5s0.5 -7.16699 -1.5 -10.5c-17.333 -28 -38.166 -53.5 -62.499 -76.5s-50.5 -42.333 -78.5 -58s-57.333 -26.667 -88 -33s-61 -7.16602 -91 -2.49902
c-22 3.33301 -42 9.66602 -60 18.999c-38 -61.333 -75.833 -103 -113.5 -125s-70.667 -28.167 -99 -18.5s-50.166 32.834 -65.499 69.501s-19.666 83.667 -12.999 141c2 16 4.83301 32.167 8.5 48.5s8.16699 32.833 13.5 49.5c10 28 22.667 55 38 81s33.333 48.833 54 68.5
s43.834 34.834 69.501 45.501s53.834 15 84.501 13c7.33301 -1.33301 11.666 -5.33301 12.999 -12s-1.66699 -11.667 -9 -15c-28.667 -12 -53.667 -30.833 -75 -56.5s-39 -54.334 -53 -86.001s-24.667 -64.667 -32 -99s-11 -66 -11 -95s3.33301 -53.5 10 -73.5
s17 -31.667 31 -35s31.5 3.33398 52.5 20.001s45.5 47.667 73.5 93c-23.333 16.667 -41 38.667 -53 66s-18.333 55.5 -19 84.5s4.16602 56.833 14.499 83.5s26.166 48 47.499 64c16 12 32.5 18.333 49.5 19s31.333 -5.33301 43 -18s18.834 -32.667 21.501 -60
s-2 -62.333 -14 -105c-5.33301 -20 -12.666 -40.667 -21.999 -62s-19.666 -42.333 -30.999 -63c25.333 -12.667 53 -18.5 83 -17.5s59 6.5 87 16.5c32.667 11.333 64 29 94 53s56.333 54 79 90zM259.995 172.998c24.667 44 41.8301 84.667 51.4971 122
s13.5 68.166 11.5 92.499s-9.33301 40.333 -22 48s-28.667 4.16699 -48 -10.5c-18 -13.333 -31.167 -31.166 -39.5 -53.499s-12.166 -45.833 -11.499 -70.5s5.83398 -48.5 15.501 -71.5s23.834 -41.833 42.501 -56.5z" />
    <glyph glyph-name="p" unicode="p" horiz-adv-x="681" 
d="M681 300c3.33301 2.66699 6.66699 4.3291 10 4.99609s6.66602 -0.666016 9.99902 -3.99902c6.66699 -6.66699 7 -13.334 1 -20.001c-34 -36.667 -67.833 -64.834 -101.5 -84.501s-66.834 -34 -99.501 -43s-64.334 -14.167 -95.001 -15.5
s-60.334 -1.66602 -89.001 -0.999023c-13.333 -19.333 -27.666 -37 -42.999 -53s-30.666 -28.667 -45.999 -38c-28 -17.333 -52.833 -26.833 -74.5 -28.5s-39 1.33301 -52 9s-21 18.334 -24 32.001s0.333008 27.834 10 42.501s26 28 49 40s53.833 19.667 92.5 23
c11.333 16.667 22 36.5 32 59.5s18.167 46.333 24.5 70s10.166 46.167 11.499 67.5s-1.5 38.5 -8.5 51.5s-18.5 20.167 -34.5 21.5s-38 -6 -66 -22c-15.333 -9.33301 -29.5 -19.166 -42.5 -29.499s-24.167 -20.833 -33.5 -31.5c-7.33301 -37.333 -15.666 -76 -24.999 -116
l-30 -123c-13.333 -54 -27.666 -107.167 -42.999 -159.5s-31.333 -101.833 -48 -148.5c-13.333 -37.333 -32.166 -78 -56.499 -122s-52.833 -85 -85.5 -123c-26 -30 -54 -55.833 -84 -77.5s-61.667 -36.834 -95 -45.501c-4 -1.33301 -7.5 -1.16602 -10.5 0.500977
s-5.16699 4 -6.5 7s-1.66602 6.16699 -0.999023 9.5s2.66699 6 6 8c31.333 19.333 59.166 42.833 83.499 70.5s46 57.834 65 90.501s35.833 66.5 50.5 101.5s27.667 69.5 39 103.5c12 34 23.667 70.167 35 108.5l33.5 118c11 40.333 21.5 81.333 31.5 123l29 123.5l21 99
c6.66699 32 12.667 63 18 93c1.33301 7.33301 6 11 14 11l73 1c4 0 7.5 -1.66699 10.5 -5s3.83301 -7.33301 2.5 -12l-8 -42c-2.66699 -14.667 -5.66699 -30 -9 -46c36.667 30.667 70.667 51.667 102 63s58.666 14.833 81.999 10.5s42.333 -15.5 57 -33.5
s23.834 -40.833 27.501 -68.5s1.16699 -59.167 -7.5 -94.5s-24.667 -72.333 -48 -111c26 -0.666992 53 -0.166992 81 1.5s56.667 6.83398 86 15.501s59 22.167 89 40.5s60 44.166 90 77.499zM207.001 132.995c-33.333 -5.33301 -58.167 -14.167 -74.5 -26.5
s-25.5 -23 -27.5 -32s2.16699 -13.833 12.5 -14.5s25.833 8 46.5 26c6.66699 5.33301 13.5 12 20.5 20z" />
    <glyph glyph-name="q" unicode="q" horiz-adv-x="602" 
d="M602 300c5.33301 6.66699 11.665 7.66992 18.998 3.00293c6.66699 -6 7.66699 -12.667 3 -20c-60 -79.333 -125.167 -143.5 -195.5 -192.5s-146.166 -84.5 -227.499 -106.5l-15 -54c47.333 -53.333 78.5 -102.333 93.5 -147s19.333 -83.834 13 -117.501
s-20.333 -60.834 -42 -81.501s-45.334 -33.334 -71.001 -38.001s-50.5 -0.333984 -74.5 12.999s-41.333 37.333 -52 72c-7.33301 21.333 -10.833 46.5 -10.5 75.5s3.33301 59.833 9 92.5s13.167 66.667 22.5 102s19.5 70.166 30.5 104.499s22.333 67.333 34 99l32.5 85.5
c-27.333 -19.333 -52.833 -30.166 -76.5 -32.499s-43.667 1.83398 -60 12.501s-27.833 27.167 -34.5 49.5s-6.66699 49.166 0 80.499c1.33301 5.33301 2.83301 10.833 4.5 16.5s3.5 11.5 5.5 17.5c8.66699 26 21 50.333 37 73s34.5 41.334 55.5 56.001s43.833 24 68.5 28
s50.334 0.666992 77.001 -10c13.333 -4.66699 26.333 -12.334 39 -23.001c5.33301 10 9.83301 19.5 13.5 28.5s8.83398 13.5 15.501 13.5h73c5.33301 0 9.33301 -2.16699 12 -6.5s3 -8.83301 1 -13.5c-14 -27.333 -29 -58.666 -45 -93.999l-49.5 -114l-50.5 -126.5
c-16.667 -43.667 -32 -87.167 -46 -130.5c74.667 22.667 144.5 57.167 209.5 103.5s125.5 106.833 181.5 181.5zM192.999 245.003c13.333 34 27 66.8311 41 98.498l40 88.5c-17.333 17.333 -35.666 24.833 -54.999 22.5s-38 -10.833 -56 -25.5s-34 -33.5 -48 -56.5
s-24 -45.833 -30 -68.5c-9.33301 -35.333 -11.5 -62.166 -6.5 -80.499s13.833 -29.333 26.5 -33s27.167 -0.666992 43.5 9s31.166 24.834 44.499 45.501zM176.999 -101.999c-2 -6.66699 -5.33203 -19.166 -9.99902 -37.499s-9.33398 -39.333 -14.001 -63
s-8.66699 -48.167 -12 -73.5s-4.66602 -48.833 -3.99902 -70.5s4 -39.667 10 -54s16.333 -21.833 31 -22.5c8.66699 -0.666992 17.5 1.5 26.5 6.5s17.333 12 25 21s14.5 19.667 20.5 32s10.333 25.5 13 39.5c4.66699 28 1.16699 60.667 -10.5 98
s-36.834 78.666 -75.501 123.999z" />
    <glyph glyph-name="r" unicode="r" horiz-adv-x="514" 
d="M21 284c-2 -3.33301 -4.83496 -4.99902 -8.50195 -4.99902s-6.83398 1 -9.50098 3s-4.5 4.66699 -5.5 8s-0.166992 6.66602 2.5 9.99902l21.5 30c7 10 13.167 19.667 18.5 29c-27.333 22.667 -44 43.167 -50 61.5s-5.83301 33.166 0.5 44.499s16.5 19 30.5 23
s27.167 3.16699 39.5 -2.5s21.666 -16.167 27.999 -31.5s4.83301 -36.666 -4.5 -63.999c18 -8.66699 37.5 -17 58.5 -25s39.5 -17.333 55.5 -28s27.833 -23.334 35.5 -38.001s7.5 -32.667 -0.5 -54c-5.33301 -14.667 -12.833 -33.667 -22.5 -57s-18.667 -47.166 -27 -71.499
s-14.5 -47 -18.5 -68s-3.33301 -36.5 2 -46.5s16.833 -12.333 34.5 -7s44.167 22 79.5 50c22 17.333 44 37 66 59s43.167 44.333 63.5 67s39.333 45.167 57 67.5s33.167 42.833 46.5 61.5c2 3.33301 4.83301 5.33301 8.5 6s7.16699 0 10.5 -2
c7.33301 -6 8.33301 -12.333 3 -19c-16.667 -24 -34.667 -48.167 -54 -72.5s-39.333 -47.833 -60 -70.5s-41.667 -44.167 -63 -64.5s-42 -38.5 -62 -54.5c-10 -8 -22.667 -17.333 -38 -28s-31.166 -19.834 -47.499 -27.501s-32.833 -12.667 -49.5 -15s-31.667 0.5 -45 8.5
s-22.666 19.167 -27.999 33.5s-8 30.5 -8 48.5s2 37.167 6 57.5s8.83301 40 14.5 59s11.5 36.833 17.5 53.5l15 41c4.66699 12.667 5.83398 23 3.50098 31s-7.16602 15.167 -14.499 21.5s-16.333 12.333 -27 18s-22 12.167 -34 19.5
c-5.33301 -9.33301 -11.5 -19.166 -18.5 -29.499s-14.5 -20.5 -22.5 -30.5zM58.998 403.001c2.66699 8 4.16797 14.998 4.50098 20.998s-0.166992 11.333 -1.5 16c-2.66699 10.667 -8.16699 16.834 -16.5 18.501s-14.833 0.333984 -19.5 -3.99902s-5.33398 -11 -2.00098 -20
s15 -19.5 35 -31.5z" />
    <glyph glyph-name="s" unicode="s" horiz-adv-x="469" 
d="M57 376c11.333 18 19.667 34.334 25 49.001c8 22 10.167 37.167 6.5 45.5s-9 10.166 -16 5.49902s-12.833 -15.5 -17.5 -32.5s-4 -39.5 2 -67.5zM469.001 300.001c6 7.33301 12.3281 8.66992 18.9951 4.00293c3.33301 -2 5.33301 -4.83301 6 -8.5s0 -7.16699 -2 -10.5
c-27.333 -40 -55 -72.5 -83 -97.5s-55.667 -45 -83 -60s-54.166 -26.667 -80.499 -35s-51.166 -15.5 -74.499 -21.5c2 -15.333 1.16699 -33 -2.5 -53s-10.167 -38.5 -19.5 -55.5s-21.333 -30.5 -36 -40.5s-32 -12.333 -52 -7c-18 5.33301 -29.5 15 -34.5 29
s-5.16699 29.167 -0.5 45.5s12.834 32.166 24.501 47.499s24.834 26.666 39.501 33.999c-4 22 -10 42.333 -18 61s-16.5 37 -25.5 55l-26 54.5c-8.33301 18.333 -15.166 37.833 -20.499 58.5c-6 24 -9 50 -9 78c0 33.333 5.33301 60.5 16 81.5s22.667 36 36 45
s26.5 12.167 39.5 9.5s22.333 -11 28 -25s5.66699 -33.333 0 -58s-20.167 -54.667 -43.5 -90c6.66699 -19.333 14.667 -39 24 -59l28.5 -61c9.66699 -20.667 18.667 -41.167 27 -61.5s14.833 -40.833 19.5 -61.5c34.667 9.33301 66 19.333 94 30s54 23.667 78 39
s46.667 33.666 68 54.999s42.333 47.333 63 78zM93.9961 42.0049c-18 -14.667 -30.333 -28.998 -37 -42.998s-9.5 -24.833 -8.5 -32.5s4.83301 -10.334 11.5 -8.00098s14 12.166 22 29.499c8 16.667 12 34.667 12 54z" />
    <glyph glyph-name="t" unicode="t" 
d="M453 777c2.66699 2.66699 5.83301 4.01172 9.5 4.01172s6.83398 -1.66699 9.50098 -5c3.33301 -2.66699 5 -5.83398 5 -9.50098s-1.66699 -6.83398 -5 -9.50098c-15.333 -14.667 -32.833 -26.334 -52.5 -35.001s-40.834 -14.834 -63.501 -18.501s-46.5 -5.5 -71.5 -5.5
s-50.5 1.33301 -76.5 4c-18 -48.667 -35.5 -98.834 -52.5 -150.501s-31.667 -101.667 -44 -150s-21.833 -93.5 -28.5 -135.5s-8.5 -77.667 -5.5 -107s11.333 -50.833 25 -64.5s34.334 -16.167 62.001 -7.5s63 30 106 64s95.5 83.667 157.5 149c6 6 12.333 6.33301 19 1
c3.33301 -2.66699 5 -5.83398 5 -9.50098s-1.33301 -6.83398 -4 -9.50098c-11.333 -13.333 -25 -28.333 -41 -45l-52 -52c-18.667 -18 -38.5 -36 -59.5 -54s-42.167 -34.167 -63.5 -48.5s-42.5 -26.5 -63.5 -36.5s-41.167 -16 -60.5 -18
c-28.667 -3.33301 -51.5 1.83398 -68.5 15.501s-29.167 33.167 -36.5 58.5s-11 55.166 -11 89.499s2.66699 70.5 8 108.5c6 42 14.167 84.667 24.5 128s21 84 32 122s21.333 71.5 31 100.5s17.167 50.167 22.5 63.5c-13.333 2 -26.5 4.16699 -39.5 6.5
s-25.833 4.83301 -38.5 7.5c-38 6.66699 -74.333 12.5 -109 17.5s-66 7.5 -94 7.5s-51.333 -3.83301 -70 -11.5s-31 -20.834 -37 -39.501c-3.33301 -9.33301 -9 -12.333 -17 -9c-4 1.33301 -7 3.66602 -9 6.99902s-2.33301 6.66602 -1 9.99902
c8 24.667 22.5 42.167 43.5 52.5s46.833 16.166 77.5 17.499s64.834 -0.833984 102.501 -6.50098l117.5 -18.5c14 -2.66699 28 -5.16699 42 -7.5s28 -4.5 42 -6.5l13.5 33c4.33301 10.667 9.16602 21 14.499 31c2 6 6 9 12 9h74c5.33301 0 9.16602 -2.16699 11.499 -6.5
s2.5 -8.83301 0.5 -13.5l-14 -32.5l-14 -33.5c23.333 -2 46.333 -3 69 -3s44.167 1.83301 64.5 5.5s39 9.16699 56 16.5s32.167 17.333 45.5 30z" />
    <glyph glyph-name="u" unicode="u" horiz-adv-x="630" 
d="M630 300c5.33301 7.33301 11.6699 8.66602 19.0029 3.99902c3.33301 -2.66699 5.33301 -5.83398 6 -9.50098s-0.333008 -6.83398 -3 -9.50098c-40 -55.333 -80.167 -103 -120.5 -143s-78.333 -70.667 -114 -92s-67.5 -32.5 -95.5 -33.5s-49.333 9.66699 -64 32
s-21.167 57.5 -19.5 105.5s14.167 110.333 37.5 187c-14 -20.667 -30.667 -42.5 -50 -65.5s-39.333 -43.833 -60 -62.5s-41.5 -33.167 -62.5 -43.5s-40.5 -13.166 -58.5 -8.49902c-11.333 2.66699 -20.5 8.16699 -27.5 16.5s-12.333 18.666 -16 30.999s-5.5 26.333 -5.5 42
s1.33301 32.167 4 49.5c4 30 11 61.833 21 95.5s20.667 66.167 32 97.5c2 6 6.33301 9 13 9h73c5.33301 0 9.33301 -2 12 -6s3 -8 1 -12c-26 -68.667 -43.167 -123 -51.5 -163s-10.333 -68 -6 -84s14 -21.333 29 -16s33 19 54 41s44 51 69 87s49.833 76.667 74.5 122l13 7
l77 -1c4 -1.33301 6.66699 -3.83301 8 -7.5s1.33301 -7.16699 0 -10.5l-14 -38.5c-6.66699 -18.333 -13.834 -39.666 -21.501 -63.999s-15.167 -50.166 -22.5 -77.499s-13.333 -53.833 -18 -79.5s-7.33398 -49.167 -8.00098 -70.5s2.16602 -37.666 8.49902 -48.999
s16.833 -16.5 31.5 -15.5s34.667 10.833 60 29.5c30.667 22 62.667 50.5 96 85.5s66.333 75.167 99 120.5z" />
    <glyph glyph-name="v" unicode="v" horiz-adv-x="652" 
d="M652 300c5.33301 6.66699 11.6719 7.66992 19.0049 3.00293c7.33301 -6 8.66602 -12.333 3.99902 -19c-23.333 -31.333 -49.166 -62.166 -77.499 -92.499s-57.833 -56.666 -88.5 -78.999s-61.834 -39 -93.501 -50s-61.834 -12.5 -90.501 -4.5
c-19.333 5.33301 -36 14.666 -50 27.999s-24.667 29.666 -32 48.999c-7.33301 -11.333 -18.5 -26.833 -33.5 -46.5s-32 -38.5 -51 -56.5s-39.167 -32.5 -60.5 -43.5s-42 -12.833 -62 -5.5c-20.667 7.33301 -35.667 21.833 -45 43.5s-14.666 47.167 -15.999 76.5
s0.5 61.166 5.5 95.499s11.5 68.166 19.5 101.499c9.33301 40.667 19.333 77.834 30 111.501s19 58.834 25 75.501c2.66699 6 7 9 13 9h73c5.33301 0 9.5 -2 12.5 -6s3.16699 -8.33301 0.5 -13c-3.33301 -6 -8.83301 -19.5 -16.5 -40.5s-15.834 -46.167 -24.501 -75.5
s-17.167 -60.666 -25.5 -93.999s-15 -65.333 -20 -96s-7.83301 -58.167 -8.5 -82.5s2.66602 -41.833 9.99902 -52.5s19.166 -12.834 35.499 -6.50098s38.5 24.833 66.5 55.5c10.667 11.333 21 24.166 31 38.499s20 29.833 30 46.5c-6.66699 34 -7.66699 74.333 -3 121
c4.66699 37.333 13 67.5 25 90.5s24.5 38.5 37.5 46.5s24.5 8.5 34.5 1.5s15.5 -21.333 16.5 -43s-4.5 -50.834 -16.5 -87.501s-33.667 -81 -65 -133c10.667 -39.333 29.667 -65 57 -77s60.333 -11 99 3c34.667 13.333 72.167 37.166 112.5 71.499
s81.166 79.833 122.499 136.5zM254.006 209.003c11.333 20.667 20.6689 39.499 28.002 56.499s13.666 32.5 18.999 46.5c9.33301 26.667 14.5 47.334 15.5 62.001s-0.666992 23.834 -5 27.501s-10.333 2 -18 -5s-14.834 -18.833 -21.501 -35.5s-12 -37.834 -16 -63.501
s-4.66699 -55.167 -2 -88.5z" />
    <glyph glyph-name="w" unicode="w" horiz-adv-x="935" 
d="M935 300c2 3.33301 4.83594 5.16309 8.50293 5.49609s7.16699 -0.5 10.5 -2.5c6.66699 -5.33301 7.66699 -11.666 3 -18.999c-20.667 -28.667 -44 -55.667 -70 -81s-53.167 -46.666 -81.5 -63.999s-57.5 -29.5 -87.5 -36.5s-59 -6.83301 -87 0.5
c-32 9.33301 -57 27 -75 53c-35.333 -57.333 -71.333 -101.5 -108 -132.5s-69 -46.167 -97 -45.5s-49.333 17.834 -64 51.501s-17.334 86.5 -8.00098 158.5c-15.333 -28 -33.166 -57.5 -53.499 -88.5s-42 -58.333 -65 -82s-46.333 -41.5 -70 -53.5s-46.167 -13.333 -67.5 -4
c-19.333 8 -33.333 22.833 -42 44.5s-13.334 47.834 -14.001 78.501s2 64.667 8 102s14.333 75.666 25 114.999c8.66699 32 18.167 63.5 28.5 94.5s21.5 61.833 33.5 92.5c2 6 6.33301 9 13 9h73c5.33301 0 9.33301 -2 12 -6s3 -8.33301 1 -13
c-26 -67.333 -46 -127.666 -60 -180.999s-23.667 -100 -29 -140c-6 -40.667 -8.5 -72.334 -7.5 -95.001s4.5 -38.167 10.5 -46.5s14.333 -10.5 25 -6.5s22.667 12.333 36 25s27.5 29 42.5 49s30.167 41.333 45.5 64c13.333 20.667 26 43.167 38 67.5s24 50.833 36 79.5
c2.66699 6 7 9 13 9h73c4.66699 0 8.5 -1.83301 11.5 -5.5s3.83301 -7.5 2.5 -11.5c-10.667 -40 -18.5 -76.667 -23.5 -110s-7 -61.333 -6 -84s5.16699 -39.167 12.5 -49.5s18 -12.5 32 -6.5s31.667 21 53 45s46.333 59 75 105c-9.33301 23.333 -13.5 50 -12.5 80
s5.33301 58 13 84s18.167 47.167 31.5 63.5s27.666 22.833 42.999 19.5c12.667 -2.66699 21.167 -9.66699 25.5 -21s5.5 -25 3.5 -41s-6.16699 -33.333 -12.5 -52s-13.333 -36.834 -21 -54.501s-15.167 -33.667 -22.5 -48l-17 -32.5
c12.667 -23.333 30.667 -39.666 54 -48.999c16 -6 32.667 -8.83301 50 -8.5s34.5 3 51.5 8s33.333 11.833 49 20.5s30.167 17.667 43.5 27c19.333 14.667 38.666 31.834 57.999 51.501s38.333 42.167 57 67.5zM560.003 217.997c6.66699 12 13.832 26.3311 21.499 42.998
s14.667 33.334 21 50.001s10.833 32.834 13.5 48.501s2.33398 28.5 -0.999023 38.5c-3.33301 9.33301 -9 9.83301 -17 1.5s-15.667 -21.833 -23 -40.5s-13 -40.667 -17 -66s-3.33301 -50.333 2 -75z" />
    <glyph glyph-name="x" unicode="x" horiz-adv-x="609" 
d="M97 469c-2 2.66699 -2.16992 5.50098 -0.50293 8.50098s4.33398 5.33301 8.00098 7s7.66699 2.33398 12 2.00098s7.83301 -1.83301 10.5 -4.5l115 -163c16 26 33.667 49.833 53 71.5s39.833 40.167 61.5 55.5s44.667 26.833 69 34.5s50.166 10.167 77.499 7.5
c6.66699 -0.666992 10.334 -4.33398 11.001 -11.001s-2 -10.667 -8 -12c-25.333 -6 -47.833 -16.167 -67.5 -30.5s-37.5 -31.333 -53.5 -51s-30.833 -41.167 -44.5 -64.5l-40.5 -70l172 -228c2 -3.33301 2.33301 -6.5 1 -9.5s-3.66602 -5.33301 -6.99902 -7
s-6.83301 -2.5 -10.5 -2.5s-6.5 1.66699 -8.5 5l-162 216l-48.5 -81c-16.333 -26 -34 -49.333 -53 -70s-39.667 -37.5 -62 -50.5s-47.5 -20.5 -75.5 -22.5c-4 -0.666992 -7 0.166016 -9 2.49902s-3.16699 5 -3.5 8s0.333984 5.83301 2.00098 8.5s4.5 4 8.5 4
c11.333 0.666992 22.833 6.33398 34.5 17.001s23 24.167 34 40.5s22 34.666 33 54.999s21.333 40.333 31 60l27 56c8.33301 17.667 15.833 32.167 22.5 43.5z" />
    <glyph glyph-name="y" unicode="y" horiz-adv-x="676" 
d="M676 300c5.33301 7.33301 11.668 8.66504 19.001 3.99805c3.33301 -2 5.33301 -4.83301 6 -8.5s0 -7.16699 -2 -10.5c-30 -43.333 -60.5 -81.166 -91.5 -113.499s-62.5 -60.5 -94.5 -84.5s-64.333 -44.667 -97 -62s-65.334 -33 -98.001 -47
c-40.667 -120.667 -83.167 -219.5 -127.5 -296.5s-87.833 -136.5 -130.5 -178.5s-83.334 -68.667 -122.001 -80s-72.667 -11.833 -102 -1.5s-52.833 29 -70.5 56s-27.167 58.167 -28.5 93.5s7.16699 72.333 25.5 111s48.833 74.667 91.5 108
c28.667 22.667 57.667 42.334 87 59.001s58.833 31.834 88.5 45.501s59.667 26.167 90 37.5l92.5 34c18 52.667 35.667 110 53 172s33.666 129.333 48.999 202c-8 -13.333 -18.333 -29.333 -31 -48s-26.667 -38 -42 -58s-31.666 -39.333 -48.999 -58
s-34.833 -34.667 -52.5 -48s-35.167 -23.166 -52.5 -29.499s-33.666 -7.16602 -48.999 -2.49902c-14 4 -24.833 12.167 -32.5 24.5s-12.667 27.666 -15 45.999s-2.66602 38.833 -0.999023 61.5s5.16699 46.667 10.5 72c6 32 13.833 64.333 23.5 97
s20.167 64.334 31.5 95.001c2 6 6.33301 9 13 9h74c4.66699 0 8.33398 -2 11.001 -6s3 -8 1 -12c-7.33301 -16.667 -15.333 -37.334 -24 -62.001s-17.167 -50.334 -25.5 -77.001s-15.5 -53.167 -21.5 -79.5s-9.83301 -49.5 -11.5 -69.5s-0.5 -35.5 3.5 -46.5
s12.167 -14.833 24.5 -11.5s29.666 15.5 51.999 36.5s50.5 53.5 84.5 97.5c31.333 42 63.333 93.667 96 155c2.66699 6 7 8.33301 13 7l75 -4c4 -0.666992 7.16699 -2.5 9.5 -5.5s2.83301 -6.5 1.5 -10.5c-15.333 -76.667 -31.333 -147.834 -48 -213.501
s-34.334 -127.834 -53.001 -186.501c32 14.667 63.167 30.834 93.5 48.501s59.833 37.834 88.5 60.501s56.667 48.667 84 78s54 62.666 80 99.999zM69.002 -347.001c26.667 43.333 50.833 89.1709 72.5 137.504s41.167 95.5 58.5 141.5l-85 -32
c-28 -10.667 -55.667 -22.334 -83 -35.001s-54.5 -26.834 -81.5 -42.501s-53.5 -33.834 -79.5 -54.501c-37.333 -29.333 -64.166 -61.833 -80.499 -97.5s-24.166 -69.167 -23.499 -100.5s9 -57.333 25 -78s37.667 -30.334 65 -29.001s59.166 16.333 95.499 45
s75.166 77 116.499 145z" />
    <glyph glyph-name="z" unicode="z" horiz-adv-x="550" 
d="M550 300c2.66699 3.33301 5.83008 4.99512 9.49707 4.99512s6.83398 -1 9.50098 -3s4.5 -4.66699 5.5 -8s0.5 -6.66602 -1.5 -9.99902c-22 -32 -45.167 -60.167 -69.5 -84.5s-49.5 -46 -75.5 -65s-52.833 -35.833 -80.5 -50.5s-55.5 -28 -83.5 -40
c-4.66699 -36 -13 -72.667 -25 -110s-26.667 -73 -44 -107c-28.667 -57.333 -59.667 -104.5 -93 -141.5s-66.833 -65.5 -100.5 -85.5s-66.334 -32.5 -98.001 -37.5s-60.167 -4 -85.5 3s-46.5 19 -63.5 36s-27.667 37.333 -32 61s-1.16602 50 9.50098 79s31 58.833 61 89.5
c25.333 26.667 52.333 49.834 81 69.501s58.334 37 89.001 52s62.167 28.667 94.5 41l96.5 36.5c6.66699 30 10 61.5 10 94.5s-7.33301 62.167 -22 87.5c-0.666992 0 -1.33398 -0.166992 -2.00098 -0.5s-1.66699 -0.5 -3 -0.5c-1.33301 -0.666992 -2.66602 -1 -3.99902 -1
c-21.333 -5.33301 -37.166 -4.16602 -47.499 3.50098s-15.333 16.834 -15 27.501s6 20.667 17 30s27.833 12.666 50.5 9.99902c20 16.667 35.167 33.334 45.5 50.001s16.833 32.167 19.5 46.5s2.16699 26.5 -1.5 36.5s-9.83398 17 -18.501 21
c-12.667 5.33301 -26.667 2.83301 -42 -7.5s-30.5 -24 -45.5 -41s-29 -35 -42 -54s-22.833 -33.833 -29.5 -44.5c-2 -4 -4.83301 -6.33301 -8.5 -7s-7 -0.333984 -10 0.999023s-5.16699 3.66602 -6.5 6.99902s-1 7 1 11c10.667 18.667 23 38.334 37 59.001
s29.333 39.5 46 56.5s34.5 31.333 53.5 43s38.833 18.5 59.5 20.5c36 3.33301 62.333 -3.66699 79 -21s25 -38.666 25 -63.999s-7.5 -51.666 -22.5 -78.999s-35.833 -49.333 -62.5 -66c22.667 -20.667 37.334 -46.834 44.001 -78.501s9 -63.5 7 -95.5
c52.667 22.667 103.167 51.334 151.5 86.001s92.5 81 132.5 139zM-39.0039 -322.005c46 46 84.668 96.668 116.001 152.001s54.666 111.333 69.999 168l-90 -34.5c-30 -11.667 -59.167 -24.667 -87.5 -39s-55.833 -30.5 -82.5 -48.5s-51.667 -39.333 -75 -64
s-39.833 -48.834 -49.5 -72.501s-13.5 -45 -11.5 -64s8.83301 -34.667 20.5 -47s27 -19.5 46 -21.5s40.833 2.5 65.5 13.5s50.667 30.167 78 57.5z" />
    <glyph glyph-name="braceleft" unicode="{" horiz-adv-x="324" 
d="M177 19c3.33301 -2 5.33496 -4.66699 6.00195 -8s0.166992 -6.5 -1.5 -9.5s-4 -5.16699 -7 -6.5s-6.5 -1.33301 -10.5 0c-38.667 14 -65.834 32.833 -81.501 56.5s-23.834 50.167 -24.501 79.5s4.33301 60.666 15 93.999s23.334 66.833 38.001 100.5l43.5 99.5
c14.333 32.667 24.833 63 31.5 91c-15.333 0.666992 -26.833 4.33398 -34.5 11.001s-12.334 14.334 -14.001 23.001s-0.666992 17 3 25s9.33398 14.333 17.001 19s17 6.16699 28 4.5s23.167 -7.83398 36.5 -18.501c14.667 21.333 29 47.666 43 78.999l44 97
c15.333 33.333 31.833 65.833 49.5 97.5s37.5 58.667 59.5 81s46.833 38.166 74.5 47.499s59.167 8.33301 94.5 -3c8 -2.66699 11.5 -7.66699 10.5 -15s-5.16699 -11.333 -12.5 -12c-32.667 -1.33301 -61.167 -11.166 -85.5 -29.499s-46.166 -41.166 -65.499 -68.499
s-36.833 -57.5 -52.5 -90.5l-45.5 -95.5c-14.667 -30.667 -29.334 -58.667 -44.001 -84s-30.667 -44 -48 -56c2.66699 -27.333 -2.33301 -58.333 -15 -93s-27.334 -70.667 -44.001 -108c-13.333 -29.333 -25.833 -59 -37.5 -89s-19.5 -58.5 -23.5 -85.5s-2.5 -52 4.5 -75
s23.167 -42.5 48.5 -58.5z" />
    <glyph glyph-name="bar" unicode="|" horiz-adv-x="269" 
d="M92 1037c0 8.66699 2.83301 15.334 8.5 20.001s12 7 19 7s13.333 -2.33301 19 -7s8.5 -11.334 8.5 -20.001v-1032c0 -9.33301 -2.83301 -16.166 -8.5 -20.499s-12 -6.5 -19 -6.5s-13.333 2.16699 -19 6.5s-8.5 11.166 -8.5 20.499v1032z" />
    <glyph glyph-name="braceright" unicode="}" horiz-adv-x="554" 
d="M369 959c-3.33301 2 -5.33105 4.66406 -5.99805 7.99707s-0.333984 6.5 0.999023 9.5s3.5 5.16699 6.5 6.5s6.5 1.33301 10.5 0c38.667 -14 66 -32.667 82 -56s24.167 -49.666 24.5 -78.999s-4.83398 -60.833 -15.501 -94.5s-23.334 -67.5 -38.001 -101.5l-43.5 -100
c-14.333 -32.667 -24.833 -62.667 -31.5 -90c14.667 -1.33301 26 -5.33301 34 -12s13 -14.334 15 -23.001s1.33301 -17.167 -2 -25.5s-8.83301 -14.666 -16.5 -18.999s-17 -5.66602 -28 -3.99902s-23.5 8.16699 -37.5 19.5c-15.333 -21.333 -30 -47.666 -44 -78.999l-44 -97
c-15.333 -33.333 -31.833 -65.833 -49.5 -97.5s-37.5 -58.667 -59.5 -81s-46.833 -38.166 -74.5 -47.499s-59.167 -8.33301 -94.5 3c-8 2 -11.333 6.83301 -10 14.5s5.66602 11.834 12.999 12.501c32 1.33301 60.333 11.166 85 29.499s46.667 41.166 66 68.499
s36.833 57.333 52.5 90l45 95.5c14.333 31 28.833 59 43.5 84s31 43.5 49 55.5c-3.33301 28 1.33398 59.167 14.001 93.5s27.334 70.5 44.001 108.5c13.333 29.333 26 59 38 89s20 58.5 24 85.5s2.33301 52 -5 75s-23.333 42.5 -48 58.5z" />
    <glyph glyph-name="asciitilde" unicode="~" horiz-adv-x="423" 
d="M326 269c2.66699 3.33301 5.66797 5.16699 9.00098 5.5s6.33301 -0.333984 9 -2.00098s4.66699 -4 6 -7s1 -6.5 -1 -10.5c-10.667 -22 -22.5 -37.5 -35.5 -46.5s-26.833 -13.5 -41.5 -13.5s-29.834 2.83301 -45.501 8.5s-30.834 12.167 -45.501 19.5l-27.5 11.5
c-9 3.66699 -17.5 6.16699 -25.5 7.5s-15.167 1.16602 -21.5 -0.500977s-11.833 -5.83398 -16.5 -12.501c-2.66699 -3.33301 -5.66699 -5.16602 -9 -5.49902s-6.5 0.333984 -9.5 2.00098s-5.16699 4 -6.5 7s-1 6.5 1 10.5c10.667 22.667 23.334 37.334 38.001 44.001
s30.167 8.83398 46.5 6.50098s33 -7.33301 50 -15s33.333 -14.334 49 -20.001s30 -8.5 43 -8.5s24.167 6.33301 33.5 19z" />
    <glyph glyph-name="divide" unicode="&#xf7;" horiz-adv-x="833" 
d="M353 439c12 0 22.501 -3.33496 31.501 -10.002s15.5 -14.834 19.5 -24.501s5.16699 -20 3.5 -31s-6.83398 -20.833 -15.501 -29.5c-13.333 -12.667 -27.166 -18.167 -41.499 -16.5s-26.5 7.33398 -36.5 17.001s-15.833 21.834 -17.5 36.501s4.16602 28.334 17.499 41.001
c10 11.333 23 17 39 17zM556.001 289.998c8.66699 0 15.334 -2.83301 20.001 -8.5s7 -12 7 -19s-2.33301 -13.333 -7 -19s-11.334 -8.5 -20.001 -8.5h-382c-9.33301 0 -16.166 2.83301 -20.499 8.5s-6.5 12 -6.5 19s2.16699 13.333 6.5 19s11.166 8.5 20.499 8.5h382z
M353.001 196.998c12 0 22.501 -3.33594 31.501 -10.0029s15.5 -14.667 19.5 -24s5.16699 -19.5 3.5 -30.5s-6.83398 -20.833 -15.501 -29.5c-13.333 -12.667 -27.166 -18.167 -41.499 -16.5s-26.5 7.33398 -36.5 17.001s-15.833 21.834 -17.5 36.501
s4.16602 28.334 17.499 41.001c10.667 10.667 23.667 16 39 16z" />
    <glyph glyph-name="tilde" unicode="&#x2dc;" horiz-adv-x="833" 
d="M419 617c8.66699 0 15.334 -3 20.001 -9s7 -12.5 7 -19.5s-2.33301 -13.333 -7 -19s-11.334 -8.5 -20.001 -8.5h-260c-9.33301 0 -16.333 2.83301 -21 8.5s-7 12 -7 19s2.33301 13.5 7 19.5s11.667 9 21 9h260z" />
    <glyph glyph-name="hungarumlaut" unicode="&#x2dd;" horiz-adv-x="833" 
 />
    <glyph glyph-name="endash" unicode="&#x2013;" horiz-adv-x="833" 
d="M554 198c8.66699 0 15.334 -3 20.001 -9s7 -12.5 7 -19.5s-2.33301 -13.333 -7 -19s-11.334 -8.5 -20.001 -8.5h-395c-9.33301 0 -16.333 2.83301 -21 8.5s-7 12 -7 19s2.33301 13.5 7 19.5s11.667 9 21 9h395z" />
    <glyph glyph-name="emdash" unicode="&#x2014;" horiz-adv-x="833" 
d="M755 198c8.66699 0 15.334 -3 20.001 -9s7 -12.5 7 -19.5s-2.33301 -13.333 -7 -19s-11.334 -8.5 -20.001 -8.5h-596c-9.33301 0 -16.333 2.83301 -21 8.5s-7 12 -7 19s2.33301 13.5 7 19.5s11.667 9 21 9h596z" />
    <glyph glyph-name="quoteleft" unicode="&#x2018;" horiz-adv-x="313" 
d="M222 986c4.66699 2.66699 8.83301 3.66895 12.5 3.00195s6.5 -2.5 8.5 -5.5s2.66699 -6.33301 2 -10s-3 -6.83398 -7 -9.50098c-7.33301 -5.33301 -15.333 -12.833 -24 -22.5s-17.5 -20.834 -26.5 -33.501s-17.167 -26.167 -24.5 -40.5s-13 -28.5 -17 -42.5
c15.333 -2 27.833 -7.66699 37.5 -17s16.334 -20.166 20.001 -32.499s4.16699 -25 1.5 -38s-9 -23.833 -19 -32.5c-10 -9.33301 -20.167 -15.5 -30.5 -18.5s-20.333 -3.66699 -30 -2s-18.5 5.16699 -26.5 10.5s-14.667 11.666 -20 18.999c-8.66699 12 -12.5 26 -11.5 42
s5.16699 33 12.5 51s17 36.167 29 54.5s24.667 35.5 38 51.5s26.666 30.5 39.999 43.5s25 22.833 35 29.5z" />
    <glyph glyph-name="quoteright" unicode="&#x2019;" horiz-adv-x="309" 
d="M61 681c-4.66699 -3.33301 -8.83008 -4.50293 -12.4971 -3.50293s-6.5 3 -8.5 6s-2.66699 6.33301 -2 10s3 6.83398 7 9.50098c6.66699 5.33301 14.5 12.833 23.5 22.5s18 20.834 27 33.501s17.167 26.167 24.5 40.5s13 28.5 17 42.5c-15.333 2 -27.833 7.66699 -37.5 17
s-16.334 20.166 -20.001 32.499s-4.16699 25 -1.5 38s9 23.833 19 32.5s20.167 14.5 30.5 17.5s20.166 3.83301 29.499 2.5s18.166 -4.66602 26.499 -9.99902s15.166 -11.666 20.499 -18.999c8 -12 11.667 -26 11 -42s-4.66699 -33 -12 -51s-17 -36.167 -29 -54.5
s-24.667 -35.5 -38 -51.5s-26.666 -30.5 -39.999 -43.5s-25 -22.833 -35 -29.5z" />
    <glyph glyph-name="quotesinglbase" unicode="&#x201a;" horiz-adv-x="338" 
d="M76 -164c-4.66699 -3.33301 -8.83008 -4.50293 -12.4971 -3.50293s-6.5 3 -8.5 6s-2.66699 6.33301 -2 10s3 6.83398 7 9.50098c6.66699 5.33301 14.5 12.833 23.5 22.5s18 20.834 27 33.501s17.167 26.167 24.5 40.5s13 28.5 17 42.5
c-15.333 2 -27.833 7.66699 -37.5 17s-16.334 20.166 -20.001 32.499s-4.16699 25 -1.5 38s9 23.833 19 32.5s20.167 14.5 30.5 17.5s20.166 3.83301 29.499 2.5s18.166 -4.66602 26.499 -9.99902s15.166 -11.666 20.499 -18.999c8 -12 11.667 -26 11 -42
s-4.66699 -33 -12 -51s-17 -36.167 -29 -54.5s-24.667 -35.5 -38 -51.5s-26.666 -30.5 -39.999 -43.5s-25 -22.833 -35 -29.5z" />
    <glyph glyph-name="quotedblleft" unicode="&#x201c;" horiz-adv-x="518" 
d="M222 986c4.66699 2.66699 8.83301 3.66895 12.5 3.00195s6.5 -2.5 8.5 -5.5s2.66699 -6.33301 2 -10s-3 -6.83398 -7 -9.50098c-7.33301 -5.33301 -15.333 -12.833 -24 -22.5s-17.5 -20.834 -26.5 -33.501s-17.167 -26.167 -24.5 -40.5s-13 -28.5 -17 -42.5
c15.333 -2 27.833 -7.66699 37.5 -17s16.334 -20.166 20.001 -32.499s4.16699 -25 1.5 -38s-9 -23.833 -19 -32.5c-10 -9.33301 -20.167 -15.5 -30.5 -18.5s-20.333 -3.66699 -30 -2s-18.5 5.16699 -26.5 10.5s-14.667 11.666 -20 18.999c-8.66699 12 -12.5 26 -11.5 42
s5.16699 33 12.5 51s17 36.167 29 54.5s24.667 35.5 38 51.5s26.666 30.5 39.999 43.5s25 22.833 35 29.5zM403.999 986.002c4.66699 2.66699 8.83301 3.66895 12.5 3.00195s6.5 -2.5 8.5 -5.5s2.66699 -6.33301 2 -10s-3 -6.83398 -7 -9.50098
c-7.33301 -5.33301 -15.333 -12.833 -24 -22.5s-17.5 -20.834 -26.5 -33.501s-17.167 -26.167 -24.5 -40.5s-13 -28.5 -17 -42.5c15.333 -2 27.833 -7.66699 37.5 -17s16.334 -20.166 20.001 -32.499s4.16699 -25 1.5 -38s-9 -23.833 -19 -32.5
c-10 -9.33301 -20.167 -15.5 -30.5 -18.5s-20.333 -3.66699 -30 -2s-18.5 5.16699 -26.5 10.5s-14.667 11.666 -20 18.999c-8.66699 12 -12.5 26 -11.5 42s5.16699 33 12.5 51s17 36.167 29 54.5s24.667 35.5 38 51.5s26.666 30.5 39.999 43.5s25 22.833 35 29.5z" />
    <glyph glyph-name="quotedblright" unicode="&#x201d;" horiz-adv-x="489" 
d="M243 681c-4.66699 -3.33301 -8.83008 -4.50293 -12.4971 -3.50293s-6.5 3 -8.5 6s-2.66699 6.33301 -2 10s3 6.83398 7 9.50098c6.66699 5.33301 14.5 12.833 23.5 22.5s18 20.834 27 33.501s17.167 26.167 24.5 40.5s13 28.5 17 42.5
c-15.333 2 -27.833 7.66699 -37.5 17s-16.334 20.166 -20.001 32.499s-4.16699 25 -1.5 38s9 23.833 19 32.5s20.167 14.5 30.5 17.5s20.166 3.83301 29.499 2.5s18.166 -4.66602 26.499 -9.99902s15.166 -11.666 20.499 -18.999c8 -12 11.667 -26 11 -42
s-4.66699 -33 -12 -51s-17 -36.167 -29 -54.5s-24.667 -35.5 -38 -51.5s-26.666 -30.5 -39.999 -43.5s-25 -22.833 -35 -29.5zM61.0039 680.997c-4.66699 -3.33301 -8.83008 -4.50293 -12.4971 -3.50293s-6.5 3 -8.5 6s-2.66699 6.33301 -2 10s3 6.83398 7 9.50098
c6.66699 5.33301 14.5 12.833 23.5 22.5s18 20.834 27 33.501s17.167 26.167 24.5 40.5s13 28.5 17 42.5c-15.333 2 -27.833 7.66699 -37.5 17s-16.334 20.166 -20.001 32.499s-4.16699 25 -1.5 38s9 23.833 19 32.5s20.167 14.5 30.5 17.5s20.166 3.83301 29.499 2.5
s18.166 -4.66602 26.499 -9.99902s15.166 -11.666 20.499 -18.999c8 -12 11.667 -26 11 -42s-4.66699 -33 -12 -51s-17 -36.167 -29 -54.5s-24.667 -35.5 -38 -51.5s-26.666 -30.5 -39.999 -43.5s-25 -22.833 -35 -29.5z" />
    <glyph glyph-name="a.001" unicode="&#xe000;" horiz-adv-x="1485" 
d="M1485 300c2 4 5.66699 5.99609 11 5.99609c4 0 7.16699 -1.5 9.5 -4.5s3.5 -6.16699 3.5 -9.5c0 -2.66699 -0.666992 -5.33398 -2 -8.00098c-73.333 -98.667 -139.833 -170.334 -199.5 -215.001s-108.834 -67 -147.501 -67c-28 0 -49.333 10 -64 30s-22 48.333 -22 85
c0 22.667 3.66699 50.334 11 83.001c-17.333 -14.667 -34.333 -25.5 -51 -32.5s-32.667 -10.5 -48 -10.5c-25.333 0 -46.166 8.66699 -62.499 26s-24.5 42.333 -24.5 75c0 15.333 1.33301 29.333 4 42c1.33301 4.66699 2.5 9.33398 3.5 14.001s2.16699 9.33398 3.5 14.001
c-41.333 -39.333 -83.333 -74.5 -126 -105.5s-85.5 -57.167 -128.5 -78.5s-85.667 -37.666 -128 -48.999s-83.166 -17 -122.499 -17c-50 0 -96.833 9.33301 -140.5 28s-82.5 48 -116.5 88c-2.66699 4 -3.66699 7.66699 -3 11s2.33398 5.83301 5.00098 7.5s5.66699 2.5 9 2.5
s6.33301 -1.66699 9 -5c31.333 -36.667 67.166 -63.5 107.499 -80.5s83.5 -25.5 129.5 -25.5c42.667 0 87.334 7.16699 134.001 21.5s93.834 35 141.501 62s95.167 60 142.5 99s93 83.167 137 132.5c18 21.333 38.833 39 62.5 53s48.5 21 74.5 21c16 0 32.667 -3 50 -9
s32.666 -15 45.999 -27l7 12.5c2 3.66699 5.66699 5.5 11 5.5h74c4 0 7.33301 -1.5 10 -4.5s4 -6.16699 4 -9.5c0 -2 -0.666992 -4.33301 -2 -7c-4.66699 -7.33301 -10.834 -18.666 -18.501 -33.999l-25.5 -53.5c-9.33301 -20.333 -18.833 -42.166 -28.5 -65.499
s-18.5 -46.666 -26.5 -69.999s-14.5 -45.833 -19.5 -67.5s-7.5 -41.167 -7.5 -58.5c0 -16 2.66699 -29.833 8 -41.5s14.666 -17.5 27.999 -17.5c12 0 27.667 5.83301 47 17.5s41.333 28.5 66 50.5s51 48.667 79 80s56.667 66.666 86 105.999zM1101 254.996
c16.667 52 42.665 111 77.998 177c-17.333 17.333 -35 26 -53 26s-35.333 -7.66699 -52 -23s-31.167 -34 -43.5 -56s-22.166 -45.333 -29.499 -70s-11 -46.334 -11 -65.001c0 -14 2.33301 -25.333 7 -34s12 -13 22 -13c8.66699 0 16.834 2 24.501 6s15 8.83301 22 14.5
s13.5 11.834 19.5 18.501s11.333 13 16 19z" />
    <glyph glyph-name="b.001" unicode="&#xe001;" horiz-adv-x="1140" 
d="M1140 300c2.66699 2.66699 5.82812 4.17578 9.49512 4.50879s6.83398 -1.16699 9.50098 -4.5c2.66699 -2.66699 4.16699 -5.83398 4.5 -9.50098s-1.16699 -6.83398 -4.5 -9.50098c-30.667 -31.333 -59 -57.5 -85 -78.5s-51.833 -38.667 -77.5 -53
s-52.167 -26.333 -79.5 -36s-57.666 -19.167 -90.999 -28.5c-11.333 -21.333 -25 -41.666 -41 -60.999s-34 -35 -54 -47c-19.333 -11.333 -36.5 -17.666 -51.5 -18.999s-27.5 0.833984 -37.5 6.50098s-17 13.667 -21 24s-4 21.333 0 33s12.5 22.834 25.5 33.501
s30.833 19 53.5 25l22 6c4.66699 3.33301 10.167 12.166 16.5 26.499s11.833 30.5 16.5 48.5s8.33398 36.667 11.001 56s2.33398 35.666 -0.999023 48.999s-9.83301 22.166 -19.5 26.499s-24.167 1.16602 -43.5 -9.50098c-25.333 -14 -48.5 -32.833 -69.5 -56.5
s-38.167 -49.167 -51.5 -76.5c-1.33301 -3.33301 -6.66602 -5.66602 -15.999 -6.99902s-19 -2 -29 -2c-12 0 -25.333 0.666992 -40 2c-4 0 -7.5 1.5 -10.5 4.5s-4.16699 6.5 -3.5 10.5l10 73c3.33301 23.333 7.33301 46.333 12 69c3.33301 17.333 6.83301 34.333 10.5 51
l11.5 50c-16.667 -4 -33.167 -6.83301 -49.5 -8.5s-32.5 -2.5 -48.5 -2.5c-50 0 -96.833 9.33301 -140.5 28s-82.5 48 -116.5 88c-2.66699 4 -3.66699 7.66699 -3 11s2.33398 5.83301 5.00098 7.5s5.66699 2.5 9 2.5s6.33301 -1.66699 9 -5
c31.333 -36.667 67.166 -63.5 107.499 -80.5s83.5 -25.5 129.5 -25.5c17.333 0 34.833 1 52.5 3s35.167 5.33301 52.5 10c28 108 61.333 199.667 100 275s79.167 136.833 121.5 184.5s84.833 82.667 127.5 105s82 34.666 118 36.999s66.833 -4.33398 92.5 -20.001
s43 -37.834 52 -66.501s7.83301 -62.667 -3.5 -102s-36.5 -81.333 -75.5 -126s-93.167 -90.834 -162.5 -138.501s-157.666 -94.5 -264.999 -140.5c-9.33301 -32.667 -17.833 -67 -25.5 -103s-14.5 -74 -20.5 -114c20 27.333 42 49.833 66 67.5s47.5 30.167 70.5 37.5
s44.667 9.66602 65 6.99902s37 -10.834 50 -24.501s21.167 -32.834 24.5 -57.501s-0.333984 -55.334 -11.001 -92.001l-14 -40c28.667 8 55 16.833 79 26.5s47.5 21.167 70.5 34.5s46.333 29.833 70 49.5s49.5 43.5 77.5 71.5zM859.994 884.009
c-19.333 -20.667 -38 -43.6689 -56 -69.002s-35 -52.666 -51 -81.999c-20.667 -36.667 -39.834 -76.667 -57.501 -120s-33.834 -90.666 -48.501 -141.999c52 22.667 102.667 47.667 152 75s94.5 56.333 135.5 87s76.667 62.667 107 96s52.5 68 66.5 104
c11.333 30 16.333 55.5 15 76.5s-7.33301 37.333 -18 49s-25.167 19 -43.5 22s-38.666 1.5 -60.999 -4.5s-45.666 -16.667 -69.999 -32s-47.833 -35.333 -70.5 -60zM696.994 50.0068c-15.333 -5.33301 -28 -12.333 -38 -21s-14.333 -17.667 -13 -27
c18.667 12 35.667 28 51 48z" />
    <glyph glyph-name="c.001" unicode="&#xe002;" horiz-adv-x="1404" 
d="M1404 300c5.33301 7.33301 11.6699 8.00586 19.0029 2.00586c2.66699 -2 4.33398 -4.83301 5.00098 -8.5s-0.333008 -7.16699 -3 -10.5c-28.667 -35.333 -62.5 -71.666 -101.5 -108.999s-80.5 -70 -124.5 -98c-49.333 -32 -92.333 -53 -129 -63s-67.5 -12 -92.5 -6
s-44.667 18.667 -59 38s-24 42.666 -29 69.999s-5.5 57.166 -1.5 89.499s11.333 64.166 22 95.499c1.33301 5.33301 3 10.333 5 15s4 9.66699 6 15c-81.333 -77.333 -164.833 -137 -250.5 -179s-167.5 -63 -245.5 -63c-50 0 -96.833 9.33301 -140.5 28s-82.5 48 -116.5 88
c-2.66699 4 -3.66699 7.66699 -3 11s2.33398 5.83301 5.00098 7.5s5.66699 2.5 9 2.5s6.33301 -1.66699 9 -5c31.333 -36.667 67.166 -63.5 107.499 -80.5s83.5 -25.5 129.5 -25.5c44 0 89.667 7.33301 137 22s95.166 36 143.499 64s96.5 62 144.5 102
s94.333 85.667 139 137v-1c19.333 21.333 40.5 38.333 63.5 51s47.833 19 74.5 19c22.667 0 41 -7.5 55 -22.5s21.167 -35.167 21.5 -60.5s-7 -54.333 -22 -87s-40.5 -66.334 -76.5 -101.001c-6.66699 -5.33301 -13.334 -5.33301 -20.001 0c-6 7.33301 -6 14 0 20
c22.667 22 40.5 44.167 53.5 66.5s21.833 43 26.5 62s5.66699 35 3 48s-8.66699 21 -18 24s-21.333 -0.166992 -36 -9.5s-31.667 -27 -51 -53c-20 -26.667 -37 -56.334 -51 -89.001s-24 -64.834 -30 -96.501s-7.16699 -60.5 -3.5 -86.5s13.167 -45.5 28.5 -58.5
s37.666 -17.333 66.999 -13s66.666 20.833 111.999 49.5c36 23.333 72.5 51.666 109.5 84.999s73.167 71.333 108.5 114z" />
    <glyph glyph-name="d.001" unicode="&#xe003;" horiz-adv-x="1595" 
d="M1595 300c6 7.33301 12.333 7.99902 19 1.99902c7.33301 -6 8 -12.333 2 -19c-24 -29.333 -51.833 -60.166 -83.5 -92.499s-64.167 -61.333 -97.5 -87s-66.666 -45.167 -99.999 -58.5s-63.333 -16 -90 -8c-19.333 6 -34.333 16.5 -45 31.5s-18.5 32.333 -23.5 52
s-7.5 40.834 -7.5 63.501s1 44.667 3 66l-38 -33c-12.667 -10.667 -26 -20 -40 -28s-28.667 -14 -44 -18s-32.333 -5 -51 -3c-26 2.66699 -46.5 14 -61.5 34s-18.5 51 -10.5 93c0 1.33301 0.166992 2.16602 0.5 2.49902s0.5 1.16602 0.5 2.49902c2 10.667 5 21.667 9 33
c-40.667 -39.333 -82.334 -74.333 -125.001 -105s-85.5 -56.667 -128.5 -78s-85.5 -37.5 -127.5 -48.5s-82.667 -16.5 -122 -16.5c-50 0 -96.833 9.33301 -140.5 28s-82.5 48 -116.5 88c-2.66699 4 -3.66699 7.66699 -3 11s2.33398 5.83301 5.00098 7.5s5.66699 2.5 9 2.5
s6.33301 -1.66699 9 -5c31.333 -36.667 67.166 -63.5 107.499 -80.5s83.5 -25.5 129.5 -25.5c44 0 89.667 7.33301 137 22s95.166 36 143.499 64s96.5 62 144.5 102s94.333 85.667 139 137c15.333 16 32.333 29.167 51 39.5s39 16.166 61 17.499
c18.667 1.33301 37.167 -0.833984 55.5 -6.50098s34.833 -15.167 49.5 -28.5c28.667 104.667 62.334 193.334 101.001 266.001s79 131.834 121 177.501s84 79 126 100s80.667 32 116 33s65.5 -6.66699 90.5 -23s41.667 -38.833 50 -67.5s6.5 -62.667 -5.5 -102
s-37.5 -81.166 -76.5 -125.499s-93.167 -90.333 -162.5 -138s-157 -94.167 -263 -139.5l-18 -72c-7.33301 -30 -13.5 -61.333 -18.5 -94s-7.66699 -64.167 -8 -94.5s4 -54.333 13 -72s23.833 -26.667 44.5 -27s49.667 13.167 87 40.5c17.333 12.667 34.5 26.5 51.5 41.5
s33.333 30.5 49 46.5l44.5 47.5c14 15.667 26.667 30.5 38 44.5zM1321 472.999c46.667 20.667 93.999 44 141.999 70s93 54.333 135 85s79.333 63.5 112 98.5s56.667 71.5 72 109.5c15.333 37.333 19.833 68.333 13.5 93s-19.333 42.334 -39 53.001
s-43.334 14.167 -71.001 10.5s-55.167 -14.834 -82.5 -33.501c-33.333 -22.667 -64.666 -53.5 -93.999 -92.5s-56 -81.167 -80 -126.5s-45.167 -91.5 -63.5 -138.5s-33.166 -89.833 -44.499 -128.5zM1144 260.999c13.333 12.667 25.333 27.3311 36 43.998l4 22.5l4 23.5
l18 76c-17.333 20.667 -35.333 30.834 -54 30.501s-36.5 -7.16602 -53.5 -20.499s-32.333 -31.166 -46 -53.499s-24.5 -45 -32.5 -68s-12.5 -44.333 -13.5 -64s3 -33.834 12 -42.501s23.667 -9.66699 44 -3s47.5 25 81.5 55z" />
    <glyph glyph-name="e.001" unicode="&#xe004;" horiz-adv-x="1327" 
d="M1327 300c2 3.33301 4.83691 5.33496 8.50391 6.00195s7.16699 -0.333008 10.5 -3c3.33301 -2 5.16602 -4.83301 5.49902 -8.5s-0.5 -7.16699 -2.5 -10.5c-30.667 -43.333 -64.834 -86.333 -102.501 -129s-77.5 -79 -119.5 -109
c-39.333 -28.667 -78 -47.334 -116 -56.001c-46 -11.333 -81.833 -9.16602 -107.5 6.50098s-43 39.167 -52 70.5s-10.5 67.666 -4.5 108.999s17.333 82.666 34 123.999l9 21c-80.667 -76 -163.5 -134.5 -248.5 -175.5s-165.833 -61.5 -242.5 -61.5
c-50 0 -96.833 9.33301 -140.5 28s-82.5 48 -116.5 88c-2.66699 4 -3.66699 7.66699 -3 11s2.33398 5.83301 5.00098 7.5s5.66699 2.5 9 2.5s6.33301 -1.66699 9 -5c31.333 -36.667 67.166 -63.5 107.499 -80.5s83.5 -25.5 129.5 -25.5c42.667 0 87.5 7.16699 134.5 21.5
s94.167 35 141.5 62s94.666 60 141.999 99s93 83.167 137 132.5c19.333 23.333 39.666 42.333 60.999 57c26 18 49.833 28.667 71.5 32s39.334 1.5 53.001 -5.5s22.167 -18.167 25.5 -33.5s0 -32.833 -10 -52.5s-27.833 -40.167 -53.5 -61.5s-60.834 -41.333 -105.501 -60
l-10.5 -4l-10.5 -4c-10.667 -23.333 -19.5 -48.5 -26.5 -75.5s-11.167 -53 -12.5 -78s0.5 -47.333 5.5 -67s14.333 -34 28 -43s32 -11 55 -6s51.833 19.833 86.5 44.5c40 28.667 78.5 64 115.5 106s70.5 84 100.5 126zM994.004 330.002c17.333 7.33301 33 15.168 47 23.501
s26.333 16.5 37 24.5c20.667 15.333 35.667 29.833 45 43.5s14.333 24.667 15 33s-2.83301 13.333 -10.5 15s-18 -1.83301 -31 -10.5s-28.333 -23.334 -46 -44.001s-36.5 -49 -56.5 -85z" />
    <glyph glyph-name="f.001" unicode="&#xe005;" horiz-adv-x="962" 
d="M962 300c2 3.33301 4.8291 5.33008 8.49609 5.99707s7.16699 -0.333008 10.5 -3c6.66699 -5.33301 7.66699 -11.666 3 -18.999c-44.667 -57.333 -91.834 -103.5 -141.501 -138.5s-98.834 -60.833 -147.501 -77.5c-40 -13.333 -78.5 -20.666 -115.5 -21.999
s-71.5 2.66699 -103.5 12c-1.33301 -2.66699 -2.16602 -5.16699 -2.49902 -7.5s-1.16602 -4.5 -2.49902 -6.5c24 -32.667 40 -65.167 48 -97.5s10.333 -62.666 7 -90.999s-11.166 -54.166 -23.499 -77.499s-26.5 -42.166 -42.5 -56.499s-32.5 -23.5 -49.5 -27.5
s-32.333 -1.5 -46 7.5s-24 25.5 -31 49.5s-8.5 57.167 -4.5 99.5s14.833 94.666 32.5 156.999s44.834 135.833 81.501 220.5l24 55c-10 -1.33301 -20.167 -2.33301 -30.5 -3s-20.5 -1 -30.5 -1c-50 0 -96.833 9.33301 -140.5 28s-82.5 48 -116.5 88
c-2.66699 4 -3.66699 7.66699 -3 11s2.33398 5.83301 5.00098 7.5s5.66699 2.5 9 2.5s6.33301 -1.66699 9 -5c31.333 -36.667 67.166 -63.5 107.499 -80.5s83.5 -25.5 129.5 -25.5c12 0 24.167 0.5 36.5 1.5s24.833 2.83301 37.5 5.5l41 90
c32.667 70.667 67.334 126.667 104.001 168s71.834 71.166 105.501 89.499s64.667 26.666 93 24.999s50.333 -10.5 66 -26.5s23.5 -37.333 23.5 -64s-11.167 -56 -33.5 -88s-57.333 -65 -105 -99s-111.5 -66 -191.5 -96l-96 -228c28 -8 59 -11.167 93 -9.5
s69.667 8.5 107 20.5c46 15.333 92.667 39.833 140 73.5s92.333 77.834 135 132.501zM599.996 346.997c80.667 32.667 142.666 66.4971 185.999 101.497s72.333 67.833 87 98.5c14 28.667 18.333 49.834 13 63.501s-16.166 20.667 -32.499 21
s-35.666 -5.16699 -57.999 -16.5s-43.5 -28 -63.5 -50c-28 -31.333 -51.833 -64.166 -71.5 -98.499s-39.834 -74.166 -60.501 -119.499zM458.995 11.9941c-8 -22 -16.168 -47.333 -24.501 -76s-15.166 -57.334 -20.499 -86.001
c-5.33301 -30.667 -6.16602 -55.167 -2.49902 -73.5s9.66699 -29.5 18 -33.5s18.166 -0.5 29.499 10.5s22 30.167 32 57.5c10 28 13 59.333 9 94s-17.667 70.334 -41 107.001z" />
    <glyph glyph-name="g.001" unicode="&#xe006;" horiz-adv-x="1553" 
d="M1553 300c5.33301 6.66699 12.002 7.66309 20.002 2.99609c6.66699 -6 7.33398 -12.667 2.00098 -20c-33.333 -43.333 -67.166 -79.666 -101.499 -108.999s-69.333 -53.833 -105 -73.5s-72 -35.5 -109 -47.5s-74.167 -22.333 -111.5 -31l-35.5 -85
c-13.667 -32 -29 -65.5 -46 -100.5s-35.667 -70.167 -56 -105.5s-42.166 -68.666 -65.499 -99.999c-13.333 -17.333 -28 -34.833 -44 -52.5s-33.5 -34 -52.5 -49s-39.167 -28 -60.5 -39s-43.333 -18.5 -66 -22.5c-30.667 -6 -58.834 -5.66699 -84.501 1
s-47.667 18.167 -66 34.5s-32.5 37 -42.5 62s-14.667 53.167 -14 84.5c0.666992 22.667 4.83398 46.167 12.501 70.5s19.834 48.5 36.501 72.5s37.667 47.333 63 70s56 43.667 92 63c27.333 14.667 54.666 27.334 81.999 38.001s54.833 20 82.5 28s55.167 15 82.5 21
s54.666 11.667 81.999 17c9.33301 21.333 18.166 43.166 26.499 65.499s17.166 44.833 26.499 67.5c-13.333 -12 -27.5 -22.167 -42.5 -30.5s-30 -14.166 -45 -17.499s-29.667 -4.16602 -44 -2.49902s-27.166 6.16699 -38.499 13.5s-20.333 17 -27 29
s-11.334 25.833 -14.001 41.5s-3.16699 32.334 -1.5 50.001s5.16699 35.5 10.5 53.5c2 7.33301 4.66699 15.666 8 24.999c-80 -74.667 -162.167 -132.334 -246.5 -173.001s-164.833 -61 -241.5 -61c-50 0 -96.833 9.33301 -140.5 28s-82.5 48 -116.5 88
c-2.66699 4 -3.66699 7.66699 -3 11s2.33398 5.83301 5.00098 7.5s5.66699 2.5 9 2.5s6.33301 -1.66699 9 -5c31.333 -36.667 67.166 -63.5 107.499 -80.5s83.5 -25.5 129.5 -25.5c41.333 0 84.333 6.5 129 19.5s89.834 32 135.501 57s91.167 55.667 136.5 92
s89.666 77.5 132.999 123.5c8.66699 10.667 18 21 28 31l2 2c24.667 22.667 52.667 38.334 84 47.001s65.333 6 102 -8c15.333 -6 29.666 -14.667 42.999 -26l18 46c2.66699 6 7 9 13 9h73c5.33301 0 9.16602 -2 11.499 -6s2.83301 -8.33301 1.5 -13l-82.5 -217.5
l-85.5 -219.5c40.667 10.667 78.5 22.167 113.5 34.5s68 27.666 99 45.999s61.167 40.833 90.5 67.5s59 59.334 89 98.001zM875.002 -321.004c30 44 57.668 92.833 83.001 146.5s51 111.5 77 173.5c-51.333 -10.667 -102.166 -22.667 -152.499 -36
s-100.5 -33.666 -150.5 -60.999c-45.333 -24.667 -82 -52.334 -110 -83.001s-48.333 -61.667 -61 -93s-18.834 -61.5 -18.501 -90.5s6.16602 -53.833 17.499 -74.5s27.5 -36 48.5 -46s45.167 -11.5 72.5 -4.5s57.5 23.833 90.5 50.5s67.5 66 103.5 118zM1059 162.996
c24.667 18 47.999 42.332 69.999 72.999l73 191c-20.667 20.667 -41 30.834 -61 30.501s-38.833 -7.33301 -56.5 -21s-33.5 -32.167 -47.5 -55.5s-25.667 -47.833 -35 -73.5s-15.666 -50.667 -18.999 -75s-3 -44.333 1 -60s12 -25.167 24 -28.5s29 3 51 19z" />
    <glyph glyph-name="h.001" unicode="&#xe007;" horiz-adv-x="1099" 
d="M1099 300c2.66699 4 5.66602 6.00391 8.99902 6.00391s6.33301 -1 9 -3s4.5 -4.83301 5.5 -8.5s0.5 -7.16699 -1.5 -10.5c-13.333 -19.333 -30 -40 -50 -62s-41.333 -43.667 -64 -65s-45.5 -41.166 -68.5 -59.499s-44.5 -33.833 -64.5 -46.5
c-27.333 -17.333 -54.166 -28.833 -80.499 -34.5s-49.166 -3.83398 -68.499 5.49902c-16 7.33301 -27.333 18.666 -34 33.999s-10.334 33 -11.001 53s0.833008 41.167 4.5 63.5s8.33398 44.166 14.001 65.499s11.5 41.5 17.5 60.5s10.667 34.833 14 47.5
c15.333 56.667 17 88.834 5 96.501s-37 -11.166 -75 -56.499c-15.333 -18.667 -30 -38.834 -44 -60.501s-26.667 -43 -38 -64s-21 -40.833 -29 -59.5s-14 -34.334 -18 -47.001c-0.666992 -3.33301 -2.33398 -5.83301 -5.00098 -7.5s-5.66699 -2.5 -9 -2.5h-74
c-9.33301 1.33301 -13.333 6.33301 -12 15c3.33301 24.667 6.83301 48.5 10.5 71.5s7.5 45.833 11.5 68.5c6 34 12.667 66.333 20 97s15.333 60.667 24 90c-16.667 -3.33301 -33 -6 -49 -8s-32 -3 -48 -3c-50 0 -96.833 9.33301 -140.5 28s-82.5 48 -116.5 88
c-2.66699 4 -3.66699 7.66699 -3 11s2.33398 5.83301 5.00098 7.5s5.66699 2.5 9 2.5s6.33301 -1.66699 9 -5c31.333 -36.667 67.166 -63.5 107.499 -80.5s83.5 -25.5 129.5 -25.5c35.333 0 70.666 4.33301 105.999 13c30 96.667 64.333 179.167 103 247.5
s78.667 124.166 120 167.499s82.166 75.666 122.499 96.999s77.333 33.333 111 36s62.334 -2.66602 86.001 -15.999s39.167 -32.666 46.5 -57.999s5.16602 -55.666 -6.50098 -90.999s-36.167 -73.5 -73.5 -114.5s-89 -83.833 -155 -128.5s-149.333 -89 -250 -133
c-25.333 -77.333 -46.333 -164.333 -63 -261c10.667 20 23.834 42.667 39.501 68s33.167 49.5 52.5 72.5s39.833 43 61.5 60s43.834 26.833 66.501 29.5c22.667 3.33301 40.167 -1.5 52.5 -14.5s19.5 -29.833 21.5 -50.5c1.33301 -10.667 -0.166992 -25.834 -4.5 -45.501
s-9.83301 -41.667 -16.5 -66l-20.5 -75.5c-7 -26 -12.667 -50.667 -17 -74s-6.5 -44 -6.5 -62s3.83301 -31 11.5 -39s20 -9.66699 37 -5s40.5 18 70.5 40c20 14 40 29.833 60 47.5s39.167 35.667 57.5 54s35 36.166 50 53.499s27.167 32.666 36.5 45.999zM847.999 939.004
c-25.333 -24 -49.167 -50.832 -71.5 -80.499s-43 -61 -62 -94s-36.167 -67.167 -51.5 -102.5s-29 -70 -41 -104c44.667 20 90.5 43.167 137.5 69.5s90.667 54.166 131 83.499s75.333 59.5 105 90.5s50.167 61.167 61.5 90.5c10.667 29.333 15.167 53 13.5 71
s-7.5 31.333 -17.5 40s-23.5 13 -40.5 13s-35 -3.16699 -54 -9.5s-38.167 -15.333 -57.5 -27s-37 -25.167 -53 -40.5z" />
    <glyph glyph-name="i.001" unicode="&#xe008;" horiz-adv-x="1313" 
d="M1313 300c2.66699 4 5.66602 5.99902 8.99902 5.99902s6.33301 -1 9 -3s4.5 -4.83301 5.5 -8.5s0.5 -7.16699 -1.5 -10.5l-47 -60c-17.333 -21.333 -36 -42.5 -56 -63.5s-40.833 -40.667 -62.5 -59s-43 -33.666 -64 -45.999s-41.667 -20.5 -62 -24.5
s-39.166 -2 -56.499 6s-30.666 20.667 -39.999 38s-15.5 37.833 -18.5 61.5s-3.33301 49.5 -1 77.5s6.16602 56.667 11.499 86c4 24 9 47.667 15 71c-43.333 -46 -88.166 -87.167 -134.499 -123.5s-92.833 -67 -139.5 -92s-93 -44 -139 -57s-90.333 -19.5 -133 -19.5
c-50 0 -96.833 9.33301 -140.5 28s-82.5 48 -116.5 88c-2.66699 4 -3.66699 7.66699 -3 11s2.33398 5.83301 5.00098 7.5s5.66699 2.5 9 2.5s6.33301 -1.66699 9 -5c31.333 -36.667 67.166 -63.5 107.499 -80.5s83.5 -25.5 129.5 -25.5c44 0 89.667 7.33301 137 22
s95 35.834 143 63.501s96 61.5 144 101.5s94.333 85.667 139 137c2 6.66699 6.33301 10 13 10h78c8 -3.33301 11 -9 9 -17c-4 -13.333 -8.83301 -30.333 -14.5 -51s-11.334 -43.167 -17.001 -67.5s-10.667 -49 -15 -74s-6.83301 -48.167 -7.5 -69.5s1 -39.833 5 -55.5
s11.5 -25.834 22.5 -30.501s26 -3 45 5s43.167 25 72.5 51c46 41.333 96.333 98 151 170zM1038 572.999c12 0 22.5039 -3.33594 31.5039 -10.0029s15.5 -14.667 19.5 -24s5.16699 -19.5 3.5 -30.5s-6.83398 -20.833 -15.501 -29.5
c-12.667 -12.667 -26.334 -18.167 -41.001 -16.5s-26.834 7.33398 -36.501 17.001s-15.334 21.834 -17.001 36.501s3.83301 28.334 16.5 41.001c10.667 10.667 23.667 16 39 16z" />
    <glyph glyph-name="j.001" unicode="&#xe009;" horiz-adv-x="1367" 
d="M1367 300c2 3.33301 4.83496 5.33398 8.50195 6.00098s7.16699 0 10.5 -2c7.33301 -5.33301 8.66602 -11.666 3.99902 -18.999c-33.333 -48.667 -66.166 -90.667 -98.499 -126s-64.5 -65.666 -96.5 -90.999s-63.5 -47 -94.5 -65s-61.833 -34 -92.5 -48
c-15.333 -58 -32.166 -110.833 -50.499 -158.5s-39.166 -92.167 -62.499 -133.5c-34 -59.333 -68.833 -102.333 -104.5 -129s-69.167 -41.667 -100.5 -45c-26 -2.66699 -48.833 2 -68.5 14s-34 28.833 -43 50.5s-11.667 47.167 -8 76.5s16 60.166 37 92.499
s51.333 65.166 91 98.499s91.167 65 154.5 95l24 11.5l24 10.5c15.333 54 29 111.667 41 173s23 124.333 33 189l12 82c-44 -48 -89.667 -90.667 -137 -128s-94.833 -69 -142.5 -95s-95 -45.833 -142 -59.5s-92.167 -20.5 -135.5 -20.5c-50 0 -96.833 9.33301 -140.5 28
s-82.5 48 -116.5 88c-2.66699 4 -3.66699 7.66699 -3 11s2.33398 5.83301 5.00098 7.5s5.66699 2.5 9 2.5s6.33301 -1.66699 9 -5c31.333 -36.667 67.166 -63.5 107.499 -80.5s83.5 -25.5 129.5 -25.5c44 0 89.667 7.33301 137 22s95.166 36 143.499 64s96.5 62 144.5 102
s94.333 85.667 139 137c2 8 6.66699 12 14 12h73c4.66699 0 8.5 -1.5 11.5 -4.5s3.83301 -6.83301 2.5 -11.5c-11.333 -84.667 -23.333 -163 -36 -235s-26.667 -139 -42 -201c38 18.667 73.167 38.667 105.5 60s62.666 44.666 90.999 69.999s55.166 52.833 80.499 82.5
s49.666 62.167 72.999 97.5zM809.002 -301.999c18.667 35.333 34.832 71 48.499 107s25.167 68.667 34.5 98c-39.333 -18 -76.666 -37.333 -111.999 -58s-69.666 -47.667 -102.999 -81c-28.667 -28.667 -49.167 -57.667 -61.5 -87s-18.333 -55.5 -18 -78.5
s6.33301 -41 18 -54s27.167 -17.167 46.5 -12.5s41.666 20 66.999 46s52 66 80 120zM1056 572.001c12 0 22.5 -3.33496 31.5 -10.002s15.5 -14.834 19.5 -24.501s5.16699 -20 3.5 -31s-6.83398 -20.833 -15.501 -29.5c-13.333 -12.667 -27.166 -18.167 -41.499 -16.5
s-26.5 7.33398 -36.5 17.001s-15.833 21.834 -17.5 36.501s3.83301 28.334 16.5 41.001c5.33301 5.33301 11.333 9.5 18 12.5s14 4.5 22 4.5z" />
    <glyph glyph-name="k.001" unicode="&#xe00a;" horiz-adv-x="959" 
d="M959 300c2.66699 3.33301 5.83496 5.16992 9.50195 5.50293s6.83398 -0.833984 9.50098 -3.50098c3.33301 -2.66699 5.16602 -5.83398 5.49902 -9.50098s-0.833984 -6.83398 -3.50098 -9.50098c-47.333 -57.333 -89 -102.666 -125 -135.999
s-67.167 -57.666 -93.5 -72.999s-48.833 -22.833 -67.5 -22.5s-34.334 5.83301 -47.001 16.5c-13.333 11.333 -24 27 -32 47s-15 41 -21 63l-18 63.5c-6 20.333 -13.333 36.833 -22 49.5c-1.33301 -1.33301 -3.16602 -8.33301 -5.49902 -21
s-4.66602 -26.834 -6.99902 -42.501l-6.5 -44.5c-2 -14 -3 -23 -3 -27c-1.33301 -8 -6 -12 -14 -12h-73c-4.66699 0 -8.33398 1.5 -11.001 4.5s-3.66699 6.5 -3 10.5c3.33301 25.333 6.83301 49.5 10.5 72.5s7.5 45.833 11.5 68.5c6 34 12.667 66.333 20 97
s15.333 60.667 24 90c-16.667 -3.33301 -33 -6 -49 -8s-32 -3 -48 -3c-50 0 -96.833 9.33301 -140.5 28s-82.5 48 -116.5 88c-2.66699 4 -3.66699 7.66699 -3 11s2.33398 5.83301 5.00098 7.5s5.66699 2.5 9 2.5s6.33301 -1.66699 9 -5
c31.333 -36.667 67.166 -63.5 107.499 -80.5s83.5 -25.5 129.5 -25.5c35.333 0 70.666 4.33301 105.999 13c30 96.667 64.333 179 103 247s78.667 123.833 120 167.5s82.166 76 122.499 97s77.333 32.833 111 35.5s62.334 -2.66602 86.001 -15.999
s39.167 -32.666 46.5 -57.999s5.16602 -55.666 -6.50098 -90.999s-36.167 -73.5 -73.5 -114.5s-89 -83.833 -155 -128.5s-149.333 -89 -250 -133c-9.33301 -30 -18.166 -61 -26.499 -93s-16.166 -66 -23.499 -102l20 8c19.333 29.333 39.666 53.666 60.999 72.999
c8.66699 8 18.167 15.5 28.5 22.5s20.833 12.333 31.5 16s21.334 5 32.001 4s21.334 -4.83301 32.001 -11.5c12 -8 19.333 -15.333 22 -22s3 -11.834 1 -15.501s-5.5 -5.5 -10.5 -5.5s-9.83301 2.66699 -14.5 8c-11.333 14 -24.166 20.167 -38.499 18.5
s-28.5 -7.33398 -42.5 -17.001s-27 -21.334 -39 -35.001s-21.667 -25.5 -29 -35.5c13.333 -4 23.666 -12.167 30.999 -24.5s13 -27 17 -44s7.16699 -34.833 9.5 -53.5s5.16602 -36.167 8.49902 -52.5s7.83301 -30.333 13.5 -42s13.667 -18.834 24 -21.501
s24.166 0.333008 41.499 9s39 25.334 65 50.001c19.333 17.333 40 37.833 62 61.5s46.333 51.5 73 83.5zM826.001 914.004c-48 -50.667 -88.334 -106.5 -121.001 -167.5s-60.334 -124.167 -83.001 -189.5c35.333 16 72.333 34.5 111 55.5s76.334 44 113.001 69s71 52 103 81
s58.667 59.167 80 90.5c8.66699 12.667 16.834 28.334 24.501 47.001s11.834 37 12.501 55s-3.33301 34 -12 48s-24.334 22.667 -47.001 26c-15.333 2.66699 -32 -0.333008 -50 -9s-35.333 -19.334 -52 -32.001s-32 -26 -46 -40s-25 -25.333 -33 -34z" />
    <glyph glyph-name="l.001" unicode="&#xe00b;" horiz-adv-x="979" 
d="M979 300c5.33301 6.66699 11.667 7.6709 19 3.00391c3.33301 -2 5.33301 -4.83301 6 -8.5s0 -7.16699 -2 -10.5c-21.333 -30.667 -46.666 -62.834 -75.999 -96.501s-60.833 -64.667 -94.5 -93s-68.334 -51.5 -104.001 -69.5s-69.834 -26.333 -102.501 -25
c-34 1.33301 -61.333 10.166 -82 26.499s-35.834 38 -45.501 65s-14.5 58.5 -14.5 94.5s3.33301 74 10 114l10.5 52.5c3.66699 17.667 7.83398 35.5 12.501 53.5c-35.333 -8 -70 -12 -104 -12c-50 0 -96.833 9.33301 -140.5 28s-82.5 48 -116.5 88
c-2.66699 4 -3.66699 7.66699 -3 11s2.33398 5.83301 5.00098 7.5s5.66699 2.5 9 2.5s6.33301 -1.66699 9 -5c31.333 -36.667 67.166 -63.5 107.499 -80.5s83.5 -25.5 129.5 -25.5c36.667 0 74 5 112 15c12 43.333 26 86 42 128s32 81 48 117s31.333 67.833 46 95.5
s27.334 48.834 38.001 63.501c43.333 59.333 87.5 104.333 132.5 135s87.333 49.667 127 57s74.5 4.5 104.5 -8.5s51.167 -33.5 63.5 -61.5s14.166 -62 5.49902 -102s-32 -83.167 -70 -129.5s-92.5 -94.333 -163.5 -144s-162.5 -98.5 -274.5 -146.5
c-7.33301 -22 -15 -49.833 -23 -83.5s-14.333 -68.5 -19 -104.5s-6 -70.333 -4 -103s9.66699 -58.334 23 -77.001s33.833 -27.834 61.5 -27.501s64.834 15.5 111.501 45.5c42 26.667 80.5 59.167 115.5 97.5s65.167 76.166 90.5 113.499zM633.001 473.004
c46 20 92.8311 43 140.498 69s92.667 54.5 135 85.5s80 64 113 99s57.167 71.5 72.5 109.5c14.667 36 19.167 66.333 13.5 91s-18.167 42.167 -37.5 52.5s-43.666 12.5 -72.999 6.5s-60 -21.333 -92 -46c-47.333 -36.667 -90.666 -85 -129.999 -145
c-28 -42.667 -53.833 -90.5 -77.5 -143.5s-45.167 -112.5 -64.5 -178.5z" />
    <glyph glyph-name="m.001" unicode="&#xe00c;" horiz-adv-x="1871" 
d="M1871 300c2 3.33301 5 5.32812 9 5.99512s7.66699 0 11 -2s5.16602 -4.83301 5.49902 -8.5s-0.5 -7.16699 -2.5 -10.5c-18 -26.667 -38.5 -53.5 -61.5 -80.5s-47.333 -52.667 -73 -77s-52 -47.166 -79 -68.499s-53.833 -40 -80.5 -56c-14 -8 -30.667 -16.167 -50 -24.5
s-38.333 -13.666 -57 -15.999s-35.167 -0.333008 -49.5 6s-23.833 19.5 -28.5 39.5c-3.33301 14 -3 30.333 1 49s9.66699 38.5 17 59.5s15.333 42.333 24 64s16 42.5 22 62.5c5.33301 18.667 9 37.167 11 55.5s0.833008 32.666 -3.5 42.999s-12.5 15.333 -24.5 15
s-29.333 -9.5 -52 -27.5c-21.333 -17.333 -42 -39.666 -62 -66.999s-37.667 -61 -53 -101c-3.33301 -8 -8.66602 -12 -15.999 -12l-76 2c-8.66699 3.33301 -11.334 9.33301 -8.00098 18c5.33301 17.333 10.833 37.333 16.5 60s9.83398 44.667 12.501 66s3.5 40.333 2.5 57
s-5 27.667 -12 33s-17.833 3.33301 -32.5 -6s-34.334 -29.666 -59.001 -60.999c-17.333 -22 -33.333 -46.167 -48 -72.5s-28.167 -52.666 -40.5 -78.999s-23 -51.166 -32 -74.499l-21.5 -57c-2.66699 -7.33301 -5 -13.5 -7 -18.5s-6.33301 -7.5 -13 -7.5h-73
c-5.33301 0 -9.33301 2 -12 6s-3 8 -1 12c2.66699 7.33301 7.16699 20.5 13.5 39.5l21.5 67l25 82l25 84.5l9 29c-44 -46 -89.167 -87.167 -135.5 -123.5s-92.833 -67 -139.5 -92s-93 -44 -139 -57s-90.333 -19.5 -133 -19.5c-50 0 -96.833 9.33301 -140.5 28
s-82.5 48 -116.5 88c-2.66699 4 -3.66699 7.66699 -3 11s2.33398 5.83301 5.00098 7.5s5.66699 2.5 9 2.5s6.33301 -1.66699 9 -5c31.333 -36.667 67.166 -63.5 107.499 -80.5s83.5 -25.5 129.5 -25.5c44 0 89.667 7.33301 137 22s95.166 36 143.499 64s96.5 62 144.5 102
s94.333 85.667 139 137c2 6.66699 6.66699 10 14 10h73c4.66699 0 8.33398 -2 11.001 -6s3.33398 -8 2.00098 -12l-39 -133c10 18 21.167 36.833 33.5 56.5s25.833 38.334 40.5 56.001s30.5 32.834 47.5 45.501s35.167 21 54.5 25c20 4 37.667 2.83301 53 -3.5
s27.5 -16.5 36.5 -30.5s14.833 -31 17.5 -51s2 -41.333 -2 -64c32 44.667 66 76.167 102 94.5s67.5 25.166 94.5 20.499s46.833 -20 59.5 -46s11.667 -61.333 -3 -106c-4.66699 -14 -11.334 -31.333 -20.001 -52s-17 -41.667 -25 -63s-14.667 -41.666 -20 -60.999
s-6.5 -34.333 -3.5 -45s11.333 -15.834 25 -15.501s34.834 9.5 63.501 27.5c25.333 16 50.833 34.667 76.5 56s50.5 44 74.5 68s46.167 48.167 66.5 72.5s37.833 47.166 52.5 68.499z" />
    <glyph glyph-name="n.001" unicode="&#xe00d;" horiz-adv-x="1617" 
d="M1617 300c2 3.33301 4.83301 5.33203 8.5 5.99902s7.16699 0 10.5 -2c7.33301 -6 8.33301 -12.333 3 -19c-18 -26 -37.833 -52.167 -59.5 -78.5s-44.5 -51.666 -68.5 -75.999s-48.833 -47 -74.5 -68s-51.5 -39.5 -77.5 -55.5c-17.333 -10 -34.333 -18.667 -51 -26
s-34.334 -11 -53.001 -11c-21.333 0 -37.666 4.66699 -48.999 14s-19 21.5 -23 36.5s-5.33301 31.833 -4 50.5s4.16602 37.5 8.49902 56.5s9.33301 37.333 15 55s10.834 32.5 15.501 44.5l13 37.5c5.33301 15 10.166 30.333 14.499 46s7.33301 30.834 9 45.501
s0.5 26.667 -3.5 36c-5.33301 14 -17.166 17.667 -35.499 11s-43.166 -26 -74.499 -58c-18 -18 -35.333 -37.833 -52 -59.5s-31.834 -43 -45.501 -64s-25.667 -41 -36 -60s-17.833 -34.833 -22.5 -47.5l-19 -59c-5.33301 -16.667 -9.33301 -28.667 -12 -36
c-3.33301 -5.33301 -7.66602 -8 -12.999 -8h-74c-4.66699 0 -8.33398 2 -11.001 6s-3.33398 8.33301 -2.00098 13c2.66699 6.66699 7.16699 19.5 13.5 38.5l21.5 66l25 81l25 84.5l9 32c-43.333 -46 -88.166 -87.167 -134.499 -123.5s-93 -67 -140 -92
s-93.5 -44.167 -139.5 -57.5s-90.333 -20 -133 -20c-50 0 -96.833 9.33301 -140.5 28s-82.5 48 -116.5 88c-2.66699 4 -3.66699 7.66699 -3 11s2.33398 5.83301 5.00098 7.5s5.66699 2.5 9 2.5s6.33301 -1.66699 9 -5c31.333 -36.667 67.166 -63.5 107.499 -80.5
s83.5 -25.5 129.5 -25.5c44 0 89.667 7.33301 137 22s95.166 36 143.499 64s96.5 62 144.5 102s94.333 85.667 139 137c2 6.66699 6.66699 10 14 10h73c4.66699 0 8.33398 -1.83301 11.001 -5.5s3.33398 -7.83398 2.00098 -12.501l-42 -143
c13.333 20.667 30.333 44.334 51 71.001s43.167 51.167 67.5 73.5s49.5 40.333 75.5 54s51.333 17.5 76 11.5c15.333 -4 27.5 -10.833 36.5 -20.5s15.333 -21.167 19 -34.5s5.16699 -27.666 4.5 -42.999s-2.66699 -30 -6 -44
c-3.33301 -13.333 -9.66602 -31.833 -18.999 -55.5l-28.5 -75c-9.66699 -26.333 -18.167 -51.833 -25.5 -76.5s-10.333 -45 -9 -61s8.5 -25.333 21.5 -28s34.5 5 64.5 23c25.333 15.333 50.666 33.833 75.999 55.5s49.666 44.667 72.999 69s45 48.666 65 72.999
s37.333 47.166 52 68.499z" />
    <glyph glyph-name="o.001" unicode="&#xe00e;" horiz-adv-x="1540" 
d="M1540 300c1.33301 3.33301 3.82617 5.5 7.49316 6.5s7.16699 0.5 10.5 -1.5s5.5 -4.83301 6.5 -8.5s0.5 -7.16699 -1.5 -10.5c-17.333 -28 -38.166 -53.5 -62.499 -76.5s-50.5 -42.333 -78.5 -58s-57.333 -26.667 -88 -33s-61 -7.16602 -91 -2.49902
c-22 3.33301 -42 9.66602 -60 18.999c-38 -61.333 -75.833 -103 -113.5 -125s-70.667 -28.167 -99 -18.5s-50.166 32.834 -65.499 69.501s-19.666 83.667 -12.999 141c2 16 4.83301 32.167 8.5 48.5s8.16699 32.833 13.5 49.5l8 23
c-81.333 -78 -165.166 -138.333 -251.499 -181s-168.833 -64 -247.5 -64c-50 0 -96.833 9.33301 -140.5 28s-82.5 48 -116.5 88c-2.66699 4 -3.66699 7.66699 -3 11s2.33398 5.83301 5.00098 7.5s5.66699 2.5 9 2.5s6.33301 -1.66699 9 -5
c31.333 -36.667 67.166 -63.5 107.499 -80.5s83.5 -25.5 129.5 -25.5c42.667 0 87.334 7 134.001 21s93.667 34.5 141 61.5s94.5 59.833 141.5 98.5s92.5 82.667 136.5 132c22.667 28.667 49.334 51.667 80.001 69s65.334 24.666 104.001 21.999
c7.33301 -1.33301 11.666 -5.33301 12.999 -12s-1.66699 -11.667 -9 -15c-28.667 -12 -53.667 -30.833 -75 -56.5s-39 -54.334 -53 -86.001s-24.667 -64.667 -32 -99s-11 -66 -11 -95s3.33301 -53.5 10 -73.5s17 -31.667 31 -35s31.5 3.33398 52.5 20.001
s45.5 47.667 73.5 93c-23.333 16.667 -41 38.667 -53 66s-18.333 55.5 -19 84.5s4.16602 56.833 14.499 83.5s26.166 48 47.499 64c16 12 32.5 18.333 49.5 19s31.333 -5.33301 43 -18s18.834 -32.667 21.501 -60s-2 -62.333 -14 -105
c-5.33301 -20 -12.666 -40.667 -21.999 -62s-19.666 -42.333 -30.999 -63c25.333 -12.667 53 -18.5 83 -17.5s59 6.5 87 16.5c32.667 11.333 64 29 94 53s56.333 54 79 90zM1173.99 173c24.667 44 41.8301 84.667 51.4971 122s13.5 68.166 11.5 92.499
s-9.33301 40.333 -22 48s-28.667 4.16699 -48 -10.5c-18 -13.333 -31.167 -31.166 -39.5 -53.499s-12.166 -45.833 -11.499 -70.5s5.83398 -48.5 15.501 -71.5s23.834 -41.833 42.501 -56.5z" />
    <glyph glyph-name="p.001" unicode="&#xe00f;" horiz-adv-x="1602" 
d="M1602 300c3.33301 2.66699 6.66895 4.33008 10.002 4.99707s6.66602 -0.666016 9.99902 -3.99902c6.66699 -6.66699 7 -13.334 1 -20.001c-34 -36.667 -67.833 -64.834 -101.5 -84.501s-66.834 -34 -99.501 -43s-64.334 -14.167 -95.001 -15.5
s-60.334 -1.66602 -89.001 -0.999023c-13.333 -19.333 -27.666 -37 -42.999 -53s-30.666 -28.667 -45.999 -38c-28 -17.333 -52.833 -26.833 -74.5 -28.5s-39 1.33301 -52 9s-21 18.334 -24 32.001s0.333008 27.834 10 42.501s26 28 49 40s53.833 19.667 92.5 23
c11.333 16.667 22 36.5 32 59.5s18.167 46.333 24.5 70s10.166 46.167 11.499 67.5s-1.5 38.5 -8.5 51.5s-18.5 20.167 -34.5 21.5s-38 -6 -66 -22c-15.333 -9.33301 -29.5 -19.166 -42.5 -29.499s-24.167 -20.833 -33.5 -31.5c-7.33301 -37.333 -15.666 -76 -24.999 -116
l-30 -123c-13.333 -54 -27.666 -107.167 -42.999 -159.5s-31.333 -101.833 -48 -148.5c-13.333 -37.333 -32.166 -78 -56.499 -122s-52.833 -85 -85.5 -123c-26 -30 -54 -55.833 -84 -77.5s-61.667 -36.834 -95 -45.501c-4 -1.33301 -7.5 -1.16602 -10.5 0.500977
s-5.16699 4 -6.5 7s-1.66602 6.16699 -0.999023 9.5s2.66699 6 6 8c31.333 19.333 59.166 42.833 83.499 70.5s46 57.834 65 90.501s35.833 66.5 50.5 101.5s27.667 69.5 39 103.5c12 34 23.667 70.167 35 108.5l33.5 118c11 40.333 21.5 81.333 31.5 123l29 123.5
l15.5 72.5l14.5 69.5c-44 -47.333 -89.5 -89.5 -136.5 -126.5s-94.333 -68.333 -142 -94s-94.834 -45.334 -141.501 -59.001s-91.667 -20.5 -135 -20.5c-50 0 -96.833 9.33301 -140.5 28s-82.5 48 -116.5 88c-2.66699 4 -3.66699 7.66699 -3 11s2.33398 5.83301 5.00098 7.5
s5.66699 2.5 9 2.5s6.33301 -1.66699 9 -5c31.333 -36.667 67.166 -63.5 107.499 -80.5s83.5 -25.5 129.5 -25.5c44 0 89.667 7.33301 137 22s95.166 36 143.499 64s96.5 62 144.5 102s94.333 85.667 139 137c1.33301 6.66699 6 10 14 10l73 1c4 0 7.5 -1.66699 10.5 -5
s3.83301 -7.33301 2.5 -12l-8 -42c-2.66699 -14.667 -5.66699 -30 -9 -46c36.667 30.667 70.667 51.667 102 63s58.666 14.833 81.999 10.5s42.333 -15.5 57 -33.5s23.834 -40.833 27.501 -68.5s1.16699 -59.167 -7.5 -94.5s-24.667 -72.333 -48 -111
c26 -0.666992 53 -0.166992 81 1.5s56.667 6.83398 86 15.501s59 22.167 89 40.5s60 44.166 90 77.499zM1128 132.996c-33.333 -5.33301 -58.167 -14.167 -74.5 -26.5s-25.5 -23 -27.5 -32s2.16699 -13.833 12.5 -14.5s25.833 8 46.5 26c6.66699 5.33301 13.5 12 20.5 20z
" />
    <glyph glyph-name="q.001" unicode="&#xe010;" horiz-adv-x="1476" 
d="M1476 300c5.33301 6.66699 11.666 7.67188 18.999 3.00488c6.66699 -6 7.66699 -12.667 3 -20c-60 -79.333 -125.167 -143.5 -195.5 -192.5s-146.166 -84.5 -227.499 -106.5l-15 -54c47.333 -53.333 78.5 -102.333 93.5 -147s19.333 -83.834 13 -117.501
s-20.333 -60.834 -42 -81.501s-45.334 -33.334 -71.001 -38.001s-50.5 -0.333984 -74.5 12.999s-41.333 37.333 -52 72c-7.33301 21.333 -10.833 46.5 -10.5 75.5s3.33301 59.833 9 92.5s13.167 66.667 22.5 102s19.5 70.166 30.5 104.499s22.333 67.333 34 99l32.5 85.5
c-27.333 -19.333 -52.833 -30.166 -76.5 -32.499s-43.667 1.83398 -60 12.501s-27.833 27.167 -34.5 49.5s-6.66699 49.166 0 80.499c1.33301 5.33301 2.83301 10.666 4.5 15.999l5.5 17c-82 -78 -166 -138.167 -252 -180.5s-168.333 -63.5 -247 -63.5
c-50 0 -96.833 9.33301 -140.5 28s-82.5 48 -116.5 88c-2.66699 4 -3.66699 7.66699 -3 11s2.33398 5.83301 5.00098 7.5s5.66699 2.5 9 2.5s6.33301 -1.66699 9 -5c31.333 -36.667 67.166 -63.5 107.499 -80.5s83.5 -25.5 129.5 -25.5c44 0 89.667 7.33301 137 22
s95.166 36 143.499 64s96.5 62 144.5 102s94.333 85.667 139 137v-1c23.333 23.333 49.833 39.5 79.5 48.5s60.834 6.83301 93.501 -6.5c13.333 -4.66699 26.333 -12.334 39 -23.001c5.33301 10 9.83301 19.5 13.5 28.5s8.83398 13.5 15.501 13.5h73
c5.33301 0 9.33301 -2.16699 12 -6.5s3 -8.83301 1 -13.5c-14 -27.333 -29 -58.666 -45 -93.999l-49.5 -114l-50.5 -126.5c-16.667 -43.667 -32 -87.167 -46 -130.5c74.667 22.667 144.5 57.167 209.5 103.5s125.5 106.833 181.5 181.5zM1067 245.005
c13.333 34 27 66.8311 41 98.498l40 88.5c-17.333 17.333 -35.666 24.833 -54.999 22.5s-38 -10.833 -56 -25.5s-34 -33.5 -48 -56.5s-24 -45.833 -30 -68.5c-9.33301 -35.333 -11.5 -62.166 -6.5 -80.499s13.833 -29.333 26.5 -33s27.167 -0.666992 43.5 9
s31.166 24.834 44.499 45.501zM1051 -101.997c-2 -6.66699 -5.33203 -19.166 -9.99902 -37.499s-9.33398 -39.333 -14.001 -63s-8.66699 -48.167 -12 -73.5s-4.66602 -48.833 -3.99902 -70.5s4 -39.667 10 -54s16.333 -21.833 31 -22.5c8.66699 -0.666992 17.5 1.5 26.5 6.5
s17.333 12 25 21s14.5 19.667 20.5 32s10.333 25.5 13 39.5c4.66699 28 1.16699 60.667 -10.5 98s-36.834 78.666 -75.501 123.999z" />
    <glyph glyph-name="r.001" unicode="&#xe011;" horiz-adv-x="1449" 
d="M956 284c-43.333 -54 -89.501 -101.666 -138.501 -142.999s-99 -76.333 -150 -105s-101.667 -50.334 -152 -65.001s-98.5 -22 -144.5 -22c-50 0 -96.833 9.33301 -140.5 28s-82.5 48 -116.5 88c-2.66699 4 -3.66699 7.66699 -3 11s2.33398 5.83301 5.00098 7.5
s5.66699 2.5 9 2.5s6.33301 -1.66699 9 -5c31.333 -36.667 67.166 -63.5 107.499 -80.5s83.5 -25.5 129.5 -25.5c44 0 89.5 7.16699 136.5 21.5s94.5 35.333 142.5 63s96 61.5 144 101.5s94.667 85.667 140 137c7.33301 8.66699 14.666 18.5 21.999 29.5
s13.666 21.5 18.999 31.5c-27.333 22.667 -44 43.167 -50 61.5s-5.83301 33.166 0.5 44.499s16.5 19 30.5 23s27.167 3.16699 39.5 -2.5s21.666 -16.167 27.999 -31.5s4.83301 -36.666 -4.5 -63.999c18 -8.66699 37.5 -17 58.5 -25s39.5 -17.333 55.5 -28
s27.833 -23.334 35.5 -38.001s7.5 -32.667 -0.5 -54c-5.33301 -14.667 -12.833 -33.667 -22.5 -57s-18.667 -47.166 -27 -71.499s-14.5 -47 -18.5 -68s-3.33301 -36.5 2 -46.5s16.833 -12.333 34.5 -7s44.167 22 79.5 50c22 17.333 44 37 66 59s43.167 44.333 63.5 67
s39.333 45.167 57 67.5s33.167 42.833 46.5 61.5c2 3.33301 4.83301 5.33301 8.5 6s7.16699 0 10.5 -2c7.33301 -6 8.33301 -12.333 3 -19c-16.667 -24 -34.667 -48.167 -54 -72.5s-39.333 -47.833 -60 -70.5s-41.667 -44.167 -63 -64.5s-42 -38.5 -62 -54.5
c-10 -8 -22.667 -17.333 -38 -28s-31.166 -19.834 -47.499 -27.501s-32.833 -12.667 -49.5 -15s-31.667 0.5 -45 8.5s-22.666 19.167 -27.999 33.5s-8 30.5 -8 48.5s2 37.167 6 57.5s8.83301 40 14.5 59s11.5 36.833 17.5 53.5l15 41c4.66699 12.667 5.83398 23 3.50098 31
s-7.16602 15.167 -14.499 21.5s-16.333 12.333 -27 18s-22 12.167 -34 19.5c-5.33301 -9.33301 -11.5 -19.166 -18.5 -29.499s-14.5 -20.5 -22.5 -30.5zM993.999 403.001c2.66699 8 4.16797 14.998 4.50098 20.998s-0.166992 11.333 -1.5 16
c-2.66699 10.667 -8.16699 16.834 -16.5 18.501s-14.833 0.333984 -19.5 -3.99902s-5.33398 -11 -2.00098 -20s15 -19.5 35 -31.5z" />
    <glyph glyph-name="s.001" unicode="&#xe012;" horiz-adv-x="1368" 
d="M1368 300c6 7.33301 12.3311 8.66992 18.998 4.00293c3.33301 -2 5.33301 -4.83301 6 -8.5s0 -7.16699 -2 -10.5c-27.333 -40 -55 -72.5 -83 -97.5s-55.667 -45 -83 -60s-54.166 -26.667 -80.499 -35s-51.166 -15.5 -74.499 -21.5c2 -15.333 1.16699 -33 -2.5 -53
s-10.167 -38.5 -19.5 -55.5s-21.333 -30.5 -36 -40.5s-32 -12.333 -52 -7c-18 5.33301 -29.5 15 -34.5 29s-5.16699 29.167 -0.5 45.5s12.834 32.166 24.501 47.499s24.834 26.666 39.501 33.999c-4 18.667 -9.16699 36.167 -15.5 52.5s-13.333 32.333 -21 48l-23 46.5
c-7.66699 15.333 -14.5 31.333 -20.5 48c-39.333 -46 -79.833 -87.167 -121.5 -123.5s-84 -67.666 -127 -93.999s-85.833 -47.166 -128.5 -62.499s-84.334 -24.333 -125.001 -27c-50 -4 -97.5 1.66699 -142.5 17s-85.833 41.666 -122.5 78.999
c-2.66699 3.33301 -3.83398 6.83301 -3.50098 10.5s1.66602 6.5 3.99902 8.5s5 3 8 3s6.16699 -1.66699 9.5 -5c34 -34 71.833 -58 113.5 -72s85.5 -19.333 131.5 -16c40 3.33301 81 12.833 123 28.5s84 36.667 126 63s83.833 58.166 125.5 95.499s81.834 79 120.501 125
c-0.666992 0.666992 -1 2 -1 4c-6 24 -9 50 -9 78c0 33.333 5.33301 60.5 16 81.5s22.667 36 36 45s26.5 12.167 39.5 9.5s22.333 -11 28 -25s5.66699 -33.333 0 -58s-20.167 -54.667 -43.5 -90c6.66699 -19.333 14.667 -39 24 -59l28.5 -61
c9.66699 -20.667 18.667 -41.167 27 -61.5s14.833 -40.833 19.5 -61.5c34.667 9.33301 66 19.333 94 30s54 23.667 78 39s46.667 33.666 68 54.999s42.333 47.333 63 78zM955.998 376.004c11.333 18 19.667 34.334 25 49.001c8 22 10.167 37.167 6.5 45.5
s-9 10.166 -16 5.49902s-12.833 -15.5 -17.5 -32.5s-4 -39.5 2 -67.5zM992.999 42.0049c-18 -14.667 -30.333 -28.998 -37 -42.998s-9.5 -24.833 -8.5 -32.5s4.83301 -10.334 11.5 -8.00098s14 12.166 22 29.499c8 16.667 12 34.667 12 54z" />
    <glyph glyph-name="t.001" unicode="&#xe013;" 
d="M668 777c2.66699 2.66699 5.82812 4.00684 9.49512 4.00684s6.83398 -1.66699 9.50098 -5c3.33301 -2.66699 5 -5.83398 5 -9.50098s-1.66699 -6.83398 -5 -9.50098c-10 -10 -26.5 -18.5 -49.5 -25.5s-49.333 -12.833 -79 -17.5s-61.334 -8.16699 -95.001 -10.5
s-66.667 -3.83301 -99 -4.5s-62.166 -0.833984 -89.499 -0.500977s-49.666 1.5 -66.999 3.5c-18 -48.667 -35.5 -98.834 -52.5 -150.501s-31.667 -101.667 -44 -150s-21.833 -93.5 -28.5 -135.5s-8.5 -77.667 -5.5 -107s11.333 -50.833 25 -64.5s34.334 -16.167 62.001 -7.5
s63 30 106 64s95.5 83.667 157.5 149c6 6 12.333 6.33301 19 1c3.33301 -2.66699 5 -5.83398 5 -9.50098s-1.33301 -6.83398 -4 -9.50098c-11.333 -13.333 -25 -28.333 -41 -45l-52 -52c-18.667 -18 -38.5 -36 -59.5 -54s-42.167 -34.167 -63.5 -48.5
s-42.5 -26.5 -63.5 -36.5s-41.167 -16 -60.5 -18c-28.667 -3.33301 -51.5 1.83398 -68.5 15.501s-29.167 33.167 -36.5 58.5s-11 55.166 -11 89.499s2.66699 70.5 8 108.5c6 42 14 84.333 24 127s20.333 82.5 31 119.5s20.834 69.667 30.501 98s17.167 49.166 22.5 62.499
c-23.333 4 -48.5 8 -75.5 12s-54.5 7.16699 -82.5 9.5s-55.333 3.5 -82 3.5s-51 -1.83301 -73 -5.5s-40.5 -9.83398 -55.5 -18.501s-24.833 -20.667 -29.5 -36c-3.33301 -9.33301 -9 -12.333 -17 -9c-4 1.33301 -7 3.66602 -9 6.99902s-2.33301 6.66602 -1 9.99902
c6 19.333 17.333 34.833 34 46.5s36.834 20 60.501 25s49.834 7.66699 78.501 8s58.167 -0.666992 88.5 -3s60.333 -5.66602 90 -9.99902l83.5 -12.5l14.5 36.5c5 13 10.167 24.5 15.5 34.5c2 6 6 9 12 9h74c5.33301 0 9.16602 -2.16699 11.499 -6.5s2.5 -8.83301 0.5 -13.5
l-14 -32.5l-14 -33.5c15.333 -1.33301 36 -2.16602 62 -2.49902s54.333 -0.166016 85 0.500977s62 2.16699 94 4.5s62 5.5 90 9.5s52.667 9 74 15s36.333 13.333 45 22z" />
    <glyph glyph-name="u.001" unicode="&#xe014;" horiz-adv-x="1536" 
d="M1536 300c5.33301 7.33301 11.6699 8.66602 19.0029 3.99902c3.33301 -2.66699 5.33301 -5.83398 6 -9.50098s-0.333008 -6.83398 -3 -9.50098c-40 -55.333 -80.167 -103 -120.5 -143s-78.333 -70.667 -114 -92s-67.5 -32.5 -95.5 -33.5s-49.333 9.66699 -64 32
s-21.167 57.5 -19.5 105.5s14.167 110.333 37.5 187c-14 -20.667 -30.667 -42.5 -50 -65.5s-39.333 -43.833 -60 -62.5s-41.5 -33.167 -62.5 -43.5s-40.5 -13.166 -58.5 -8.49902c-11.333 2.66699 -20.5 8.16699 -27.5 16.5s-12.333 18.666 -16 30.999s-5.5 26.333 -5.5 42
s1.33301 32.167 4 49.5c2.66699 19.333 6.5 39.833 11.5 61.5s11.167 43.5 18.5 65.5c-43.333 -45.333 -88 -85.666 -134 -120.999s-92 -65.333 -138 -90s-91.833 -43.334 -137.5 -56.001s-89.5 -19 -131.5 -19c-50 0 -96.833 9.33301 -140.5 28s-82.5 48 -116.5 88
c-2.66699 4 -3.66699 7.66699 -3 11s2.33398 5.83301 5.00098 7.5s5.66699 2.5 9 2.5s6.33301 -1.66699 9 -5c31.333 -36.667 67.166 -63.5 107.499 -80.5s83.5 -25.5 129.5 -25.5c44 0 89.667 7.33301 137 22s95.166 36 143.499 64s96.333 62 144 102
s93.834 85.333 138.501 136c0 0.666992 0.166992 1 0.5 1s0.5 0.333008 0.5 1c2 6 6.33301 9 13 9h73c5.33301 0 9.33301 -2 12 -6s3 -8 1 -12c-26 -68.667 -43.167 -123 -51.5 -163s-10.333 -68 -6 -84s14 -21.333 29 -16s33 19 54 41s44 51 69 87s49.833 76.667 74.5 122
l13 7l77 -1c4 -1.33301 6.66699 -3.83301 8 -7.5s1.33301 -7.16699 0 -10.5l-14 -38.5c-6.66699 -18.333 -13.834 -39.666 -21.501 -63.999s-15.167 -50.166 -22.5 -77.499s-13.333 -53.833 -18 -79.5s-7.33398 -49.167 -8.00098 -70.5s2.16602 -37.666 8.49902 -48.999
s16.833 -16.5 31.5 -15.5s34.667 10.833 60 29.5c30.667 22 62.667 50.5 96 85.5s66.333 75.167 99 120.5z" />
    <glyph glyph-name="v.001" unicode="&#xe015;" horiz-adv-x="1555" 
d="M1555 300c5.33301 6.66699 11.6738 7.6709 19.0068 3.00391c7.33301 -6 8.66602 -12.333 3.99902 -19c-23.333 -31.333 -49.166 -62.166 -77.499 -92.499s-57.833 -56.666 -88.5 -78.999s-61.834 -39 -93.501 -50s-61.834 -12.5 -90.501 -4.5
c-19.333 5.33301 -36 14.666 -50 27.999s-24.667 29.666 -32 48.999c-7.33301 -11.333 -18.5 -26.833 -33.5 -46.5s-32 -38.5 -51 -56.5s-39.167 -32.5 -60.5 -43.5s-42 -12.833 -62 -5.5c-20.667 7.33301 -35.667 21.833 -45 43.5s-14.666 47.167 -15.999 76.5
s0.5 61.166 5.5 95.499s11.5 68.166 19.5 101.499c11.333 46.667 22.666 88.334 33.999 125.001c-43.333 -45.333 -88 -85.833 -134 -121.5s-92.167 -65.667 -138.5 -90s-92.333 -43 -138 -56s-89.5 -19.5 -131.5 -19.5c-50 0 -96.833 9.33301 -140.5 28s-82.5 48 -116.5 88
c-2.66699 4 -3.66699 7.66699 -3 11s2.33398 5.83301 5.00098 7.5s5.66699 2.5 9 2.5s6.33301 -1.66699 9 -5c31.333 -36.667 67.166 -63.5 107.499 -80.5s83.5 -25.5 129.5 -25.5c44 0 89.667 7.33301 137 22s95.166 36 143.499 64s96.5 62 144.5 102
s94.333 85.667 139 137c2 4.66699 6 7 12 7h73c5.33301 0 9.5 -2 12.5 -6s3.16699 -8.33301 0.5 -13c-3.33301 -6 -8.83301 -19.5 -16.5 -40.5s-15.834 -46.167 -24.501 -75.5s-17.167 -60.666 -25.5 -93.999s-15 -65.333 -20 -96s-7.83301 -58.167 -8.5 -82.5
s2.66602 -41.833 9.99902 -52.5s19.166 -12.834 35.499 -6.50098s38.5 24.833 66.5 55.5c10.667 11.333 21 24.166 31 38.499s20 29.833 30 46.5c-6.66699 34 -7.66699 74.333 -3 121c4.66699 37.333 13 67.5 25 90.5s24.5 38.5 37.5 46.5s24.5 8.5 34.5 1.5
s15.5 -21.333 16.5 -43s-4.5 -50.834 -16.5 -87.501s-33.667 -81 -65 -133c10.667 -39.333 29.667 -65 57 -77s60.333 -11 99 3c34.667 13.333 72.167 37.166 112.5 71.499s81.166 79.833 122.499 136.5zM1157.01 209.004c11.333 20.667 20.6689 39.499 28.002 56.499
s13.666 32.5 18.999 46.5c9.33301 26.667 14.5 47.334 15.5 62.001s-0.666992 23.834 -5 27.501s-10.333 2 -18 -5s-14.834 -18.833 -21.501 -35.5s-12 -37.834 -16 -63.501s-4.66699 -55.167 -2 -88.5z" />
    <glyph glyph-name="w.001" unicode="&#xe016;" horiz-adv-x="1852" 
d="M1852 300c2 3.33301 4.83398 5.16113 8.50098 5.49414s7.16699 -0.5 10.5 -2.5c6.66699 -5.33301 7.66699 -11.666 3 -18.999c-20.667 -28.667 -44 -55.667 -70 -81s-53.167 -46.666 -81.5 -63.999s-57.5 -29.5 -87.5 -36.5s-59 -6.83301 -87 0.5
c-32 9.33301 -57 27 -75 53c-35.333 -57.333 -71.333 -101.5 -108 -132.5s-69 -46.167 -97 -45.5s-49.333 17.834 -64 51.501s-17.334 86.5 -8.00098 158.5c-15.333 -28 -33.166 -57.5 -53.499 -88.5s-42 -58.333 -65 -82s-46.333 -41.5 -70 -53.5s-46.167 -13.333 -67.5 -4
c-19.333 8 -33.333 22.833 -42 44.5s-13.334 47.834 -14.001 78.501s2 64.667 8 102s14.333 75.666 25 114.999c10 38.667 22 78 36 118c-43.333 -44.667 -87.666 -84.5 -132.999 -119.5s-91 -64.5 -137 -88.5s-91.5 -42.333 -136.5 -55s-88.5 -19 -130.5 -19
c-50 0 -96.833 9.33301 -140.5 28s-82.5 48 -116.5 88c-2.66699 4 -3.66699 7.66699 -3 11s2.33398 5.83301 5.00098 7.5s5.66699 2.5 9 2.5s6.33301 -1.66699 9 -5c31.333 -36.667 67.166 -63.5 107.499 -80.5s83.5 -25.5 129.5 -25.5c44 0 89.667 7.33301 137 22
s95 35.834 143 63.501s95.833 61.5 143.5 101.5s93.834 85.333 138.501 136c0 0.666992 0.333008 1.33398 1 2.00098c2 6 6.33301 9 13 9h73c5.33301 0 9.33301 -2 12 -6s3 -8.33301 1 -13c-26 -67.333 -46 -127.666 -60 -180.999s-23.667 -100 -29 -140
c-6 -40.667 -8.5 -72.334 -7.5 -95.001s4.5 -38.167 10.5 -46.5s14.333 -10.5 25 -6.5s22.667 12.333 36 25s27.5 29 42.5 49s30.167 41.333 45.5 64c13.333 20.667 26 43.167 38 67.5s24 50.833 36 79.5c2.66699 6 7 9 13 9h73c4.66699 0 8.5 -1.83301 11.5 -5.5
s3.83301 -7.5 2.5 -11.5c-10.667 -40 -18.5 -76.667 -23.5 -110s-7 -61.333 -6 -84s5.16699 -39.167 12.5 -49.5s18 -12.5 32 -6.5s31.5 21 52.5 45s46.167 59 75.5 105c-9.33301 23.333 -13.5 50 -12.5 80s5.33301 58 13 84s18.167 47.167 31.5 63.5
s27.666 22.833 42.999 19.5c12.667 -2.66699 21.167 -9.66699 25.5 -21s5.5 -25 3.5 -41s-6.16699 -33.333 -12.5 -52s-13.333 -36.834 -21 -54.501s-15.167 -33.667 -22.5 -48l-17 -32.5c12.667 -23.333 30.667 -39.666 54 -48.999c16 -6 32.667 -8.83301 50 -8.5
s34.5 3 51.5 8s33.333 11.833 49 20.5s30.167 17.667 43.5 27c19.333 14.667 38.666 31.834 57.999 51.501s38.333 42.167 57 67.5zM1477 217.995c6.66699 12 13.832 26.3311 21.499 42.998s14.667 33.334 21 50.001s10.833 32.834 13.5 48.501s2.33398 28.5 -0.999023 38.5
c-3.33301 9.33301 -9 9.83301 -17 1.5s-15.667 -21.833 -23 -40.5s-13 -40.667 -17 -66s-3.33301 -50.333 2 -75z" />
    <glyph glyph-name="x.001" unicode="&#xe017;" horiz-adv-x="1454" 
d="M972 482l114.998 -163.001c16 26 33.667 49.833 53 71.5s39.833 40.167 61.5 55.5s44.667 26.833 69 34.5s50.166 10.167 77.499 7.5c6.66699 -0.666992 10.334 -4.33398 11.001 -11.001s-2 -10.667 -8 -12c-25.333 -6 -47.833 -16.167 -67.5 -30.5
s-37.5 -31.333 -53.5 -51s-30.833 -41.167 -44.5 -64.5l-40.5 -70l172 -228c2 -3.33301 2.33301 -6.5 1 -9.5s-3.66602 -5.33301 -6.99902 -7s-6.83301 -2.5 -10.5 -2.5s-6.5 1.66699 -8.5 5l-162 216l-48.5 -81c-16.333 -26 -34 -49.333 -53 -70s-39.667 -37.5 -62 -50.5
s-47.5 -20.5 -75.5 -22.5c-4 -0.666992 -7 0.166016 -9 2.49902s-3.16699 5 -3.5 8s0.333984 5.83301 2.00098 8.5s4.5 4 8.5 4c11.333 0.666992 22.833 6.33398 34.5 17.001s23 24.167 34 40.5s22 34.666 33 54.999s21.333 40.333 31 60l27 56
c8.33301 17.667 15.833 32.167 22.5 43.5l-116 156c-45.333 -51.333 -92.333 -97 -141 -137s-97.667 -73.833 -147 -101.5s-98.333 -48.834 -147 -63.501s-95.667 -22 -141 -22c-50 0 -96.833 9.33301 -140.5 28s-82.5 48 -116.5 88c-2.66699 4 -3.66699 7.66699 -3 11
s2.33398 5.83301 5.00098 7.5s5.66699 2.5 9 2.5s6.33301 -1.66699 9 -5c31.333 -36.667 67.166 -63.5 107.499 -80.5s83.5 -25.5 129.5 -25.5c43.333 0 88.666 7.33301 135.999 22s95 35.834 143 63.501s95.833 61.334 143.5 101.001s93.834 84.834 138.501 135.501
c0.666992 5.33301 5 9.33301 13 12s14.333 1.33398 19 -3.99902z" />
    <glyph glyph-name="y.001" unicode="&#xe018;" horiz-adv-x="1575" 
d="M1575 300c5.33301 7.33301 11.666 8.66504 18.999 3.99805c3.33301 -2 5.33301 -4.83301 6 -8.5s0 -7.16699 -2 -10.5c-30 -43.333 -60.5 -81.166 -91.5 -113.499s-62.5 -60.5 -94.5 -84.5s-64.333 -44.667 -97 -62s-65.334 -33 -98.001 -47
c-40.667 -120.667 -83.167 -219.5 -127.5 -296.5s-87.833 -136.5 -130.5 -178.5s-83.334 -68.667 -122.001 -80s-72.667 -11.833 -102 -1.5s-52.833 29 -70.5 56s-27.167 58.167 -28.5 93.5s7.16699 72.333 25.5 111s48.833 74.667 91.5 108
c28.667 22.667 57.667 42.334 87 59.001s58.833 31.834 88.5 45.501s59.667 26.167 90 37.5l92.5 34c18 52.667 35.667 110 53 172s33.666 129.333 48.999 202c-8 -13.333 -18.333 -29.333 -31 -48s-26.667 -38 -42 -58s-31.666 -39.333 -48.999 -58
s-34.833 -34.667 -52.5 -48s-35.167 -23.166 -52.5 -29.499s-33.666 -7.16602 -48.999 -2.49902c-14 4 -24.833 12.167 -32.5 24.5s-12.667 27.666 -15 45.999s-2.66602 38.833 -0.999023 61.5s5.16699 46.667 10.5 72c8 40.667 18.667 82.667 32 126
c-43.333 -45.333 -87.833 -85.5 -133.5 -120.5s-91.667 -64.833 -138 -89.5s-92.166 -43.334 -137.499 -56.001s-89 -19 -131 -19c-50 0 -96.833 9.33301 -140.5 28s-82.5 48 -116.5 88c-2.66699 4 -3.66699 7.66699 -3 11s2.33398 5.83301 5.00098 7.5s5.66699 2.5 9 2.5
s6.33301 -1.66699 9 -5c31.333 -36.667 67.166 -63.5 107.499 -80.5s83.5 -25.5 129.5 -25.5c44 0 89.667 7.33301 137 22s95 35.834 143 63.501s95.833 61.5 143.5 101.5s93.834 85.333 138.501 136c0 0.666992 0.333008 1.33398 1 2.00098c2 6 6.33301 9 13 9h74
c4.66699 0 8.33398 -2 11.001 -6s3 -8 1 -12c-7.33301 -16.667 -15.333 -37.334 -24 -62.001s-17.167 -50.334 -25.5 -77.001s-15.5 -53.167 -21.5 -79.5s-9.83301 -49.5 -11.5 -69.5s-0.5 -35.5 3.5 -46.5s12.167 -14.833 24.5 -11.5s29.666 15.5 51.999 36.5
s50.5 53.5 84.5 97.5c31.333 42 63.333 93.667 96 155c2.66699 6 7 8.33301 13 7l75 -4c4 -0.666992 7.16699 -2.5 9.5 -5.5s2.83301 -6.5 1.5 -10.5c-15.333 -76.667 -31.333 -147.834 -48 -213.501s-34.334 -127.834 -53.001 -186.501
c32 14.667 63.167 30.834 93.5 48.501s59.833 37.834 88.5 60.501s56.667 48.667 84 78s54 62.666 80 99.999zM968 -347.001c26.667 43.333 50.833 89.1709 72.5 137.504s41.167 95.5 58.5 141.5l-85 -32c-28 -10.667 -55.667 -22.334 -83 -35.001
s-54.5 -26.834 -81.5 -42.501s-53.5 -33.834 -79.5 -54.501c-37.333 -29.333 -64.166 -61.833 -80.499 -97.5s-24.166 -69.167 -23.499 -100.5s9 -57.333 25 -78s37.667 -30.334 65 -29.001s59.166 16.333 95.499 45s75.166 77 116.499 145z" />
    <glyph glyph-name="z.001" unicode="&#xe019;" horiz-adv-x="1525" 
d="M1525 300c2.66699 3.33301 5.82812 4.99316 9.49512 4.99316s6.83398 -1 9.50098 -3s4.5 -4.66699 5.5 -8s0.5 -6.66602 -1.5 -9.99902c-22 -32 -45.167 -60.167 -69.5 -84.5s-49.5 -46 -75.5 -65s-52.833 -35.833 -80.5 -50.5s-55.5 -28 -83.5 -40
c-4.66699 -36 -13 -72.667 -25 -110s-26.667 -73 -44 -107c-28.667 -57.333 -59.667 -104.5 -93 -141.5s-66.833 -65.5 -100.5 -85.5s-66.334 -32.5 -98.001 -37.5s-60.167 -4 -85.5 3s-46.5 19 -63.5 36s-27.667 37.333 -32 61s-1.16602 50 9.50098 79s31 58.833 61 89.5
c25.333 26.667 52.333 49.834 81 69.501s58.334 37 89.001 52s62.167 28.667 94.5 41l96.5 36.5c6.66699 30 10 61.5 10 94.5s-7.33301 62.167 -22 87.5c-0.666992 0 -1.33398 -0.166992 -2.00098 -0.5s-1.66699 -0.5 -3 -0.5c-1.33301 -0.666992 -2.66602 -1 -3.99902 -1
c-21.333 -5.33301 -37.166 -4.16602 -47.499 3.50098s-15.333 16.834 -15 27.501s6 20.667 17 30s27.833 12.666 50.5 9.99902c20 16.667 35.167 33.334 45.5 50.001s16.833 32.167 19.5 46.5s2.16699 26.5 -1.5 36.5s-9.83398 17 -18.501 21
c-12.667 5.33301 -26.667 2.83301 -42 -7.5s-30.5 -24 -45.5 -41s-29 -35 -42 -54s-22.833 -33.833 -29.5 -44.5c-2.66699 -3.33301 -4.33398 -5.33301 -5.00098 -6c-45.333 -51.333 -92.666 -97.5 -141.999 -138.5s-99.166 -76 -149.499 -105
s-100.166 -51.167 -149.499 -66.5s-96.666 -23 -141.999 -23c-50 0 -96.833 9.33301 -140.5 28s-82.5 48 -116.5 88c-2.66699 4 -3.66699 7.66699 -3 11s2.33398 5.83301 5.00098 7.5s5.66699 2.5 9 2.5s6.33301 -1.66699 9 -5c31.333 -36.667 67.166 -63.5 107.499 -80.5
s83.5 -25.5 129.5 -25.5c44 0 89.667 7.33301 137 22s95.166 36 143.499 64s96.5 62 144.5 102s94.333 85.667 139 137c10.667 18.667 23 38.334 37 59.001s29.333 39.5 46 56.5s34.5 31.333 53.5 43s38.833 18.5 59.5 20.5c36 3.33301 62.333 -3.66699 79 -21
s25 -38.666 25 -63.999s-7.5 -51.666 -22.5 -78.999s-35.833 -49.333 -62.5 -66c22.667 -20.667 37.334 -46.834 44.001 -78.501s9 -63.5 7 -95.5c52.667 22.667 103.167 51.334 151.5 86.001s92.5 81 132.5 139zM935.994 -322.007c46 46 84.668 96.668 116.001 152.001
s54.666 111.333 69.999 168l-90 -34.5c-30 -11.667 -59.167 -24.667 -87.5 -39s-55.833 -30.5 -82.5 -48.5s-51.667 -39.333 -75 -64s-39.833 -48.834 -49.5 -72.501s-13.5 -45 -11.5 -64s8.83301 -34.667 20.5 -47s27 -19.5 46 -21.5s40.833 2.5 65.5 13.5
s50.667 30.167 78 57.5z" />
    <glyph glyph-name="a.002" unicode="&#xe01a;" horiz-adv-x="1198" 
d="M359 37c-19.333 -12.667 -37.6621 -21.6729 -54.9951 -27.0059s-33 -8 -47 -8c-28 0 -49.333 10 -64 30s-22 48.333 -22 85c0 22.667 3.66699 50.334 11 83.001c-17.333 -14.667 -34.333 -25.5 -51 -32.5s-32.667 -10.5 -48 -10.5c-25.333 0 -46.166 8.66699 -62.499 26
s-24.5 42.333 -24.5 75c0 15.333 1.33301 29.333 4 42c4.66699 24 13 47.5 25 70.5s26.667 43.667 44 62s36.666 33 57.999 44s43.666 16.5 66.999 16.5c16 0 32.667 -3 50 -9s32.666 -15 45.999 -27l7 12.5c2 3.66699 5.66699 5.5 11 5.5h74c4 0 7.33301 -1.5 10 -4.5
s4 -6.16699 4 -9.5c0 -2 -0.666992 -4.33301 -2 -7c-4.66699 -7.33301 -10.834 -18.666 -18.501 -33.999l-25.5 -53.5c-9.33301 -20.333 -18.833 -42.166 -28.5 -65.499s-18.5 -46.666 -26.5 -69.999s-14.5 -45.833 -19.5 -67.5s-7.5 -41.167 -7.5 -58.5
c0 -16 2.66699 -29.833 8 -41.5s14.666 -17.5 27.999 -17.5c12.667 0 29.667 6.66699 51 20c42 26.667 83.833 50.334 125.5 71.001s82.834 37.5 123.501 50.5s80.5 22 119.5 27s76.167 5.16699 111.5 0.5c50 -6 95.333 -20.833 136 -44.5s75.667 -57.5 105 -101.5
c2 -4 2.33301 -7.66699 1 -11s-3.33301 -5.83301 -6 -7.5s-5.66699 -2.16699 -9 -1.5s-6 2.66699 -8 6c-26.667 40.667 -58.834 71.834 -96.501 93.501s-79.5 35.5 -125.5 41.5c-69.333 8.66699 -144.333 -0.833008 -225 -28.5s-163.334 -69.167 -248.001 -124.5z
M198.004 254.994c16.667 52 42.665 111 77.998 177c-17.333 17.333 -35 26 -53 26s-35.333 -7.66699 -52 -23s-31.167 -34 -43.5 -56s-22.166 -45.333 -29.499 -70s-11 -46.334 -11 -65.001c0 -14 2.33301 -25.333 7 -34s12 -13 22 -13c8.66699 0 16.834 2 24.501 6
s15 8.83301 22 14.5s13.5 11.834 19.5 18.501s11.333 13 16 19z" />
    <glyph glyph-name="b.002" unicode="&#xe01b;" horiz-adv-x="1313" 
d="M968 327c50 -6 95.332 -20.832 135.999 -44.499s75.667 -57.5 105 -101.5c2 -4 2.33301 -7.66699 1 -11s-3.33301 -5.83301 -6 -7.5s-5.66699 -2.16699 -9 -1.5s-6 2.66699 -8 6c-26.667 40.667 -58.834 71.834 -96.501 93.501s-79.5 35.5 -125.5 41.5
c-31.333 4 -64.166 3.16699 -98.499 -2.5s-69.333 -14.5 -105 -26.5s-71.834 -26 -108.501 -42l-111 -50l-111.5 -51.5c-37 -17 -73.167 -31.833 -108.5 -44.5c-11.333 -21.333 -25 -41.666 -41 -60.999s-34 -35 -54 -47c-19.333 -11.333 -36.5 -17.666 -51.5 -18.999
s-27.5 0.833984 -37.5 6.50098s-17 13.667 -21 24s-4 21.333 0 33s12.333 22.834 25 33.501s30.667 19 54 25l22 6c4.66699 3.33301 10.167 12.166 16.5 26.499s11.833 30.5 16.5 48.5s8.33398 36.667 11.001 56s2.33398 35.666 -0.999023 48.999
s-9.83301 22.166 -19.5 26.499s-24.167 1.16602 -43.5 -9.50098c-25.333 -14 -48.5 -32.833 -69.5 -56.5s-38.167 -49.167 -51.5 -76.5c-1.33301 -3.33301 -6.66602 -5.66602 -15.999 -6.99902s-19 -2 -29 -2c-12 0 -25.333 0.666992 -40 2c-4 0 -7.5 1.5 -10.5 4.5
s-4.16699 6.5 -3.5 10.5l10 73c3.33301 23.333 7.33301 46.333 12 69c24 126 54.667 233.5 92 322.5s77.5 162.5 120.5 220.5s87 101.667 132 131s87 47.5 126 54.5s73.333 3.83301 103 -9.5s50.5 -34 62.5 -62s13.5 -61.833 4.5 -101.5s-32.5 -82.667 -70.5 -129
s-92.333 -94.166 -163 -143.499s-161.667 -98 -273 -146c-9.33301 -32.667 -17.833 -67 -25.5 -103s-14.5 -74 -20.5 -114c20 27.333 42 49.833 66 67.5s47.5 30.167 70.5 37.5s44.667 9.66602 65 6.99902s37 -10.834 50 -24.501s21.167 -32.834 24.5 -57.501
s-0.333984 -55.334 -11.001 -92.001l-14 -40c51.333 22 104.333 46.333 159 73s109 51 163 73s107 39.5 159 52.5s101.333 16.5 148 10.5zM355.999 884.001c-19.333 -20.667 -38 -43.6689 -56 -69.002s-35 -52.666 -51 -81.999
c-20.667 -36.667 -39.834 -76.667 -57.501 -120s-33.834 -90.666 -48.501 -141.999c52 22.667 102.667 47.667 152 75s94.5 56.333 135.5 87s76.667 62.667 107 96s52.5 68 66.5 104c11.333 30 16.333 55.5 15 76.5s-7.33301 37.333 -18 49s-25.167 19 -43.5 22
s-38.666 1.5 -60.999 -4.5s-45.666 -16.667 -69.999 -32s-47.833 -35.333 -70.5 -60zM192.999 49.999c-15.333 -5.33301 -28 -12.333 -38 -21s-14.333 -17.667 -13 -27c18.667 12 35.667 28 51 48z" />
    <glyph glyph-name="c.002" unicode="&#xe01c;" horiz-adv-x="1104" 
d="M276 101c91.333 60 178.835 103.67 262.502 131.003s161.167 36.333 232.5 27c50 -6 95.333 -20.833 136 -44.5s75.667 -57.5 105 -101.5c2 -4 2.33301 -7.66699 1 -11s-3.33301 -5.83301 -6 -7.5s-5.66699 -2.16699 -9 -1.5s-6 2.66699 -8 6
c-26.667 40.667 -58.834 71.834 -96.501 93.501s-79.5 35.5 -125.5 41.5c-69.333 8.66699 -145 -1.33301 -227 -30s-166 -71.334 -252 -128.001c-49.333 -32.667 -92.166 -54.167 -128.499 -64.5s-67 -12.5 -92 -6.5s-44.667 18.833 -59 38.5s-24 43.167 -29 70.5
s-5.66699 57.333 -2 90s10.834 64.667 21.501 96c9.33301 27.333 21.333 53.666 36 78.999s31.167 47.5 49.5 66.5s38.666 34.167 60.999 45.5s45.833 17 70.5 17c22.667 0 41 -7.5 55 -22.5s21.167 -35.167 21.5 -60.5s-7 -54.333 -22 -87s-40.5 -66.334 -76.5 -101.001
c-6.66699 -5.33301 -13.334 -5.33301 -20.001 0c-6 7.33301 -6 14 0 20c22.667 22 40.5 44.167 53.5 66.5s21.833 43 26.5 62s5.66699 35 3 48s-8.66699 21 -18 24s-21.333 -0.166992 -36 -9.5s-31.667 -27 -51 -53c-20 -26.667 -37 -56.5 -51 -89.5
s-23.833 -65.333 -29.5 -97s-6.83398 -60.5 -3.50098 -86.5s12.833 -45.5 28.5 -58.5s38.167 -17.333 67.5 -13s66.333 21.166 111 50.499z" />
    <glyph glyph-name="d.002" unicode="&#xe01d;" horiz-adv-x="1331" 
d="M484 120c40.667 28.667 82.333 53.6699 125 75.0029s84.834 38.5 126.501 51.5s82.334 21.833 122.001 26.5s77.167 4.66699 112.5 0c50 -6 95.333 -20.833 136 -44.5s75.667 -57.5 105 -101.5c2 -4 2.33301 -7.66699 1 -11s-3.33301 -5.83301 -6 -7.5
s-5.66699 -2.16699 -9 -1.5s-6 2.66699 -8 6c-26.667 40.667 -58.834 71.834 -96.501 93.501s-79.5 35.5 -125.5 41.5c-34.667 4 -71.167 3.66699 -109.5 -1s-77.833 -13.667 -118.5 -27s-81.834 -30.666 -123.501 -51.999s-82.834 -46.333 -123.501 -75
c-32 -22 -62.833 -38.667 -92.5 -50s-57.167 -13.333 -82.5 -6c-19.333 6 -34.333 16.5 -45 31.5s-18.5 32.333 -23.5 52s-7.5 40.834 -7.5 63.501s1 44.667 3 66l-38 -33c-12.667 -10.667 -26 -20 -40 -28s-28.667 -14 -44 -18s-32.333 -5 -51 -3
c-26 2.66699 -46.5 14 -61.5 34s-18.5 51 -10.5 93c0 1.33301 0.166992 2.16602 0.5 2.49902s0.5 1.16602 0.5 2.49902c4.66699 21.333 12.167 43.166 22.5 65.499s23.333 42.666 39 60.999s33.667 33.666 54 45.999s42.5 19.166 66.5 20.499
c18.667 1.33301 37.167 -0.833984 55.5 -6.50098s34.833 -15.167 49.5 -28.5c28.667 104.667 62.334 193.334 101.001 266.001s79 131.834 121 177.501s84 79 126 100s80.667 32 116 33s65.5 -6.66699 90.5 -23s41.667 -38.833 50 -67.5s6.5 -62.667 -5.5 -102
s-37.5 -81.166 -76.5 -125.499s-93.167 -90.333 -162.5 -138s-157 -94.167 -263 -139.5l-18.5 -71.5c-7.66699 -29.667 -14 -60.834 -19 -93.501s-7.83301 -64 -8.5 -94s3.5 -53.833 12.5 -71.5s24 -26.834 45 -27.501s50.5 12.333 88.5 39zM392.999 473.003
c46.667 20.667 93.999 44 141.999 70s93 54.333 135 85s79.333 63.5 112 98.5s56.667 71.5 72 109.5c15.333 37.333 19.833 68.333 13.5 93s-19.333 42.334 -39 53.001s-43.334 14.167 -71.001 10.5s-55.167 -14.834 -82.5 -33.501
c-33.333 -22.667 -64.666 -53.5 -93.999 -92.5s-56 -81.167 -80 -126.5s-45.167 -91.5 -63.5 -138.5s-33.166 -89.833 -44.499 -128.5zM215.998 261.003c13.333 12.667 25.333 27.3311 36 43.998l4 22.5l4 23.5l18 76c-17.333 20.667 -35.333 30.834 -54 30.501
s-36.5 -7.16602 -53.5 -20.499s-32.333 -31.166 -46 -53.499s-24.5 -45 -32.5 -68s-12.5 -44.333 -13.5 -64s3 -33.834 12 -42.501s23.667 -9.66699 44 -3s47.5 25 81.5 55z" />
    <glyph glyph-name="e.002" unicode="&#xe01e;" horiz-adv-x="1057" 
d="M214 57c42.667 26 85.002 49.333 127.002 70s83.333 37.5 124 50.5s80.334 22.167 119.001 27.5s75.667 5.66602 111 0.999023c50 -6 95.333 -20.833 136 -44.5s75.667 -57.5 105 -101.5c2 -4 2.33301 -7.66699 1 -11s-3.33301 -5.83301 -6 -7.5
s-5.66699 -2.16699 -9 -1.5s-6 2.66699 -8 6c-26.667 40.667 -58.834 71.834 -96.501 93.501s-79.5 35.5 -125.5 41.5c-34.667 4 -71 3 -109 -3s-77.167 -16 -117.5 -30s-81.5 -31.667 -123.5 -53s-84.333 -45 -127 -71c-14 -8.66699 -28.333 -15.667 -43 -21
s-28.667 -9.66602 -42 -12.999c-46 -11.333 -81.833 -9.16602 -107.5 6.50098s-43 39.167 -52 70.5s-10.5 67.666 -4.5 108.999s17.333 82.666 34 123.999c15.333 38 34.5 73 57.5 105s48.5 57.667 76.5 77c26 18 49.833 28.667 71.5 32s39.334 1.5 53.001 -5.5
s22.167 -18.167 25.5 -33.5s0 -32.833 -10 -52.5s-27.833 -40.167 -53.5 -61.5s-60.834 -41.333 -105.501 -60l-10.5 -4l-10.5 -4c-10 -22.667 -18.5 -47 -25.5 -73s-11.5 -51 -13.5 -75s-0.833008 -45.833 3.5 -65.5s12.666 -34.5 24.999 -44.5
s29.166 -13.833 50.499 -11.5s48 13.5 80 33.5zM113.002 330c17.333 7.33301 33 15.168 47 23.501s26.333 16.5 37 24.5c20.667 15.333 35.667 29.833 45 43.5s14.333 24.667 15 33s-2.83301 13.333 -10.5 15s-18 -1.83301 -31 -10.5s-28.333 -23.334 -46 -44.001
s-36.5 -49 -56.5 -85z" />
    <glyph glyph-name="f.002" unicode="&#xe01f;" horiz-adv-x="1151" 
d="M785 286c50 -6 95.3271 -20.8301 135.994 -44.4971s75.667 -57.5 105 -101.5c2 -4 2.33301 -7.66699 1 -11s-3.33301 -5.83301 -6 -7.5s-5.66699 -2.16699 -9 -1.5s-6 2.66699 -8 6c-26.667 40.667 -58.834 71.834 -96.501 93.501s-79.5 35.5 -125.5 41.5
c-45.333 5.33301 -90.166 1.83301 -134.499 -10.5s-89.333 -28.833 -135 -49.5s-92.667 -43.334 -141 -68.001s-98.833 -46.334 -151.5 -65.001c-40 -14 -78.5 -21.5 -115.5 -22.5s-71.5 3.16699 -103.5 12.5c-1.33301 -2.66699 -2.16602 -5.16699 -2.49902 -7.5
s-1.16602 -4.5 -2.49902 -6.5c24 -32.667 40 -65.167 48 -97.5s10.333 -62.666 7 -90.999s-11.166 -54.166 -23.499 -77.499s-26.5 -42.166 -42.5 -56.499s-32.5 -23.5 -49.5 -27.5s-32.333 -1.5 -46 7.5s-24 25.5 -31 49.5s-8.5 57.167 -4.5 99.5
s14.833 94.666 32.5 156.999s44.834 135.833 81.501 220.5l16 36l16 36l46 102c32.667 70.667 67.334 126.667 104.001 168s71.834 71.166 105.501 89.499s64.667 26.666 93 24.999s50.333 -10.5 66 -26.5s23.5 -37.333 23.5 -64s-11.167 -56 -33.5 -88
s-57.333 -65 -105 -99s-111.5 -66 -191.5 -96l-96 -228c28 -8 59 -11.167 93 -9.5s69.667 8.5 107 20.5c36.667 12 71.667 25.667 105 41l97.5 46.5l92.5 45c30 14.333 60.167 26.666 90.5 36.999s60.833 17.666 91.5 21.999s62.667 4.5 96 0.5zM124.994 347.003
c80.667 32.667 142.666 66.4971 185.999 101.497s72.333 67.833 87 98.5c14 28.667 18.333 49.834 13 63.501s-16.166 20.667 -32.499 21s-35.666 -5.16699 -57.999 -16.5s-43.5 -28 -63.5 -50c-28 -31.333 -51.833 -64.166 -71.5 -98.499s-39.834 -74.166 -60.501 -119.499
zM-16.0068 12c-8 -22 -16.168 -47.333 -24.501 -76s-15.166 -57.334 -20.499 -86.001c-5.33301 -30.667 -6.16602 -55.167 -2.49902 -73.5s9.66699 -29.5 18 -33.5s18.166 -0.5 29.499 10.5s22 30.167 32 57.5c10 28 13 59.333 9 94s-17.667 70.334 -41 107.001z" />
    <glyph glyph-name="g.002" unicode="&#xe020;" horiz-adv-x="1093" 
d="M978 -201c-45.333 43.333 -96.165 80.8291 -152.498 112.496s-116 57 -179 76s-128.167 31.5 -195.5 37.5s-134.666 5 -201.999 -3l-35.5 -85c-13.667 -32 -29 -65.5 -46 -100.5s-35.667 -70.167 -56 -105.5s-42.166 -68.666 -65.499 -99.999
c-13.333 -17.333 -28 -34.833 -44 -52.5s-33.5 -34 -52.5 -49s-39.167 -28 -60.5 -39s-43.333 -18.5 -66 -22.5c-30.667 -6 -58.834 -5.66699 -84.501 1s-47.667 18.167 -66 34.5s-32.5 37 -42.5 62s-14.667 53.167 -14 84.5c0.666992 22.667 4.83398 46.167 12.501 70.5
s19.834 48.5 36.501 72.5s37.667 47.333 63 70s56 43.667 92 63c27.333 14.667 54.666 27.334 81.999 38.001s54.833 20 82.5 28s55.167 15 82.5 21s54.666 11.667 81.999 17c9.33301 21.333 18.166 43.166 26.499 65.499s17.166 44.833 26.499 67.5
c-13.333 -12 -27.5 -22.167 -42.5 -30.5s-30 -14.166 -45 -17.499s-29.667 -4.16602 -44 -2.49902s-27.166 6.16699 -38.499 13.5s-20.333 17 -27 29s-11.334 25.833 -14.001 41.5s-3.16699 32.334 -1.5 50.001s5.16699 35.5 10.5 53.5c8 28.667 20.333 56.834 37 84.501
s36.834 50.667 60.501 69s50 30.666 79 36.999s60.167 3.16602 93.5 -9.50098c15.333 -6 29.666 -14.667 42.999 -26l18 46c2.66699 6 7 9 13 9h73c5.33301 0 9.16602 -2 11.499 -6s2.83301 -8.33301 1.5 -13l-82.5 -217.5l-85.5 -219.5c75.333 8 148.333 7.83301 219 -0.5
s137.5 -23.5 200.5 -45.5s121.5 -49.667 175.5 -83s101.667 -70.666 143 -111.999c2 -4 2.33301 -7.66699 1 -11s-3.33301 -5.83301 -6 -7.5s-5.66699 -2.16699 -9 -1.5s-6 2.66699 -8 6zM-23.999 -321.004c30 44 57.668 92.833 83.001 146.5s51 111.5 77 173.5
c-51.333 -10.667 -102.166 -22.667 -152.499 -36s-100.5 -33.666 -150.5 -60.999c-45.333 -24.667 -82 -52.334 -110 -83.001s-48.333 -61.667 -61 -93s-18.834 -61.5 -18.501 -90.5s6.16602 -53.833 17.499 -74.5s27.5 -36 48.5 -46s45.167 -11.5 72.5 -4.5
s57.5 23.833 90.5 50.5s67.5 66 103.5 118zM160.002 162.996c24.667 18 47.999 42.332 69.999 72.999l73 191c-20.667 20.667 -41 30.834 -61 30.501s-38.833 -7.33301 -56.5 -21s-33.5 -32.167 -47.5 -55.5s-25.667 -47.833 -35 -73.5s-15.666 -50.667 -18.999 -75
s-3 -44.333 1 -60s12 -25.167 24 -28.5s29 3 51 19z" />
    <glyph glyph-name="h.002" unicode="&#xe021;" horiz-adv-x="1259" 
d="M430 90c82.667 56 165.665 96.998 248.998 122.998s160.666 34.667 231.999 26c50 -6 95.333 -20.833 136 -44.5s75.667 -57.5 105 -101.5c2 -4 2.33301 -7.66699 1 -11s-3.33301 -5.83301 -6 -7.5s-5.66699 -2.16699 -9 -1.5s-6 2.66699 -8 6
c-26.667 40.667 -58.834 71.834 -96.501 93.501s-79.5 35.5 -125.5 41.5c-69.333 8.66699 -145.333 -1.33301 -228 -30s-169 -73 -259 -133c-26.667 -18 -53.334 -29.667 -80.001 -35s-49.667 -3.33301 -69 6c-16 7.33301 -27.333 18.666 -34 33.999s-10.334 33 -11.001 53
s0.833008 41.167 4.5 63.5s8.33398 44.166 14.001 65.499s11.5 41.5 17.5 60.5s10.667 34.833 14 47.5c15.333 56.667 17 88.834 5 96.501s-37 -11.166 -75 -56.499c-15.333 -18.667 -30 -38.834 -44 -60.501s-26.667 -43 -38 -64s-21 -40.833 -29 -59.5
s-14 -34.334 -18 -47.001c-0.666992 -3.33301 -2.33398 -5.83301 -5.00098 -7.5s-5.66699 -2.5 -9 -2.5h-74c-9.33301 1.33301 -13.333 6.33301 -12 15c3.33301 24.667 6.83301 48.5 10.5 71.5s7.5 45.833 11.5 68.5c23.333 125.333 53.5 233.333 90.5 324
s76.833 166.167 119.5 226.5s86.334 107 131.001 140s86.5 54.833 125.5 65.5s73.5 11.334 103.5 2.00098s51.5 -25.833 64.5 -49.5s15.5 -53.5 7.5 -89.5s-30 -75.667 -66 -119s-88 -88.833 -156 -136.5s-155.667 -94.834 -263 -141.501
c-25.333 -77.333 -46.333 -164.333 -63 -261c10.667 20 23.834 42.667 39.501 68s33.167 49.5 52.5 72.5s39.833 43 61.5 60s43.834 26.833 66.501 29.5c22.667 3.33301 40.167 -1.5 52.5 -14.5s19.5 -29.833 21.5 -50.5c1.33301 -10 -0.166992 -24.667 -4.5 -44
s-9.66602 -40.666 -15.999 -63.999l-20 -73.5c-7 -25.667 -12.833 -50.167 -17.5 -73.5s-7.16699 -44.166 -7.5 -62.499s2.83398 -32 9.50098 -41s17.834 -12.167 33.501 -9.5s37.167 13.334 64.5 32.001zM394.998 938.998c-25.333 -24 -49.167 -50.832 -71.5 -80.499
s-43 -61 -62 -94s-36.167 -67.167 -51.5 -102.5s-29 -70 -41 -104c44.667 20 90.5 43.167 137.5 69.5s90.667 54.166 131 83.499s75.333 59.5 105 90.5s50.167 61.167 61.5 90.5c10.667 29.333 15.167 53 13.5 71s-7.5 31.333 -17.5 40s-23.5 13 -40.5 13
s-35 -3.16699 -54 -9.5s-38.167 -15.333 -57.5 -27s-37 -25.167 -53 -40.5z" />
    <glyph glyph-name="i.002" unicode="&#xe022;" horiz-adv-x="1025" 
d="M175 93c42 27.333 84 51.3311 126 71.998s83.333 37.5 124 50.5s80.5 21.833 119.5 26.5s76.167 4.66699 111.5 0c50 -6 95.333 -20.833 136 -44.5s75.667 -57.5 105 -101.5c2 -4 2.33301 -7.66699 1 -11s-3.33301 -5.83301 -6 -7.5s-5.66699 -2.16699 -9 -1.5
s-6 2.66699 -8 6c-26.667 40.667 -58.834 71.834 -96.501 93.501s-79.5 35.5 -125.5 41.5c-34.667 4 -71 3.33301 -109 -2s-77.167 -15 -117.5 -29s-81.5 -31.667 -123.5 -53s-84 -45.333 -126 -72c-23.333 -15.333 -46 -25.333 -68 -30s-42.333 -2.66699 -61 6
c-17.333 8 -30.666 20.667 -39.999 38s-15.5 37.833 -18.5 61.5s-3.33301 49.5 -1 77.5s6.16602 56.667 11.499 86c4 22 8.83301 44 14.5 66s11.5 43 17.5 63c2 6.66699 6.33301 10 13 10h78c8 -3.33301 11 -9 9 -17l-18.5 -65.5c-7.66699 -27.667 -14.667 -56.667 -21 -87
s-10.833 -60.166 -13.5 -89.499s-1.66699 -53.5 3 -72.5s14.334 -30.833 29.001 -35.5s36 2.33301 64 21zM99 572.998c12 0 22.5039 -3.33594 31.5039 -10.0029s15.5 -14.667 19.5 -24s5.16699 -19.5 3.5 -30.5s-6.83398 -20.833 -15.501 -29.5
c-12.667 -12.667 -26.334 -18.167 -41.001 -16.5s-26.834 7.33398 -36.501 17.001s-15.334 21.834 -17.001 36.501s3.83301 28.334 16.5 41.001c10.667 10.667 23.667 16 39 16z" />
    <glyph glyph-name="j.002" unicode="&#xe023;" horiz-adv-x="985" 
d="M615 152c50 -6 95.3311 -20.832 135.998 -44.499s75.667 -57.5 105 -101.5c2 -4 2.33301 -7.66699 1 -11s-3.33301 -5.83301 -6 -7.5s-5.66699 -2.16699 -9 -1.5s-6 2.66699 -8 6c-26.667 40.667 -58.834 72 -96.501 94s-79.5 35.667 -125.5 41
c-41.333 5.33301 -86.166 4.5 -134.499 -2.5s-97.833 -18.5 -148.5 -34.5s-101.167 -35.667 -151.5 -59s-98.5 -48.666 -144.5 -75.999c-15.333 -58 -32.166 -110.833 -50.499 -158.5s-39.166 -92.167 -62.499 -133.5c-34 -59.333 -68.833 -102.333 -104.5 -129
s-69.167 -41.667 -100.5 -45c-26 -2.66699 -48.833 2 -68.5 14s-34 28.833 -43 50.5s-11.667 47.167 -8 76.5s16 60.166 37 92.499s51.333 65.166 91 98.499s91.167 65 154.5 95l24 11.5l24 10.5c15.333 54 29 111.667 41 173s23 124.333 33 189
c3.33301 21.333 6.5 43 9.5 65s6.16699 43.667 9.5 65c2 8 6.66699 12 14 12h73c4.66699 0 8.5 -1.5 11.5 -4.5s3.83301 -6.83301 2.5 -11.5c-11.333 -84.667 -23.333 -163 -36 -235s-26.667 -139 -42 -201c45.333 28.667 92.833 54.334 142.5 77.001
s99.5 41.167 149.5 55.5s98.833 24.166 146.5 29.499s92.5 5.33301 134.5 0zM-166.002 -301.999c18.667 35.333 34.832 71 48.499 107s25.167 68.667 34.5 98c-39.333 -18 -76.666 -37.333 -111.999 -58s-69.666 -47.667 -102.999 -81
c-28.667 -28.667 -49.167 -57.667 -61.5 -87s-18.333 -55.5 -18 -78.5s6.33301 -41 18 -54s27.167 -17.167 46.5 -12.5s41.666 20 66.999 46s52 66 80 120zM80.9961 572.001c12 0 22.5 -3.33496 31.5 -10.002s15.5 -14.834 19.5 -24.501s5.16699 -20 3.5 -31
s-6.83398 -20.833 -15.501 -29.5c-13.333 -12.667 -27.166 -18.167 -41.499 -16.5s-26.5 7.33398 -36.5 17.001s-15.833 21.834 -17.5 36.501s3.83301 28.334 16.5 41.001c5.33301 5.33301 11.333 9.5 18 12.5s14 4.5 22 4.5z" />
    </font>
</defs>
</svg>
