<?xml version="1.0" standalone="no"?>
<!DOCTYPE svg PUBLIC "-//W3C//DTD SVG 1.1//EN" "http://www.w3.org/Graphics/SVG/1.1/DTD/svg11.dtd" >
<svg xmlns="http://www.w3.org/2000/svg" xmlns:xlink="http://www.w3.org/1999/xlink" version="1.1">
<metadata></metadata>
<defs>
<font id="diag0regular" horiz-adv-x="1010" >
<font-face units-per-em="2048" ascent="1638" descent="-410" />
<missing-glyph horiz-adv-x="508" />
<glyph horiz-adv-x="0" />
<glyph unicode="&#xd;" horiz-adv-x="508" />
<glyph unicode=" "  horiz-adv-x="508" />
<glyph unicode="&#x09;" horiz-adv-x="508" />
<glyph unicode="&#xa0;" horiz-adv-x="508" />
<glyph unicode="!" horiz-adv-x="497" d="M100 1494h20l143 -1123h-20zM189 153h193l15 -153h-193z" />
<glyph unicode="&#x22;" horiz-adv-x="951" d="M100 1502h323l68 -578h-34l-41 306h-290zM460 1502h323l68 -578h-34l-41 306h-290z" />
<glyph unicode="#" horiz-adv-x="981" d="M100 881v20h120l-67 541h182l67 -541h311l-72 541h20l71 -541h101v-20h-101l43 -325h106v-19h-101l67 -537h-19l-67 537h-311l67 -537h-187l-67 537h-115v19h115l-43 325h-120zM407 881l38 -325h311l-43 325h-306z" />
<glyph unicode="$" horiz-adv-x="1360" d="M100 1434h500l-7 65h20l8 -65h410v-20h-408l88 -657h465l84 -697h-463l24 -159h-25l-25 159h-432v20h429l-80 657h-508v5zM294 1414l80 -657h311l-83 657h-308zM713 737l81 -657h272l-80 657h-273z" />
<glyph unicode="%" horiz-adv-x="1202" d="M100 99l967 1305h35l-969 -1305h-33zM207 1051h181l14 -144h-181zM718 507h181v-5l14 -139h-181z" />
<glyph unicode="&#x26;" horiz-adv-x="1167" d="M100 1007v29h171l-56 460h646l66 -491h-485l15 -122h486l124 -985h-32l-39 308h-623l-81 645h-162v32h162l-17 124h-175zM382 1469l56 -433h458l-56 433h-458zM459 851l77 -613h456l-77 613h-456z" />
<glyph unicode="'" horiz-adv-x="450" d="M23 1498h323l68 -578h-34l-41 306h-290z" />
<glyph unicode="(" horiz-adv-x="909" d="M100 1497h495v-30h-287l213 -2153h288v-23h-490z" />
<glyph unicode=")" horiz-adv-x="970" d="M100 1466v32h494l276 -2197h-498l2 15h295l-269 2150h-300z" />
<glyph unicode="*" horiz-adv-x="787" />
<glyph unicode="+" horiz-adv-x="1173" d="M100 740v22h362l-31 280h251q1 0 29 -280h362v-22h-359l35 -302h-248l-36 302h-365z" />
<glyph unicode="," horiz-adv-x="591" d="M100 272h323l68 -578h-34l-41 306h-290z" />
<glyph unicode="-" horiz-adv-x="638" d="M100 437v83q0 29 41 29h356q41 0 41 -29v-83q0 -28 -40 -28h-358q-40 0 -40 28z" />
<glyph unicode="." horiz-adv-x="558" d="M100 264h332l26 -264h-326z" />
<glyph unicode="/" horiz-adv-x="821" d="M100 -50l541 1484h80l-541 -1484h-80z" />
<glyph unicode="0" horiz-adv-x="1298" d="M100 1444h910l188 -1444h-921zM292 1377l170 -1350h690zM298 1424l863 -1349l-179 1349h-684z" />
<glyph unicode="1" horiz-adv-x="790" d="M100 1413v24h409l181 -1437h-186v5l-176 1408h-228z" />
<glyph unicode="2" horiz-adv-x="1252" d="M100 1410l4 30h895l85 -699h-737l82 -715h723v-26h-904l-92 765h741l-84 645h-713z" />
<glyph unicode="3" horiz-adv-x="1287" d="M100 1417v24h909l178 -1441h-900v20h713l-88 716h-723v19h718l-84 662h-723z" />
<glyph unicode="4" horiz-adv-x="1324" d="M100 1441h186l84 -681h762l92 -760h-186l-93 744h-766z" />
<glyph unicode="5" horiz-adv-x="1327" d="M100 1448h945l24 -187h-28l-22 166h-735l83 -661h772l88 -766h-892v22h704l-85 722h-768z" />
<glyph unicode="6" horiz-adv-x="1292" d="M100 1441h790l1 -31h-603l82 -649h737l85 -761h-915zM371 738l88 -710h698l-74 710h-712z" />
<glyph unicode="7" horiz-adv-x="1145" d="M100 1412v29h736l89 -676h120v-23h-115l88 -742h-186l-89 742h-113v23h109l-84 647h-555z" />
<glyph unicode="8" horiz-adv-x="1274" d="M100 1440h900l174 -1440h-900zM284 1410l79 -661h529l-80 661h-528zM366 724l93 -696h528l-87 696h-534z" />
<glyph unicode="9" horiz-adv-x="1312" d="M100 1437h943l169 -1437h-186l-86 736h-736zM130 1408l98 -654h707l-81 654h-724z" />
<glyph unicode=":" horiz-adv-x="666" d="M100 992h336l26 -267h-336zM212 276h328l26 -276h-328z" />
<glyph unicode=";" horiz-adv-x="671" d="M100 992h336l26 -267h-336zM180 272h323l68 -578h-34l-41 306h-290z" />
<glyph unicode="&#x3c;" horiz-adv-x="1040" d="M100 674v83l840 484v-167l-625 -359l625 -355v-167z" />
<glyph unicode="=" horiz-adv-x="1231" d="M100 739v24h907v-24h-907zM224 490v24h907v-24h-907z" />
<glyph unicode="&#x3e;" horiz-adv-x="1040" d="M100 193v167l625 355l-625 359v167l840 -484v-83z" />
<glyph unicode="?" horiz-adv-x="734" d="M100 1266v64q128 104 242 104q132 0 212 -68t80 -182q0 -69 -32.5 -140t-124.5 -186q-90 -113 -141.5 -187.5t-51.5 -142.5q0 -63 35 -189h-47q-50 138 -50 211q0 109 116.5 312t116.5 309q0 82 -47 129t-130 47q-84 0 -178 -81zM175 136q0 15 16 31l82 84q15 14 29 14 q13 0 31 -16l80 -86q12 -16 12 -29q0 -15 -14 -31l-80 -88q-20 -20 -29 -20q-16 0 -29 14l-88 101q-10 13 -10 26z" />
<glyph unicode="@" horiz-adv-x="1411" d="M100 897h1107l92 -745h-954l-68 599h781l71 -577h150l-91 707h-1068l114 -863h1077v-16h-1093zM427 728l67 -554h620l-71 554h-616z" />
<glyph unicode="A" horiz-adv-x="1339" d="M100 1500h952l187 -1500h-20l-95 740h-739l95 -740h-195zM295 1479l90 -720h734l-90 720h-734z" />
<glyph unicode="B" horiz-adv-x="1338" d="M100 1495h944l194 -1495h-954zM294 1474l89 -720h735l-95 720h-729zM388 730l89 -710h735l-94 715h-730v-5z" />
<glyph unicode="C" horiz-adv-x="1329" d="M100 1497h935v-20h-741l184 -1457h751v-20h-945z" />
<glyph unicode="D" horiz-adv-x="1342" d="M100 1501h947v-5l195 -1496h-958v5zM292 1484l185 -1464h735l-191 1464h-729z" />
<glyph unicode="E" horiz-adv-x="1329" d="M100 1498h935v-20h-741l90 -722h751v-16h-746l89 -720h751v-20h-945z" />
<glyph unicode="F" horiz-adv-x="1229" d="M100 1497h945v-20h-751v-5l89 -716h746v-16h-746l95 -740h-194z" />
<glyph unicode="G" horiz-adv-x="1342" d="M100 1501h942v-20h-748l185 -1461h738l-90 718h-464v20h474q12 0 30 -200l75 -558h-953z" />
<glyph unicode="H" horiz-adv-x="1338" d="M100 1496h194l94 -740h731l-94 740h20l193 -1496h-19l-95 738h-736l90 -738h-189z" />
<glyph unicode="I" horiz-adv-x="1156" d="M100 1479v20h762v-20h-279v-5l179 -1454h294v-20h-762v20h279l-184 1459h-289z" />
<glyph unicode="J" horiz-adv-x="1022" d="M100 0v20h533l-184 1459h-289v20h762v-20h-279l187 -1479h-730z" />
<glyph unicode="K" horiz-adv-x="1338" d="M100 1502h198l81 -719l621 717h25l-641 -752l854 -748h-30l-819 714l90 -714h-194v5z" />
<glyph unicode="L" horiz-adv-x="1330" d="M100 1499h189l185 -1479h756v-20h-946z" />
<glyph unicode="M" horiz-adv-x="1535" d="M100 1499h388l429 -1458l-85 1458h240l363 -1499h-20l-364 1479h-194v-5l80 -1474h-28l-435 1479h-180l184 -1479h-189z" />
<glyph unicode="N" horiz-adv-x="1340" d="M100 1498h189l925 -1460l-188 1462h20l194 -1500h-25l-916 1443l178 -1445h-189z" />
<glyph unicode="O" horiz-adv-x="1325" d="M100 1498h936l189 -1498h-941zM292 1478l179 -1459h551l-179 1459h-551z" />
<glyph unicode="P" horiz-adv-x="1247" d="M100 1501h948l99 -763h-758l90 -738h-194zM296 1480l91 -722h738l-92 722h-737z" />
<glyph unicode="Q" horiz-adv-x="1480" d="M100 1494h947l194 -1499l139 -135h-28l-141 135h-927v4zM285 1471l185 -1447h707l-175 170h31l174 -165l-189 1442h-733z" />
<glyph unicode="R" horiz-adv-x="1361" d="M100 1499h946l99 -762h-730l846 -737h-31l-844 737l92 -737h-194zM294 1473l87 -718h736l-92 718h-731z" />
<glyph unicode="S" horiz-adv-x="1375" d="M100 1499h941v-27h-747l90 -710h797l94 -762h-931v25h737l-90 712h-805z" />
<glyph unicode="T" horiz-adv-x="959" d="M100 1474v20h759v-20h-283l184 -1474h-188l-184 1474h-288z" />
<glyph unicode="U" horiz-adv-x="1342" d="M100 1501h194l185 -1481h738l-189 1481h20l194 -1501h-957v5z" />
<glyph unicode="V" horiz-adv-x="972" d="M100 1499h194v-5l180 -1449h4l369 1454h25l-389 -1494l-19 -5h-180v5z" />
<glyph unicode="W" horiz-adv-x="1500" d="M100 1499h194l184 -1479h235l5 1479h19l70 -269l299 -1210h274l-194 1479h25l189 -1499h-309l-356 1442l-3 -1442h-443z" />
<glyph unicode="X" horiz-adv-x="1206" d="M100 1499h25l334 -508h5l-60 508h189l115 -886l398 -613h-35l-358 548l69 -548h-194l-119 931z" />
<glyph unicode="Y" horiz-adv-x="1152" d="M100 1495h34l625 -701l-84 700h188l189 -1494h-194l-94 745z" />
<glyph unicode="Z" horiz-adv-x="1740" d="M100 1475v25h772l185 -1480h583v-20h-772l-185 1475h-583z" />
<glyph unicode="[" horiz-adv-x="758" />
<glyph unicode="\" horiz-adv-x="569" />
<glyph unicode="]" horiz-adv-x="758" />
<glyph unicode="^" horiz-adv-x="1014" />
<glyph unicode="_" horiz-adv-x="1224" d="M100 -100h1024v-60h-1024v60z" />
<glyph unicode="`" horiz-adv-x="661" d="M100 1363q0 31 20.5 51t53.5 20q20 0 40.5 -12t55.5 -47l291 -296h-69l-330 202q-31 20 -46.5 40t-15.5 42z" />
<glyph unicode="a" horiz-adv-x="1450" d="M100 747h967l88 -723h195v-24h-1167zM290 723l79 -699h757l-83 699h-753z" />
<glyph unicode="b" horiz-adv-x="1337" d="M100 1494h194l94 -739h755l94 -755h-948zM393 723l77 -689h724l-82 689h-719z" />
<glyph unicode="c" horiz-adv-x="1264" d="M100 750h971v-24h-780l93 -701h780v-25h-971v5z" />
<glyph unicode="d" horiz-adv-x="1352" d="M100 758h863l-90 743h189l190 -1501h-1052zM124 738l97 -712h835l-96 712h-836z" />
<glyph unicode="e" horiz-adv-x="1154" d="M100 751h867l43 -390h-701l39 -336h706v-25h-871zM268 724l39 -342h671l-38 342h-672z" />
<glyph unicode="f" horiz-adv-x="881" d="M100 742v24h159l-94 731h616v-32h-422l89 -699h169v-24h-164l90 -742h-198l-86 742h-159z" />
<glyph unicode="g" horiz-adv-x="1353" d="M100 744h962l191 -1445h-791l-2 18h755l-91 684h-933zM287 722l90 -694h739l-87 694h-742z" />
<glyph unicode="h" horiz-adv-x="1332" d="M100 1499h189l94 -740h754l95 -759h-30l-91 740h-725l93 -740h-193z" />
<glyph unicode="i" horiz-adv-x="515" d="M100 975h192v-5l15 -148h-192zM130 744h192v-5l93 -739h-192z" />
<glyph unicode="j" horiz-adv-x="1000" d="M100 -682h607l-178 1434h188l183 -1451h-800v17zM508 968h187l14 -153h-186v5z" />
<glyph unicode="k" horiz-adv-x="1330" d="M100 1495h194l138 -1087l576 342h41l-614 -374l795 -376h-47l-744 343l43 -343h-193z" />
<glyph unicode="l" horiz-adv-x="578" d="M100 1499h194v-5l184 -1494h-194v5z" />
<glyph unicode="m" horiz-adv-x="1135" d="M100 751h398l124 -671h5l50 671h214l144 -751h-25l-139 731h-174l-55 -731h-25l-139 731h-184l94 -731h-189z" />
<glyph unicode="n" horiz-adv-x="1101" d="M100 749h187l689 -719l-98 720h24l99 -750h-30l-673 699l91 -700h-192z" />
<glyph unicode="o" horiz-adv-x="1281" d="M100 747h988l93 -747h-988zM292 727l88 -700h609l-88 700h-609z" />
<glyph unicode="p" horiz-adv-x="1216" d="M100 751h919l97 -752h-735l87 -704h-189v5zM289 724l88 -701h707l-93 701h-702z" />
<glyph unicode="q" horiz-adv-x="1389" d="M100 755h997l192 -1455h-35l-94 701h-966zM293 724l85 -697h774l-83 697h-776z" />
<glyph unicode="r" horiz-adv-x="1086" d="M100 752h886v-34h-693l94 -718h-188z" />
<glyph unicode="s" horiz-adv-x="1102" d="M100 749h779v-20h-587l45 -340h628q-2 0 37 -389h-754v26h562l-45 325h-616z" />
<glyph unicode="t" horiz-adv-x="957" d="M100 739v27h272l-90 732h197l86 -732h292v-27h-290l92 -739h-193l-89 739h-277z" />
<glyph unicode="u" horiz-adv-x="1229" d="M100 751h197l85 -728h713l-98 728h28l104 -751h-935z" />
<glyph unicode="v" horiz-adv-x="590" d="M100 750h196l77 -656l89 657h28l-95 -751h-202z" />
<glyph unicode="w" horiz-adv-x="1146" d="M100 755h196l91 -728h179l50 728h40l140 -728h217l-89 728h27l95 -755h-279l-123 674l-51 -674h-397z" />
<glyph unicode="x" horiz-adv-x="889" d="M100 749h30l196 -222l-28 223h198l59 -493l234 -257h-30l-202 222l30 -222h-193l-64 484z" />
<glyph unicode="y" horiz-adv-x="1095" d="M100 747h39l572 -695l-82 695h183l183 -1450h-188l-96 702z" />
<glyph unicode="z" horiz-adv-x="1610" d="M100 721v25h741l102 -721h567v-25h-756l-90 721h-564z" />
<glyph unicode="{" horiz-adv-x="844" />
<glyph unicode="|" horiz-adv-x="360" />
<glyph unicode="}" horiz-adv-x="844" />
<glyph unicode="~" horiz-adv-x="1029" />
<glyph unicode="&#xa1;" horiz-adv-x="672" />
<glyph unicode="&#xa2;" horiz-adv-x="1139" />
<glyph unicode="&#xa3;" horiz-adv-x="1060" />
<glyph unicode="&#xa4;" horiz-adv-x="969" />
<glyph unicode="&#xa5;" horiz-adv-x="1466" />
<glyph unicode="&#xa6;" horiz-adv-x="360" />
<glyph unicode="&#xa7;" horiz-adv-x="874" />
<glyph unicode="&#xa8;" horiz-adv-x="781" />
<glyph unicode="&#xa9;" horiz-adv-x="1674" />
<glyph unicode="&#xaa;" horiz-adv-x="648" />
<glyph unicode="&#xab;" horiz-adv-x="869" d="M100 479l342 303h14v-37l-205 -266l205 -266v-37h-14zM413 479l342 303h14v-37l-205 -266l205 -266v-37h-14z" />
<glyph unicode="&#xac;" horiz-adv-x="1040" />
<glyph unicode="&#xad;" horiz-adv-x="638" d="M100 437v83q0 29 41 29h356q41 0 41 -29v-83q0 -28 -40 -28h-358q-40 0 -40 28z" />
<glyph unicode="&#xae;" horiz-adv-x="1674" />
<glyph unicode="&#xaf;" horiz-adv-x="670" />
<glyph unicode="&#xb0;" horiz-adv-x="756" />
<glyph unicode="&#xb1;" horiz-adv-x="1014" />
<glyph unicode="&#xb2;" horiz-adv-x="1014" />
<glyph unicode="&#xb3;" horiz-adv-x="1014" />
<glyph unicode="&#xb4;" horiz-adv-x="661" />
<glyph unicode="&#xb5;" horiz-adv-x="1180" />
<glyph unicode="&#xb6;" horiz-adv-x="1036" />
<glyph unicode="&#xb7;" horiz-adv-x="450" d="M100 709q0 15 16 31l82 84q15 14 29 14q13 0 31 -16l80 -86q12 -16 12 -29q0 -15 -14 -31l-80 -88q-20 -20 -29 -20q-16 0 -29 14l-88 101q-10 13 -10 26z" />
<glyph unicode="&#xb8;" horiz-adv-x="608" />
<glyph unicode="&#xb9;" horiz-adv-x="1014" />
<glyph unicode="&#xba;" horiz-adv-x="718" />
<glyph unicode="&#xbb;" horiz-adv-x="869" d="M100 176v37l205 266l-205 266v37h14l342 -303l-342 -303h-14zM413 176v37l205 266l-205 266v37h14l342 -303l-342 -303h-14z" />
<glyph unicode="&#xbc;" horiz-adv-x="1708" />
<glyph unicode="&#xbd;" horiz-adv-x="1964" />
<glyph unicode="&#xbe;" horiz-adv-x="1708" />
<glyph unicode="&#xbf;" horiz-adv-x="748" />
<glyph unicode="&#xc0;" horiz-adv-x="1540" />
<glyph unicode="&#xc1;" horiz-adv-x="1540" />
<glyph unicode="&#xc2;" horiz-adv-x="1540" />
<glyph unicode="&#xc3;" horiz-adv-x="1540" />
<glyph unicode="&#xc4;" horiz-adv-x="1540" />
<glyph unicode="&#xc5;" horiz-adv-x="1540" />
<glyph unicode="&#xc6;" horiz-adv-x="2118" />
<glyph unicode="&#xc7;" horiz-adv-x="1399" />
<glyph unicode="&#xc8;" horiz-adv-x="1151" />
<glyph unicode="&#xc9;" horiz-adv-x="1151" />
<glyph unicode="&#xca;" horiz-adv-x="1151" />
<glyph unicode="&#xcb;" horiz-adv-x="1151" />
<glyph unicode="&#xcc;" horiz-adv-x="657" />
<glyph unicode="&#xcd;" horiz-adv-x="657" />
<glyph unicode="&#xce;" horiz-adv-x="657" />
<glyph unicode="&#xcf;" horiz-adv-x="657" />
<glyph unicode="&#xd0;" horiz-adv-x="1518" />
<glyph unicode="&#xd1;" horiz-adv-x="1554" />
<glyph unicode="&#xd2;" horiz-adv-x="1614" />
<glyph unicode="&#xd3;" horiz-adv-x="1614" />
<glyph unicode="&#xd4;" horiz-adv-x="1614" />
<glyph unicode="&#xd5;" horiz-adv-x="1614" />
<glyph unicode="&#xd6;" horiz-adv-x="1614" />
<glyph unicode="&#xd7;" horiz-adv-x="892" />
<glyph unicode="&#xd8;" horiz-adv-x="1614" />
<glyph unicode="&#xd9;" horiz-adv-x="1501" />
<glyph unicode="&#xda;" horiz-adv-x="1501" />
<glyph unicode="&#xdb;" horiz-adv-x="1501" />
<glyph unicode="&#xdc;" horiz-adv-x="1501" />
<glyph unicode="&#xdd;" horiz-adv-x="1233" />
<glyph unicode="&#xde;" horiz-adv-x="1120" />
<glyph unicode="&#xdf;" horiz-adv-x="1251" />
<glyph unicode="&#xe0;" horiz-adv-x="922" />
<glyph unicode="&#xe1;" horiz-adv-x="922" />
<glyph unicode="&#xe2;" horiz-adv-x="922" />
<glyph unicode="&#xe3;" horiz-adv-x="922" />
<glyph unicode="&#xe4;" horiz-adv-x="922" />
<glyph unicode="&#xe5;" horiz-adv-x="922" />
<glyph unicode="&#xe6;" horiz-adv-x="1454" />
<glyph unicode="&#xe7;" horiz-adv-x="905" />
<glyph unicode="&#xe8;" horiz-adv-x="909" />
<glyph unicode="&#xe9;" horiz-adv-x="909" />
<glyph unicode="&#xea;" horiz-adv-x="909" />
<glyph unicode="&#xeb;" horiz-adv-x="909" />
<glyph unicode="&#xec;" horiz-adv-x="514" />
<glyph unicode="&#xed;" horiz-adv-x="514" />
<glyph unicode="&#xee;" horiz-adv-x="514" />
<glyph unicode="&#xef;" horiz-adv-x="514" />
<glyph unicode="&#xf0;" horiz-adv-x="1139" />
<glyph unicode="&#xf1;" horiz-adv-x="1108" />
<glyph unicode="&#xf2;" />
<glyph unicode="&#xf3;" />
<glyph unicode="&#xf4;" />
<glyph unicode="&#xf5;" />
<glyph unicode="&#xf6;" />
<glyph unicode="&#xf7;" horiz-adv-x="1040" d="M100 647v140h839l1 -1v-139h-840zM395 377q0 15 16 31l82 84q15 14 29 14q13 0 31 -16l80 -86q12 -16 12 -29q0 -15 -14 -31l-80 -88q-20 -20 -29 -20q-16 0 -29 14l-88 101q-10 13 -10 26zM395 1070q0 15 16 31l82 84q15 14 29 14q13 0 31 -16l80 -86q12 -16 12 -29 q0 -15 -14 -31l-80 -88q-20 -20 -29 -20q-16 0 -29 14l-88 101q-10 13 -10 26z" />
<glyph unicode="&#xf8;" />
<glyph unicode="&#xf9;" horiz-adv-x="1059" />
<glyph unicode="&#xfa;" horiz-adv-x="1059" />
<glyph unicode="&#xfb;" horiz-adv-x="1059" />
<glyph unicode="&#xfc;" horiz-adv-x="1059" />
<glyph unicode="&#xfd;" horiz-adv-x="868" />
<glyph unicode="&#xfe;" />
<glyph unicode="&#xff;" horiz-adv-x="868" />
<glyph unicode="&#x2c6;" horiz-adv-x="782" d="M100 1079l232 355h118l232 -355h-58l-233 216l-233 -216h-58z" />
<glyph unicode="&#x2dc;" horiz-adv-x="774" d="M100 1132q19 106 68 158.5t129 52.5q46 -1 113 -24q64 -23 112 -23h4q36 0 58 20t36 66h54q-20 -103 -68.5 -154t-126.5 -51h-4q-50 0 -113 23q-66 24 -114 24q-39 0 -60.5 -20.5t-33.5 -71.5h-54z" />
<glyph unicode="&#x2000;" horiz-adv-x="788" />
<glyph unicode="&#x2001;" horiz-adv-x="1577" />
<glyph unicode="&#x2002;" horiz-adv-x="788" />
<glyph unicode="&#x2003;" horiz-adv-x="1577" />
<glyph unicode="&#x2004;" horiz-adv-x="525" />
<glyph unicode="&#x2005;" horiz-adv-x="394" />
<glyph unicode="&#x2006;" horiz-adv-x="262" />
<glyph unicode="&#x2007;" horiz-adv-x="262" />
<glyph unicode="&#x2008;" horiz-adv-x="197" />
<glyph unicode="&#x2009;" horiz-adv-x="315" />
<glyph unicode="&#x200a;" horiz-adv-x="87" />
<glyph unicode="&#x2010;" horiz-adv-x="638" d="M100 437v83q0 29 41 29h356q41 0 41 -29v-83q0 -28 -40 -28h-358q-40 0 -40 28z" />
<glyph unicode="&#x2011;" horiz-adv-x="638" d="M100 437v83q0 29 41 29h356q41 0 41 -29v-83q0 -28 -40 -28h-358q-40 0 -40 28z" />
<glyph unicode="&#x2012;" horiz-adv-x="638" d="M100 437v83q0 29 41 29h356q41 0 41 -29v-83q0 -28 -40 -28h-358q-40 0 -40 28z" />
<glyph unicode="&#x2013;" horiz-adv-x="1196" d="M100 419v120h996v-120h-996z" />
<glyph unicode="&#x2014;" horiz-adv-x="2248" d="M100 419v120h2048v-120h-2048z" />
<glyph unicode="&#x2018;" horiz-adv-x="452" d="M100 1233q0 109 71 226.5t139 117.5v-43q-73 -43 -87 -190q0 -119 129 -161v-42l-119 -125q-44 0 -88.5 65.5t-44.5 151.5z" />
<glyph unicode="&#x2019;" horiz-adv-x="452" d="M100 1410v42l119 125q44 0 88.5 -65.5t44.5 -151.5q0 -109 -71 -226.5t-139 -117.5v43q73 43 87 190q0 119 -129 161z" />
<glyph unicode="&#x201a;" horiz-adv-x="452" d="M100 114v42l119 125q44 0 88.5 -65.5t44.5 -151.5q0 -109 -71 -226.5t-139 -117.5v43q73 43 87 190q0 119 -129 161z" />
<glyph unicode="&#x201c;" horiz-adv-x="805" d="M100 1233q0 109 71 226.5t139 117.5v-43q-73 -43 -87 -190q0 -119 129 -161v-42l-119 -125q-44 0 -88.5 65.5t-44.5 151.5zM453 1233q0 109 71 226.5t139 117.5v-43q-73 -43 -87 -190q0 -119 129 -161v-42l-119 -125q-44 0 -88.5 65.5t-44.5 151.5z" />
<glyph unicode="&#x201d;" horiz-adv-x="805" d="M100 1410v42l119 125q44 0 88.5 -65.5t44.5 -151.5q0 -109 -71 -226.5t-139 -117.5v43q73 43 87 190q0 119 -129 161zM453 1410v42l119 125q44 0 88.5 -65.5t44.5 -151.5q0 -109 -71 -226.5t-139 -117.5v43q73 43 87 190q0 119 -129 161z" />
<glyph unicode="&#x201e;" horiz-adv-x="805" d="M100 114v42l119 125q44 0 88.5 -65.5t44.5 -151.5q0 -109 -71 -226.5t-139 -117.5v43q73 43 87 190q0 119 -129 161zM453 114v42l119 125q44 0 88.5 -65.5t44.5 -151.5q0 -109 -71 -226.5t-139 -117.5v43q73 43 87 190q0 119 -129 161z" />
<glyph unicode="&#x2022;" horiz-adv-x="792" d="M100 718q0 123 87 209t210 86q122 0 208.5 -86.5t86.5 -208.5t-87.5 -209.5t-209.5 -87.5q-123 0 -209 87t-86 210z" />
<glyph unicode="&#x2026;" horiz-adv-x="1816" d="M100 136q0 15 16 31l82 84q15 14 29 14q13 0 31 -16l80 -86q12 -16 12 -29q0 -15 -14 -31l-80 -88q-20 -20 -29 -20q-16 0 -29 14l-88 101q-10 13 -10 26zM783 136q0 15 16 31l82 84q15 14 29 14q13 0 31 -16l80 -86q12 -16 12 -29q0 -15 -14 -31l-80 -88 q-20 -20 -29 -20q-16 0 -29 14l-88 101q-10 13 -10 26zM1466 136q0 15 16 31l82 84q15 14 29 14q13 0 31 -16l80 -86q12 -16 12 -29q0 -15 -14 -31l-80 -88q-20 -20 -29 -20q-16 0 -29 14l-88 101q-10 13 -10 26z" />
<glyph unicode="&#x202f;" horiz-adv-x="315" />
<glyph unicode="&#x2039;" horiz-adv-x="556" d="M100 479l342 303h14v-37l-205 -266l205 -266v-37h-14z" />
<glyph unicode="&#x203a;" horiz-adv-x="556" d="M100 176v37l205 266l-205 266v37h14l342 -303l-342 -303h-14z" />
<glyph unicode="&#x205f;" horiz-adv-x="394" />
<glyph unicode="&#x20ac;" horiz-adv-x="1311" d="M100 653l17 60h87v29q0 16 1 31h-71l17 60h58q14 145 76 281q81 178 226 274t298 96q43 0 87 -8q40 -10 82 -29q8 -6 16 -6q20 0 34 45h41l84 -281l-40 -1q-49 134 -138 178q-43 22 -81 32v3q-50 16 -101 16q-17 0 -34 -2q-120 -12 -226 -113.5t-157 -273.5 q-32 -104 -39 -211h706l-17 -60h-692q0 -30 2 -60h674l-17 -60h-652q17 -158 83 -298q74 -157 193 -236q102 -68 216 -69q186 3 256 91q74 91 74 185h48v-143q0 -70 -111 -127q-105 -54 -267 -56q-181 0 -325.5 98t-223.5 274q-62 135 -76 281h-108z" />
<glyph unicode="&#x2122;" horiz-adv-x="1497" />
<glyph unicode="&#x25fc;" horiz-adv-x="750" d="M0 0v750h750v-750h-750z" />
</font>
</defs>
</svg>
