<?xml version="1.0" standalone="no"?>
<!DOCTYPE svg PUBLIC "-//W3C//DTD SVG 1.1//EN" "http://www.w3.org/Graphics/SVG/1.1/DTD/svg11.dtd" >
<svg>
<metadata>
Created by FontForge 20090914 at Thu Feb  7 17:52:28 2019
 By www-data
Copyright (c) 2019 by Musafir LAB. All rights reserved.
</metadata>
<defs>
<font id="EaglesePro" horiz-adv-x="343" >
  <font-face 
    font-family="Eaglese Pro"
    font-weight="400"
    font-stretch="normal"
    units-per-em="1000"
    panose-1="2 0 5 6 2 0 0 2 0 4"
    ascent="750"
    descent="-250"
    x-height="321.999"
    cap-height="546.498"
    bbox="-1112.47 -535.852 1751.48 819.48"
    underline-thickness="50"
    underline-position="-50"
    unicode-range="U+000D-U+201A"
  />
<missing-glyph horiz-adv-x="210" 
 />
    <glyph glyph-name=".notdef" horiz-adv-x="210" 
 />
    <glyph glyph-name="NULL" horiz-adv-x="0" 
 />
    <glyph glyph-name="NULL" horiz-adv-x="0" 
 />
    <glyph glyph-name="nonmarkingreturn" unicode="&#xd;" horiz-adv-x="210" 
 />
    <glyph glyph-name="space" unicode=" " horiz-adv-x="210" 
 />
    <glyph glyph-name="exclam" unicode="!" horiz-adv-x="833" 
d="M374 129c-1.33301 -3.33301 -4.66699 -5.50195 -10 -6.50195s-10.833 -1 -16.5 0s-10.667 2.83301 -15 5.5s-5.83301 6.33398 -4.5 11.001l53.5 196.5l52.5 196.5c0 0.666992 3.83301 1 11.5 1s15.667 -1 24 -3s15.5 -5.16699 21.5 -9.5s8 -10.166 6 -17.499z
M328.999 85.998c10.667 0 18.0029 -3.16895 22.0029 -9.50195s5.5 -13.833 4.5 -22.5s-3.83301 -17.5 -8.5 -26.5s-10.334 -16.167 -17.001 -21.5s-13.834 -7.5 -21.501 -6.5s-14.5 6.83301 -20.5 17.5c-2.66699 4.66699 -3.5 10.834 -2.5 18.501s3.5 15.334 7.5 23.001
s9.16699 14.167 15.5 19.5s13.166 8 20.499 8z" />
    <glyph glyph-name="quotedbl" unicode="&#x22;" horiz-adv-x="285" 
d="M235 556c-7.33301 -12 -15.665 -22.501 -24.998 -31.501s-17 -12.167 -23 -9.5c-2 0.666992 -3.83301 1.5 -5.5 2.5s-3 3.33301 -4 7s-1.33301 9 -1 16s1.5 16.5 3.5 28.5c2 14.667 5.33301 26.334 10 35.001s10 14.5 16 17.5s12 3.16699 18 0.5s11 -8 15 -16
c5.33301 -12 7.66602 -21 6.99902 -27s-4.33398 -13.667 -11.001 -23zM107.001 555.999c-8 -12 -16.499 -22.501 -25.499 -31.501s-16.5 -12.167 -22.5 -9.5c-2 0.666992 -3.83301 1.5 -5.5 2.5s-3 3.33301 -4 7s-1.33301 9 -1 16s1.5 16.5 3.5 28.5
c1.33301 14.667 4.5 26.334 9.5 35.001s10.5 14.5 16.5 17.5s11.833 3.16699 17.5 0.5s10.5 -8 14.5 -16c6 -12 8.66699 -21 8 -27s-4.33398 -13.667 -11.001 -23z" />
    <glyph glyph-name="numbersign" unicode="#" horiz-adv-x="833" 
d="M328 371c1.33301 4 3.83008 6.33301 7.49707 7s7.83398 0.5 12.501 -0.5s9.16699 -2.33301 13.5 -4s8.16602 -2.83398 11.499 -3.50098l-30 -109l50 -1c10.667 36 18.334 62.667 23.001 80s8.83398 28.666 12.501 33.999s8.33398 6.83301 14.001 4.5
s15.167 -5.16602 28.5 -8.49902l-31 -112c28 -0.666992 48.333 -1 61 -1s21.167 -1.16699 25.5 -3.5s6.16602 -6.66602 5.49902 -12.999s-1 -15.833 -1 -28.5l-103 1l-14 -48c42 -1.33301 72.833 -2 92.5 -2s33 -1.16699 40 -3.5s10 -6.5 9 -12.5s-1.5 -15.667 -1.5 -29
h-152l-15.5 -58l-15.5 -58c0 -1.33301 -3 -1.83301 -9 -1.5s-12.167 1.33301 -18.5 3s-11.666 4.5 -15.999 8.5s-5.5 9.33301 -3.5 16l27 90h-47l-15.5 -58l-15.5 -58c0 -1.33301 -3 -1.83301 -9 -1.5s-12.167 1.33301 -18.5 3s-11.666 4.5 -15.999 8.5
s-5.5 9.33301 -3.5 16l26 90h-43c-0.666992 0 -1.66699 2.83301 -3 8.5s-1.83301 11.667 -1.5 18s1.66602 12.333 3.99902 18s6.5 8.5 12.5 8.5l47 -2l13 44h-47c-16 0 -31.667 -0.333008 -47 -1c-1.33301 0 -2.66602 2.83301 -3.99902 8.5s-1.83301 12 -1.5 19
s1.66602 13.167 3.99902 18.5s6.83301 8 13.5 8l97 -3zM364.997 167l14 46h-50l-12 -45z" />
    <glyph glyph-name="dollar" unicode="$" horiz-adv-x="454" 
d="M318 572c2.66699 4.66699 6.33984 7.16992 11.0068 7.50293s9.16699 -0.666992 13.5 -3s8.16602 -5.5 11.499 -9.5s5 -8.33301 5 -13c0 -2.66699 -5.33301 -16.334 -16 -41.001c17.333 -8 30.666 -20 39.999 -36s14.666 -33.667 15.999 -53
s-0.833984 -39.166 -6.50098 -59.499s-14.834 -38.833 -27.501 -55.5s-28.334 -30.334 -47.001 -41.001s-40 -16 -64 -16c-4 0 -7.16699 1.5 -9.5 4.5s-3.5 6.16699 -3.5 9.5s1 6.33301 3 9s5.33301 4.33398 10 5.00098c12.667 2 25.334 9.33301 38.001 22s23 27.667 31 45
s12.167 36 12.5 56s-5.16699 38.667 -16.5 56l-58 -129l-65 -144c31.333 -24 50 -47.167 56 -69.5s3.5 -42.333 -7.5 -60s-28.667 -31.834 -53 -42.501s-50.833 -16.667 -79.5 -18c-4 -11.333 -7 -19.333 -9 -24c-2 -5.33301 -5.16699 -8 -9.5 -8s-8.5 1.5 -12.5 4.5
s-7 7.16699 -9 12.5s-2 10.666 0 15.999c-27.333 3.33301 -50.333 11 -69 23s-32.167 26 -40.5 42s-11 32.5 -8 49.5s12.5 32.167 28.5 45.5c2.66699 2.66699 6.5 5 11.5 7s9.16699 3 12.5 3s5.16602 -1.5 5.49902 -4.5s-2.5 -8.5 -8.5 -16.5
c-6.66699 -18 -8.33398 -33 -5.00098 -45s9.83301 -21.5 19.5 -28.5s21.5 -11.667 35.5 -14s28.667 -2.83301 44 -1.5l46 109c-28 20 -47 42.5 -57 67.5s-13.5 50.667 -10.5 77s11.5 52.166 25.5 77.499s31.167 47.833 51.5 67.5s43 35.667 68 48s50.167 18.5 75.5 18.5z
M177.006 144.003l-19 -42.001l-17 -37c12 3.33301 22.667 7.83301 32 13.5s16 11.834 20 18.501s5 14 3 22s-8.33301 16.333 -19 25zM166.006 217.002l110.999 259.002c-9.33301 -4 -20.333 -10.833 -33 -20.5s-25.167 -21.334 -37.5 -35.001
s-23.666 -28.834 -33.999 -45.501s-18 -34 -23 -52s-6.5 -36.167 -4.5 -54.5s9 -35.5 21 -51.5z" />
    <glyph glyph-name="percent" unicode="%" horiz-adv-x="833" 
d="M410 564c0 6.66699 2 10.1689 6 10.502s8.33301 -1.16699 13 -4.5s9 -7.66602 13 -12.999s6 -10 6 -14c0 -2.66699 -5.33301 -16.334 -16 -41.001l-40 -92l-53 -119l-55.5 -122l-46 -102.5c-13 -29.667 -21.5 -49.834 -25.5 -60.501
c-2 -5.33301 -4.83301 -7.83301 -8.5 -7.5s-7.16699 2.33301 -10.5 6s-5.83301 8.16699 -7.5 13.5s-1.5 10.666 0.5 15.999zM207 403.002c12 0 22.499 4.33105 31.499 12.998s16.167 18.834 21.5 30.501s8.5 23.167 9.5 34.5s0.166992 19.5 -2.5 24.5
s-7.83398 5.33301 -15.501 1s-17.5 -16.166 -29.5 -35.499c-3.33301 -5.33301 -6.66602 -11.833 -9.99902 -19.5s-6.16602 -15 -8.49902 -22s-3.33301 -13.167 -3 -18.5s2.5 -8 6.5 -8zM310.999 490c2.66699 -20.667 -0.666992 -40.1699 -10 -58.5029
s-21.333 -32.166 -36 -41.499s-30.667 -13.166 -48 -11.499s-32.333 12.167 -45 31.5c-8.66699 12.667 -11.5 27 -8.5 43s8.66699 31 17 45s18.5 25.833 30.5 35.5s22.667 14.5 32 14.5c8 0 15.833 -1.66699 23.5 -5s14.667 -7.66602 21 -12.999s11.5 -11.5 15.5 -18.5
s6.66699 -14.167 8 -21.5zM476.998 161.997c2.66699 -24 -1.33398 -46.333 -12.001 -67s-24.5 -36.5 -41.5 -47.5s-35.5 -15.333 -55.5 -13s-37.333 14.5 -52 36.5c-10 14.667 -13.333 31.167 -10 49.5s10 35.666 20 51.999s21.833 30 35.5 41s25.834 16.5 36.501 16.5
c8.66699 0 17.5 -1.83301 26.5 -5.5s17.167 -8.66699 24.5 -15s13.5 -13.666 18.5 -21.999s8.16699 -16.833 9.5 -25.5zM356.997 61.9971c14 0 26.167 4.99902 36.5 14.999s18.5 21.833 24.5 35.5s9.66699 27 11 40s0.333008 22.5 -3 28.5s-9.33301 6.5 -18 1.5
s-20 -18.5 -34 -40.5c-4 -6 -8 -13.5 -12 -22.5s-7.16699 -17.667 -9.5 -26s-3.5 -15.666 -3.5 -21.999s2.66699 -9.5 8 -9.5z" />
    <glyph glyph-name="ampersand" unicode="&#x26;" horiz-adv-x="833" 
d="M312 18c-31.333 -12.667 -61.6689 -17.8369 -91.002 -15.5039s-53.666 10.166 -72.999 23.499s-32.166 31.666 -38.499 54.999s-2.5 49.666 11.5 78.999c10 21.333 24.167 40 42.5 56s38.833 29 61.5 39c-23.333 14.667 -37.333 32.5 -42 53.5s-3 42.167 5 63.5
s21 41.5 39 60.5s38.167 34.333 60.5 46s45.166 18.334 68.499 20.001s44.333 -4.16602 63 -17.499c15.333 -11.333 23.333 -26.666 24 -45.999s-3.16602 -38.166 -11.499 -56.499s-19.666 -34.333 -33.999 -48s-28.5 -20.5 -42.5 -20.5c-6 0 -10 3 -12 9s-0.666992 9 4 9
c6 0 14.5 5.5 25.5 16.5s20.167 23.333 27.5 37s10.5 26 9.5 37s-10.833 16.5 -29.5 16.5c-16 0 -32.833 -3.66699 -50.5 -11s-33.167 -17.333 -46.5 -30s-23.5 -27.5 -30.5 -44.5s-8.16699 -35.167 -3.5 -54.5c2.66699 -10.667 9.33398 -19 20.001 -25
c1.33301 0 8.66602 1.5 21.999 4.5s27.666 4.83301 42.999 5.5s29 -1.33301 41 -6s17.667 -14.334 17 -29.001c0 -4 -1 -8.33301 -3 -13s-4.33301 -8.66699 -7 -12s-5.5 -5.5 -8.5 -6.5s-5.5 0.166992 -7.5 3.5c-2.66699 2.66699 -11.667 3.83398 -27 3.50098
s-32.666 -3.66602 -51.999 -9.99902s-38.333 -16.166 -57 -29.499s-33 -31.333 -43 -54c-10 -23.333 -12.167 -41.666 -6.5 -54.999s16.167 -22.333 31.5 -27s33.833 -5.5 55.5 -2.5s44 9.33301 67 19s45.167 22.167 66.5 37.5s38.666 32.666 51.999 51.999
c-0.666992 11.333 -3 21.833 -7 31.5s-11 18.167 -21 25.5c-6 6 -7.5 12.333 -4.5 19s7.83301 11.834 14.5 15.501s14.5 5.16699 23.5 4.5s17 -5.33398 24 -14.001s11.833 -22.334 14.5 -41.001s1 -43.667 -5 -75c-4.66699 -25.333 -6.66699 -43.666 -6 -54.999
s2.5 -19.166 5.5 -23.499s6.33301 -7 10 -8s5.5 -3.83301 5.5 -8.5c0 -8 -3.5 -13.333 -10.5 -16s-14.333 -2 -22 2s-14.5 11.667 -20.5 23s-8 27.333 -6 48c0 5.33301 0.333008 10.5 1 15.5l2 15.5c-18 -20.667 -39.833 -39 -65.5 -55s-50.167 -28.333 -73.5 -37z" />
    <glyph glyph-name="quotesingle" unicode="'" horiz-adv-x="136" 
d="M96 538c-3.33301 -13.333 -7.83105 -25.667 -13.498 -37s-11.834 -17 -18.501 -17c-2 0 -4 0.333008 -6 1s-4 2.5 -6 5.5s-4.16699 7.83301 -6.5 14.5s-4.5 16 -6.5 28c-2.66699 14.667 -3 28.167 -1 40.5s5.33301 22.5 10 30.5s10.167 13.167 16.5 15.5
s12.5 0.5 18.5 -5.5c9.33301 -9.33301 14.666 -21.5 15.999 -36.5s0.333008 -28.167 -3 -39.5z" />
    <glyph glyph-name="parenleft" unicode="(" horiz-adv-x="195" 
d="M301 437c-22.667 -6 -44.335 -19.168 -65.002 -39.501s-39.667 -44.666 -57 -72.999s-32.333 -59.5 -45 -93.5s-22.667 -67.5 -30 -100.5s-11.166 -64.167 -11.499 -93.5s3.5 -53.666 11.5 -72.999c4.66699 -10.667 7.83398 -18.167 9.50098 -22.5
s-2.5 -6.83301 -12.5 -7.5c-15.333 -0.666992 -27.833 3 -37.5 11s-17 18.333 -22 31s-8.33301 27.167 -10 43.5s-2.33398 32.5 -2.00098 48.5s1.66602 31.333 3.99902 46s4.5 26.667 6.5 36c6.66699 30.667 15.834 61.5 27.501 92.5s24.5 60.167 38.5 87.5s29 52.333 45 75
s31.833 41.167 47.5 55.5s31.167 23.666 46.5 27.999s29.333 2.16602 42 -6.50098c13.333 -9.33301 20.833 -19.166 22.5 -29.499s-1.16602 -15.5 -8.49902 -15.5z" />
    <glyph glyph-name="parenright" unicode=")" horiz-adv-x="274" 
d="M-27 -15c22.667 6 44.332 19.1709 64.999 39.5039s39.667 44.666 57 72.999s32.333 59.5 45 93.5s22.667 67.5 30 100.5s11.166 64.167 11.499 93.5s-3.5 53.666 -11.5 72.999c-4.66699 10.667 -7.66699 18.167 -9 22.5s2.66699 6.83301 12 7.5
c22.667 0.666992 39.334 -7.5 50.001 -24.5s17.334 -37.333 20.001 -61s2.66699 -47.667 0 -72s-5.66699 -43.833 -9 -58.5c-7.33301 -30.667 -16.666 -61.334 -27.999 -92.001s-24 -59.834 -38 -87.501s-29 -52.667 -45 -75s-31.833 -40.666 -47.5 -54.999
s-31.167 -23.833 -46.5 -28.5s-29.333 -2.66699 -42 6c-13.333 9.33301 -20.833 19.166 -22.5 29.499s1.16602 15.5 8.49902 15.5z" />
    <glyph glyph-name="asterisk" unicode="*" horiz-adv-x="246" 
d="M167 494c0.666992 -1.33301 -0.330078 -2.5 -2.99707 -3.5s-5.66699 -1.66699 -9 -2l-10.5 -1c-3.66699 -0.333008 -6.16699 -0.833008 -7.5 -1.5c-4 8 -7.5 15.5 -10.5 22.5s-6.16699 13.833 -9.5 20.5l-22 -26l-22 -27c-0.666992 0 -2.33398 1 -5.00098 3
s-5.33398 4.5 -8.00098 7.5s-4.83398 6.16699 -6.50098 9.5s-1.5 6 0.5 8l35 38c-8 -0.666992 -16.167 -1.16699 -24.5 -1.5s-16.5 -0.833008 -24.5 -1.5c-0.666992 0 -1.33398 1.5 -2.00098 4.5s-1 6.33301 -1 10s0.333008 7.16699 1 10.5s2.66699 5 6 5l55 1
c-3.33301 6 -6.5 12.5 -9.5 19.5s-6.5 14.167 -10.5 21.5c0 0.666992 0.833008 2 2.5 4s3.83398 4 6.50098 6s5.33398 3.16699 8.00098 3.5s4.66699 -0.833984 6 -3.50098l22 -41l34 38c2.66699 2.66699 6.66699 1.5 12 -3.5s8.66602 -8.5 9.99902 -10.5l-13.5 -16
l-13.5 -16l46 1c3.33301 0 5 -3.16699 5 -9.5s0.333008 -11.166 1 -14.499l-32.5 -2l-31.5 -2z" />
    <glyph glyph-name="plus" unicode="+" horiz-adv-x="833" 
d="M411 334c4 0.666992 6.33594 -1.49805 7.00293 -6.49805s0 -10.833 -2 -17.5s-4.66699 -13 -8 -19s-6.66602 -9.33301 -9.99902 -10l-73 1l-49 -97c-10.667 0 -17.834 6.16699 -21.501 18.5s-2.16699 26.5 4.5 42.5c2 6 4.5 12 7.5 18l9.5 20
c-19.333 0.666992 -34.833 0.5 -46.5 -0.5s-20.334 -1.33301 -26.001 -1s-8.83398 1.83301 -9.50098 4.5s0.333008 8.66699 3 18c2 7.33301 6.66699 12.5 14 15.5s16 5 26 6s20.167 1.33301 30.5 1s19.5 -0.5 27.5 -0.5c2 5.33301 4.5 11.666 7.5 18.999
s5.83301 14.666 8.5 21.999s4.83398 14.333 6.50098 21s2.5 12.667 2.5 18c0 4 2.16699 5.66699 6.5 5s9.16602 -2.66699 14.499 -6s10.166 -7.33301 14.499 -12s6.5 -9 6.5 -13l-18 -54z" />
    <glyph glyph-name="comma" unicode="," horiz-adv-x="133" 
d="M85 57c-7.33301 -12 -15.5 -22.501 -24.5 -31.501s-16.833 -12.167 -23.5 -9.5c-2 0.666992 -3.66699 1.5 -5 2.5s-2.5 3.33301 -3.5 7s-1.5 9 -1.5 16s1 16.5 3 28.5c2 14.667 5.33301 26.334 10 35.001s10 14.5 16 17.5s12 3.16699 18 0.5s11 -8 15 -16
c6 -12 8.5 -21 7.5 -27s-4.83301 -13.667 -11.5 -23z" />
    <glyph glyph-name="hyphen" unicode="-" horiz-adv-x="833" 
d="M471 300c4 0 6.83203 -2.33301 8.49902 -7s2.66699 -10.167 3 -16.5s0.166016 -13 -0.500977 -20s-1 -12.5 -1 -16.5c-32 0.666992 -60 1.16699 -84 1.5l-70 1c-22.667 0.333008 -46 0.5 -70 0.5h-84c-1.33301 0 -2.66602 3 -3.99902 9s-1.83301 12.5 -1.5 19.5
s1.83301 13.5 4.5 19.5s7.33398 9 14.001 9h285z" />
    <glyph glyph-name="period" unicode="." horiz-adv-x="833" 
d="M352 83c10.667 0 18.1709 -3.00098 22.5039 -9.00098s6.16602 -13.167 5.49902 -21.5s-3.33398 -16.833 -8.00098 -25.5s-10.334 -15.5 -17.001 -20.5s-14 -7.33301 -22 -7s-15.333 5.5 -22 15.5c-3.33301 4 -4.33301 9.83301 -3 17.5s4.16602 15.334 8.49902 23.001
s9.5 14.167 15.5 19.5s12.667 8 20 8z" />
    <glyph glyph-name="slash" unicode="/" horiz-adv-x="833" 
d="M437 509c0 6.66699 1.99902 10.3359 5.99902 11.0029s8.5 -0.5 13.5 -3.5s9.83301 -7 14.5 -12s7 -9.83301 7 -14.5c0 -2.66699 -4.5 -16.667 -13.5 -42l-34.5 -94l-46 -121.5l-48 -125.5l-40 -106c-11.333 -30.667 -18.666 -51.334 -21.999 -62.001
c-1.33301 -4.66699 -3.83301 -7 -7.5 -7s-7.16699 1.66699 -10.5 5s-6 7.66602 -8 12.999s-2.33301 10.666 -1 15.999z" />
    <glyph glyph-name="zero" unicode="0" horiz-adv-x="423" 
d="M270 501c30 0 54.0029 -7.5 72.0029 -22.5s30.833 -34.667 38.5 -59s10.667 -51.833 9 -82.5s-7.16699 -62 -16.5 -94s-22 -63.167 -38 -93.5s-34.333 -57 -55 -80s-43.334 -41 -68.001 -54s-50.334 -18.167 -77.001 -15.5c-24.667 2.66699 -44.334 11.667 -59.001 27
s-25.334 35 -32.001 59s-9.5 51 -8.5 81s5.33301 60.333 13 91s18.5 60.5 32.5 89.5s30.5 55 49.5 78s40.333 41.333 64 55s48.834 20.5 75.501 20.5zM139.003 51c20.667 0 41.6719 9.99902 63.0049 29.999s40.833 45 58.5 75s32.667 62.667 45 98s20.166 68.333 23.499 99
s1.16602 56.667 -6.50098 78s-22.834 33 -45.501 35c-27.333 2.66699 -52.833 -5.66602 -76.5 -24.999s-44.334 -44.5 -62.001 -75.5s-31.834 -64.667 -42.501 -101s-16.5 -70.333 -17.5 -102s3.16699 -58.167 12.5 -79.5s25.333 -32 48 -32z" />
    <glyph glyph-name="one" unicode="1" horiz-adv-x="287" 
d="M205 508c17.333 0 30.8281 -4.83496 40.4951 -14.502s11.834 -22.834 6.50098 -39.501c-3.33301 -10 -9.33301 -26 -18 -48l-29.5 -76l-34.5 -90.5l-33.5 -91.5c-10.333 -29.333 -19.166 -55.833 -26.499 -79.5s-11.666 -41.5 -12.999 -53.5
c-1.33301 -9.33301 -6.5 -14.833 -15.5 -16.5s-18.167 0 -27.5 5s-16.666 13.333 -21.999 25s-4.66602 26.167 2.00098 43.5l149 398c-14 -2 -24.667 -9.66699 -32 -23s-8.33301 -26.333 -3 -39c2 -4.66699 -0.166992 -8 -6.5 -10s-13.5 -2.5 -21.5 -1.5
s-15.5 3.33301 -22.5 7s-10.5 8.83398 -10.5 15.501c0 8.66699 2 17.334 6 26.001s9.16699 16.667 15.5 24s13.5 13.833 21.5 19.5s16 9.83398 24 12.501c16.667 6 33.667 8.33301 51 7z" />
    <glyph glyph-name="two" unicode="2" horiz-adv-x="433" 
d="M335 73c4.66699 1.33301 7.00098 -1.1748 7.00098 -7.50781s-1.16699 -13.666 -3.5 -21.999s-5.5 -16.333 -9.5 -24s-7.66699 -11.834 -11 -12.501c-2.66699 -0.666992 -10.667 -1.16699 -24 -1.5s-29.5 -0.666016 -48.5 -0.999023s-39.5 -0.5 -61.5 -0.5
s-42.833 -0.166992 -62.5 -0.5s-36.667 -0.833008 -51 -1.5s-23.166 -1.66699 -26.499 -3c-6 -2 -10.5 -1.16699 -13.5 2.5s-4.5 8.83398 -4.5 15.501s1.16699 13.334 3.5 20.001s6.16602 12 11.499 16c11.333 8 28 22.167 50 42.5s45.5 43.333 70.5 69
s49.667 52.834 74 81.501s44.833 55.667 61.5 81c12.667 19.333 21 38.333 25 57s3.66699 34.5 -1 47.5s-13.667 21.833 -27 26.5s-31 2.33398 -53 -6.99902c-12.667 -5.33301 -23.5 -12.166 -32.5 -20.499s-15.833 -17.333 -20.5 -27s-7.16699 -19.167 -7.5 -28.5
s2.16699 -17.333 7.5 -24c4.66699 -6 3.16699 -9 -4.5 -9s-15.834 3.16699 -24.501 9.5s-15.167 16 -19.5 29s-0.833008 30.167 10.5 51.5c12 22.667 29.333 40.334 52 53.001s46 20 70 22s47 -1.16699 69 -9.5s38.333 -21.666 49 -39.999s13.834 -41.833 9.50098 -70.5
s-20.5 -62 -48.5 -100c-16 -22 -32 -42.167 -48 -60.5l-48.5 -53c-16.333 -17 -33.166 -33.667 -50.499 -50l-54 -51.5c14.667 -0.666992 30 -1.66699 46 -3s32.167 -2.33301 48.5 -3s32.166 -0.666992 47.499 0s29.666 3 42.999 7z" />
    <glyph glyph-name="three" unicode="3" horiz-adv-x="474" 
d="M401 313c-16.667 -16 -35.335 -30.1621 -56.002 -42.4951s-39.334 -21.833 -56.001 -28.5c19.333 -13.333 34 -27.666 44 -42.999s16.333 -31 19 -47s1.5 -31.667 -3.5 -47s-12.833 -29.333 -23.5 -42c-14.667 -16.667 -32.334 -29.667 -53.001 -39
s-42.167 -15.333 -64.5 -18s-44.666 -2.5 -66.999 0.5s-42.166 8.66699 -59.499 17s-31.166 19.166 -41.499 32.499s-15.166 28.666 -14.499 45.999c0 12 3 23 9 33s12.5 18 19.5 24s13.5 9.5 19.5 10.5s9 -1.16699 9 -6.5c0 -1.33301 -1.5 -6.66602 -4.5 -15.999
s-3.83301 -20 -2.5 -32s6.66602 -23.5 15.999 -34.5s26.333 -18.5 51 -22.5c25.333 -4 47.5 -3 66.5 3s34.333 14.667 46 26s20.167 24.333 25.5 39s7.16602 28.5 5.49902 41.5s-6.66699 23.833 -15 32.5s-19.833 13 -34.5 13c-11.333 0 -21.666 -0.833008 -30.999 -2.5
s-17.333 -2.83398 -24 -3.50098s-11.667 0 -15 2s-5 7 -5 15c0 18.667 4 30.5 12 35.5s18.833 8.66699 32.5 11s29.834 5.83301 48.501 10.5s39 15.667 61 33c24.667 20 40.167 40 46.5 60s6.33301 36.833 0 50.5s-17.666 22.5 -33.999 26.5s-34.833 0 -55.5 -12
c-11.333 -6 -21.5 -13.333 -30.5 -22s-16 -17.667 -21 -27s-7.83301 -18.5 -8.5 -27.5s1.66602 -16.833 6.99902 -23.5c4.66699 -6 3.5 -9.16699 -3.5 -9.5s-14.667 2.5 -23 8.5s-14.833 15.667 -19.5 29s-2.33398 31 6.99902 53c6.66699 15.333 15.667 28.666 27 39.999
s23.833 20.666 37.5 27.999s28 12.666 43 15.999s29.833 4.66602 44.5 3.99902c28 -0.666992 50.833 -7.83398 68.5 -21.501s29.834 -30.167 36.501 -49.5s7.16699 -40.166 1.5 -62.499s-18.167 -42.833 -37.5 -61.5z" />
    <glyph glyph-name="four" unicode="4" horiz-adv-x="408" 
d="M361 214c4.66699 1.33301 7.49902 -0.333984 8.49902 -5.00098s0.833008 -10 -0.5 -16s-3.66602 -12 -6.99902 -18s-7 -9.66699 -11 -11l-66 -1c-3.33301 -10 -6.83301 -21.5 -10.5 -34.5l-11 -40l-10.5 -40c-3.33301 -13 -6 -24.5 -8 -34.5
c-2 -7.33301 -6.5 -10.666 -13.5 -9.99902s-14.333 3.16699 -22 7.5s-14.667 9.5 -21 15.5s-9.5 11 -9.5 15l37 121l-141 -4c-6.66699 0 -13.167 0.166992 -19.5 0.5s-11.333 1.66602 -15 3.99902s-5 5.83301 -4 10.5s5.83301 11.667 14.5 21l30.5 35.5l52.5 60.5l63 72
l61 70l47 52.5c12.667 13.667 19.667 20.834 21 21.501c4 0.666992 9.33301 -0.333008 16 -3s13 -6.16699 19 -10.5s11.167 -9.5 15.5 -15.5s6.5 -11.667 6.5 -17l-82 -249zM141.999 207l88 2l57 164z" />
    <glyph glyph-name="five" unicode="5" horiz-adv-x="489" 
d="M455 510c4 1.33301 5.67383 -1.16504 5.00684 -7.49805s-2.83398 -13.5 -6.50098 -21.5s-7.83398 -15.833 -12.501 -23.5s-9 -11.834 -13 -12.501h-176c-9.33301 -24 -20.333 -49 -33 -75s-23 -52.667 -31 -80c18.667 4.66699 39.167 6.33398 61.5 5.00098
s42 -7.33301 59 -18s29.667 -26.334 38 -47.001s8.16602 -47.667 -0.500977 -81c-6.66699 -25.333 -17.334 -47.5 -32.001 -66.5s-31.334 -34.667 -50.001 -47s-38.667 -21.166 -60 -26.499s-42 -7 -62 -5c-21.333 2 -41 8.5 -59 19.5s-32.667 25.5 -44 43.5
c-12 20 -15 38.667 -9 56s14.333 30.833 25 40.5s19.5 14.5 26.5 14.5s5.5 -7.33301 -4.5 -22c-5.33301 -8 -8.33301 -16.5 -9 -25.5s1.33301 -17.5 6 -25.5s11.5 -15.167 20.5 -21.5s20.5 -10.833 34.5 -13.5c30 -5.33301 55.5 -3.66602 76.5 5.00098s37.667 20.667 50 36
s20.5 32.5 24.5 51.5s3.83301 36.167 -0.5 51.5s-12.666 26.833 -24.999 34.5s-28.5 8.5 -48.5 2.5c-8 -2.66699 -15 -5.66699 -21 -9s-12 -5.5 -18 -6.5s-12.5 0.166992 -19.5 3.5s-15.5 10 -25.5 20c-3.33301 3.33301 -3.33301 11.833 0 25.5s8.66602 29.667 15.999 48
s15.666 37.833 24.999 58.5s18.333 39.667 27 57s16.334 31.666 23.001 42.999s10.667 17 12 17c10.667 0.666992 26.667 0.5 48 -0.5s43.666 -1.83301 66.999 -2.5s45.666 -0.833984 66.999 -0.500977s37.333 2.16602 48 5.49902z" />
    <glyph glyph-name="six" unicode="6" horiz-adv-x="433" 
d="M396 428c0 -6.66699 -3.49805 -11.8389 -10.498 -15.5059s-14.5 -5.83398 -22.5 -6.50098s-15.167 -0.166992 -21.5 1.5s-8.5 4.83398 -6.5 9.50098c6 14 5.33301 26.667 -2 38s-19.166 16.333 -35.499 15s-36.333 -12.166 -60 -32.499s-48.834 -55.5 -75.501 -105.5
c24.667 12 49.834 16.833 75.501 14.5s47.667 -10.833 66 -25.5s31.333 -35.5 39 -62.5s6.16699 -58.833 -4.5 -95.5c-10.667 -38.667 -27.667 -70.667 -51 -96s-48.5 -43.666 -75.5 -54.999s-54 -15.166 -81 -11.499s-49.333 15.334 -67 35.001s-28.834 47.5 -33.501 83.5
s1.66602 80.667 18.999 134c9.33301 28.667 23.333 59.834 42 93.501s40.667 63.834 66 90.501s53.166 46.667 83.499 60s62.166 14.333 95.499 3c16.667 -5.33301 30.834 -14.333 42.501 -27s17.5 -27.667 17.5 -45zM229.002 307.995c-24 0 -45.001 -6.66699 -63.001 -20
s-32.667 -30.166 -44 -50.499s-19.333 -42.166 -24 -65.499s-6.16699 -45.166 -4.5 -65.499s6.83398 -37.166 15.501 -50.499s21 -20 37 -20c18 0 35 6.66699 51 20s30 30.166 42 50.499s21.5 42.166 28.5 65.499s10.667 45.166 11 65.499s-3.5 37.166 -11.5 50.499
s-20.667 20 -38 20z" />
    <glyph glyph-name="seven" unicode="7" horiz-adv-x="313" 
d="M356 402l-34.502 -49.9971l-47.5 -68l-53.5 -77l-51.5 -77l-42 -67c-12 -20 -20.333 -35.667 -25 -47c-3.33301 -8.66699 -10.666 -13.834 -21.999 -15.501s-21.666 -0.166992 -30.999 4.5s-15.666 12.5 -18.999 23.5s1 24.833 13 41.5l63.5 86.5l73 101.5l69 102.5
c21.667 33.667 39.167 63.5 52.5 89.5l-201 -3c-7.33301 -3.33301 -12.333 -3 -15 1s-3.5 9 -2.5 15s3.66699 12.333 8 19s9.5 11.334 15.5 14.001c0.666992 0 8 0.666992 22 2s31.167 2.5 51.5 3.5s42.333 1.66699 66 2s45.667 0.166016 66 -0.500977
s37.5 -2.33398 51.5 -5.00098s21.667 -6.33398 23 -11.001c2 -8 1.16699 -18.833 -2.5 -32.5s-12.834 -31.167 -27.501 -52.5z" />
    <glyph glyph-name="eight" unicode="8" horiz-adv-x="480" 
d="M236 231c-12 -6.66699 -25.333 -14.666 -40 -23.999s-28.5 -19.5 -41.5 -30.5s-23.833 -22.833 -32.5 -35.5s-13 -26 -13 -40c0 -17.333 6.16699 -30.333 18.5 -39s26.833 -13.334 43.5 -14.001s33.5 2.83301 50.5 10.5s30.167 19.167 39.5 34.5s13 34.5 11 57.5
s-14 49.833 -36 80.5zM203 265.001c-22.667 34 -36.6689 65.832 -42.002 95.499s-2.66602 55.5 8.00098 77.5s29.334 39.167 56.001 51.5s60.667 18.5 102 18.5c18.667 0 36.334 -2.66699 53.001 -8s30.667 -13 42 -23s18.666 -22.667 21.999 -38
s0.666016 -33.333 -8.00098 -54c-5.33301 -12.667 -13.5 -25.167 -24.5 -37.5s-23.5 -24 -37.5 -35s-28.167 -21.167 -42.5 -30.5s-27.5 -17 -39.5 -23c20.667 -32.667 34.334 -61.834 41.001 -87.501s7.66699 -48 3 -67s-13.5 -35.167 -26.5 -48.5s-28.667 -24 -47 -32
s-38.166 -13.833 -59.499 -17.5s-42 -5.16699 -62 -4.5c-30.667 1.33301 -54.834 9.83301 -72.501 25.5s-28.5 34.5 -32.5 56.5c-3.33301 20.667 1.16699 40.334 13.5 59.001s28 35.834 47 51.501s38.5 29.5 58.5 41.5zM260.998 303c4 2.66699 5.66699 3.66602 5 2.99902
s-2 -1.66699 -4 -3s-3.66699 -2.33301 -5 -3s0 0.333008 4 3c40 26 69.333 48.833 88 68.5s29.5 36 32.5 49s0.166992 23 -8.5 30s-20 11.167 -34 12.5c-15.333 0.666992 -32 -2 -50 -8s-32.5 -15.833 -43.5 -29.5s-16.333 -30.667 -16 -51s10.833 -44.166 31.5 -71.499z
" />
    <glyph glyph-name="nine" unicode="9" horiz-adv-x="425" 
d="M29 81c0 6.66699 3.50293 11.835 10.5029 15.502s14.667 5.83398 23 6.50098s15.5 0.166992 21.5 -1.5s8 -4.83398 6 -9.50098c-4 -9.33301 -5 -18.333 -3 -27s6.5 -15.334 13.5 -20.001s16 -6.66699 27 -6s23.667 5.5 38 14.5s29.833 23.333 46.5 43s34 46.167 52 79.5
c-25.333 -12 -50.666 -16.833 -75.999 -14.5s-47.166 11 -65.499 26s-31.333 35.833 -39 62.5s-6.16699 58.667 4.5 96c10.667 38.667 27.667 70.667 51 96s48.666 43.5 75.999 54.5s54.333 14.667 81 11s49 -15.334 67 -35.001s29.167 -47.5 33.5 -83.5
s-2.16699 -80.667 -19.5 -134c-9.33301 -28.667 -23.333 -59.834 -42 -93.501s-40.834 -63.667 -66.501 -90s-53.834 -46.166 -84.501 -59.499s-62.334 -14.333 -95.001 -3c-16.667 5.33301 -30.834 14.333 -42.501 27s-17.5 27.667 -17.5 45zM197.003 201.001
c24 0 44.999 6.66699 62.999 20s32.667 30 44 50s19.333 41.667 24 65s6.16699 45.166 4.5 65.499s-7 37.166 -16 50.499s-21.167 20 -36.5 20c-18 0 -35 -6.66699 -51 -20s-30 -30 -42 -50s-21.5 -41.667 -28.5 -65s-10.667 -45.166 -11 -65.499
s3.33398 -37.166 11.001 -50.499s20.5 -20 38.5 -20z" />
    <glyph glyph-name="colon" unicode=":" horiz-adv-x="142" 
d="M77 363c10.667 0 18.001 -3.00098 22.001 -9.00098s5.66699 -13.167 5 -21.5s-3.5 -16.833 -8.5 -25.5s-10.833 -15.5 -17.5 -20.5s-13.667 -7.33301 -21 -7s-14.333 5.5 -21 15.5c-3.33301 4 -4.33301 9.83301 -3 17.5s4 15.334 8 23.001s9.16699 14.167 15.5 19.5
s13.166 8 20.499 8zM77.001 131.999c10.667 0 18.001 -3.00098 22.001 -9.00098s5.66699 -13.167 5 -21.5s-3.5 -16.833 -8.5 -25.5s-10.833 -15.5 -17.5 -20.5s-13.667 -7.33301 -21 -7s-14.333 5.5 -21 15.5c-3.33301 4 -4.33301 9.83301 -3 17.5s4 15.334 8 23.001
s9.16699 14.167 15.5 19.5s13.166 8 20.499 8z" />
    <glyph glyph-name="semicolon" unicode=";" horiz-adv-x="195" 
d="M95 84c-7.33301 -12 -15.5 -22.501 -24.5 -31.501s-16.833 -12.167 -23.5 -9.5c-2 0.666992 -3.66699 1.5 -5 2.5s-2.5 3.33301 -3.5 7s-1.5 9 -1.5 16s1 16.5 3 28.5c2 14.667 5.33301 26.334 10 35.001s10 14.5 16 17.5s12 3.16699 18 0.5s11 -8 15 -16
c6 -12 8.5 -21 7.5 -27s-4.83301 -13.667 -11.5 -23zM126 336.999c11.333 0 19.002 -3.16699 23.002 -9.5s5.5 -13.833 4.5 -22.5s-3.83301 -17.5 -8.5 -26.5s-10.334 -16 -17.001 -21s-13.834 -7 -21.501 -6s-14.5 6.83301 -20.5 17.5
c-2.66699 4.66699 -3.5 10.834 -2.5 18.501s3.5 15.167 7.5 22.5s9 13.666 15 18.999s12.667 8 20 8z" />
    <glyph glyph-name="less" unicode="&#x3c;" horiz-adv-x="269" 
d="M224 136c0.666992 -12 -3.49902 -16.6699 -12.499 -14.0029s-20.333 9.33398 -34 20.001s-28.5 24.334 -44.5 41.001l-45 49c-14 16 -25.833 30.667 -35.5 44s-14.5 22 -14.5 26s4.66699 10 14 18s21 16.333 35 25s29.167 17.5 45.5 26.5s31.5 16.167 45.5 21.5
s25.833 8.66602 35.5 9.99902s14.5 -1 14.5 -7c0 -8.66699 -6 -18.667 -18 -30s-25.167 -22.5 -39.5 -33.5l-39.5 -29.5c-12 -8.66699 -18 -14.667 -18 -18c0 -2.66699 2.66699 -7.5 8 -14.5s12.166 -15.5 20.499 -25.5l26.5 -31.5l26.5 -32
c8.33301 -10.333 15.333 -19.666 21 -27.999s8.5 -14.166 8.5 -17.499z" />
    <glyph glyph-name="equal" unicode="=" horiz-adv-x="441" 
d="M394 445c4 0 6.83301 -2.33301 8.5 -7s2.66699 -10.167 3 -16.5s0.166016 -12.833 -0.500977 -19.5s-1 -12 -1 -16c-32 0 -60 0.166992 -84 0.5l-69.5 1c-22.333 0.333008 -45.666 0.5 -69.999 0.5h-84.5c-1.33301 0 -2.5 3 -3.5 9s-1.5 12.5 -1.5 19.5
s1.33301 13.5 4 19.5s7.66699 9 15 9h284zM347 312c4 0 6.66797 -2.33301 8.00098 -7s2.16602 -10.167 2.49902 -16.5s0.333008 -12.833 0 -19.5s-0.5 -12 -0.5 -16c-32 0 -60.167 0.166992 -84.5 0.5l-70.5 1c-22.667 0.333008 -45.834 0.5 -69.501 0.5h-83.5
c-1.33301 0 -2.66602 2.83301 -3.99902 8.5s-2 12 -2 19s1.33301 13.5 4 19.5s7.66699 9 15 9z" />
    <glyph glyph-name="greater" unicode="&#x3e;" horiz-adv-x="284" 
d="M45 135c0 3.33301 2.83398 9.16895 8.50098 17.502s12.667 17.666 21 27.999l26.5 32l26.5 31.5c8.33301 10 15.166 18.5 20.499 25.5s8 11.833 8 14.5c0 3.33301 -6 9.33301 -18 18l-39.5 29.5c-14.333 11 -27.5 22.167 -39.5 33.5s-18 21.333 -18 30
c0 6 4.83301 8.33301 14.5 7s21.5 -4.66602 35.5 -9.99902s29.167 -12.5 45.5 -21.5s31.5 -17.833 45.5 -26.5s25.667 -17 35 -25s14 -14 14 -18c0 -4.66699 -4.66699 -13.5 -14 -26.5s-21 -27.5 -35 -43.5s-29.167 -32.333 -45.5 -49s-31.333 -30.334 -45 -41.001
s-25 -17.334 -34 -20.001s-13.167 2 -12.5 14z" />
    <glyph glyph-name="question" unicode="?" horiz-adv-x="443" 
d="M148 394c0 -8 -3.99902 -10.8311 -11.999 -8.49805s-15.667 9.16602 -23 20.499c-8 12.667 -12.5 29.334 -13.5 50.001s6.5 45.667 22.5 75c13.333 23.333 32.833 43 58.5 59s52.5 27.667 80.5 35c15.333 4 30.333 5.66699 45 5s28.167 -3.16699 40.5 -7.5
s22.833 -10.5 31.5 -18.5s14.667 -18 18 -30c6.66699 -25.333 5 -51.5 -5 -78.5s-24.5 -54.5 -43.5 -82.5s-40.667 -56 -65 -84l-69.5 -81c-22 -26 -41.167 -50.833 -57.5 -74.5s-25.833 -45.167 -28.5 -64.5c-1.33301 -6.66699 -5.16602 -9.33398 -11.499 -8.00098
s-12.5 5.33301 -18.5 12s-9.83301 15 -11.5 25s2.16602 20.333 11.499 31l27.5 32.5c14.333 17 30.833 37.667 49.5 62l58 79.5c20 28.667 38 57 54 85s28.5 54.333 37.5 79s11.5 44.667 7.5 60c-4 13.333 -11.167 22.666 -21.5 27.999s-22.333 6.5 -36 3.5
s-27.834 -9.83301 -42.501 -20.5s-28.167 -24.667 -40.5 -42s-22.5 -38 -30.5 -62s-12 -50.667 -12 -80zM87.001 86.002c10.667 0 18.0029 -3.16699 22.0029 -9.5s5.5 -13.833 4.5 -22.5s-3.83301 -17.5 -8.5 -26.5s-10.334 -16 -17.001 -21s-13.834 -7 -21.501 -6
s-14.5 6.83301 -20.5 17.5c-2.66699 4.66699 -3.5 10.834 -2.5 18.501s3.5 15.167 7.5 22.5s9.16699 13.666 15.5 18.999s13.166 8 20.499 8z" />
    <glyph glyph-name="at" unicode="@" horiz-adv-x="833" 
d="M394 472c40 0 72.498 -8.00293 97.498 -24.0029s43.5 -36.5 55.5 -61.5s18.167 -52.333 18.5 -82s-4.16699 -58.5 -13.5 -86.5s-22.666 -53.167 -39.999 -75.5s-37.333 -38.166 -60 -47.499c-20 -8 -36 -9 -48 -3s-21 15.333 -27 28s-9.33301 27 -10 43
s0.666016 30.333 3.99902 43c-12 -15.333 -24 -29.666 -36 -42.999s-24 -18.666 -36 -15.999c-18 3.33301 -29.833 12.833 -35.5 28.5s-7 33.167 -4 52.5s9.83301 38.5 20.5 57.5s23.167 34.333 37.5 46s29.833 17.334 46.5 17.001s32.667 -10.166 48 -29.499
c5.33301 13.333 10.166 21.5 14.499 24.5s11.5 1.83301 21.5 -3.5c6.66699 -4 10.5 -8 11.5 -12s0.333008 -9 -2 -15s-5.83301 -13.5 -10.5 -22.5s-9.66699 -20.167 -15 -33.5c-14.667 -44.667 -21.667 -77.167 -21 -97.5s5.16699 -31.833 13.5 -34.5s19 2.16602 32 14.499
s24.5 28.833 34.5 49.5c13.333 26.667 21.5 54.167 24.5 82.5s1 54.166 -6 77.499s-18.667 42.5 -35 57.5s-37.166 22.5 -62.499 22.5c-36 0 -69 -9.33301 -99 -28s-55.667 -42 -77 -70s-37.5 -58.167 -48.5 -90.5s-15.5 -62.5 -13.5 -90.5s11.333 -51.333 28 -70
s42 -28 76 -28c13.333 0 24.833 2 34.5 6s17.334 7.33301 23.001 10s9.16699 3.33398 10.5 2.00098s0.666016 -7.33301 -2.00098 -18c-5.33301 -21.333 -15.666 -35.333 -30.999 -42s-32.333 -8.83398 -51 -6.50098s-37 7.83301 -55 16.5s-32.333 18.334 -43 29.001
c-21.333 20.667 -35.166 45.667 -41.499 75s-6.83301 59.666 -1.5 90.999s16 62.333 32 93s36 58.167 60 82.5s51.5 44 82.5 59s63.833 22.5 98.5 22.5zM311.998 170.997c4.66699 0 11.4971 5.5 20.4971 16.5s18.167 23.5 27.5 37.5s18 28 26 42s13.333 24 16 30
c-3.33301 5.33301 -8.16602 9 -14.499 11s-11.166 1.66699 -14.499 -1c-6 -3.33301 -13.333 -12.333 -22 -27s-16.667 -30 -24 -46s-12.666 -30.5 -15.999 -43.5s-3 -19.5 1 -19.5z" />
    <glyph glyph-name="A" unicode="A" horiz-adv-x="790" 
d="M620 59l-31.998 -116.005c-0.666992 -2 -5.66699 -2.66699 -15 -2s-19.166 3 -29.499 7s-19.333 9.5 -27 16.5s-9.83398 16.167 -6.50098 27.5l24 84c-23.333 6.66699 -46.5 14.334 -69.5 23.001l-68.5 27c-11.333 -9.33301 -24.5 -23.5 -39.5 -42.5s-31.333 -37 -49 -54
s-36 -29.5 -55 -37.5s-38.5 -5.66699 -58.5 7c22 15.333 46 35.5 72 60.5s53 52.833 81 83.5c-55.333 18 -101.5 27.167 -138.5 27.5s-67.833 -4.66699 -92.5 -15s-44.167 -24.5 -58.5 -42.5s-26.5 -36.667 -36.5 -56c9.33301 42.667 26.166 74.667 50.499 96
s52.666 35 84.999 41s67 5.83301 104 -0.5s73.167 -15.166 108.5 -26.499l75.5 88.5l72.5 89l65 83l53 69.5c-17.333 -1.33301 -35.166 -7.66602 -53.499 -18.999s-34.833 -24.833 -49.5 -40.5s-26.334 -31.834 -35.001 -48.501s-12 -30.334 -10 -41.001
c-8 30 -7.66699 57.333 1 82s22.667 45.834 42 63.501s42.666 31.834 69.999 42.501s55.666 17.334 84.999 20.001c6 0.666992 14 0 24 -2s18.833 -6.66699 26.5 -14s12.834 -18.166 15.501 -32.499s0 -33.833 -8 -58.5l-26 -77l-31 -93l-31 -98.5l-27 -92.5
c21.333 -3.33301 39.333 -4.16602 54 -2.49902s24.334 5.16699 29.001 10.5c-3.33301 -9.33301 -8 -16.833 -14 -22.5s-13 -9.83398 -21 -12.501s-16.833 -4 -26.5 -4s-19.5 0.666992 -29.5 2zM417.002 149.995c21.333 -8.66699 42.5 -16.833 63.5 -24.5
s42.167 -14.5 63.5 -20.5l110 349l-35.5 -48l-55 -73.5l-69 -89z" />
    <glyph glyph-name="B" unicode="B" horiz-adv-x="421" 
d="M-51 163c4 -30.667 14.998 -58.1689 32.998 -82.502s40.667 -41.5 68 -51.5c26 81.333 53.333 161.833 82 241.5s59.667 157.167 93 232.5c-24 -6 -44.5 -16 -61.5 -30s-30.667 -29.667 -41 -47s-17.666 -35 -21.999 -53s-6.5 -34 -6.5 -48
c-8 25.333 -10.833 48.5 -8.5 69.5s8.33301 40 18 57s22 31.667 37 44s31.167 22.5 48.5 30.5s35 13.667 53 17s34.333 4.33301 49 3c34 -2 59.5 -12.667 76.5 -32s26 -42 27 -68s-5.66699 -52.5 -20 -79.5s-35.5 -49.5 -63.5 -67.5c20.667 -13.333 35.5 -30.333 44.5 -51
s13.167 -42.667 12.5 -66s-5.66699 -46.833 -15 -70.5s-21.666 -45.667 -36.999 -66s-33.5 -37.666 -54.5 -51.999s-43.5 -23.5 -67.5 -27.5c-28 -4.66699 -56.5 -5.5 -85.5 -2.5s-55.167 11.833 -78.5 26.5s-42.5 35.834 -57.5 63.501s-22.833 64.167 -23.5 109.5z
M129.998 22.998c18.667 -2 37.166 2 55.499 12s34.5 23.5 48.5 40.5s25.5 36 34.5 57s13.833 41.333 14.5 61s-3.66602 37.167 -12.999 52.5s-25 26 -47 32zM244.997 333.998c30 2.66699 52.668 12.502 68.001 29.502s25.166 35.667 29.499 56s3.83301 39.166 -1.5 56.499
s-14 27.666 -26 30.999c-1.33301 0 -5.33301 -8.16699 -12 -24.5l-22 -55.5l-22.5 -59c-7 -18.667 -11.5 -30 -13.5 -34z" />
    <glyph glyph-name="C" unicode="C" horiz-adv-x="352" 
d="M245 270c14.667 8.66699 28 20.333 40 35s22.333 30.334 31 47.001s15.5 33.334 20.5 50.001s7.5 31.667 7.5 45s-2.5 24 -7.5 32s-13.167 11.667 -24.5 11c-7.33301 -0.666992 -16.666 -7.16699 -27.999 -19.5s-23.333 -28.666 -36 -48.999
s-25.334 -43.666 -38.001 -69.999s-24 -53.5 -34 -81.5s-18.5 -55.833 -25.5 -83.5s-11 -53.167 -12 -76.5s1.5 -43.666 7.5 -60.999s16.667 -29.333 32 -36c21.333 -9.33301 47.666 -3.83301 78.999 16.5s63 55.166 95 104.499c2 3.33301 4.5 5.16602 7.5 5.49902
s5.83301 -0.333984 8.5 -2.00098s4.5 -4.33398 5.5 -8.00098s0.166992 -7.83398 -2.5 -12.501c-10 -18 -22.833 -36.333 -38.5 -55s-32.834 -35.5 -51.501 -50.5s-38.5 -27.167 -59.5 -36.5s-42.5 -13.333 -64.5 -12c-31.333 1.33301 -55.333 11.166 -72 29.499
s-27.5 42 -32.5 71s-5.16699 61.667 -0.5 98s13.167 73.333 25.5 111s27.333 74.334 45 110.001s36.834 67.167 57.501 94.5s42 49 64 65s43.333 23.333 64 22c22.667 -2 40.5 -9 53.5 -21s21.5 -27.167 25.5 -45.5s3.66699 -38.5 -1 -60.5s-13.167 -43.667 -25.5 -65
s-28.166 -41 -47.499 -59s-42 -32.333 -68 -43z" />
    <glyph glyph-name="D" unicode="D" horiz-adv-x="470" 
d="M238 549c48.667 13.333 88 12.168 118 -3.49902s51.833 -40.167 65.5 -73.5s19.667 -72.833 18 -118.5s-9.5 -91.834 -23.5 -138.501s-33.667 -91 -59 -133s-54.833 -76.333 -88.5 -103s-71 -42.834 -112 -48.501s-84.167 4.83301 -129.5 31.5
c-14 8 -26.333 17.833 -37 29.5s-18.5 25.834 -23.5 42.501s-6.66699 35.667 -5 57s8.16699 46 19.5 74c-3.33301 -16.667 -4.66602 -33.5 -3.99902 -50.5s3.33398 -33 8.00098 -48s11.5 -28.5 20.5 -40.5s20.167 -21.333 33.5 -28l41 128.5l45.5 132.5l48 129.5l48.5 120.5
c-22 -7.33301 -40.833 -18 -56.5 -32s-28.334 -29 -38.001 -45s-16.167 -32.333 -19.5 -49s-3.66602 -31.667 -0.999023 -45c-8.66699 31.333 -10.334 59 -5.00098 83s14.833 44.5 28.5 61.5s30.167 31 49.5 42s38.666 19.167 57.999 24.5zM122 -24.998
c22.667 -4 45 0.330078 67 12.9971s42.5 30.834 61.5 54.501s36.5 51.5 52.5 83.5s29.667 65 41 99s19.833 67.833 25.5 101.5s8 63.834 7 90.501s-5.83301 48.834 -14.5 66.501s-22 27.5 -40 29.5z" />
    <glyph glyph-name="E" unicode="E" horiz-adv-x="462" 
d="M347 332c10 7.33301 20.6699 19.4971 32.0029 36.4971s19.833 34.333 25.5 52s6.5 33.167 2.5 46.5s-16 20 -36 20s-40.833 -4.5 -62.5 -13.5s-41 -21.5 -58 -37.5s-29.833 -34.667 -38.5 -56s-10 -44.333 -4 -69c4 -13.333 12 -23.333 24 -30
c1.33301 0 6.16602 1 14.499 3s18.333 3.83301 30 5.5s24 2.83398 37 3.50098s25 -0.166016 36 -2.49902s19.833 -6.66602 26.5 -12.999s9.66699 -15.5 9 -27.5c0 -5.33301 -1.16699 -10.833 -3.5 -16.5s-5.16602 -10.5 -8.49902 -14.5s-6.83301 -6.66699 -10.5 -8
s-7.16699 0 -10.5 4c-2 2.66699 -7.83301 4.33398 -17.5 5.00098s-21.334 0 -35.001 -2s-28.667 -5.5 -45 -10.5s-32.333 -12.167 -48 -21.5s-30.334 -20.833 -44.001 -34.5s-24.5 -29.834 -32.5 -48.501c-12 -28.667 -14.5 -51.334 -7.5 -68.001s20 -27.834 39 -33.501
s42.167 -6.66699 69.5 -3s55.333 11.5 84 23.5s56.167 27.5 82.5 46.5s47.833 40.833 64.5 65.5c2.66699 4 6 6.33301 10 7s7.5 0.166992 10.5 -1.5s5 -4.33398 6 -8.00098s0.166992 -7.83398 -2.5 -12.501c-13.333 -23.333 -31.333 -45.166 -54 -65.499
s-47.5 -38.333 -74.5 -54s-55 -28 -84 -37s-55.833 -13.833 -80.5 -14.5c-29.333 -0.666992 -55.833 3.83301 -79.5 13.5s-42.5 23.167 -56.5 40.5s-22.333 38 -25 62s3 50.667 17 80c12.667 26.667 30.334 50 53.001 70s48 36.333 76 49
c-28.667 18.667 -46 40.834 -52 66.501s-3.83301 51.834 6.5 78.501s26.666 51.834 48.999 75.501s47.166 42.667 74.499 57s55.5 22.5 84.5 24.5s55.167 -5.33301 78.5 -22c12.667 -9.33301 21.167 -20.666 25.5 -33.999s5.66602 -27.5 3.99902 -42.5s-5.66699 -30 -12 -45
s-14.333 -28.833 -24 -41.5s-20.167 -23.334 -31.5 -32.001s-22.666 -14 -33.999 -16z" />
    <glyph glyph-name="F" unicode="F" horiz-adv-x="315" 
d="M367 328c1.33301 -10 -0.999023 -18.6699 -6.99902 -26.0029s-12.333 -7 -19 1c-1.33301 1.33301 -5.66602 2.16602 -12.999 2.49902s-16.5 0.166016 -27.5 -0.500977s-22.667 -1.66699 -35 -3s-24.166 -3 -35.499 -5l-23.5 -66l-27.5 -77.5l-33.5 -96l-41.5 -122.5
c-0.666992 -2 -5.16699 -2.66699 -13.5 -2s-17 3 -26 7s-16.833 9.5 -23.5 16.5s-8.33398 16.167 -5.00098 27.5c13.333 48 27.833 95 43.5 141s32.167 91.667 49.5 137c-13.333 -7.33301 -25.5 -15.666 -36.5 -24.999s-20.167 -20.333 -27.5 -33
c-0.666992 30.667 7.66602 56.167 24.999 76.5s38.666 36.166 63.999 47.499l28 69l28 69c-19.333 -7.33301 -37.5 -16.833 -54.5 -28.5s-30.833 -25.5 -41.5 -41.5c-0.666992 26 6.83301 49.333 22.5 70s35.334 38 59.001 52s49.167 24.833 76.5 32.5
s52.666 11.834 75.999 12.501s42.5 -2.16602 57.5 -8.49902s22.167 -16.166 21.5 -29.499c-0.666992 -5.33301 -2.16699 -10.833 -4.5 -16.5s-5.33301 -10.5 -9 -14.5s-7.5 -6.66699 -11.5 -8s-8 0 -12 4c-2.66699 3.33301 -12.667 5 -30 5s-37.666 -1.66699 -60.999 -5
l-49 -138c12 0.666992 24.667 0.833984 38 0.500977s25.666 -1.5 36.999 -3.5s20.833 -4.66699 28.5 -8s12.167 -7.66602 13.5 -12.999z" />
    <glyph glyph-name="G" unicode="G" horiz-adv-x="408" 
d="M218 41l16.0039 46.9971c-13.333 -8 -27.833 -14.333 -43.5 -19s-32.5 -7 -50.5 -7c-25.333 0 -45.5 7 -60.5 21s-25.5 32.333 -31.5 55s-8 48.5 -6 77.5s7.33301 58.667 16 89s20.334 60 35.001 89s31.334 55.167 50.001 78.5s39 42.166 61 56.499
s44.667 21.833 68 22.5c25.333 0.666992 46.333 -4.16602 63 -14.499s29.167 -24 37.5 -41s12.666 -36 12.999 -57s-2.83398 -42 -9.50098 -63s-16.5 -40.667 -29.5 -59s-28.833 -33.166 -47.5 -44.499c12 18 21 39.667 27 65s8.33301 49.5 7 72.5
s-6.83301 42.167 -16.5 57.5s-23.834 22.333 -42.501 21c-16 -1.33301 -32.167 -11.166 -48.5 -29.499s-31.5 -41 -45.5 -68s-26.5 -56.5 -37.5 -88.5s-18.667 -62.167 -23 -90.5s-5 -53 -2 -74s11.5 -33.833 25.5 -38.5c16 -6 35.167 -3.5 57.5 7.5
s42.166 27.833 59.499 50.5c14 36 25 63.333 33 82c6 8 13.667 14.333 23 19s19 7.83398 29 9.50098s19.167 1.5 27.5 -0.5s14.5 -6 18.5 -12l-37 -104.5l-38.5 -106l-38 -96.5c-12.333 -30 -23.833 -55.333 -34.5 -76c-24.667 -50 -50.167 -87.333 -76.5 -112
s-51.166 -39.667 -74.499 -45s-44.5 -2.66602 -63.5 8.00098s-33.5 25.834 -43.5 45.501s-14.833 42.5 -14.5 68.5s8 51.833 23 77.5s38.5 49.334 70.5 71.001s74.333 38.5 127 50.5c-45.333 -22.667 -80.333 -47.834 -105 -75.501s-41.5 -54.334 -50.5 -80.001
s-11.333 -47.834 -7 -66.501s12.666 -30 24.999 -34s27.666 1.33301 45.999 16s37.166 43 56.499 85l10.5 25l13 31c5 12 10.5 26.333 16.5 43z" />
    <glyph glyph-name="H" unicode="H" horiz-adv-x="535" 
d="M482 123c-12 -15.333 -26.833 -24.5 -44.5 -27.5s-34.834 -2.83301 -51.501 0.5l-48 -146c-0.666992 -2 -5.66699 -2.66699 -15 -2s-19 3 -29 7s-18.833 9.5 -26.5 16.5s-9.83398 16.167 -6.50098 27.5l18.5 61.5l19.5 60.5l-119 45l-36.5 -108l-35.5 -108
c-0.666992 -2 -5.66699 -2.5 -15 -1.5s-19.333 3.33301 -30 7s-19.5 9 -26.5 16s-8.5 16.167 -4.5 27.5l36 95.5l35 95.5c-50.667 16 -93.667 23 -129 21s-65 -8.83301 -89 -20.5s-43.333 -26 -58 -43s-26 -32.833 -34 -47.5c8.66699 40 24 70.667 46 92
s47.833 35.5 77.5 42.5s61.667 8.5 96 4.5s68.166 -11 101.499 -21l53 146.5l51 135.5c-16.667 -4 -31.834 -11.833 -45.501 -23.5s-25.167 -24.834 -34.5 -39.501s-16.166 -30 -20.499 -46s-5.16602 -30 -2.49902 -42c-8 30.667 -9.66699 57.667 -5 81s13.5 43.5 26.5 60.5
s28.833 31 47.5 42s37.667 19.5 57 25.5c30.667 7.33301 57.334 7.33301 80.001 0l-18.5 -53l-32.5 -88.5l-40 -109l-41 -114.5l120 -44l71.5 186.5l70.5 186.5l11.5 24c3.66699 7.33301 8.83398 12.833 15.501 16.5s15.667 5.33398 27 5.00098s26.333 -3.5 45 -9.5
l-155 -434c19.333 -4 36.333 -6 51 -6s26.667 1.66699 36 5z" />
    <glyph glyph-name="I" unicode="I" horiz-adv-x="472" 
d="M415 508c-26.667 -9.33301 -53.3301 -22.3359 -79.9971 -39.0029s-49.834 -36.5 -69.501 -59.5s-34 -48.5 -43 -76.5s-9.5 -57.333 -1.5 -88c1.33301 -4.66699 0.833008 -8.5 -1.5 -11.5s-5.16602 -5 -8.49902 -6s-6.83301 -0.833008 -10.5 0.5s-6.16699 4.33301 -7.5 9
c-8.66699 31.333 -9.33398 61.5 -2.00098 90.5s20.166 55.833 38.499 80.5s40.166 46.834 65.499 66.501s51.666 35.5 78.999 47.5s53.833 20.167 79.5 24.5s47.834 3.5 66.501 -2.5l-30 -90.5c-12 -36.333 -26 -75.333 -42 -117s-34 -84.167 -54 -127.5
s-42 -83.666 -66 -120.999c-14 -20.667 -28.5 -40.5 -43.5 -59.5s-31.167 -35.667 -48.5 -50s-36.166 -25.666 -56.499 -33.999s-42.833 -12.5 -67.5 -12.5c-19.333 0 -35.333 4.5 -48 13.5s-21.667 20.167 -27 33.5c24.667 -9.33301 48.5 -10 71.5 -2
s44.833 22.333 65.5 43s40.167 45.834 58.5 75.501s35.5 61.167 51.5 94.5s30.833 67.166 44.5 101.499l37 95.5l29 76.5c8.33301 21.667 15.166 36.5 20.499 44.5z" />
    <glyph glyph-name="J" unicode="J" horiz-adv-x="516" 
d="M200 47c27.333 41.333 52.3281 84.501 74.9951 129.501s42.834 87.5 60.501 127.5s32.334 75.333 44.001 106l25.5 66c-26.667 -8.66699 -52 -21.334 -76 -38.001s-44.833 -35.334 -62.5 -56.001s-30.667 -42.5 -39 -65.5s-10.166 -45.5 -5.49902 -67.5
c0.666992 -4.66699 -1.66602 -8.5 -6.99902 -11.5s-11.5 -4.83301 -18.5 -5.5s-13.667 -0.166992 -20 1.5s-10.166 4.83398 -11.499 9.50098c-8.66699 31.333 -8.66699 61.5 0 90.5s23.167 55.833 43.5 80.5s44.5 46.5 72.5 65.5s56.667 34.667 86 47
s57.666 20.5 84.999 24.5s50.333 3 69 -3l-36.5 -109c-15 -44.667 -33.167 -92.5 -54.5 -143.5s-46.166 -102.333 -74.499 -154s-60.833 -97.834 -97.5 -138.501c-21.333 -24 -44 -41.167 -68 -51.5s-50 -15.5 -78 -15.5c-16 0 -29.667 3.16699 -41 9.5
s-20.333 14.5 -27 24.5s-11 21 -13 33s-1.33301 24 2 36c0.666992 6 3.66699 10.5 9 13.5s10.833 4.33301 16.5 4s11 -2.66602 16 -6.99902s7.5 -10.833 7.5 -19.5c-2.66699 -13.333 -2 -26 2 -38s11 -19.5 21 -22.5s22.833 0.833008 38.5 11.5s34.5 32.667 56.5 66z" />
    <glyph glyph-name="K" unicode="K" horiz-adv-x="527" 
d="M248 612c18 5.33301 34.3311 7.83789 48.998 7.50488s28.334 -2.5 41.001 -6.5l-103 -271c22 11.333 46 29 72 53s50.333 49.333 73 76s41.5 52.167 56.5 76.5s22.5 42.166 22.5 53.499c0 7.33301 2.66699 10.666 8 9.99902s11 -3.83398 17 -9.50098
s11.667 -12.834 17 -21.501s8 -17 8 -25c0 -22 -9.16699 -47.333 -27.5 -76s-41.833 -56.5 -70.5 -83.5s-60 -50.833 -94 -71.5s-66.333 -34 -97 -40c8 -19.333 20.333 -43 37 -71s35.667 -54.333 57 -79s44.166 -44.5 68.499 -59.5s48.833 -19.167 73.5 -12.5l23 10
c5.33301 0 7.33301 -2.66699 6 -8s-5 -11.666 -11 -18.999s-14 -14.666 -24 -21.999s-21.333 -12.833 -34 -16.5s-26 -4.5 -40 -2.5s-28 8.33301 -42 19c-15.333 11.333 -29.833 25.333 -43.5 42s-26.5 34.334 -38.5 53.001s-23 37.834 -33 57.501s-18.333 38.5 -25 56.5
l-95 -262c-2.66699 -6.66699 -8.16699 -9.33398 -16.5 -8.00098s-16.666 5.16602 -24.999 11.499s-15.5 14.333 -21.5 24s-8 19.5 -6 29.5c2 10.667 6.66699 27.5 14 50.5s16.333 49.667 27 80l36 99l40.5 106.5l40 102.5l35.5 88.5
c-16 -4.66699 -30.833 -12.834 -44.5 -24.501s-25 -24.834 -34 -39.501s-15.667 -29.834 -20 -45.501s-5.16602 -29.5 -2.49902 -41.5c-8 30.667 -9.66699 57.667 -5 81s13.5 43.5 26.5 60.5s28.833 31 47.5 42s37.667 19.5 57 25.5z" />
    <glyph glyph-name="L" unicode="L" horiz-adv-x="402" 
d="M77 55l173 463.999c-16.667 -6 -32 -15 -46 -27s-25.667 -25.333 -35 -40s-16.333 -29.5 -21 -44.5s-5.66699 -28.5 -3 -40.5c-8 30.667 -9.66699 57.667 -5 81s13.5 43.5 26.5 60.5s28.833 31 47.5 42s37.667 19.5 57 25.5c26 -12 50.333 -35.667 73 -71l-41 -112.5
l-45 -120l-45.5 -118.5l-41.5 -108c21.333 -0.666992 42.333 -0.666992 63 0s39.5 2 56.5 4s31.833 4.66699 44.5 8s21.667 7.33301 27 12c6 4.66699 10.333 4.83398 13 0.500977s4 -10.666 4 -18.999s-1.5 -17.333 -4.5 -27s-7.83301 -17.167 -14.5 -22.5
c-10 -8 -26.333 -14.333 -49 -19s-48.5 -7.5 -77.5 -8.5s-59.333 0.333008 -91 4s-61.167 10.167 -88.5 19.5c-4 1.33301 -7.66699 3 -11 5s-5.5 5.16699 -6.5 9.5s-0.166992 10.166 2.5 17.499s8 17.333 16 30z" />
    <glyph glyph-name="M" unicode="M" horiz-adv-x="755" 
d="M193 220l30.001 53.4932l42.5 74.5c15.667 26.667 32.5 53.334 50.5 80.001s36.333 49.834 55 69.501s37 34.334 55 44.001s35.333 10.834 52 3.50098c26.667 -11.333 43.334 -28.833 50.001 -52.5s7 -50.5 1 -80.5c14 20.667 28.333 40.334 43 59.001
s29.5 34.5 44.5 47.5s29.667 22.167 44 27.5s28.166 5 41.499 -1c24 -10.667 39.5 -27.334 46.5 -50.001s8.5 -49.167 4.5 -79.5s-12.333 -63.333 -25 -99s-26.334 -71.5 -41.001 -107.5l-43.5 -105.5c-14.333 -34.333 -25.666 -65.333 -33.999 -93
s-11.833 -50.834 -10.5 -69.501s10 -30.667 26 -36c-32.667 0 -56 9 -70 27s-21.833 40.5 -23.5 67.5s0.833008 55.833 7.5 86.5s14 58.667 22 84c2 6.66699 5.66699 17 11 31l18.5 48l22 57.5l22 60.5l19 56c5.66699 17.333 10.167 32.333 13.5 45
c0.666992 2.66699 1.33398 6 2.00098 10s1 8.16699 1 12.5s-0.833008 8 -2.5 11s-4.5 4.83301 -8.5 5.5c-6.66699 0.666992 -15 -3.83301 -25 -13.5s-21 -22.5 -33 -38.5s-24.333 -34 -37 -54l-37.5 -60.5l-34.5 -58c-10.667 -18.333 -19.334 -33.833 -26.001 -46.5v1
l-38 -84.5c-12 -27 -21.167 -51.5 -27.5 -73.5s-8.33301 -40.5 -6 -55.5s11.166 -24.833 26.499 -29.5c-32.667 0 -57 4.33301 -73 13s-26.167 21 -30.5 37s-4.16602 34.667 0.500977 56s11 44.666 19 69.999c2 6.66699 5.66699 17 11 31l18.5 48l22 57.5l22 60.5l19 56
c5.66699 17.333 10.167 32.333 13.5 45c0.666992 2.66699 1.33398 6 2.00098 10s1 8.16699 1 12.5s-0.833008 8 -2.5 11s-4.5 4.83301 -8.5 5.5c-7.33301 0.666992 -17.333 -5.66602 -30 -18.999s-26.334 -30.5 -41.001 -51.5s-29.667 -44 -45 -69l-42.5 -71l-33 -58
c-9 -16.333 -14.5 -26.166 -16.5 -29.499l-79 -145l-38 -86c-4 -8 -10.667 -11.833 -20 -11.5s-18.5 3 -27.5 8s-17 11.667 -24 20s-10.5 16.5 -10.5 24.5c0 12 4.5 31 13.5 57s20 55.333 33 88l41 102.5c14.333 35.667 27.166 69.5 38.499 101.5
c1.33301 4.66699 3.83301 11.834 7.5 21.501s7 20.167 10 31.5s5.33301 22.833 7 34.5s1.5 21.667 -0.5 30s-6.16699 14.166 -12.5 17.499s-15.833 3 -28.5 -1c-12 -4 -22.667 -12.5 -32 -25.5s-17.333 -27.5 -24 -43.5s-11.334 -32 -14.001 -48s-3 -29 -1 -39
c-14.667 31.333 -20.5 60 -17.5 86s11.5 48.667 25.5 68s31.5 34.5 52.5 45.5s41.833 17.333 62.5 19s39.334 -2 56.001 -11s27.667 -24.167 33 -45.5c3.33301 -13.333 2.5 -31.666 -2.5 -54.999s-12.167 -47.666 -21.5 -72.999c-11.333 -31.333 -23 -61.666 -35 -90.999
s-20.667 -52.333 -26 -69z" />
    <glyph glyph-name="N" unicode="N" horiz-adv-x="507" 
d="M278 508c2.66699 -10 2.83203 -22.5039 0.499023 -37.5039s-6 -31.5 -11 -49.5s-11 -36.667 -18 -56s-14.167 -38.166 -21.5 -56.499l-20.5 -50.5c-6.33301 -15.333 -11.166 -28 -14.499 -38l30 53.5l42.5 74.5c15.667 26.667 32.5 53.334 50.5 80.001
s36.333 49.834 55 69.501s37 34.334 55 44.001s35.333 10.834 52 3.50098c24 -10.667 39.5 -27.334 46.5 -50.001s8.5 -49.167 4.5 -79.5s-12.333 -63.333 -25 -99s-26.334 -71.5 -41.001 -107.5l-43.5 -105.5c-14.333 -34.333 -25.666 -65.333 -33.999 -93
s-11.833 -50.834 -10.5 -69.501s10 -30.667 26 -36c-32.667 0 -56 9 -70 27s-21.833 40.5 -23.5 67.5s0.833008 55.833 7.5 86.5s14 58.667 22 84c2 6.66699 5.66699 17 11 31l18.5 48l22 57.5l22 60.5l19 56c5.66699 17.333 10.167 32.333 13.5 45
c0.666992 2.66699 1.33398 6 2.00098 10s1 8.16699 1 12.5s-0.833008 8 -2.5 11s-4.5 4.83301 -8.5 5.5c-7.33301 0.666992 -17.333 -5.66602 -30 -18.999s-26.334 -30.5 -41.001 -51.5s-29.667 -44 -45 -69l-42.5 -71l-33 -58c-9 -16.333 -14.5 -26.166 -16.5 -29.499
l-79 -145l-38 -86c-4 -8 -10.667 -11.833 -20 -11.5s-18.5 3 -27.5 8s-17 11.667 -24 20s-10.5 16.5 -10.5 24.5c0 9.33301 3.16699 23.666 9.5 42.999s14.166 41.333 23.499 66l31.5 80.5l34 85.5c11 28 21 55 30 81s15.833 48.667 20.5 68
c4.66699 20 3.83398 36.5 -2.49902 49.5s-18.833 16.167 -37.5 9.5c-12 -4 -22.667 -12.5 -32 -25.5s-17.333 -27.5 -24 -43.5s-11.334 -32 -14.001 -48s-3 -29 -1 -39c-14.667 31.333 -20.5 60 -17.5 86s11.5 48.667 25.5 68s31.5 34.5 52.5 45.5s41.833 17.333 62.5 19
s39.334 -2 56.001 -11s27.667 -24.167 33 -45.5z" />
    <glyph glyph-name="O" unicode="O" horiz-adv-x="529" 
d="M359 551c37.333 0 66.1641 -8.83398 86.4971 -26.501s33.5 -41 39.5 -70s5.83301 -62 -0.5 -99s-17.166 -74.833 -32.499 -113.5s-34.333 -76.5 -57 -113.5s-47.167 -70 -73.5 -99s-54 -52.333 -83 -70s-57.167 -26.5 -84.5 -26.5c-26 0 -47.5 7.5 -64.5 22.5
s-30.167 34.667 -39.5 59s-15.166 52 -17.499 83s-1.66602 62.333 2.00098 94s9.83398 62.334 18.501 92.001s19.167 55.5 31.5 77.5s26.333 38.667 42 50s32.167 14.666 49.5 9.99902c10 14.667 21.667 29.834 35 45.501s27.666 29.667 42.999 42s31.833 22.5 49.5 30.5
s36.167 12 55.5 12zM147.998 -4.00098c20 0 40.1699 7.33301 60.5029 22s39.833 34 58.5 58s36 51.333 52 82s30.167 61.834 42.5 93.501s22.166 62.834 29.499 93.501s11.333 58 12 82s-2.16602 43.333 -8.49902 58s-17.166 22 -32.499 22c-22.667 0 -45 -7.33301 -67 -22
s-42.833 -34 -62.5 -58s-37.834 -51.333 -54.501 -82s-31.167 -61.834 -43.5 -93.501s-21.833 -62.834 -28.5 -93.501s-9.83398 -58 -9.50098 -82s4.66602 -43.333 12.999 -58s21.166 -22 38.499 -22z" />
    <glyph glyph-name="P" unicode="P" horiz-adv-x="518" 
d="M269 579c48.667 12.667 91.168 17.666 127.501 14.999s66.333 -10.667 90 -24s41.167 -30.666 52.5 -51.999s16.333 -44.333 15 -69s-9 -49.5 -23 -74.5s-34.333 -47.667 -61 -68s-59.667 -37.166 -99 -50.499s-85 -20.666 -137 -21.999l-52.5 -147.5
c-17 -49 -35.167 -97.833 -54.5 -146.5c-2.66699 -6.66699 -8.16699 -9.33398 -16.5 -8.00098s-16.666 5 -24.999 11s-15.5 13.833 -21.5 23.5s-8 19.5 -6 29.5c2.66699 14 7.5 31.833 14.5 53.5s14.833 44.167 23.5 67.5l25.5 67.5l20.5 53.5l51 138l56 147
c-16.667 -8 -32.167 -18.333 -46.5 -31s-26.833 -26 -37.5 -40s-18.5 -28.333 -23.5 -43s-6.16699 -28.334 -3.5 -41.001c-8.66699 31.333 -10.334 58.833 -5.00098 82.5s14.833 44.167 28.5 61.5s30.167 31.5 49.5 42.5s38.666 19.167 57.999 24.5zM349.001 543.999
l-40 -110l-57 -152c43.333 1.33301 79.833 9.16602 109.5 23.499s52.667 31.5 69 51.5s26.666 41.667 30.999 65s2.83301 44.333 -4.5 63s-20.166 33.834 -38.499 45.501s-41.5 16.167 -69.5 13.5z" />
    <glyph glyph-name="Q" unicode="Q" horiz-adv-x="627" 
d="M451 565c40.667 0 71.166 -10.3271 91.499 -30.9941s32.666 -47.5 36.999 -80.5s1.5 -70.167 -8.5 -111.5s-24.667 -82.833 -44 -124.5s-42.333 -81.334 -69 -119.001s-55 -69.167 -85 -94.5c20 -8 40.333 -12.833 61 -14.5s41.667 1.66602 63 9.99902
s42.833 23.166 64.5 44.499s43.5 51.333 65.5 90c2.66699 4 6 6.33301 10 7s7.5 0 10.5 -2s5.33301 -4.83301 7 -8.5s1.16699 -7.5 -1.5 -11.5c-26.667 -47.333 -53.834 -83.333 -81.501 -108s-55 -41.5 -82 -50.5s-53.5 -11.333 -79.5 -7s-51 12.166 -75 23.499
c-16.667 -11.333 -31.667 -19.166 -45 -23.499s-28.333 -6.5 -45 -6.5c-41.333 0 -73.166 12.167 -95.499 36.5s-37.166 54.666 -44.499 90.999s-8.16602 75.666 -2.49902 117.999s15.834 81.666 30.501 117.999s33 66.666 55 90.999s45.667 36.5 71 36.5c4 0 7 -1 9 -3
c10 14.667 21.667 29.834 35 45.501s27.666 29.667 42.999 42s31.833 22.5 49.5 30.5s36.167 12 55.5 12zM279.999 20.0059c-14 12.667 -26.332 31.499 -36.999 56.499s-18 54 -22 87s-3.5 68.5 1.5 106.5s15.833 76.667 32.5 116c-16.667 -4.66699 -31 -17.5 -43 -38.5
s-21 -45.5 -27 -73.5s-9 -57.5 -9 -88.5s3.66699 -59.333 11 -85s18.666 -46.167 33.999 -61.5s35 -21.666 59 -18.999zM312 41.0049c22.667 18 44.3311 42.3291 64.998 72.9961s39.167 63.834 55.5 99.501s30 71.667 41 108s18 69.333 21 99s1.5 53.834 -4.5 72.501
s-17.667 28 -35 28c-25.333 0 -49.166 -8.33301 -71.499 -25s-42.166 -38.667 -59.499 -66s-31.333 -58.166 -42 -92.499s-17 -69.333 -19 -105s0.833008 -70.167 8.5 -103.5s21.167 -62.666 40.5 -87.999z" />
    <glyph glyph-name="R" unicode="R" horiz-adv-x="580" 
d="M390 590c54.667 0 97.1699 -8.33008 127.503 -24.9971s50.166 -37.667 59.499 -63s8.83301 -53 -1.5 -83s-28.833 -58 -55.5 -84s-60.667 -48.333 -102 -67s-88 -29.334 -140 -32.001c10 -20.667 23.167 -44.167 39.5 -70.5s34.666 -50.333 54.999 -72
s41.833 -38.834 64.5 -51.501s45.334 -16 68.001 -10l23 10c5.33301 0 7.33301 -2.66699 6 -8s-5 -11.666 -11 -18.999s-14 -14.666 -24 -21.999s-21.333 -12.833 -34 -16.5s-26 -4.5 -40 -2.5s-28 8.33301 -42 19c-14.667 11.333 -29 25.166 -43 41.499
s-27 33.833 -39 52.5s-22.833 37.667 -32.5 57s-17.834 38 -24.501 56l-46.5 -129.5c-15 -43 -31.167 -86.167 -48.5 -129.5c-2.66699 -6.66699 -8 -9.33398 -16 -8.00098s-16.333 5 -25 11s-16 13.833 -22 23.5s-8 19.5 -6 29.5c2.66699 14 7.5 31.833 14.5 53.5
s14.833 44.167 23.5 67.5l25.5 67.5l20.5 53.5l41.5 108l30 79l21 56l14.5 38c-15.333 -8.66699 -29.833 -19 -43.5 -31s-25.334 -24.833 -35.001 -38.5s-17 -27.334 -22 -41.001s-6.16699 -26.5 -3.5 -38.5c-8 40 -7 74 3 102s26 50.667 48 68s48.167 29.833 78.5 37.5
s61.5 11.5 93.5 11.5zM371.003 538.003c-10 -28 -23.334 -63.4971 -40.001 -106.497l-57 -148.5c43.333 1.33301 80.166 8.83301 110.499 22.5s54.333 30.5 72 50.5s29 41.167 34 63.5s3.83301 42.666 -3.5 60.999s-20.666 33.166 -39.999 44.499
s-44.666 15.666 -75.999 12.999z" />
    <glyph glyph-name="S" unicode="S" horiz-adv-x="453" 
d="M40 174c7.33301 -38.667 21.6729 -68.9941 43.0059 -90.9941s44.833 -37.667 70.5 -47s51 -13.333 76 -12s45 6.33301 60 15s22.167 20.167 21.5 34.5s-14 29.166 -40 44.499c-19.333 12 -36.5 24.833 -51.5 38.5s-27 29.167 -36 46.5s-14.333 37 -16 59
s1.16602 47 8.49902 75c9.33301 34.667 23.666 65.334 42.999 92.001s40.833 49 64.5 67s48.167 31.667 73.5 41s48.666 14 69.999 14c20.667 0 37.334 -6.33301 50.001 -19s21.167 -28.834 25.5 -48.501s4.33301 -41.667 0 -66s-13 -48.333 -26 -72
s-30.5 -45.5 -52.5 -65.5s-48.667 -35.333 -80 -46c12 12 23.667 28 35 48s21.333 41.167 30 63.5s15.5 44.166 20.5 65.499s7.16699 39.5 6.5 54.5s-4.83398 25.167 -12.501 30.5s-19.5 3.33301 -35.5 -6c-11.333 -6.66699 -24.333 -17.334 -39 -32.001
s-28.834 -31.5 -42.501 -50.5s-25.5 -39.667 -35.5 -62s-16 -45 -18 -68s1.5 -45.167 10.5 -66.5s25.5 -40.666 49.5 -57.999c28.667 -20.667 47.5 -42.334 56.5 -65.001s10.167 -43.834 3.5 -63.501s-19.667 -37 -39 -52s-43 -25.5 -71 -31.5
c-30.667 -6.66699 -58.667 -7.33398 -84 -2.00098s-47.833 14.5 -67.5 27.5s-36.334 28.5 -50.001 46.5s-23.667 36.833 -30 56.5s-8.83301 38.667 -7.5 57s6.66602 34.166 15.999 47.499z" />
    <glyph glyph-name="T" unicode="T" horiz-adv-x="397" 
d="M81 559c29.333 -5.33301 60.166 -6.16602 92.499 -2.49902s64.833 8.66699 97.5 15l97.5 18.5c32.333 6 63.5 9 93.5 9c32 0 56.167 -3.5 72.5 -10.5s27.333 -15.667 33 -26s7.16699 -21.166 4.5 -32.499s-7 -21.166 -13 -29.499s-12.5 -14.333 -19.5 -18
s-12.167 -2.5 -15.5 3.5c-4.66699 8 -11.667 14.167 -21 18.5s-19.666 7.66602 -30.999 9.99902s-23.666 3.66602 -36.999 3.99902s-26.333 0.166016 -39 -0.500977l-22.5 -59l-26.5 -69.5l-28.5 -75l-28.5 -76.5c-19.333 -50 -37.333 -99.5 -54 -148.5
s-34.667 -98.5 -54 -148.5c-2.66699 -6.66699 -8.16699 -9.33398 -16.5 -8.00098s-16.833 5 -25.5 11s-16 13.833 -22 23.5s-8 19.5 -6 29.5c2.66699 14 7.5 31.833 14.5 53.5s14.833 44.167 23.5 67.5l25.5 67.5l20.5 53.5l51.5 138l51.5 131
c-29.333 -4 -56.833 -8 -82.5 -12s-48.334 -5.16699 -68.001 -3.5s-35.5 7.33398 -47.5 17.001s-18.667 26.167 -20 49.5z" />
    <glyph glyph-name="U" unicode="U" horiz-adv-x="555" 
d="M171 562c32.667 0 56.0029 -8.50684 70.0029 -25.5068s22 -38.333 24 -64s-0.333008 -53 -7 -82s-14.334 -55.5 -23.001 -79.5c-3.33301 -9.33301 -9.83301 -26 -19.5 -50l-31.5 -79l-32.5 -85c-10.333 -28 -17.833 -50.667 -22.5 -68
c-0.666992 -2 -1.33398 -5 -2.00098 -9s-1 -8 -1 -12s0.833008 -7.5 2.5 -10.5s4.5 -4.83301 8.5 -5.5c7.33301 -0.666992 17.333 5.33301 30 18s26.5 28.834 41.5 48.501s30.167 41.334 45.5 65.001l42.5 67.5l33 55l16.5 28l80 138l38 81c4 7.33301 10.667 11 20 11
s18.666 -2.5 27.999 -7.5s17.5 -11.333 24.5 -19s10.5 -15.5 10.5 -23.5c0 -12 -4.66699 -31.5 -14 -58.5s-20.833 -57.5 -34.5 -91.5l-42 -105c-14.333 -36 -26.833 -69.167 -37.5 -99.5s-17.667 -55.5 -21 -75.5s-0.833008 -30.667 7.5 -32s24.333 8.83398 48 30.501
s57.5 58.834 101.5 111.501c2 2.66699 5.16699 4.33398 9.5 5.00098s8 0 11 -2s4.5 -5.5 4.5 -10.5s-3 -11.5 -9 -19.5l-34.5 -42.5c-15 -18.333 -31.667 -36.333 -50 -54s-37.166 -33 -56.499 -46s-37 -19.5 -53 -19.5c-25.333 0 -44.333 4.16699 -57 12.5
s-21 19.5 -25 33.5c-3.33301 14 -1.83301 33.333 4.5 58s14.5 50.5 24.5 77.5s20.5 53.167 31.5 78.5s19.167 45 24.5 59c-8 -12 -18.167 -29 -30.5 -51s-26.333 -45.5 -42 -70.5s-32.667 -50 -51 -75s-36.833 -47 -55.5 -66s-37.167 -33 -55.5 -42
s-35.833 -10.167 -52.5 -3.5c-24 10 -39.5 25.833 -46.5 47.5s-8.5 46.834 -4.5 75.501s12.333 59.834 25 93.501s26.5 67.667 41.5 102l44 100c14.333 32.333 25.666 61.5 33.999 87.5s11.833 48 10.5 66s-10 29.333 -26 34z" />
    <glyph glyph-name="V" unicode="V" horiz-adv-x="434" 
d="M155 550c37.333 3.33301 64.001 -3.16992 80.001 -19.5029s25.333 -37.5 28 -63.5s0.5 -54.167 -6.5 -84.5s-14.833 -57.833 -23.5 -82.5l-14 -33.5l-25.5 -61.5l-29.5 -74c-10 -26 -18.333 -50 -25 -72s-10.5 -40.167 -11.5 -54.5s2.16699 -21.5 9.5 -21.5
c6 0 14 4.33301 24 13s20.5 20 31.5 34l34.5 46c12 16.667 23.167 33 33.5 49l28 44l18.5 30l57 97.5l65 109c22 35.667 43.5 68.167 64.5 97.5s39.5 50.333 55.5 63c4 3.33301 8.16699 4.5 12.5 3.5s7.83301 -3.16699 10.5 -6.5s4 -7.33301 4 -12s-2 -8.66699 -6 -12
c-13.333 -10.667 -29.333 -29.167 -48 -55.5s-38.167 -56 -58.5 -89l-60.5 -101.5l-54 -93l-27.5 -48c-11 -19.333 -23.5 -39.666 -37.5 -60.999s-29 -42.5 -45 -63.5s-32 -39.167 -48 -54.5s-32.167 -26.666 -48.5 -33.999s-31.5 -8 -45.5 -2c-26 10.667 -43 27.5 -51 50.5
s-10 49.5 -6 79.5s12.5 62.5 25.5 97.5s27 70 42 105l44 101.5c14.333 32.667 25.166 61.834 32.499 87.501s9.33301 46.667 6 63s-15 25.833 -35 28.5z" />
    <glyph glyph-name="W" unicode="W" horiz-adv-x="643" 
d="M159 551c32 -0.666992 54.6611 -9.67188 67.9941 -27.0049s20.833 -38.666 22.5 -63.999s-1 -52.5 -8 -81.5s-14.833 -55.167 -23.5 -78.5l-14 -33.5l-25.5 -61.5l-29.5 -74c-10 -26 -18.333 -50 -25 -72s-10.5 -40.167 -11.5 -54.5s2.16699 -21.5 9.5 -21.5
c8 0 18.667 6.66699 32 20s27.666 30.333 42.999 51s31.5 43.834 48.5 69.501s32.833 50.667 47.5 75l40 67.5c12 20.667 21 36.667 27 48l42 78c4 7.33301 10.5 11.5 19.5 12.5s18 -0.333008 27 -4s16.833 -8.66699 23.5 -15s10 -13.5 10 -21.5
c0 -12 -4.16699 -29.667 -12.5 -53s-18.166 -49.166 -29.499 -77.499l-35.5 -87c-12.333 -29.667 -22.666 -56.667 -30.999 -81s-13.5 -44.166 -15.5 -59.499s2 -23 12 -23c12 0 28.333 12.667 49 38s43.5 57.333 68.5 96l79 128.5l81 135
c26.333 43 51.166 81.5 74.499 115.5s43 57.333 59 70c4.66699 3.33301 9.16699 4.5 13.5 3.5s7.83301 -3.16699 10.5 -6.5s4 -7.33301 4 -12s-2 -8.66699 -6 -12c-14 -10.667 -30.333 -29.167 -49 -55.5s-38 -56 -58 -89l-60 -101.5l-54 -93l-28 -48l-37.5 -61
c-13.667 -21.333 -28.5 -42.5 -44.5 -63.5s-32.167 -39.167 -48.5 -54.5s-32.5 -26.666 -48.5 -33.999s-31 -8 -45 -2c-16 6.66699 -28.5 15.834 -37.5 27.501s-15.167 25 -18.5 40s-4.16602 31.5 -2.49902 49.5s5.16699 37 10.5 57c-14 -22.667 -29.5 -45.667 -46.5 -69
s-34.167 -43.833 -51.5 -61.5s-34.666 -30.834 -51.999 -39.501s-33.666 -10 -48.999 -4c-25.333 10.667 -42.166 27 -50.499 49s-10.666 47.5 -6.99902 76.5s11.5 60.333 23.5 94s25.333 67.667 40 102l44.5 100c15 32.333 26.833 61.833 35.5 88.5
s12.834 49.167 12.501 67.5s-7.83301 30.5 -22.5 36.5z" />
    <glyph glyph-name="X" unicode="X" horiz-adv-x="513" 
d="M66 544c22 8.66699 41.8281 10.6709 59.4951 6.00391s33.334 -13.334 47.001 -26.001s25.5 -28.667 35.5 -48s18.5 -39.333 25.5 -60s13 -41 18 -61s9.16699 -37.333 12.5 -52l52 86l49 77.5c15.333 23.667 29.833 44.167 43.5 61.5s25.834 30 36.501 38
c4.66699 3.33301 9.16699 4.5 13.5 3.5s7.83301 -3.16699 10.5 -6.5s4 -7.33301 4 -12s-2 -8.66699 -6 -12c-12 -9.33301 -25.667 -24.5 -41 -45.5s-31.666 -44.833 -48.999 -71.5s-34.666 -55 -51.999 -85l-50 -86l20.5 -106.5c6.33301 -34.333 13.166 -64 20.499 -89
s15.833 -43.833 25.5 -56.5s21.167 -15.667 34.5 -9c11.333 5.33301 28 19.666 50 42.999s51 57 87 101c2 2.66699 5.33301 4.33398 10 5.00098s8.5 -0.166016 11.5 -2.49902s4.5 -6 4.5 -11s-3.33301 -11.5 -10 -19.5l-34.5 -43.5c-15 -19 -31.5 -38.167 -49.5 -57.5
s-36.667 -36 -56 -50s-37.333 -21 -54 -21s-31.5 5.16699 -44.5 15.5s-24.833 24.5 -35.5 42.5s-20 39 -28 63s-15.333 49.333 -22 76l-35.5 -55.5c-12.333 -19 -24.833 -37.333 -37.5 -55s-25.167 -33.834 -37.5 -48.501s-23.833 -26.334 -34.5 -35.001
c-4 -3.33301 -8.33301 -4.33301 -13 -3s-8.5 4 -11.5 8s-4.66699 8.5 -5 13.5s1.5 9.5 5.5 13.5c19.333 15.333 36.333 33.166 51 53.499l42 60.5l30.5 48l32.5 52l-23.5 109.5c-7.66699 36.333 -16.167 70.666 -25.5 102.999s-20.166 61.333 -32.499 87
s-27.166 46.167 -44.499 61.5z" />
    <glyph glyph-name="Y" unicode="Y" horiz-adv-x="429" 
d="M318 299c-6.66699 -10.667 -15.3311 -25.3311 -25.998 -43.998s-22.834 -38.834 -36.501 -60.501s-28.167 -43.334 -43.5 -65.001s-31.166 -40.667 -47.499 -57s-32.5 -28.5 -48.5 -36.5s-31 -9 -45 -3c-20.667 8.66699 -34.167 22 -40.5 40s-7.83301 39 -4.5 63
s10 50.167 20 78.5s21.5 56.833 34.5 85.5l38.5 85c12.667 28 23 53.5 31 76.5s12.667 43 14 60s-3.33398 28.833 -14.001 35.5c22 -6.66699 38 -18 48 -34s15.667 -34.167 17 -54.5s-0.333984 -41.833 -5.00098 -64.5s-10.334 -44 -17.001 -64l-17.5 -43.5l-27 -68l-28 -73
c-9 -24.333 -15.5 -43.833 -19.5 -58.5c-1.33301 -4.66699 -2.33301 -11.167 -3 -19.5s2.66602 -12.833 9.99902 -13.5c6.66699 -0.666992 15.5 4.5 26.5 15.5s22.833 25 35.5 42s25.667 35.833 39 56.5l37 58.5l28.5 47.5c7.66699 13.333 12.5 21.333 14.5 24l69 120l33 70
c4 6 10 9 18 9s16 -2.16699 24 -6.5s15 -9.83301 21 -16.5s9 -13.334 9 -20.001c0 0.666992 -3.5 -9.83301 -10.5 -31.5l-28 -85.5l-40 -119l-47 -132.5c-16.333 -44.333 -32.666 -86.333 -48.999 -126s-31.5 -72.167 -45.5 -97.5
c-26 -47.333 -52.167 -82.666 -78.5 -105.999s-51 -38 -74 -44s-43.667 -4.5 -62 4.5s-32.333 22.5 -42 40.5s-14.334 39.167 -14.001 63.5s7.83301 49 22.5 74s37 49 67 72s69.667 41.833 119 56.5c-43.333 -22.667 -76.666 -48 -99.999 -76s-39 -54.5 -47 -79.5
s-9.66699 -46.667 -5 -65s13.334 -29.333 26.001 -33s28 2 46 17s36.333 43.167 55 84.5c11.333 24.667 23 52.5 35 83.5l36 94.5l34 93l28.5 79l20 53c5 12.667 7.83301 17.667 8.5 15z" />
    <glyph glyph-name="Z" unicode="Z" horiz-adv-x="466" 
d="M62 59c22.667 36 47.835 73.499 75.502 112.499l81 116l73.5 111.5c22.667 36 40.667 69 54 99c-22 -1.33301 -43.167 -3.66602 -63.5 -6.99902s-38.833 -8.5 -55.5 -15.5s-31.167 -15.833 -43.5 -26.5s-20.833 -23.667 -25.5 -39l-3 -25
c-3.33301 -4.66699 -7.5 -5 -12.5 -1s-9.33301 10.333 -13 19s-6 19.167 -7 31.5s0.333008 24.666 4 36.999s10.667 24 21 35s25.166 19.833 44.499 26.5c32 10.667 68.833 17.334 110.5 20.001s82.167 2.66699 121.5 0c8 0 15.667 -0.333008 23 -1s14.333 -2 21 -4
c-8.66699 -25.333 -23.834 -57.5 -45.501 -96.5s-47 -81 -76 -126s-60.333 -91.167 -94 -138.5s-66.5 -91.333 -98.5 -132c25.333 -1.33301 50.5 -1.83301 75.5 -1.5s48.167 2.33301 69.5 6s39.5 9.83398 54.5 18.501s25.167 21 30.5 37l3 25
c3.33301 4.66699 7.33301 5.16699 12 1.5s8.5 -9.66699 11.5 -18s5 -18.333 6 -30s-0.666992 -23.667 -5 -36s-11.833 -23.833 -22.5 -34.5s-25.667 -19.334 -45 -26.001c-18 -6 -40.333 -11 -67 -15s-54.667 -6.16699 -84 -6.5s-58.333 1.5 -87 5.5s-54 11 -76 21z" />
    <glyph glyph-name="bracketleft" unicode="[" horiz-adv-x="482" 
d="M445 532c4 0 6.16699 -2.66895 6.5 -8.00195s-0.5 -11.166 -2.5 -17.499s-5.33301 -12.166 -10 -17.499s-10 -8 -16 -8h-89c0 -3.33301 -4.83301 -16.666 -14.5 -39.999l-36 -86l-48 -110.5l-50 -113.5l-42 -95l-24.5 -54l94 2c4 0 6.16699 -2.66699 6.5 -8
s-0.5 -11 -2.5 -17s-5.33301 -11.667 -10 -17s-10 -8 -16 -8l-144 -2c-5.33301 0 -8.16602 3 -8.49902 9s0.666992 13.667 3 23s5.66602 19.5 9.99902 30.5s8.83301 21.333 13.5 31l12 24.5l6 12l24 53l38 84.5l43.5 99l41.5 97c12.667 30.333 23 56.833 31 79.5
s12 38 12 46c0 4 2 6.83301 6 8.5s9.5 2.66699 16.5 3s14.833 0.166016 23.5 -0.500977s17.667 -1 27 -1z" />
    <glyph glyph-name="backslash" unicode="\" horiz-adv-x="321" 
d="M276 -34c1.33301 -5.33301 0.999023 -10.668 -1.00098 -16.001s-4.66699 -9.66602 -8 -12.999s-6.83301 -5 -10.5 -5s-6.16699 2.33301 -7.5 7c-3.33301 10.667 -10.666 31.334 -21.999 62.001l-40 106l-48 125.5l-46 121.5l-34.5 94c-9 25.333 -13.5 39.333 -13.5 42
c0 4.66699 2.33301 9.5 7 14.5s9.5 9 14.5 12s9.5 4.16699 13.5 3.5s6 -4.33398 6 -11.001z" />
    <glyph glyph-name="bracketright" unicode="]" horiz-adv-x="492" 
d="M44 -68c-4 0 -5.99609 2.67383 -5.99609 8.00684s1.16699 11.166 3.5 17.499s5.66602 12.166 9.99902 17.499s9.16602 8 14.499 8h87c0 3.33301 4.66699 16.666 14 39.999l36 86l48 110.5l50 113l42 94.5l24 54l-91 -1c-4 0 -6 2.66699 -6 8s1.16699 11.166 3.5 17.499
s5.66602 12.166 9.99902 17.499s9.16602 8 14.499 8l145 1c7.33301 0 9.83301 -6.5 7.5 -19.5s-6.66602 -27.333 -12.999 -43s-12.833 -30.334 -19.5 -44.001s-10.334 -21.5 -11.001 -23.5c-5.33301 -10.667 -13.666 -28.334 -24.999 -53.001l-38 -84l-43.5 -98.5
l-41.5 -97.5c-12.667 -30.667 -23 -57.334 -31 -80.001s-12 -37.667 -12 -45c0 -4 -2 -6.83301 -6 -8.5s-9.33301 -2.66699 -16 -3s-14.334 -0.166016 -23.001 0.500977s-18 1 -28 1z" />
    <glyph glyph-name="asciicircum" unicode="^" horiz-adv-x="326" 
d="M77 428c-8 0 -11.002 3 -9.00195 9s6.83301 13.5 14.5 22.5s17.167 18.833 28.5 29.5s22.5 20.5 33.5 29.5s21 16.5 30 22.5s15.167 9 18.5 9c2.66699 0 6.5 -3.16699 11.5 -9.5s10.333 -14.333 16 -24s11.334 -20.167 17.001 -31.5s10.167 -21.833 13.5 -31.5
s5.33301 -17.667 6 -24s-1 -9.5 -5 -9.5c-6 0 -12.667 4.16699 -20 12.5s-14.5 17.5 -21.5 27.5l-19 27.5c-5.66699 8.33301 -9.5 12.5 -11.5 12.5s-7.83301 -3.83301 -17.5 -11.5l-31.5 -25c-11.333 -9 -22.166 -17.167 -32.499 -24.5s-17.5 -11 -21.5 -11z" />
    <glyph glyph-name="underscore" unicode="_" horiz-adv-x="438" 
d="M364 -167c4 0 6.83301 -1.49805 8.5 -4.49805s2.66699 -6.83301 3 -11.5s0.166016 -9.33398 -0.500977 -14.001s-1 -8.33398 -1 -11.001c-32 0 -60 0.166992 -84 0.5l-70 1c-22.667 0.333008 -46 0.5 -70 0.5h-84c-1.33301 0 -2.66602 2 -3.99902 6
s-1.83301 8.33301 -1.5 13s1.83301 9.16699 4.5 13.5s7.66699 6.5 15 6.5h284z" />
    <glyph glyph-name="grave" unicode="`" horiz-adv-x="833" 
d="M383 584c-6 0 -14.499 1.83398 -25.499 5.50098s-21.833 8.33398 -32.5 14.001s-19.834 11.5 -27.501 17.5s-11.5 11.333 -11.5 16c0 7.33301 2.83301 14 8.5 20s11.5 9 17.5 9c2 0 7 -2.83301 15 -8.5l26.5 -19c9.66699 -7 19.334 -13.333 29.001 -19
s17.5 -8.5 23.5 -8.5c2.66699 0 4.16699 -1.33301 4.5 -4s-0.333984 -5.83398 -2.00098 -9.50098s-4.66699 -6.83398 -9 -9.50098s-9.83301 -4 -16.5 -4z" />
    <glyph glyph-name="a" unicode="a" horiz-adv-x="348" 
d="M147 106l-23.4971 -29.501c-7 -9 -14 -16.5 -21 -22.5s-14 -10.333 -21 -13s-14.833 -3 -23.5 -1c-22.667 4.66699 -38.334 15.667 -47.001 33s-12.334 37.666 -11.001 60.999c1.33301 18.667 5.33301 38.167 12 58.5s15.5 39.5 26.5 57.5s23.667 33.5 38 46.5
s29.5 22 45.5 27s32.333 4.83301 49 -0.5s32.667 -18 48 -38c7.33301 18.667 14.166 30.334 20.499 35.001s16.5 3 30.5 -5c9.33301 -6 15.833 -11.833 19.5 -17.5s4.83398 -12.834 3.50098 -21.501s-4.5 -19.334 -9.5 -32.001l-18.5 -47c-1.33301 -4 -4.33301 -11 -9 -21
l-15.5 -34.5c-5.66699 -13 -11.334 -26.833 -17.001 -41.5s-10.334 -28.167 -14.001 -40.5s-6 -22.666 -7 -30.999s0.833008 -13.166 5.5 -14.499c6.66699 -2 17 2.16699 31 12.5s28.333 22.666 43 36.999s28.334 28.5 41.001 42.5l25 28
c3.33301 3.33301 6.83301 4.83301 10.5 4.5s6.66699 -1.66602 9 -3.99902s3.66602 -5.5 3.99902 -9.5s-1.16699 -7.66699 -4.5 -11l-40 -43c-15.333 -16.667 -31.666 -32.667 -48.999 -48s-35 -28.166 -53 -38.499s-35 -14.5 -51 -12.5c-18 2 -30.333 8 -37 18
s-10 21.667 -10 35s2.33301 27.333 7 42s9 27.667 13 39zM77.0029 74.999c6.66699 0 16.501 7.66602 29.501 22.999s26.333 33 40 53s26.167 39.833 37.5 59.5s18.666 33.834 21.999 42.501c-5.33301 7.33301 -12.333 12.5 -21 15.5s-15.667 2.83301 -21 -0.5
c-6 -3.33301 -12.667 -10.333 -20 -21s-15 -23.167 -23 -37.5s-15.5 -29.5 -22.5 -45.5s-12.833 -30.5 -17.5 -43.5s-7.5 -23.833 -8.5 -32.5s0.5 -13 4.5 -13z" />
    <glyph glyph-name="b" unicode="b" horiz-adv-x="331" 
d="M238 558l-44.498 -106.002l-42.5 -107l-44 -114c19.333 30.667 38.666 53.334 57.999 68.001s36.666 23.5 51.999 26.5s28.166 1.16699 38.499 -5.5s16.166 -15.667 17.499 -27c2 -14 0.5 -30.5 -4.5 -49.5s-11.667 -38.333 -20 -58s-17.666 -38.667 -27.999 -57
s-20.166 -33.5 -29.499 -45.5c4 -24 12.167 -36.333 24.5 -37s25.833 4.33301 40.5 15s29 23.5 43 38.5l32 34.5c3.33301 3.33301 6.83301 4.83301 10.5 4.5s6.66699 -1.66602 9 -3.99902s3.66602 -5.5 3.99902 -9.5s-1.16699 -7.66699 -4.5 -11l-46 -49
c-16.667 -17.333 -33.167 -31 -49.5 -41s-32.333 -14 -48 -12s-29.5 14.667 -41.5 38c-15.333 -15.333 -31 -28.166 -47 -38.499s-31.333 -13.5 -46 -9.5c-7.33301 3.33301 -14.166 8.33301 -20.499 15s-10.5 13.667 -12.5 21c-0.666992 -2.66699 -1 -3.66699 -1 -3v3
c0 1.33301 -0.166992 2.5 -0.5 3.5s-0.833008 0.5 -1.5 -1.5c-6 -10.667 -13.667 -18.834 -23 -24.501s-18 -9.16699 -26 -10.5s-14.5 -0.833008 -19.5 1.5s-6.83301 5.83301 -5.5 10.5l38 117l61 185c21.333 62.667 44 124.334 68 185.001
c-19.333 6 -35.833 15.667 -49.5 29s-21.167 30.666 -22.5 51.999c9.33301 -9.33301 22.5 -16.5 39.5 -21.5s35.167 -6.83301 54.5 -5.5h87zM47.002 51.998c13.333 2.66699 27.8311 12.168 43.498 28.501s30.834 35.333 45.501 57s27.5 43.834 38.5 66.501
s18.833 41.667 23.5 57s4.83398 24.833 0.500977 28.5s-14.833 -2.5 -31.5 -18.5c-12.667 -12 -25.334 -27.833 -38.001 -47.5s-24.5 -40.334 -35.5 -62.001s-20.667 -42.334 -29 -62.001s-14.166 -35.5 -17.499 -47.5z" />
    <glyph glyph-name="c" unicode="c" horiz-adv-x="288" 
d="M288 134c2.66699 2.66699 5.66699 3.66602 9 2.99902s6 -2.5 8 -5.5s3.16699 -6.33301 3.5 -10s-1.16699 -6.83398 -4.5 -9.50098c-42 -38 -79 -67.167 -111 -87.5s-63.667 -30.5 -95 -30.5c-18 0 -33.333 4.16699 -46 12.5s-23.167 19.166 -31.5 32.499
s-14.166 28.333 -17.499 45s-4.33301 33.334 -3 50.001c0.666992 4.66699 1.16699 9.16699 1.5 13.5s1.16602 9.16602 2.49902 14.499c4 19.333 10.167 38.5 18.5 57.5s19.166 36.167 32.499 51.5c14 16.667 29.333 29.5 46 38.5s33.167 14.5 49.5 16.5
s31.333 0.333008 45 -5s24.5 -13.666 32.5 -24.999s12.333 -25.666 13 -42.999s-4 -37.666 -14 -60.999c-1.33301 -4 -3.5 -6.33301 -6.5 -7s-5.83301 -0.166992 -8.5 1.5s-4.83398 4 -6.50098 7s-1.5 6.5 0.5 10.5c9.33301 21.333 12.166 38.5 8.49902 51.5
s-10.167 19.833 -19.5 20.5c-14.667 1.33301 -28.667 -3.83398 -42 -15.501s-25.166 -26.334 -35.499 -44.001s-18.666 -37 -24.999 -58s-9.66602 -40.667 -9.99902 -59s2.83398 -33.666 9.50098 -45.999s18.167 -18.666 34.5 -18.999s37.666 7 63.999 22
s58.833 40.833 97.5 77.5z" />
    <glyph glyph-name="d" unicode="d" horiz-adv-x="352" 
d="M421 557l-111.001 -260.001l-104 -259c-1.33301 -4.66699 -2.5 -9.66699 -3.5 -15s2.16699 -9 9.5 -11c4.66699 -1.33301 11 0.333984 19 5.00098s16.667 11 26 19s19 17 29 27l28.5 29.5l23.5 25.5c6.66699 7.33301 11.334 12.666 14.001 15.999
c3.33301 3.33301 6.83301 4.83301 10.5 4.5s6.83398 -1.66602 9.50098 -3.99902s4.16699 -5.5 4.5 -9.5s-1.16699 -7.66699 -4.5 -11l-40.5 -43.5c-15.667 -17 -32.167 -33.333 -49.5 -49s-35 -28.667 -53 -39s-35 -14.5 -51 -12.5c-22.667 2.66699 -37 10.334 -43 23.001
s-8.16699 26.5 -6.5 41.5s5.16699 29.167 10.5 42.5s8.66602 22 9.99902 26c-17.333 -22 -32.166 -39.333 -44.499 -52s-26.833 -17.334 -43.5 -14.001c-24 4 -40.667 15.167 -50 33.5s-13 39.5 -11 63.5c2 27.333 10.167 55.5 24.5 84.5s32.166 52.833 53.499 71.5
s44.666 29.334 69.999 32.001s50.666 -9 75.999 -35l44.5 107.5l43.5 109.5c-19.333 6 -35.666 15.667 -48.999 29s-20.666 30.666 -21.999 51.999c9.33301 -9.33301 22.5 -16.5 39.5 -21.5s35.167 -6.83301 54.5 -5.5zM79.999 70.999
c6.66699 0 16.001 5.99902 28.001 17.999s24.667 27.5 38 46.5s26.166 39.833 38.499 62.5s22.5 44.667 30.5 66c-12.667 17.333 -25.5 24.5 -38.5 21.5s-25.5 -11.667 -37.5 -26s-23 -32.166 -33 -53.499s-17.833 -42 -23.5 -62s-9 -37.167 -10 -51.5s1.5 -21.5 7.5 -21.5z
" />
    <glyph glyph-name="e" unicode="e" horiz-adv-x="290" 
d="M290 134c3.33301 3.33301 6.83398 4.67188 10.501 4.00488s6.83398 -2.5 9.50098 -5.5s4 -6.5 4 -10.5s-1.66699 -7.33301 -5 -10c-22 -20 -41.667 -37 -59 -51s-33.833 -25.5 -49.5 -34.5s-30.667 -15.667 -45 -20s-28.833 -6.5 -43.5 -6.5
c-22 0 -40.333 3.66699 -55 11s-26.5 17.166 -35.5 29.499s-15.167 26.5 -18.5 42.5s-4.33301 33 -3 51c2 22 7.33301 44.167 16 66.5s20.334 42.5 35.001 60.5s31.667 32.667 51 44s40.666 17 63.999 17c18.667 0 34.167 -4.66699 46.5 -14s20.833 -20.833 25.5 -34.5
s5.5 -28.334 2.5 -44.001s-10.333 -29.5 -22 -41.5s-28 -21 -49 -27s-46.5 -6.66699 -76.5 -2c-7.33301 -26 -10.5 -50.833 -9.5 -74.5s8.66699 -39.834 23 -48.501s36.166 -6.33398 65.499 6.99902s68.666 43.666 117.999 90.999zM213.001 224.006
c5.33301 14 4.83301 25.999 -1.5 35.999s-15.5 15 -27.5 15s-25.667 -6.83301 -41 -20.5s-29.333 -37.5 -42 -71.5c8.66699 -1.33301 18.667 -1.66602 30 -0.999023s22.5 2.5 33.5 5.5s20.833 7.33301 29.5 13s15 13.5 19 23.5z" />
    <glyph glyph-name="f" unicode="f" horiz-adv-x="232" 
d="M186 120c-18.667 -0.666992 -37.002 -0.501953 -55.002 0.498047s-35.667 2.5 -53 4.5l-43 -113l-26 -68.5l-15.5 -39l-9.5 -23.5h-79l48 126.5l47 126.5l2 7c-12.667 4 -23.167 8.66699 -31.5 14s-13.166 11.666 -14.499 18.999c13.333 -4.66699 31.333 -8.66699 54 -12
l21.5 56.5l19.5 49.5c-18 2.66699 -32.667 5.83398 -44 9.50098s-20.5 8 -27.5 13s-12.667 10.5 -17 16.5s-7.83301 13 -10.5 21c14 -4 31.833 -7.16699 53.5 -9.5s45.5 -3.66602 71.5 -3.99902s53 0.5 81 2.5s55 5.66699 81 11c10.667 0 17.834 -5.5 21.501 -16.5
s-0.166016 -24.833 -11.499 -41.5c-40 -4 -79.333 -6 -118 -6l-41 -107c7.33301 -0.666992 17 -0.833984 29 -0.500977s22 0.833008 30 1.5c13.333 -1.33301 22.166 -5.66602 26.499 -12.999s7.83301 -15.666 10.5 -24.999z" />
    <glyph glyph-name="g" unicode="g" 
d="M281 -74c-7.33301 4.66699 -17.3359 7.66992 -30.0029 9.00293s-33 1 -61 -1c-5.33301 -11.333 -11 -24.5 -17 -39.5s-13 -30.5 -21 -46.5c-20 -40 -40.5 -69.667 -61.5 -89s-41 -30.833 -60 -34.5s-35.833 -1 -50.5 8s-25.834 21.667 -33.501 38
s-10.834 35.166 -9.50098 56.499s9 42 23 62s34.833 38.333 62.5 55s64.167 29 109.5 37l24 63l12 32c-16.667 -16 -34.167 -29.667 -52.5 -41s-38.166 -16 -59.499 -14c-28 3.33301 -45.667 15.833 -53 37.5s-8.33301 46.834 -3 75.501
c4.66699 22.667 12.834 45.834 24.501 69.501s25.334 45 41.001 64s32.667 34.167 51 45.5s36.5 15.666 54.5 12.999c14.667 -2 27.834 -7.16699 39.501 -15.5s20.167 -18.5 25.5 -30.5l13 38c2 6.66699 6.83301 9.66699 14.5 9s15.5 -3.5 23.5 -8.5s15 -11.167 21 -18.5
s8.33301 -14 7 -20c-7.33301 -28.667 -17.666 -62.834 -30.999 -102.501s-28.666 -81.834 -45.999 -126.501l-27 -67c9.33301 0 22.166 -0.5 38.499 -1.5s30.333 -3.33301 42 -7s18 -9.33398 19 -17.001s-8.83301 -18.5 -29.5 -32.5zM224.997 242.003
c-3.33301 11.333 -7.6709 21.001 -13.0039 29.001s-14.666 11.333 -27.999 10c-11.333 -0.666992 -22.666 -6.33398 -33.999 -17.001s-21.833 -23.834 -31.5 -39.501s-18.167 -32.5 -25.5 -50.5s-12.666 -35.167 -15.999 -51.5s-4.16602 -30.166 -2.49902 -41.499
s6.5 -18 14.5 -20c6 -1.33301 13.5 0.5 22.5 5.5s18 11.333 27 19s17.833 16 26.5 25l22 23.5zM114.992 -66.9961c-38 -6.66699 -67.333 -17.833 -88 -33.5s-35 -32.167 -43 -49.5s-10.167 -33.333 -6.5 -48s10.5 -23.834 20.5 -27.501s22.667 0.333008 38 12
s31 34.834 47 69.501l16 37.5z" />
    <glyph glyph-name="h" unicode="h" horiz-adv-x="355" 
d="M235 558c-18.667 -44.667 -38.002 -94.5 -58.002 -149.5l-68 -182.5c18 26 36 47 54 63s34.833 27 50.5 33s30 6.83301 43 2.5s23.5 -14.166 31.5 -29.499c5.33301 -11.333 7 -25 5 -41s-5.83301 -32.833 -11.5 -50.5s-12.167 -35.5 -19.5 -53.5s-13.5 -34.333 -18.5 -49
s-7.5 -27.167 -7.5 -37.5s4 -16.5 12 -18.5c6.66699 -2 15.334 0.666992 26.001 8s21.167 16.166 31.5 26.499s20.166 20.833 29.499 31.5l20 23c3.33301 3.33301 6.83301 4.83301 10.5 4.5s6.66699 -1.66602 9 -3.99902s3.66602 -5.5 3.99902 -9.5
s-1.16699 -7.66699 -4.5 -11l-35 -38c-12 -13.333 -24.667 -25.666 -38 -36.999s-27.166 -20.5 -41.499 -27.5s-29.5 -9.83301 -45.5 -8.5c-12.667 1.33301 -22.334 4.5 -29.001 9.5s-11.5 10.667 -14.5 17s-4.66699 13.5 -5 21.5s-0.166016 15.667 0.500977 23
c0 4 2 12.333 6 25s8.83301 27.167 14.5 43.5l17.5 52l16 50c4.66699 15 7.83398 27.5 9.50098 37.5s1.16699 15 -1.5 15c-8 0 -18.167 -4.66699 -30.5 -14s-25.166 -21.5 -38.499 -36.5s-26.666 -32 -39.999 -51s-25 -37.833 -35 -56.5l-45 -128
c-2.66699 -8 -8.16699 -10.833 -16.5 -8.5s-16.333 7.66602 -24 15.999s-13.334 18.666 -17.001 30.999s-2.16699 24.5 4.5 36.5l14 48l24.5 77.5l32 94l36.5 101l37 97.5c-19.333 5.33301 -36 14.833 -50 28.5s-21.667 31.167 -23 52.5
c9.33301 -9.33301 22.5 -16.5 39.5 -21.5s35.167 -6.83301 54.5 -5.5h84z" />
    <glyph glyph-name="i" unicode="i" horiz-adv-x="176" 
d="M123 263c-5.33301 -18 -12.8311 -39.002 -22.498 -63.002s-18.167 -47.167 -25.5 -69.5s-12.333 -41.666 -15 -57.999s0.333008 -25.5 9 -27.5c6.66699 -2 15.334 0.666992 26.001 8s21.167 16.166 31.5 26.499s20.166 20.833 29.499 31.5l20 23
c3.33301 3.33301 6.83301 4.83301 10.5 4.5s6.66699 -1.83301 9 -4.5s3.66602 -5.83398 3.99902 -9.50098s-1.16699 -7.5 -4.5 -11.5c-11.333 -11.333 -23 -23.833 -35 -37.5s-24.667 -26.167 -38 -37.5s-27.166 -20.5 -41.499 -27.5s-29.5 -9.5 -45.5 -7.5
c-14.667 1.33301 -25.5 5.83301 -32.5 13.5s-11.5 17.334 -13.5 29.001s-1.83301 25.167 0.5 40.5s5.83301 31.333 10.5 48c5.33301 19.333 12.666 42.833 21.999 70.5s21.333 60.167 36 97.5c9.33301 4 19 6.83301 29 8.5s18.5 1.33398 25.5 -0.999023
s11.667 -7.16602 14 -14.499s1.16602 -18 -3.50098 -32zM147.002 404.998c10 -7.33301 15.5 -16.667 16.5 -28s-1.66699 -21.5 -8 -30.5s-15.5 -15 -27.5 -18s-25.667 0.166992 -41 9.5c-11.333 6.66699 -17.833 16.167 -19.5 28.5s0.5 23.333 6.5 33s15.333 16 28 19
s27.667 -1.5 45 -13.5z" />
    <glyph glyph-name="j" unicode="j" horiz-adv-x="170" 
d="M147 405c10 -7.33301 15.5 -16.667 16.5 -28s-1.66699 -21.5 -8 -30.5s-15.5 -15 -27.5 -18s-25.667 0.166992 -41 9.5c-11.333 6.66699 -17.833 16.167 -19.5 28.5s0.5 23.333 6.5 33s15.333 16 28 19s27.667 -1.5 45 -13.5zM108 -78.001
c-13.333 12 -49.999 15.999 -109.999 11.999c-5.33301 -11.333 -11 -24.5 -17 -39.5s-13 -30.5 -21 -46.5c-20 -40 -40.5 -69.667 -61.5 -89s-41 -30.833 -60 -34.5s-35.833 -1 -50.5 8s-25.834 21.667 -33.501 38s-10.834 35.166 -9.50098 56.499s9 42 23 62
s34.833 38.333 62.5 55s64.167 29 109.5 37l117 337c2 6.66699 7 9.5 15 8.5s16 -4 24 -9s15 -11.167 21 -18.5s8 -13.666 6 -18.999l-18.5 -52.5l-21.5 -62l-27.5 -79l-36.5 -102.5c8 0.666992 20.333 0.833984 37 0.500977s31.834 -2.5 45.501 -6.5s22.5 -10.333 26.5 -19
s-2.66699 -21 -20 -37zM-76.999 -67.002c-38 -6.66699 -67.333 -17.833 -88 -33.5s-35 -32.167 -43 -49.5s-10.167 -33.333 -6.5 -48s10.5 -23.834 20.5 -27.501s22.667 0.333008 38 12s31 34.834 47 69.501l16 37.5z" />
    <glyph glyph-name="k" unicode="k" horiz-adv-x="385" 
d="M234 558l-17.498 -42.0039l-21 -53l-20 -50.5c-6.33301 -15.667 -10.833 -27.5 -13.5 -35.5l-14 -36l-26 -73c-7.33301 -20.667 -12.333 -36.334 -15 -47.001c18 26.667 38 49 60 67s42 28.333 60 31s32.5 -4.16602 43.5 -20.499s14.833 -45.5 11.5 -87.5
c-0.666992 -7.33301 -4.5 -10.666 -11.5 -9.99902s-14.333 3.16699 -22 7.5s-14.667 10 -21 17s-9.5 13.5 -9.5 19.5c0.666992 5.33301 2.16699 10.333 4.5 15s4.16602 8.83398 5.49902 12.501s1.83301 6.5 1.5 8.5s-2.83301 3 -7.5 3c-7.33301 0 -16 -3.33301 -26 -10
s-21 -15.667 -33 -27c4.66699 -5.33301 9.66699 -13.666 15 -24.999s10.333 -27.666 15 -48.999c4 -22 10.5 -42.833 19.5 -62.5s21 -33.5 36 -41.5s33.667 -7.66699 56 1s49.166 30 80.499 64c3.33301 3.33301 6.83301 4.83301 10.5 4.5s6.83398 -1.66602 9.50098 -3.99902
s4 -5.5 4 -9.5s-1.66699 -8 -5 -12c-41.333 -44 -78.5 -72.667 -111.5 -86s-61.667 -15 -86 -5s-44.333 29.667 -60 59s-26.5 65 -32.5 107l-17.5 -26.5c-5.66699 -9 -10.834 -18.167 -15.501 -27.5l-55 -168c-2.66699 -8 -7.66699 -11.167 -15 -9.5s-14.5 6.5 -21.5 14.5
s-12.5 18.167 -16.5 30.5s-4 25.166 0 38.499l27 94l27 85.5l31.5 95.5l34 97.5l34.5 91.5c-19.333 5.33301 -36 14.833 -50 28.5s-21.667 31.167 -23 52.5c9.33301 -9.33301 22.5 -16.5 39.5 -21.5s35.167 -6.83301 54.5 -5.5h86z" />
    <glyph glyph-name="l" unicode="l" horiz-adv-x="184" 
d="M242 560l-80 -208.999l-60.5 -167c-16.333 -47.333 -27.833 -84.833 -34.5 -112.5s-7 -42.167 -1 -43.5c7.33301 -2 16.833 1.5 28.5 10.5s23.334 19.833 35.001 32.5s22.667 25.167 33 37.5l21.5 25.5c3.33301 3.33301 6.83301 4.83301 10.5 4.5
s6.66699 -1.66602 9 -3.99902s3.66602 -5.5 3.99902 -9.5s-1.16699 -7.66699 -4.5 -11c-11.333 -12 -23.333 -25.667 -36 -41s-26.167 -29.833 -40.5 -43.5s-29.166 -25.167 -44.499 -34.5s-31.333 -14 -48 -14c-14 0 -24.667 4.16699 -32 12.5s-11.833 19.666 -13.5 33.999
s-1.33398 30.666 0.999023 48.999s5.83301 37.5 10.5 57.5c4.66699 22 12 48 22 78l33 95l37.5 101l37.5 96c-19.333 5.33301 -36 14.833 -50 28.5s-21.667 31.167 -23 52.5c9.33301 -9.33301 22.5 -16.5 39.5 -21.5s35.167 -6.83301 54.5 -5.5z" />
    <glyph glyph-name="m" unicode="m" horiz-adv-x="549" 
d="M111 233c9.33301 14 19.6582 27.3291 30.9912 39.9961s24 24 38 34c18 12.667 34.333 19.5 49 20.5s27 -1.83301 37 -8.5s17.333 -16.5 22 -29.5s5.66699 -27.5 3 -43.5c1.33301 5.33301 5.5 12.333 12.5 21s15.5 17.167 25.5 25.5s20.833 15.833 32.5 22.5
s23.5 10.834 35.5 12.501s23.333 0 34 -5s19.667 -14.833 27 -29.5c4.66699 -8.66699 6.83398 -18.667 6.50098 -30s-2 -23.166 -5 -35.499s-6.83301 -25.166 -11.5 -38.499l-14 -40c-8 -24.667 -14.333 -46.667 -19 -66c-4.66699 -16.667 -8 -32 -10 -46
s-0.666992 -21.667 4 -23c6.66699 -2 17 2.33301 31 13s28.333 23.167 43 37.5s28.334 28.333 41.001 42s21 22.834 25 27.501c3.33301 3.33301 6.83301 4.83301 10.5 4.5s6.66699 -1.66602 9 -3.99902s3.66602 -5.5 3.99902 -9.5s-1.16699 -7.66699 -4.5 -11l-40 -43
c-15.333 -16.667 -31.666 -32.667 -48.999 -48s-34.833 -28 -52.5 -38s-34.5 -14.333 -50.5 -13c-17.333 2 -29.166 8.83301 -35.499 20.5s-9.16602 26.167 -8.49902 43.5s3.83398 36.166 9.50098 56.499s11.834 40.166 18.501 59.499c6 16 11.667 32.5 17 49.5
s10 32.5 14 46.5s6.5 25.5 7.5 34.5s-0.166992 13.5 -3.5 13.5c-14.667 0 -32.5 -9 -53.5 -27s-40.167 -44 -57.5 -78c-10.667 -20 -19.667 -37.5 -27 -52.5s-11.666 -30.833 -12.999 -47.5c-0.666992 -7.33301 -4.5 -10.666 -11.5 -9.99902s-14.333 3.16699 -22 7.5
s-14.667 10 -21 17s-9.16602 13.167 -8.49902 18.5c0.666992 10.667 4.83398 26 12.501 46l22 59c7 19.333 11.833 35.833 14.5 49.5s-0.666016 19.167 -9.99902 16.5c-11.333 -2.66699 -23.5 -9.66699 -36.5 -21s-25.833 -24.166 -38.5 -38.499
s-23.834 -28.833 -33.501 -43.5s-16.5 -26.334 -20.5 -35.001l-56 -160c-2.66699 -8 -7.66699 -11 -15 -9s-14.5 6.83301 -21.5 14.5s-12.5 17.667 -16.5 30s-4 25.166 0 38.499l8.5 30l9.5 33l16.5 52.5l15 47c5 15 10.333 29.667 16 44l17.5 44.5
c2 6.66699 6.5 9.33398 13.5 8.00098s14 -5 21 -11s13 -13.833 18 -23.5s6.5 -19.5 4.5 -29.5z" />
    <glyph glyph-name="n" unicode="n" horiz-adv-x="383" 
d="M293 242c-6 -28 -12.998 -55.3369 -20.998 -82.0039l-21 -72c-6 -21.333 -10 -38.666 -12 -51.999s-0.333008 -20.666 5 -21.999c6.66699 -2 17 2.33301 31 13s28.167 23.167 42.5 37.5l40.5 42c12.667 13.667 21 22.834 25 27.501c3.33301 3.33301 6.83301 5 10.5 5
s6.66699 -1.33301 9 -4s3.83301 -5.83398 4.5 -9.50098s-0.666016 -7.5 -3.99902 -11.5l-40 -43c-15.333 -16.667 -31.833 -32.5 -49.5 -47.5s-35.334 -27.667 -53.001 -38s-34.5 -14.5 -50.5 -12.5s-27.333 8.16699 -34 18.5s-10.167 23.5 -10.5 39.5s1.66699 33.667 6 53
s9.66602 39 15.999 59s12.833 39.333 19.5 58s12 35 16 49s5.83301 24.833 5.5 32.5s-4.16602 10.5 -11.499 8.5c-11.333 -3.33301 -23.833 -11.166 -37.5 -23.499s-27.167 -26.333 -40.5 -42s-25.166 -31.334 -35.499 -47.001s-17.5 -27.834 -21.5 -36.501l-53 -165
c-2.66699 -8 -7.66699 -11 -15 -9s-14.5 7 -21.5 15s-12.5 18 -16.5 30s-4 24.667 0 38c3.33301 12.667 7 25.834 11 39.501l13 43.5l30.5 98.5c9 29.667 19.167 58.5 30.5 86.5c2.66699 6.66699 7.5 9.33398 14.5 8.00098s14 -5.16602 21 -11.499s12.833 -14.333 17.5 -24
s6 -19.5 4 -29.5l-10 -33c27.333 40 53.166 66.667 77.499 80s45.166 18 62.499 14s30.166 -14 38.499 -30s10.5 -33 6.5 -51z" />
    <glyph glyph-name="o" unicode="o" horiz-adv-x="332" 
d="M29 -22c-13.333 6 -23.502 14.165 -30.502 24.498s-11.333 22.5 -13 36.5s-1.16699 29 1.5 45s7 32.667 13 50c6.66699 18.667 16.834 40.5 30.501 65.5s29.5 47.833 47.5 68.5s37.833 36.834 59.5 48.501s44.167 13.5 67.5 5.5c17.333 -6 29.833 -15.667 37.5 -29
s11.834 -28.333 12.501 -45s-1.33301 -34 -6 -52s-10.334 -34.667 -17.001 -50c-3.33301 -7.33301 -7.5 -15.5 -12.5 -24.5s-10.833 -17.833 -17.5 -26.5c23.333 -4 47 -2.66699 71 4s43.667 18.334 59 35.001c6.66699 6.66699 14 7 22 1c6 -7.33301 6 -14.333 0 -21
c-22.667 -22.667 -49.667 -37.667 -81 -45s-61.333 -7 -90 1c-7.33301 -10 -16.5 -21.667 -27.5 -35s-23.167 -25.333 -36.5 -36s-27.666 -18.5 -42.999 -23.5s-31 -4.16699 -47 2.5zM91.998 242.998c3.33301 0 8.16699 -0.831055 14.5 -2.49805s12.333 -4 18 -7
s9.5 -7.33301 11.5 -13s0.666992 -12.5 -4 -20.5l-38 -62c6 -5.33301 14.167 -10.333 24.5 -15s19.166 -8.33398 26.499 -11.001c26.667 42 43 77.833 49 107.5s4.83301 51 -3.5 64s-21.666 16.667 -39.999 11s-37.833 -22.834 -58.5 -51.501zM57.999 17
c4.66699 0 10.666 2.66699 17.999 8s14.5 11.833 21.5 19.5s13.5 15.334 19.5 23.001s10.333 13.5 13 17.5l-28 10.5c-11.333 4.33301 -19.666 9.16602 -24.999 14.499c-3.33301 -3.33301 -7.33301 -10 -12 -20s-8.5 -20.5 -11.5 -31.5s-4.5 -20.667 -4.5 -29
s3 -12.5 9 -12.5z" />
    <glyph glyph-name="p" unicode="p" horiz-adv-x="375" 
d="M0 134l70.9961 208.995c2 6.66699 6.83301 9.5 14.5 8.5s15.667 -4 24 -9s15.5 -11.167 21.5 -18.5s8.33301 -14.333 7 -21l-7 -27c16.667 16 34.334 29.667 53.001 41s38.334 16 59.001 14c16.667 -2 29.667 -8 39 -18s15.333 -22.667 18 -38s2.5 -32.333 -0.5 -51
s-8.16699 -37.667 -15.5 -57s-16.166 -38 -26.499 -56s-21.833 -33.667 -34.5 -47c15.333 -8 30.5 -10.333 45.5 -7s29.333 9.5 43 18.5s26 19.167 37 30.5l26.5 28c4.66699 6 9.5 9.33301 14.5 10s9 -0.166016 12 -2.49902s5 -5.33301 6 -9
s0.166992 -6.83398 -2.5 -9.50098l-34 -36.5c-14 -15 -30 -28.167 -48 -39.5s-37.5 -18.666 -58.5 -21.999s-42.5 2.33398 -64.5 17.001c-14 -11.333 -27.833 -18.666 -41.5 -21.999s-26.667 -3.5 -39 -0.5s-23.5 8.83301 -33.5 17.5s-18 19.334 -24 32.001
c-25.333 -70.667 -46.166 -132.167 -62.499 -184.5s-31.833 -97.5 -46.5 -135.5c-12.667 -8.66699 -26.667 -13.667 -42 -15s-28 2.33398 -38 11.001zM73.9961 101.995c3.33301 -11.333 7.66992 -21 13.0029 -29s14.666 -11.667 27.999 -11
c11.333 0.666992 22.666 6.5 33.999 17.5s21.833 24.667 31.5 41s18.167 34 25.5 53s12.666 37 15.999 54s4 31.5 2 43.5s-7 19 -15 21c-6 1.33301 -13.333 -0.5 -22 -5.5s-17.5 -11.5 -26.5 -19.5s-17.667 -16.333 -26 -25l-21.5 -23z" />
    <glyph glyph-name="q" unicode="q" horiz-adv-x="337" 
d="M315 281l-64.498 -193.003l-45.5 -140l-32.5 -101.5l-25.5 -77.5c13.333 -10 27.333 -17.5 42 -22.5s27.667 -6.83301 39 -5.5c-6.66699 -7.33301 -16.334 -13.666 -29.001 -18.999s-27 -8.66602 -43 -9.99902s-32.667 -0.5 -50 2.5s-34 9.5 -50 19.5l113 342
c-17.333 -16 -35.166 -29.667 -53.499 -41s-38.166 -16 -59.499 -14c-28 3.33301 -45.667 15.833 -53 37.5s-8.33301 46.834 -3 75.501c4.66699 22.667 12.5 45.667 23.5 69s24.167 44.166 39.5 62.499s32.166 32.833 50.499 43.5s36.5 14.667 54.5 12
c14 -2 27 -7.16699 39 -15.5s20.667 -18.5 26 -30.5c3.33301 9.33301 6.66602 18.166 9.99902 26.499s6.33301 16.833 9 25.5c2 6 7 8.83301 15 8.5s16.167 -2.66602 24.5 -6.99902s15.166 -10.666 20.499 -18.999s6.33301 -17.833 3 -28.5zM222.002 236.997
c-3.33301 11.333 -7.83301 21 -13.5 29s-15.167 11.333 -28.5 10c-11.333 -0.666992 -22.5 -6.16699 -33.5 -16.5s-21.167 -23.166 -30.5 -38.499s-17.5 -31.833 -24.5 -49.5s-11.833 -34.334 -14.5 -50.001s-3.16699 -29.167 -1.5 -40.5s6.5 -18 14.5 -20
c6 -2 13.333 -0.5 22 4.5s17.5 11.333 26.5 19s18 16 27 25s16.5 16.833 22.5 23.5z" />
    <glyph glyph-name="r" unicode="r" horiz-adv-x="300" 
d="M255 134c-21.333 12.667 -34.3281 27.335 -38.9951 44.002s-5.83398 32.667 -3.50098 48s5.66602 28.333 9.99902 39s4.83301 16 1.5 16c-8 0 -19.167 -6.5 -33.5 -19.5s-29.333 -29.333 -45 -49s-30.834 -41.167 -45.501 -64.5s-26.334 -45.333 -35.001 -66l-26 -71
c-2.66699 -8 -8.16699 -10.833 -16.5 -8.5s-16.333 7.66602 -24 15.999s-13.334 18.666 -17.001 30.999s-2.16699 24.5 4.5 36.5l14 48c7.33301 25.333 16 52.5 26 81.5l36 103.5c1.33301 3.33301 6.33301 6 15 8s17.834 3.16699 27.501 3.5s18.667 -0.333984 27 -2.00098
s13.166 -3.83398 14.499 -6.50098c-3.33301 -9.33301 -6.5 -17.666 -9.5 -24.999l-8.5 -21.5l-8.5 -22.5l-10.5 -27c18 26 36 47 54 63s34.833 27 50.5 33s30 6.83301 43 2.5s23.5 -14.166 31.5 -29.499c4.66699 -9.33301 6.5 -20.333 5.5 -33s-3.33301 -26.167 -7 -40.5
s-8.5 -29 -14.5 -44z" />
    <glyph glyph-name="s" unicode="s" horiz-adv-x="158" 
d="M54 190c26 40 39.501 68.002 40.501 84.002s-5.83301 22 -20.5 18c-6 -2 -11.833 -5.83301 -17.5 -11.5s-9.83398 -12.834 -12.501 -21.501s-3.5 -18.834 -2.5 -30.501s5.16699 -24.5 12.5 -38.5zM-43.999 -1.99805c8 -5.33301 17.333 -7.99805 28 -7.99805s20 2 28 6
c14.667 8.66699 23.167 19.167 25.5 31.5s1.5 25.166 -2.5 38.499s-9.66699 26 -17 38l-18 30c-17.333 28 -26.833 53.667 -28.5 77s1.5 43.666 9.5 60.999s19.167 31.666 33.5 42.999s29 18.666 44 21.999s28.833 2.66602 41.5 -2.00098s21.167 -14.167 25.5 -28.5
s3 -33.666 -4 -57.999s-22.5 -54.166 -46.5 -89.499c8.66699 -14 16.167 -29 22.5 -45s10.166 -32.167 11.499 -48.5s-0.666992 -32 -6 -47s-15 -28.5 -29 -40.5c-7.33301 -6 -17.666 -11.167 -30.999 -15.5s-26.5 -6.16602 -39.5 -5.49902s-24.167 4 -33.5 10
s-14 16.333 -14 31z" />
    <glyph glyph-name="t" unicode="t" horiz-adv-x="228" 
d="M279 415c-15.333 -2.66699 -30.8301 -4.66699 -46.4971 -6s-31.5 -2 -47.5 -2l-32.5 -93l-31.5 -93.5l-28 -87c-8.66699 -27.667 -15.5 -52 -20.5 -73s-8.16699 -37.833 -9.5 -50.5s0 -19.667 4 -21c6 -1.33301 16.833 4.66699 32.5 18s32.334 28.666 50.001 45.999
l49.5 50c15.333 16 25 26.333 29 31c2.66699 3.33301 5.83398 4.83301 9.50098 4.5s6.66699 -1.66602 9 -3.99902s3.66602 -5.5 3.99902 -9.5s-0.833984 -7.66699 -3.50098 -11l-34 -40c-14 -16.667 -29.5 -33.667 -46.5 -51s-34.833 -33.5 -53.5 -48.5
s-37.334 -25.5 -56.001 -31.5c-12 -4.66699 -24.5 -5.5 -37.5 -2.5s-22.833 11.167 -29.5 24.5c-7.33301 15.333 -9.83301 37.833 -7.5 67.5s8.16602 63.5 17.499 101.5c4 16.667 9.5 36 16.5 58l23 70l27 76.5l29.5 77.5c-22 5.33301 -40 13.333 -54 24
s-21.333 24.334 -22 41.001c13.333 -3.33301 28.166 -5.83301 44.499 -7.5s33.5 -3.16699 51.5 -4.5l19 48.5l17 41.5c8.66699 7.33301 21.5 10.5 38.5 9.5s33.5 -4.16699 49.5 -9.5l-34 -92c16.667 0.666992 33 1.16699 49 1.5s31.667 1.16602 47 2.49902
c1.33301 -10 1.33301 -19.667 0 -29s-9 -18.333 -23 -27z" />
    <glyph glyph-name="u" unicode="u" horiz-adv-x="389" 
d="M193 114l-21.002 -25c-8.66699 -10 -18.167 -20 -28.5 -30s-21.333 -19.333 -33 -28s-23.167 -15 -34.5 -19s-22.5 -5 -33.5 -3s-20.833 8.66699 -29.5 20c-9.33301 12 -14.666 27.167 -15.999 45.5s-0.333008 38.166 3 59.499
c2.66699 17.333 6.83398 35.166 12.501 53.499s11.5 36 17.5 53l17 46.5l13 35c2 7.33301 7.33301 11.833 16 13.5s17.667 1.33398 27 -0.999023s17.5 -6 24.5 -11s10.167 -10.5 9.5 -16.5c-2.66699 -9.33301 -6.66699 -22.333 -12 -39l-18 -54l-19.5 -58.5
c-6.33301 -19.667 -11.333 -37.5 -15 -53.5s-5.5 -28.667 -5.5 -38s3 -13.333 9 -12c11.333 2 24.166 8.66699 38.499 20s28.333 24.5 42 39.5s26 30 37 45s18.5 27.167 22.5 36.5l53 124c3.33301 7.33301 8.5 9.83301 15.5 7.5s13.667 -7.66602 20 -15.999
s11.166 -18.833 14.499 -31.5s2.66602 -25.334 -2.00098 -38.001c-2.66699 -7.33301 -7.66699 -20 -15 -38s-14.666 -37.167 -21.999 -57.5s-13.833 -40.333 -19.5 -60s-7.83398 -34.834 -6.50098 -45.501c0.666992 -10 5.5 -14.5 14.5 -13.5s20 6.16699 33 15.5
s27.333 22.166 43 38.499s30.5 34.833 44.5 55.5c6.66699 6 12.834 6.33301 18.501 1s5.83398 -11.666 0.500977 -18.999c-9.33301 -13.333 -20.833 -28.666 -34.5 -45.999s-28.834 -33.666 -45.501 -48.999s-34 -28.166 -52 -38.499s-35.667 -14.833 -53 -13.5
c-20 1.33301 -33.667 7.66602 -41 18.999s-10.666 24.5 -9.99902 39.5s3.33398 30.5 8.00098 46.5s9 29.333 13 40z" />
    <glyph glyph-name="v" unicode="v" 
d="M70 -29c-22.667 -3.33301 -39.9941 -1.16406 -51.9941 6.50293s-20 19.334 -24 35.001s-5.16699 34 -3.5 55s4.83398 43.167 9.50098 66.5c2.66699 16 6.33398 32.333 11.001 49l14 49l13 46c4 14.667 7.33301 28 10 40c1.33301 7.33301 5.83301 10.666 13.5 9.99902
s15.667 -3.5 24 -8.5s15.666 -11 21.999 -18s9.16602 -13.5 8.49902 -19.5c-1.33301 -10.667 -4.33301 -24.834 -9 -42.501l-15.5 -57.5l-16.5 -62.5c-5.33301 -21 -9.16602 -40.167 -11.499 -57.5s-2.83301 -31.333 -1.5 -42s5.66602 -16 12.999 -16
c8 0 18.167 6.66699 30.5 20s24.666 28.833 36.999 46.5s24 35.5 35 53.5s18.833 31.667 23.5 41c-10 22.667 -15.833 43.5 -17.5 62.5s-0.833984 35.167 2.49902 48.5s8.16602 24 14.499 32s12.833 13 19.5 15c14.667 4 25.5 3.66699 32.5 -1s11.333 -12 13 -22
s1.33398 -21.667 -0.999023 -35s-5.5 -26.5 -9.5 -39.5s-8.16699 -24.833 -12.5 -35.5l-9.5 -23c6 -11.333 12.833 -21.5 20.5 -30.5s16.167 -15.5 25.5 -19.5s19.333 -4.83301 30 -2.5s22 8.83301 34 19.5c3.33301 3.33301 7 4.66602 11 3.99902
s7.16699 -2.33398 9.5 -5.00098s3.66602 -6 3.99902 -10s-1.5 -7.66699 -5.5 -11c-14 -12.667 -27.833 -21 -41.5 -25s-26.834 -4.5 -39.501 -1.5s-24.334 8.83301 -35.001 17.5s-20.334 19.667 -29.001 33l-29 -48.5c-11.333 -18.333 -23.333 -36 -36 -53
s-26 -31.5 -40 -43.5s-28 -18.667 -42 -20zM219.006 204.002c11.333 30 17.499 52.3311 18.499 66.998s-0.166992 23.334 -3.5 26.001c-2.66699 2 -5.66699 1 -9 -3s-6.16602 -10.167 -8.49902 -18.5s-3.5 -18.666 -3.5 -30.999s2 -25.833 6 -40.5z" />
    <glyph glyph-name="w" unicode="w" horiz-adv-x="503" 
d="M44 -27c-26 -4 -43.8281 -0.330078 -53.4951 11.0029s-14.667 26 -15 44s2.5 36.833 8.5 56.5s11.333 36.167 16 49.5l30.5 92c11 33.333 18.167 63.666 21.5 90.999c0.666992 7.33301 5 10.833 13 10.5s16.333 -3 25 -8s16.5 -11 23.5 -18s10.167 -13.5 9.5 -19.5
c-1.33301 -10.667 -4.83301 -24.5 -10.5 -41.5s-12.167 -35.333 -19.5 -55l-22.5 -59.5c-7.66699 -20 -13.834 -38.167 -18.501 -54.5s-7.5 -30 -8.5 -41s1.16699 -17.167 6.5 -18.5c8 -2 19.667 4 35 18s30.833 30.833 46.5 50.5s30.167 40 43.5 61s22.333 38.167 27 51.5
c7.33301 19.333 13.833 39.166 19.5 59.499s10.167 40.833 13.5 61.5c0.666992 7.33301 5 10.833 13 10.5s16.333 -3 25 -8s16.5 -11 23.5 -18s10.167 -13.5 9.5 -19.5c-1.33301 -10.667 -4.66602 -23.834 -9.99902 -39.501s-11.333 -32.167 -18 -49.5l-20 -52.5
c-6.66699 -17.667 -12.334 -33.667 -17.001 -48s-7.33398 -26.166 -8.00098 -35.499s2 -14.666 8 -15.999c8.66699 -2 19 1.83301 31 11.5s23.833 21.5 35.5 35.5s22.5 28.5 32.5 43.5s17.333 27.5 22 37.5c-4 8.66699 -7.5 22.167 -10.5 40.5s-4 36.5 -3 54.5
s5.16699 33.167 12.5 45.5s19.333 17.5 36 15.5c15.333 -2 24.5 -9.66699 27.5 -23s2.83301 -28.333 -0.5 -45s-8.16602 -33.167 -14.499 -49.5s-11.5 -28.5 -15.5 -36.5c6 -11.333 12.667 -21.5 20 -30.5s15.666 -15.5 24.999 -19.5s19.333 -5 30 -3s22 8.33301 34 19
c4 3.33301 7.83301 4.66602 11.5 3.99902s6.83398 -2.33398 9.50098 -5.00098s4.16699 -6 4.5 -10s-1.5 -7.66699 -5.5 -11c-14 -13.333 -27.833 -21.833 -41.5 -25.5s-26.834 -4 -39.501 -1s-24.334 9 -35.001 18s-20.334 20.167 -29.001 33.5
c-26.667 -46 -53 -81 -79 -105s-49.333 -38 -70 -42s-37 1.5 -49 16.5s-17 38.5 -15 70.5c-6 -8 -13.667 -17.5 -23 -28.5s-19.333 -21.833 -30 -32.5s-21.834 -20 -33.501 -28s-23.167 -13 -34.5 -15zM379.005 205.003l9 25.5029c2.66699 7.66699 4.66699 14.5 6 20.5
c4 16.667 5.5 28.667 4.5 36s-3 10.666 -6 9.99902s-6.33301 -4.83398 -10 -12.501s-6.16699 -17.834 -7.5 -30.501c-1.33301 -14.667 0 -31 4 -49z" />
    <glyph glyph-name="x" unicode="x" horiz-adv-x="331" 
d="M244 56l27.998 23.001l26 23c8 7.33301 14.833 13.833 20.5 19.5l12.5 12.5c2.66699 3.33301 5.83398 4.66602 9.50098 3.99902s6.83398 -2.33398 9.50098 -5.00098s4.16699 -6 4.5 -10s-1.16699 -7.66699 -4.5 -11l-15 -15l-22.5 -22
c-8.33301 -8 -17.5 -16.333 -27.5 -25s-19.667 -16.334 -29 -23.001c-25.333 -15.333 -46.666 -21.5 -63.999 -18.5s-32 11 -44 24s-21.833 29.333 -29.5 49s-14.5 38.5 -20.5 56.5l-63 -60.5c-18.667 -17.667 -30.334 -30.167 -35.001 -37.5
c-2 -3.33301 -4.83301 -5.33301 -8.5 -6s-7.16699 0.333008 -10.5 3c-7.33301 4.66699 -8.66602 11 -3.99902 19c6 8.66699 19.667 23.167 41 43.5l73 67.5l-15 60.5c-4.66699 19.667 -9.66699 36 -15 49s-11.833 20.833 -19.5 23.5s-17.5 -2.66602 -29.5 -15.999l-11 -17
c-4 -6 -8 -11 -12 -15c-1.33301 -3.33301 -3.83301 -6.5 -7.5 -9.5s-7.16699 -3.5 -10.5 -1.5c-7.33301 4 -9.33301 10 -6 18c38.667 76 74.334 110.833 107.001 104.5s58.667 -51.166 78 -134.499c0.666992 -0.666992 1 -2 1 -4c24 22 45.333 42.5 64 61.5
s31.334 33.167 38.001 42.5c2 3.33301 4.83301 5.33301 8.5 6s7.16699 0 10.5 -2c7.33301 -6 8.66602 -12.333 3.99902 -19c-4 -6 -10 -13.333 -18 -22l-27.5 -29l-34.5 -34l-39 -37c2 -14 4.83301 -30.833 8.5 -50.5s8.66699 -37.5 15 -53.5s14.666 -27.833 24.999 -35.5
s23.166 -6.5 38.499 3.5z" />
    <glyph glyph-name="y" unicode="y" horiz-adv-x="320" 
d="M272 -79c-5.33301 4.66699 -14.501 8.50781 -27.501 11.5078s-34.5 3.5 -64.5 1.5c-5.33301 -11.333 -11 -24.5 -17 -39.5s-13 -30.5 -21 -46.5c-20 -40 -40.5 -69.667 -61.5 -89s-41 -30.833 -60 -34.5s-35.833 -1 -50.5 8s-25.834 21.667 -33.501 38
s-10.834 35.166 -9.50098 56.499s9 42 23 62s34.833 38.333 62.5 55s64.167 29 109.5 37l62 172c-18 -25.333 -36.5 -48.333 -55.5 -69s-37.167 -36.834 -54.5 -48.501s-32.833 -17.667 -46.5 -18s-24.5 7.16699 -32.5 22.5c-5.33301 11.333 -7.16602 25 -5.49902 41
s5.16699 33.667 10.5 53c4.66699 16 10 32.167 16 48.5l17.5 48.5c5.66699 16 10.5 31 14.5 45s6.66699 26.333 8 37c0.666992 7.33301 4.33398 10.666 11.001 9.99902s14 -3.16699 22 -7.5s15.167 -10 21.5 -17s9.16602 -13.5 8.49902 -19.5c0 -4 -2.66699 -13.5 -8 -28.5
l-18 -51.5c-6.66699 -19.333 -13.167 -39.333 -19.5 -60s-10.833 -38.334 -13.5 -53.001c-2 -12.667 0.833008 -18.334 8.5 -17.001s18 7.66602 31 18.999s27.333 26.166 43 44.499s30.5 38 44.5 59s26 42 36 63s15.667 39.833 17 56.5
c0.666992 7.33301 4.83398 10.5 12.501 9.5s15.667 -4 24 -9s15.833 -11.167 22.5 -18.5s9 -13.666 7 -18.999l-28 -78l-21.5 -60.5l-23 -63.5l-32.5 -88c6.66699 0 17.5 -0.166992 32.5 -0.5s28.333 -2.33301 40 -6s18.834 -9.83398 21.501 -18.501s-5 -21.334 -23 -38.001
zM104.999 -66.9922c-38 -6.66699 -67.333 -17.833 -88 -33.5s-35 -32.167 -43 -49.5s-10.167 -33.333 -6.5 -48s10.5 -23.834 20.5 -27.501s22.667 0.333008 38 12s31 34.834 47 69.501l16 37.5z" />
    <glyph glyph-name="z" unicode="z" horiz-adv-x="287" 
d="M119 -117c-26.667 -26.667 -56.168 -46.3301 -88.501 -58.9971s-62.833 -19.334 -91.5 -20.001s-53.167 4.16602 -73.5 14.499s-31.666 24.833 -33.999 43.5s6.33398 41 26.001 67s55.167 54.333 106.5 85c30 18 61.333 33.5 94 46.5s64.334 21.167 95.001 24.5
c5.33301 15.333 9.16602 29.333 11.499 42s2.5 24.334 0.5 35.001c-18 -21.333 -35.833 -37 -53.5 -47s-33.834 -15.833 -48.501 -17.5s-27.667 0.166016 -39 5.49902s-19.833 12.666 -25.5 21.999s-8.33398 19.666 -8.00098 30.999s4.83301 22 13.5 32
c16.667 18 36 30.5 58 37.5s44.333 10.5 67 10.5c8 14 15 27.667 21 41s10.333 25.5 13 36.5s3 20.5 1 28.5s-6.33301 13.333 -13 16s-15.667 1.33398 -27 -3.99902s-23 -12.333 -35 -21s-23.333 -17.5 -34 -26.5l-23 -19.5c-4 -3.33301 -7.83301 -4.5 -11.5 -3.5
s-6.5 3 -8.5 6s-2.83301 6.33301 -2.5 10s2.5 7.16699 6.5 10.5l40 32.5c14 11.667 28.5 22 43.5 31s30.167 15.833 45.5 20.5s30.666 5 45.999 1c18.667 -5.33301 32 -14.166 40 -26.499s11.667 -27 11 -44s-4.66699 -35.333 -12 -55s-16.666 -38.834 -27.999 -57.501
c14.667 -14 24.334 -30.167 29.001 -48.5s5.66699 -38 3 -59s-8.16699 -42.333 -16.5 -64s-18 -42.5 -29 -62.5s-22.667 -38.167 -35 -54.5s-23.833 -29.833 -34.5 -40.5zM3.99902 -116.996c60 46 104.998 102.665 134.998 169.998c-28.667 -5.33301 -57 -14 -85 -26
s-54.667 -25.667 -80 -41c-33.333 -21.333 -58.166 -40.666 -74.499 -57.999s-26.5 -32.166 -30.5 -44.499s-2.66699 -22 4 -29s16.667 -10.833 30 -11.5s28.833 2.33301 46.5 9s35.834 17 54.501 31zM108.997 205.002c-16.667 -2.66699 -30.5 -6.50098 -41.5 -11.501
s-19.667 -10.167 -26 -15.5s-10.5 -10.666 -12.5 -15.999s-2 -9.33301 0 -12c3.33301 -6 12 -5.83301 26 0.5s32 24.5 54 54.5z" />
    <glyph glyph-name="braceleft" unicode="{" horiz-adv-x="218" 
d="M276 486c12.667 0 23.8389 -3.8252 33.5059 -11.4922s17 -16.334 22 -26.001s7.33301 -18.5 7 -26.5s-3.83301 -12.333 -10.5 -13c-5.33301 -0.666992 -9 0.5 -11 3.5s-3.66699 6.83301 -5 11.5l-4.5 15c-1.66699 5.33301 -4.83398 10 -9.50098 14
c-4 3.33301 -7 4.83301 -9 4.5s-4.66699 -2.5 -8 -6.5c-8 -9.33301 -16.333 -24.833 -25 -46.5l-26 -67.5l-24.5 -63.5c-7.66699 -19 -14.834 -30.5 -21.501 -34.5c-7.33301 -4 -13.833 -6.66699 -19.5 -8s-10.167 -3 -13.5 -5s-5.33301 -5 -6 -9s1 -10.333 5 -19
c3.33301 -8.66699 3.33301 -19.834 0 -33.501s-8.5 -28.334 -15.5 -44.001s-14.833 -31.834 -23.5 -48.501s-16.334 -32.167 -23.001 -46.5s-11.5 -27 -14.5 -38s-2.16699 -18.833 2.5 -23.5c2.66699 -2.66699 6.16699 -4.33398 10.5 -5.00098l13.5 -2
c4.66699 -0.666992 8.66699 -1.83398 12 -3.50098s5 -4.83398 5 -9.50098c0 -7.33301 -6 -11 -18 -11s-24.333 3.16699 -37 9.5s-23.334 16 -32.001 29s-9.33398 28.5 -2.00098 46.5l12 26.5l18 38.5l20.5 43c7 14.667 13 28.334 18 41.001s8.83301 23.5 11.5 32.5
s3 14.833 1 17.5c-6.66699 9.33301 -9.5 16.166 -8.5 20.499s3.83301 8 8.5 11l16.5 10.5c6.33301 4 11.833 10.667 16.5 20l12 29l18.5 42l22.5 47c8 16 16.5 30.667 25.5 44s18.167 24.166 27.5 32.499s18.666 12.5 27.999 12.5z" />
    <glyph glyph-name="bar" unicode="|" horiz-adv-x="123" 
d="M68 -40c-0.666992 -5.33301 -3 -10.1699 -7 -14.5029s-8.16699 -7.33301 -12.5 -9s-8.16602 -2 -11.499 -1s-5 4.16699 -5 9.5c0.666992 11.333 1.16699 33.333 1.5 66s0.666016 70.334 0.999023 113.001s0.5 87.5 0.5 134.5s0.166992 90.333 0.5 130
s0.833008 72.834 1.5 99.501s1.66699 41.334 3 44.001c2 4 5.83301 7.66699 11.5 11s11.5 5.5 17.5 6.5s10.833 0.5 14.5 -1.5s4.16699 -6 1.5 -12z" />
    <glyph glyph-name="braceright" unicode="}" horiz-adv-x="269" 
d="M234 469c9.33301 -10 12.502 -26.3311 9.50195 -48.998s-8.66699 -46.5 -17 -71.5s-17.333 -48.833 -27 -71.5l-20.5 -49c-3.33301 -9.33301 -4.33301 -17.666 -3 -24.999l3.5 -19.5c1 -5.66699 0.333008 -10.334 -2 -14.001s-9.16602 -6.16699 -20.499 -7.5
c-3.33301 -0.666992 -7.33301 -5 -12 -13s-9.66699 -18.333 -15 -31l-17 -41.5l-17 -44l-14.5 -39.5c-4.33301 -12 -7.83301 -21 -10.5 -27c-8.66699 -18 -20.5 -28.5 -35.5 -31.5s-29.333 -2.33301 -43 2s-24.667 10.833 -33 19.5s-9.83301 15.667 -4.5 21
c3.33301 3.33301 6.83301 4.33301 10.5 3s7.33398 -3.33301 11.001 -6l11 -8c3.66699 -2.66699 7.5 -4 11.5 -4c6.66699 0 12.834 4.83301 18.501 14.5s11.167 22 16.5 37l16.5 48.5c5.66699 17.333 11.667 34 18 50s13.166 30 20.499 42s15.666 19.667 24.999 23
c8.66699 3.33301 14.334 6.66602 17.001 9.99902s3.66699 7 3 11s-2.33398 8.5 -5.00098 13.5s-5 11.5 -7 19.5c-2 6.66699 0.5 18.667 7.5 36s15.5 36.5 25.5 57.5l29 62.5c9.33301 20.667 15.666 38 18.999 52c1.33301 6 2.16602 11 2.49902 15s-3.16699 6.66699 -10.5 8
c-6 0.666992 -11.5 -0.333008 -16.5 -3l-14 -7.5c-4.33301 -2.33301 -8.33301 -3.83301 -12 -4.5s-6.83398 1 -9.50098 5c-4 5.33301 -3.16699 11 2.5 17s13.5 10.5 23.5 13.5s21 3.66699 33 2s22.667 -6.83398 32 -15.501z" />
    <glyph glyph-name="asciitilde" unicode="~" horiz-adv-x="268" 
d="M35 241c-6 0 -8.33105 4.5 -6.99805 13.5s5.83301 17.667 13.5 26s18.667 14.5 33 18.5s31.5 1 51.5 -9c15.333 -7.33301 30.166 -10 44.499 -8s28.5 7.66699 42.5 17c6.66699 4.66699 10.834 5.5 12.501 2.5s1.5 -7.83301 -0.5 -14.5s-6 -14 -12 -22
s-13.5 -14.833 -22.5 -20.5s-19.5 -8.83398 -31.5 -9.50098s-25.333 3 -40 11c-12 6.66699 -22.333 10.334 -31 11.001s-16.334 -0.333008 -23.001 -3s-12.334 -5.5 -17.001 -8.5s-9 -4.5 -13 -4.5z" />
    <glyph glyph-name="quotesinglbase" unicode="&#x201a;" horiz-adv-x="141" 
d="M93 57c-7.33301 -12 -15.5 -22.501 -24.5 -31.501s-16.833 -12.167 -23.5 -9.5c-2 0.666992 -3.66699 1.5 -5 2.5s-2.5 3.33301 -3.5 7s-1.5 9 -1.5 16s1 16.5 3 28.5c2 14.667 5.33301 26.334 10 35.001s10 14.5 16 17.5s12 3.16699 18 0.5s11 -8 15 -16
c6 -12 8.5 -21 7.5 -27s-4.83301 -13.667 -11.5 -23z" />
    <glyph glyph-name="a.001" horiz-adv-x="348" 
d="M212 68c-13.333 -40.667 -16.501 -76.167 -9.50098 -106.5s20.167 -55 39.5 -74s42.833 -32 70.5 -39s55.834 -7.33301 84.501 -1s56 19.5 82 39.5s46.333 47.667 61 83c-8 -34 -21.333 -62.5 -40 -85.5s-40.167 -40.833 -64.5 -53.5s-50.333 -20.167 -78 -22.5
s-54.5 0 -80.5 7s-50.167 18.5 -72.5 34.5s-40 36.333 -53 61s-20.5 53.334 -22.5 86.001s4 69 18 109l-23.5 -29.5c-7 -9 -14 -16.5 -21 -22.5s-14 -10.333 -21 -13s-14.833 -3 -23.5 -1c-22.667 4.66699 -38.334 15.667 -47.001 33s-12.334 37.666 -11.001 60.999
c1.33301 18.667 5.33301 38.167 12 58.5s15.5 39.5 26.5 57.5s23.667 33.5 38 46.5s29.5 22 45.5 27s32.333 4.83301 49 -0.5s32.667 -18 48 -38c7.33301 18.667 14.166 30.334 20.499 35.001s16.5 3 30.5 -5c9.33301 -6 15.833 -11.833 19.5 -17.5
s4.83398 -12.834 3.50098 -21.501s-4.5 -19.334 -9.5 -32.001l-18.5 -47c-1.33301 -3.33301 -4.16602 -9.66602 -8.49902 -18.999l-14.5 -32.5c-5.33301 -12.333 -10.666 -25.333 -15.999 -39s-10 -26.5 -14 -38.5zM76.999 75c6.66699 0 16.501 7.66602 29.501 22.999
s26.333 33 40 53s26.167 39.833 37.5 59.5s18.666 33.834 21.999 42.501c-5.33301 7.33301 -12.333 12.5 -21 15.5s-15.667 2.83301 -21 -0.5c-6 -3.33301 -12.667 -10.333 -20 -21s-15 -23.167 -23 -37.5s-15.5 -29.5 -22.5 -45.5s-12.833 -30.5 -17.5 -43.5
s-7.5 -23.833 -8.5 -32.5s0.5 -13 4.5 -13z" />
    <glyph glyph-name="b.001" horiz-adv-x="317" 
d="M72 2c-8 2 -14.9961 6.66699 -20.9961 14s-10 14.666 -12 21.999c-0.666992 -2.66699 -1 -3.66699 -1 -3v3c0 1.33301 -0.166992 2.5 -0.5 3.5s-0.833008 0.5 -1.5 -1.5c-6 -10.667 -13.667 -18.834 -23 -24.501s-18 -9.16699 -26 -10.5s-14.5 -0.833008 -19.5 1.5
s-6.83301 5.83301 -5.5 10.5l38 117l61 185c21.333 62.667 44 124.334 68 185.001c-19.333 6 -35.833 15.667 -49.5 29s-21.167 30.666 -22.5 51.999c9.33301 -9.33301 22.5 -16.5 39.5 -21.5s35.167 -6.83301 54.5 -5.5h87l-44.5 -106l-42.5 -107l-44 -114
c19.333 30.667 38.666 53.334 57.999 68.001s36.666 23.5 51.999 26.5s28.166 1.16699 38.499 -5.5s16.166 -15.667 17.499 -27c2 -15.333 0.333008 -33.666 -5 -54.999s-13 -43.5 -23 -66.5s-22 -45.5 -36 -67.5s-28.833 -41.167 -44.5 -57.5s-31.5 -28.833 -47.5 -37.5
s-31 -11 -45 -7zM47.0039 52c13.333 2.66699 27.8311 12.168 43.498 28.501s30.834 35.333 45.501 57s27.5 43.834 38.5 66.501s18.833 41.667 23.5 57s4.83398 24.833 0.500977 28.5s-14.833 -2.5 -31.5 -18.5c-12.667 -12 -25.334 -27.833 -38.001 -47.5
s-24.5 -40.334 -35.5 -62.001s-20.667 -42.334 -29 -62.001s-14.166 -35.5 -17.499 -47.5z" />
    <glyph glyph-name="c.001" horiz-adv-x="254" 
d="M184 53c-18.667 -28 -39.165 -45.001 -61.498 -51.001s-43 -4.16699 -62 5.5s-34.333 25.667 -46 48s-16.5 48.5 -14.5 78.5c1.33301 23.333 6.83301 47.166 16.5 71.499s22.5 46.166 38.5 65.499c14 16.667 29.333 29.5 46 38.5s33.167 14.5 49.5 16.5
s31.333 0.333008 45 -5s24.5 -13.666 32.5 -24.999s12.333 -25.666 13 -42.999s-4 -37.666 -14 -60.999c-1.33301 -4 -3.5 -6.33301 -6.5 -7s-5.83301 -0.166992 -8.5 1.5s-4.83398 4 -6.50098 7s-1.5 6.5 0.5 10.5c9.33301 21.333 12.166 38.5 8.49902 51.5
s-10.167 19.833 -19.5 20.5c-16.667 1.33301 -32.5 -5.5 -47.5 -20.5s-27.833 -33.5 -38.5 -55.5s-18.334 -45.167 -23.001 -69.5s-4.66699 -45 0 -62s14.834 -28 30.501 -33s38.167 0.833008 67.5 17.5z" />
    <glyph glyph-name="d.001" horiz-adv-x="352" 
d="M540 -30c-12 -49.333 -32.667 -88.4961 -62 -117.496s-61.5 -48.5 -96.5 -58.5s-70.333 -10.667 -106 -2s-66 26.167 -91 52.5s-41.833 61.166 -50.5 104.499s-3.66699 94.666 15 153.999c-17.333 -22 -32.166 -39.333 -44.499 -52s-26.833 -17.334 -43.5 -14.001
c-24 4 -40.667 15.167 -50 33.5s-13 39.5 -11 63.5c2 27.333 10.167 55.5 24.5 84.5s32.166 52.833 53.499 71.5s44.666 29.334 69.999 32.001s50.666 -9 75.999 -35l44.5 107.5l43.5 109.5c-19.333 6 -35.666 15.667 -48.999 29s-20.666 30.666 -21.999 51.999
c9.33301 -9.33301 22.5 -16.5 39.5 -21.5s35.167 -6.83301 54.5 -5.5l86 -1l-89 -212l-89 -215c-21.333 -50 -32.5 -94 -33.5 -132s4.66699 -69.333 17 -94s30.333 -42.334 54 -53.001s50 -13.667 79 -9s59.333 17.5 91 38.5s61.5 50.833 89.5 89.5zM80 71.0039
c6.66699 0 16.001 5.99902 28.001 17.999s24.667 27.5 38 46.5s26.166 39.833 38.499 62.5s22.5 44.667 30.5 66c-12.667 17.333 -25.5 24.5 -38.5 21.5s-25.5 -11.667 -37.5 -26s-23 -32.166 -33 -53.499s-17.833 -42 -23.5 -62s-9 -37.167 -10 -51.5s1.5 -21.5 7.5 -21.5z
" />
    <glyph glyph-name="e.001" horiz-adv-x="269" 
d="M173 13c-24 -10 -47 -14.334 -69 -13.001s-41 7.5 -57 18.5s-28.333 26.333 -37 46s-12 42.834 -10 69.501c2 22 7.33301 44.167 16 66.5s20.334 42.5 35.001 60.5s31.667 32.667 51 44s40.666 17 63.999 17c18.667 0 34.167 -4.66699 46.5 -14
s20.833 -20.833 25.5 -34.5s5.5 -28.334 2.5 -44.001s-10.333 -29.5 -22 -41.5s-28 -21 -49 -27s-46.5 -6.66699 -76.5 -2c-6 -20 -9.33301 -39.5 -10 -58.5s1.83301 -35.667 7.5 -50s15.167 -25.166 28.5 -32.499s31.333 -9 54 -5zM213 223.999
c5.33301 14 4.83301 25.999 -1.5 35.999s-15.5 15 -27.5 15s-25.667 -6.83301 -41 -20.5s-29.333 -37.5 -42 -71.5c8.66699 -1.33301 18.667 -1.66602 30 -0.999023s22.5 2.5 33.5 5.5s20.833 7.33301 29.5 13s15 13.5 19 23.5z" />
    <glyph glyph-name="f.001" horiz-adv-x="232" 
d="M186 120c-18.667 -0.666992 -37.002 -0.501953 -55.002 0.498047s-35.667 2.5 -53 4.5l-43 -113l-26 -68.5l-15.5 -39l-9.5 -23.5c-17.333 -18.667 -32.5 -26.667 -45.5 -24s-24.167 10.667 -33.5 24l48 126.5l47 126.5l2 7c-12.667 4 -23.167 8.66699 -31.5 14
s-13.166 11.666 -14.499 18.999c13.333 -4.66699 31.333 -8.66699 54 -12l21.5 56.5l19.5 49.5c-18 2.66699 -32.667 5.83398 -44 9.50098s-20.5 8 -27.5 13s-12.667 10.5 -17 16.5s-7.83301 13 -10.5 21c14 -4 31.833 -7.16699 53.5 -9.5s45.5 -3.66602 71.5 -3.99902
s53 0.5 81 2.5s55 5.66699 81 11c10.667 0 17.834 -5.5 21.501 -16.5s-0.166016 -24.833 -11.499 -41.5c-40 -4 -79.333 -6 -118 -6l-41 -107c7.33301 -0.666992 17 -0.833984 29 -0.500977s22 0.833008 30 1.5c13.333 -1.33301 22.166 -5.66602 26.499 -12.999
s7.83301 -15.666 10.5 -24.999z" />
    <glyph glyph-name="g.001" 
d="M283 -94c-6 9.33301 -16.0029 16.8359 -30.0029 22.5029s-35 7.5 -63 5.5c-5.33301 -11.333 -11 -24.5 -17 -39.5s-13 -30.5 -21 -46.5c-20 -40 -40.5 -69.667 -61.5 -89s-41 -30.833 -60 -34.5s-35.833 -1 -50.5 8s-25.834 21.667 -33.501 38
s-10.834 35.166 -9.50098 56.499s9 42 23 62s34.833 38.333 62.5 55s64.167 29 109.5 37l24 63l12 32c-16.667 -16 -34.167 -29.667 -52.5 -41s-38.166 -16 -59.499 -14c-28 3.33301 -45.667 15.833 -53 37.5s-8.33301 46.834 -3 75.501
c4.66699 22.667 12.834 45.834 24.501 69.501s25.334 45 41.001 64s32.667 34.167 51 45.5s36.5 15.666 54.5 12.999c14.667 -2 27.834 -7.16699 39.501 -15.5s20.167 -18.5 25.5 -30.5l13 38c2 6.66699 6.83301 9.66699 14.5 9s15.5 -3.5 23.5 -8.5s15 -11.167 21 -18.5
s8.33301 -14 7 -20c-7.33301 -28.667 -17.666 -62.834 -30.999 -102.501s-28.666 -81.834 -45.999 -126.501l-27 -67c18 -4 34.167 -13.333 48.5 -28s22.166 -31.334 23.499 -50.001zM224.997 242.003c-3.33301 11.333 -7.6709 21.001 -13.0039 29.001
s-14.666 11.333 -27.999 10c-11.333 -0.666992 -22.666 -6.33398 -33.999 -17.001s-21.833 -23.834 -31.5 -39.501s-18.167 -32.5 -25.5 -50.5s-12.666 -35.167 -15.999 -51.5s-4.16602 -30.166 -2.49902 -41.499s6.5 -18 14.5 -20c6 -1.33301 13.5 0.5 22.5 5.5
s18 11.333 27 19s17.833 16 26.5 25l22 23.5zM114.992 -66.9961c-38 -6.66699 -67.333 -17.833 -88 -33.5s-35 -32.167 -43 -49.5s-10.167 -33.333 -6.5 -48s10.5 -23.834 20.5 -27.501s22.667 0.333008 38 12s31 34.834 47 69.501l16 37.5z" />
    <glyph glyph-name="h.001" horiz-adv-x="326" 
d="M255 134c-18.667 -46.667 -25.999 -87.8291 -21.999 -123.496s15 -65.5 33 -89.5s40.833 -41.5 68.5 -52.5s56.167 -15 85.5 -12s57.166 13.833 83.499 32.5s46.833 45.667 61.5 81c-10.667 -45.333 -30 -80.5 -58 -105.5s-59.167 -40.667 -93.5 -47
s-69 -3.83301 -104 7.5s-64.833 30.666 -89.5 57.999s-41.5 62.166 -50.5 104.499s-4.5 91.166 13.5 146.499l17.5 53.5l17 53c5 16.333 8.66699 29.833 11 40.5s2.16602 16 -0.500977 16c-8 0 -18.167 -4.66699 -30.5 -14s-25.166 -21.5 -38.499 -36.5
s-26.666 -32 -39.999 -51s-25 -37.833 -35 -56.5l-45 -128c-2.66699 -8 -8.16699 -10.833 -16.5 -8.5s-16.333 7.66602 -24 15.999s-13.334 18.666 -17.001 30.999s-2.16699 24.5 4.5 36.5l14 48l24.5 77.5l32 94l36.5 101l37 97.5c-19.333 5.33301 -36 14.833 -50 28.5
s-21.667 31.167 -23 52.5c9.33301 -9.33301 22.5 -16.5 39.5 -21.5s35.167 -6.83301 54.5 -5.5h84c-18.667 -44.667 -38 -94.5 -58 -149.5l-68 -182.5c18 26 36 47 54 63s34.833 27 50.5 33s30 6.83301 43 2.5s23.5 -14.166 31.5 -29.499
c4.66699 -9.33301 6.66699 -20.333 6 -33s-3 -26 -7 -40s-8.83301 -28.667 -14.5 -44s-11.5 -30 -17.5 -44z" />
    <glyph glyph-name="i.001" horiz-adv-x="176" 
d="M76 134c-15.333 -41.333 -20.1621 -79.0029 -14.4951 -113.003s17.667 -63 36 -87s41.333 -42.167 69 -54.5s55.667 -17.666 84 -15.999s55.5 11 81.5 28s46.333 43.167 61 78.5c-10.667 -45.333 -29.834 -79.833 -57.501 -103.5s-58.334 -38.167 -92.001 -43.5
s-68 -1.83301 -103 10.5s-65.333 32 -91 59s-43.834 61 -54.501 102s-9 87.5 5 139.5c5.33301 19.333 12.666 42.833 21.999 70.5s21.333 60.167 36 97.5c9.33301 4 19 6.83301 29 8.5s18.5 1.33398 25.5 -0.999023s11.667 -7.16602 14 -14.499s1.16602 -18 -3.50098 -32
c-5.33301 -18.667 -12.333 -39.167 -21 -61.5zM147.004 404.997c10 -7.33301 15.5 -16.667 16.5 -28s-1.66699 -21.5 -8 -30.5s-15.5 -15 -27.5 -18s-25.667 0.166992 -41 9.5c-11.333 6.66699 -17.833 16.167 -19.5 28.5s0.5 23.333 6.5 33s15.333 16 28 19
s27.667 -1.5 45 -13.5z" />
    <glyph glyph-name="j.001" horiz-adv-x="170" 
d="M147 405c10 -7.33301 15.5 -16.667 16.5 -28s-1.66699 -21.5 -8 -30.5s-15.5 -15 -27.5 -18s-25.667 0.166992 -41 9.5c-11.333 6.66699 -17.833 16.167 -19.5 28.5s0.5 23.333 6.5 33s15.333 16 28 19s27.667 -1.5 45 -13.5zM108 -78.001
c-13.333 12 -49.998 16.001 -109.998 12.001c-5.33301 -11.333 -11 -24.5 -17 -39.5s-13 -30.5 -21 -46.5c-20 -40 -40.5 -69.667 -61.5 -89s-41 -30.833 -60 -34.5s-35.833 -1 -50.5 8s-25.834 21.667 -33.501 38s-10.834 35.166 -9.50098 56.499s9 42 23 62
s34.833 38.333 62.5 55s64.167 29 109.5 37l117 337c2 6.66699 7 9.5 15 8.5s16 -4 24 -9s15 -11.167 21 -18.5s8 -13.666 6 -18.999l-18.5 -52.5l-21.5 -62l-27.5 -79l-36.5 -102.5c8.66699 -0.666992 18.167 -2.33398 28.5 -5.00098s19.833 -6.5 28.5 -11.5
s16 -11.333 22 -19s9.33301 -16.5 10 -26.5zM-76.998 -67c-38 -6.66699 -67.333 -17.833 -88 -33.5s-35 -32.167 -43 -49.5s-10.167 -33.333 -6.5 -48s10.5 -23.834 20.5 -27.501s22.667 0.333008 38 12s31 34.834 47 69.501l16 37.5z" />
    <glyph glyph-name="k.001" horiz-adv-x="385" 
d="M234 558l-17.498 -42.0039l-21 -53l-20 -50.5c-6.33301 -15.667 -10.833 -27.5 -13.5 -35.5l-14 -36l-26 -73c-7.33301 -20.667 -12.333 -36.334 -15 -47.001c18 26.667 38 49 60 67s42 28.333 60 31s32.5 -4.16602 43.5 -20.499s14.833 -45.5 11.5 -87.5
c-0.666992 -7.33301 -4.5 -10.666 -11.5 -9.99902s-14.333 3.16699 -22 7.5s-14.667 10 -21 17s-9.5 13.5 -9.5 19.5c0.666992 5.33301 2.16699 10.333 4.5 15s4.16602 8.83398 5.49902 12.501s1.83301 6.5 1.5 8.5s-2.83301 3 -7.5 3c-7.33301 0 -16 -3.33301 -26 -10
s-21 -15.667 -33 -27c4.66699 -5.33301 9.66699 -13.666 15 -24.999s10.333 -27.666 15 -48.999c4 -22 10.5 -42.833 19.5 -62.5s21 -33.5 36 -41.5s33.667 -7.66699 56 1s49.166 30 80.499 64c3.33301 3.33301 6.83301 4.83301 10.5 4.5s6.83398 -1.66602 9.50098 -3.99902
s4 -5.5 4 -9.5s-1.66699 -8 -5 -12c-41.333 -44 -78.5 -72.667 -111.5 -86s-61.667 -15 -86 -5s-44.333 29.667 -60 59s-26.5 65 -32.5 107l-17.5 -26.5c-5.66699 -9 -10.834 -18.167 -15.501 -27.5l-55 -168c-2.66699 -8 -7.66699 -11.167 -15 -9.5s-14.5 6.5 -21.5 14.5
s-12.5 18.167 -16.5 30.5s-4 25.166 0 38.499l27 94l27 85.5l31.5 95.5l34 97.5l34.5 91.5c-19.333 5.33301 -36 14.833 -50 28.5s-21.667 31.167 -23 52.5c9.33301 -9.33301 22.5 -16.5 39.5 -21.5s35.167 -6.83301 54.5 -5.5h86z" />
    <glyph glyph-name="l.001" horiz-adv-x="184" 
d="M399 -30c-27.333 -40.667 -57.834 -72.168 -91.501 -94.501s-67 -36.5 -100 -42.5s-64.5 -3.83301 -94.5 6.5s-55.167 28.333 -75.5 54s-34.5 58.667 -42.5 99s-6.33301 87.5 5 141.5c2 10.667 4.5 21 7.5 31l9.5 32l24.5 72.5l28.5 79l30.5 80l29.5 75.5
c-19.333 5.33301 -36 14.833 -50 28.5s-21.667 31.167 -23 52.5c9.33301 -9.33301 22.5 -16.5 39.5 -21.5s35.167 -6.83301 54.5 -5.5l91 2l-80 -207c-23.333 -62 -43 -116.333 -59 -163c-18 -51.333 -27.167 -96.5 -27.5 -135.5s5.33398 -71.333 17.001 -97
s28.667 -44.834 51 -57.501s47.333 -18.667 75 -18s57.167 8.33398 88.5 23.001s62 36.334 92 65.001z" />
    <glyph glyph-name="m.001" horiz-adv-x="499" 
d="M434 149c-23.333 -56.667 -34.1709 -105.338 -32.5039 -146.005s11.5 -73.5 29.5 -98.5s41.5 -42.333 70.5 -52s58.833 -11.667 89.5 -6s59.834 18.834 87.501 39.501s48.834 48.667 63.501 84c-8 -34 -21.5 -62.667 -40.5 -86s-41 -41.333 -66 -54
s-51.5 -20.167 -79.5 -22.5s-55 0.5 -81 8.5s-49.833 21.167 -71.5 39.5s-38.667 41.5 -51 69.5s-18.5 61 -18.5 99s8.66699 80.667 26 128c6 16 11.667 32.5 17 49.5s10 32.5 14 46.5s6.5 25.5 7.5 34.5s-0.166992 13.5 -3.5 13.5c-14.667 0 -32.5 -9 -53.5 -27
s-40.167 -44 -57.5 -78c-10.667 -20 -19.667 -37.5 -27 -52.5s-11.666 -30.833 -12.999 -47.5c-0.666992 -7.33301 -4.5 -10.666 -11.5 -9.99902s-14.333 3.16699 -22 7.5s-14.667 10 -21 17s-9.16602 13.167 -8.49902 18.5c0.666992 10.667 4.83398 26 12.501 46l22 59
c7 19.333 11.833 35.833 14.5 49.5s-0.666016 19.167 -9.99902 16.5c-11.333 -2.66699 -23.5 -9.66699 -36.5 -21s-25.833 -24.166 -38.5 -38.499s-23.834 -28.833 -33.501 -43.5s-16.5 -26.334 -20.5 -35.001l-56 -160c-2.66699 -8 -7.66699 -11 -15 -9
s-14.5 6.83301 -21.5 14.5s-12.5 17.667 -16.5 30s-4 25.166 0 38.499l8.5 30l9.5 33l16.5 52.5l15 47c5 15 10.333 29.667 16 44l17.5 44.5c2 6.66699 6.5 9.33398 13.5 8.00098s14 -5 21 -11s13 -13.833 18 -23.5s6.5 -19.5 4.5 -29.5l-11 -33
c9.33301 14 19.666 27.333 30.999 40s24 24 38 34c18 12.667 34.333 19.5 49 20.5s27 -1.83301 37 -8.5s17.333 -16.5 22 -29.5s5.66699 -27.5 3 -43.5c1.33301 5.33301 5.5 12.333 12.5 21s15.5 17.167 25.5 25.5s20.833 15.833 32.5 22.5s23.5 10.834 35.5 12.501
s23.333 0 34 -5s19.667 -14.833 27 -29.5c4.66699 -8.66699 7 -18.667 7 -30s-1.5 -23.166 -4.5 -35.499s-7 -25.166 -12 -38.499z" />
    <glyph glyph-name="n.001" horiz-adv-x="320" 
d="M293 242l-13.998 -57c-4.66699 -18.667 -9.66699 -36.334 -15 -53.001c-18.667 -54.667 -26 -101.334 -22 -140.001s15 -69.834 33 -93.501s41 -39.667 69 -48s56.5 -9.5 85.5 -3.5s56.5 19.333 82.5 40s46.333 48.334 61 83.001c-8 -33.333 -21.333 -61.666 -40 -84.999
s-40.167 -41.333 -64.5 -54s-50.333 -20.334 -78 -23.001s-54.334 -0.5 -80.001 6.5s-49.5 19.167 -71.5 36.5s-39.5 39.5 -52.5 66.5s-20.167 58.667 -21.5 95s5.33398 77.5 20.001 123.5c6.66699 20.667 13.5 40.667 20.5 60s12.667 36.333 17 51s6.5 26.167 6.5 34.5
s-4 11.5 -12 9.5c-11.333 -3.33301 -23.833 -11.166 -37.5 -23.499s-27.167 -26.333 -40.5 -42s-25.166 -31.334 -35.499 -47.001s-17.5 -27.834 -21.5 -36.501l-53 -165c-2.66699 -8 -7.66699 -11 -15 -9s-14.5 7 -21.5 15s-12.5 18 -16.5 30s-4 24.667 0 38
c3.33301 12.667 7 25.834 11 39.501l13 43.5l30.5 98.5c9 29.667 19.167 58.5 30.5 86.5c2.66699 6.66699 7.5 9.33398 14.5 8.00098s14 -5.16602 21 -11.499s12.833 -14.333 17.5 -24s6 -19.5 4 -29.5l-10 -33c27.333 40 53.166 66.667 77.499 80s45.166 18 62.499 14
s30.166 -14 38.499 -30s10.5 -33 6.5 -51z" />
    <glyph glyph-name="o.001" horiz-adv-x="332" 
d="M29 -22c-13.333 6 -23.502 14.165 -30.502 24.498s-11.333 22.5 -13 36.5s-1.16699 29 1.5 45s7 32.667 13 50c6.66699 18.667 16.834 40.5 30.501 65.5s29.5 47.833 47.5 68.5s37.833 36.834 59.5 48.501s44.167 13.5 67.5 5.5c17.333 -6 29.833 -15.667 37.5 -29
s11.834 -28.333 12.501 -45s-1.33301 -34 -6 -52s-10.334 -34.667 -17.001 -50c-3.33301 -7.33301 -7.5 -15.5 -12.5 -24.5s-10.833 -17.833 -17.5 -26.5c23.333 -4 47 -2.66699 71 4s43.667 18.334 59 35.001c6.66699 6.66699 14 7 22 1c6 -7.33301 6 -14.333 0 -21
c-22.667 -22.667 -49.667 -37.667 -81 -45s-61.333 -7 -90 1c-7.33301 -10 -16.5 -21.667 -27.5 -35s-23.167 -25.333 -36.5 -36s-27.666 -18.5 -42.999 -23.5s-31 -4.16699 -47 2.5zM91.998 242.998c3.33301 0 8.16699 -0.831055 14.5 -2.49805s12.333 -4 18 -7
s9.5 -7.33301 11.5 -13s0.666992 -12.5 -4 -20.5l-38 -62c6 -5.33301 14.167 -10.333 24.5 -15s19.166 -8.33398 26.499 -11.001c26.667 42 43 77.833 49 107.5s4.83301 51 -3.5 64s-21.666 16.667 -39.999 11s-37.833 -22.834 -58.5 -51.501zM57.999 17
c4.66699 0 10.666 2.66699 17.999 8s14.5 11.833 21.5 19.5s13.5 15.334 19.5 23.001s10.333 13.5 13 17.5l-28 10.5c-11.333 4.33301 -19.666 9.16602 -24.999 14.499c-3.33301 -3.33301 -7.33301 -10 -12 -20s-8.5 -20.5 -11.5 -31.5s-4.5 -20.667 -4.5 -29
s3 -12.5 9 -12.5z" />
    <glyph glyph-name="p.001" horiz-adv-x="375" 
d="M0 134l70.9961 208.995c2 6.66699 6.83301 9.5 14.5 8.5s15.667 -4 24 -9s15.5 -11.167 21.5 -18.5s8.33301 -14.333 7 -21l-7 -27c16.667 16 34.334 29.667 53.001 41s38.334 16 59.001 14c16.667 -2 29.667 -8 39 -18s15.333 -22.667 18 -38s2.5 -32.333 -0.5 -51
s-8.16699 -37.667 -15.5 -57s-16.166 -38 -26.499 -56s-21.833 -33.667 -34.5 -47c15.333 -8 30.5 -10.333 45.5 -7s29.333 9.5 43 18.5s26 19.167 37 30.5l26.5 28c4.66699 6 9.5 9.33301 14.5 10s9 -0.166016 12 -2.49902s5 -5.33301 6 -9
s0.166992 -6.83398 -2.5 -9.50098l-34 -36.5c-14 -15 -30 -28.167 -48 -39.5s-37.5 -18.666 -58.5 -21.999s-42.5 2.33398 -64.5 17.001c-14 -11.333 -27.833 -18.666 -41.5 -21.999s-26.667 -3.5 -39 -0.5s-23.5 8.83301 -33.5 17.5s-18 19.334 -24 32.001
c-25.333 -70.667 -46.166 -132.167 -62.499 -184.5s-31.833 -97.5 -46.5 -135.5c-12.667 -8.66699 -26.667 -13.667 -42 -15s-28 2.33398 -38 11.001zM73.9961 101.995c3.33301 -11.333 7.66992 -21 13.0029 -29s14.666 -11.667 27.999 -11
c11.333 0.666992 22.666 6.5 33.999 17.5s21.833 24.667 31.5 41s18.167 34 25.5 53s12.666 37 15.999 54s4 31.5 2 43.5s-7 19 -15 21c-6 1.33301 -13.333 -0.5 -22 -5.5s-17.5 -11.5 -26.5 -19.5s-17.667 -16.333 -26 -25l-21.5 -23z" />
    <glyph glyph-name="q.001" horiz-adv-x="337" 
d="M315 281l-64.498 -193.003l-45.5 -140l-32.5 -101.5l-25.5 -77.5c13.333 -10 27.333 -17.5 42 -22.5s27.667 -6.83301 39 -5.5c-6.66699 -7.33301 -16.334 -13.666 -29.001 -18.999s-27 -8.66602 -43 -9.99902s-32.667 -0.5 -50 2.5s-34 9.5 -50 19.5l113 342
c-17.333 -16 -35.166 -29.667 -53.499 -41s-38.166 -16 -59.499 -14c-28 3.33301 -45.667 15.833 -53 37.5s-8.33301 46.834 -3 75.501c4.66699 22.667 12.5 45.667 23.5 69s24.167 44.166 39.5 62.499s32.166 32.833 50.499 43.5s36.5 14.667 54.5 12
c14 -2 27 -7.16699 39 -15.5s20.667 -18.5 26 -30.5c3.33301 9.33301 6.66602 18.166 9.99902 26.499s6.33301 16.833 9 25.5c2 6 7 8.83301 15 8.5s16.167 -2.66602 24.5 -6.99902s15.166 -10.666 20.499 -18.999s6.33301 -17.833 3 -28.5zM222.002 236.997
c-3.33301 11.333 -7.83301 21 -13.5 29s-15.167 11.333 -28.5 10c-11.333 -0.666992 -22.5 -6.16699 -33.5 -16.5s-21.167 -23.166 -30.5 -38.499s-17.5 -31.833 -24.5 -49.5s-11.833 -34.334 -14.5 -50.001s-3.16699 -29.167 -1.5 -40.5s6.5 -18 14.5 -20
c6 -2 13.333 -0.5 22 4.5s17.5 11.333 26.5 19s18 16 27 25s16.5 16.833 22.5 23.5z" />
    <glyph glyph-name="r.001" horiz-adv-x="300" 
d="M255 134c-21.333 12.667 -34.3281 27.335 -38.9951 44.002s-5.83398 32.667 -3.50098 48s5.66602 28.333 9.99902 39s4.83301 16 1.5 16c-8 0 -19.167 -6.5 -33.5 -19.5s-29.333 -29.333 -45 -49s-30.834 -41.167 -45.501 -64.5s-26.334 -45.333 -35.001 -66l-26 -71
c-2.66699 -8 -8.16699 -10.833 -16.5 -8.5s-16.333 7.66602 -24 15.999s-13.334 18.666 -17.001 30.999s-2.16699 24.5 4.5 36.5l14 48c7.33301 25.333 16 52.5 26 81.5l36 103.5c1.33301 3.33301 6.33301 6 15 8s17.834 3.16699 27.501 3.5s18.667 -0.333984 27 -2.00098
s13.166 -3.83398 14.499 -6.50098c-3.33301 -9.33301 -6.5 -17.666 -9.5 -24.999l-8.5 -21.5l-8.5 -22.5l-10.5 -27c18 26 36 47 54 63s34.833 27 50.5 33s30 6.83301 43 2.5s23.5 -14.166 31.5 -29.499c4.66699 -9.33301 6.5 -20.333 5.5 -33s-3.33301 -26.167 -7 -40.5
s-8.5 -29 -14.5 -44z" />
    <glyph glyph-name="s.001" horiz-adv-x="158" 
d="M54 190c26 40 39.501 68.002 40.501 84.002s-5.83301 22 -20.5 18c-6 -2 -11.833 -5.83301 -17.5 -11.5s-9.83398 -12.834 -12.501 -21.501s-3.5 -18.834 -2.5 -30.501s5.16699 -24.5 12.5 -38.5zM-107.999 -49.998c63.333 8.66699 103.004 29.5 119.004 62.5
s12.333 73.5 -11 121.5c-14.667 29.333 -22 56 -22 80s4 44.833 12 62.5s19 31.834 33 42.501s28.167 17.5 42.5 20.5s27.166 1.66699 38.499 -4s18.666 -16 21.999 -31s1.16602 -35 -6.50098 -60s-23.5 -55.167 -47.5 -90.5c14.667 -30 22.5 -57.5 23.5 -82.5
s-2.66699 -47.333 -11 -67s-20.333 -35.834 -36 -48.501s-32.667 -21.667 -51 -27s-36.833 -6.33301 -55.5 -3s-35.334 11.333 -50.001 24z" />
    <glyph glyph-name="t.001" horiz-adv-x="200" 
d="M1 138c4.66699 16.667 10.502 35.832 17.502 57.499l23 69l26.5 75.5l28 76c-22 5.33301 -40 13.333 -54 24s-21.333 24.334 -22 41.001c13.333 -3.33301 28.166 -5.83301 44.499 -7.5s33.5 -3.16699 51.5 -4.5l19 48.5l17 41.5c8.66699 7.33301 21.5 10.5 38.5 9.5
s33.5 -4.16699 49.5 -9.5l-34 -92c16.667 0.666992 33 1.16699 49 1.5s31.667 1.16602 47 2.49902c1.33301 -10 1.33301 -19.667 0 -29s-9 -18.333 -23 -27c-15.333 -2.66699 -30.833 -4.66699 -46.5 -6s-31.5 -2 -47.5 -2l-49.5 -143.5l-44.5 -135.5
c-17.333 -52 -24 -96.667 -20 -134s14.5 -67.666 31.5 -90.999s38.667 -39.5 65 -48.5s53.333 -10.667 81 -5s54.167 18.5 79.5 38.5s45.333 47.333 60 82c-10.667 -44.667 -30.334 -80.5 -59.001 -107.5s-60.5 -45 -95.5 -54s-70.333 -9 -106 0s-66 27.167 -91 54.5
s-42 64 -51 110s-3.83301 101 15.5 165z" />
    <glyph glyph-name="u.001" horiz-adv-x="361" 
d="M276 132c-20 -54 -28.166 -100.328 -24.499 -138.995s14.5 -69.834 32.5 -93.501s41.167 -39.667 69.5 -48s57.333 -9.5 87 -3.5s57.667 19.167 84 39.5s46.833 47.833 61.5 82.5c-10.667 -43.333 -29.667 -77.833 -57 -103.5s-58 -42.834 -92 -51.501
s-68.667 -8.83398 -104 -0.500977s-65.833 25 -91.5 50s-44.167 58.167 -55.5 99.5s-9.66602 90.666 5.00098 147.999l-8 -10l-36.5 -39.5c-14.333 -15 -29.333 -27.5 -45 -37.5s-31.334 -15.667 -47.001 -17s-29.5 5.66699 -41.5 21
c-9.33301 12 -14.666 27.167 -15.999 45.5s-0.333008 38.166 3 59.499c2.66699 17.333 6.83398 35.166 12.501 53.499s11.5 36 17.5 53l17 46.5l13 35c2 7.33301 7.33301 11.833 16 13.5s17.667 1.33398 27 -0.999023s17.5 -6 24.5 -11s10.167 -10.5 9.5 -16.5
c-2.66699 -9.33301 -6.66699 -22.333 -12 -39l-18 -54l-19.5 -58.5c-6.33301 -19.667 -11.333 -37.5 -15 -53.5s-5.5 -28.667 -5.5 -38s3 -13.333 9 -12c11.333 2 24.166 8.66699 38.499 20s28.333 24.5 42 39.5s26 30 37 45s18.5 27.167 22.5 36.5l53 124
c3.33301 7.33301 8.5 9.83301 15.5 7.5s13.667 -7.66602 20 -15.999s11.166 -18.833 14.499 -31.5s2.66602 -25.334 -2.00098 -38.001c-3.33301 -8 -9 -22.333 -17 -43z" />
    <glyph glyph-name="v.001" 
d="M70 -29c-22.667 -3.33301 -39.9941 -1.16406 -51.9941 6.50293s-20 19.334 -24 35.001s-5.16699 34 -3.5 55s4.83398 43.167 9.50098 66.5c2.66699 16 6.33398 32.333 11.001 49l14 49l13 46c4 14.667 7.33301 28 10 40c1.33301 7.33301 5.83301 10.666 13.5 9.99902
s15.667 -3.5 24 -8.5s15.666 -11 21.999 -18s9.16602 -13.5 8.49902 -19.5c-1.33301 -10.667 -4.33301 -24.834 -9 -42.501l-15.5 -57.5l-16.5 -62.5c-5.33301 -21 -9.16602 -40.167 -11.499 -57.5s-2.83301 -31.333 -1.5 -42s5.66602 -16 12.999 -16
c8 0 18.167 6.66699 30.5 20s24.666 28.833 36.999 46.5s24 35.5 35 53.5s18.833 31.667 23.5 41c-10 22.667 -15.833 43.5 -17.5 62.5s-0.833984 35.167 2.49902 48.5s8.16602 24 14.499 32s12.833 13 19.5 15c14.667 4 25.5 3.66699 32.5 -1s11.333 -12 13 -22
s1.33398 -21.667 -0.999023 -35s-5.5 -26.5 -9.5 -39.5s-8.16699 -24.833 -12.5 -35.5l-9.5 -23c6 -11.333 12.833 -21.5 20.5 -30.5s16.167 -15.5 25.5 -19.5s19.333 -4.83301 30 -2.5s22 8.83301 34 19.5c3.33301 3.33301 7 4.66602 11 3.99902
s7.16699 -2.33398 9.5 -5.00098s3.66602 -6 3.99902 -10s-1.5 -7.66699 -5.5 -11c-14 -12.667 -27.833 -21 -41.5 -25s-26.834 -4.5 -39.501 -1.5s-24.334 8.83301 -35.001 17.5s-20.334 19.667 -29.001 33l-29 -48.5c-11.333 -18.333 -23.333 -36 -36 -53
s-26 -31.5 -40 -43.5s-28 -18.667 -42 -20zM219.006 204.002c11.333 30 17.499 52.3311 18.499 66.998s-0.166992 23.334 -3.5 26.001c-2.66699 2 -5.66699 1 -9 -3s-6.16602 -10.167 -8.49902 -18.5s-3.5 -18.666 -3.5 -30.999s2 -25.833 6 -40.5z" />
    <glyph glyph-name="w.001" horiz-adv-x="503" 
d="M44 -27c-26 -4 -43.8281 -0.330078 -53.4951 11.0029s-14.667 26 -15 44s2.5 36.833 8.5 56.5s11.333 36.167 16 49.5l30.5 92c11 33.333 18.167 63.666 21.5 90.999c0.666992 7.33301 5 10.833 13 10.5s16.333 -3 25 -8s16.5 -11 23.5 -18s10.167 -13.5 9.5 -19.5
c-1.33301 -10.667 -4.83301 -24.5 -10.5 -41.5s-12.167 -35.333 -19.5 -55l-22.5 -59.5c-7.66699 -20 -13.834 -38.167 -18.501 -54.5s-7.5 -30 -8.5 -41s1.16699 -17.167 6.5 -18.5c8 -2 19.667 4 35 18s30.833 30.833 46.5 50.5s30.167 40 43.5 61s22.333 38.167 27 51.5
c7.33301 19.333 13.833 39.166 19.5 59.499s10.167 40.833 13.5 61.5c0.666992 7.33301 5 10.833 13 10.5s16.333 -3 25 -8s16.5 -11 23.5 -18s10.167 -13.5 9.5 -19.5c-1.33301 -10.667 -4.66602 -23.834 -9.99902 -39.501s-11.333 -32.167 -18 -49.5l-20 -52.5
c-6.66699 -17.667 -12.334 -33.667 -17.001 -48s-7.33398 -26.166 -8.00098 -35.499s2 -14.666 8 -15.999c8.66699 -2 19 1.83301 31 11.5s23.833 21.5 35.5 35.5s22.5 28.5 32.5 43.5s17.333 27.5 22 37.5c-4 8.66699 -7.5 22.167 -10.5 40.5s-4 36.5 -3 54.5
s5.16699 33.167 12.5 45.5s19.333 17.5 36 15.5c15.333 -2 24.5 -9.66699 27.5 -23s2.83301 -28.333 -0.5 -45s-8.16602 -33.167 -14.499 -49.5s-11.5 -28.5 -15.5 -36.5c6 -11.333 12.667 -21.5 20 -30.5s15.666 -15.5 24.999 -19.5s19.333 -5 30 -3s22 8.33301 34 19
c4 3.33301 7.83301 4.66602 11.5 3.99902s6.83398 -2.33398 9.50098 -5.00098s4.16699 -6 4.5 -10s-1.5 -7.66699 -5.5 -11c-14 -13.333 -27.833 -21.833 -41.5 -25.5s-26.834 -4 -39.501 -1s-24.334 9 -35.001 18s-20.334 20.167 -29.001 33.5
c-26.667 -46 -53 -81 -79 -105s-49.333 -38 -70 -42s-37 1.5 -49 16.5s-17 38.5 -15 70.5c-6 -8 -13.667 -17.5 -23 -28.5s-19.333 -21.833 -30 -32.5s-21.834 -20 -33.501 -28s-23.167 -13 -34.5 -15zM379.005 205.003l9 25.5029c2.66699 7.66699 4.66699 14.5 6 20.5
c4 16.667 5.5 28.667 4.5 36s-3 10.666 -6 9.99902s-6.33301 -4.83398 -10 -12.501s-6.16699 -17.834 -7.5 -30.501c-1.33301 -14.667 0 -31 4 -49z" />
    <glyph glyph-name="x.001" horiz-adv-x="331" 
d="M244 56l27.998 23.001l26 23c8 7.33301 14.833 13.833 20.5 19.5l12.5 12.5c2.66699 3.33301 5.83398 4.66602 9.50098 3.99902s6.83398 -2.33398 9.50098 -5.00098s4.16699 -6 4.5 -10s-1.16699 -7.66699 -4.5 -11l-15 -15l-22.5 -22
c-8.33301 -8 -17.5 -16.333 -27.5 -25s-19.667 -16.334 -29 -23.001c-25.333 -15.333 -46.666 -21.5 -63.999 -18.5s-32 11 -44 24s-21.833 29.333 -29.5 49s-14.5 38.5 -20.5 56.5l-63 -60.5c-18.667 -17.667 -30.334 -30.167 -35.001 -37.5
c-2 -3.33301 -4.83301 -5.33301 -8.5 -6s-7.16699 0.333008 -10.5 3c-7.33301 4.66699 -8.66602 11 -3.99902 19c6 8.66699 19.667 23.167 41 43.5l73 67.5l-15 60.5c-4.66699 19.667 -9.66699 36 -15 49s-11.833 20.833 -19.5 23.5s-17.5 -2.66602 -29.5 -15.999l-11 -17
c-4 -6 -8 -11 -12 -15c-1.33301 -3.33301 -3.83301 -6.5 -7.5 -9.5s-7.16699 -3.5 -10.5 -1.5c-7.33301 4 -9.33301 10 -6 18c38.667 76 74.334 110.833 107.001 104.5s58.667 -51.166 78 -134.499c0.666992 -0.666992 1 -2 1 -4c24 22 45.333 42.5 64 61.5
s31.334 33.167 38.001 42.5c2 3.33301 4.83301 5.33301 8.5 6s7.16699 0 10.5 -2c7.33301 -6 8.66602 -12.333 3.99902 -19c-4 -6 -10 -13.333 -18 -22l-27.5 -29l-34.5 -34l-39 -37c2 -14 4.83301 -30.833 8.5 -50.5s8.66699 -37.5 15 -53.5s14.666 -27.833 24.999 -35.5
s23.166 -6.5 38.499 3.5z" />
    <glyph glyph-name="y.001" 
d="M272 -79c-5.33301 4.66699 -14.501 8.50391 -27.501 11.5039s-34.5 3.5 -64.5 1.5c-5.33301 -11.333 -11 -24.5 -17 -39.5s-13 -30.5 -21 -46.5c-20 -40 -40.5 -69.667 -61.5 -89s-41 -30.833 -60 -34.5s-35.833 -1 -50.5 8s-25.834 21.667 -33.501 38
s-10.834 35.166 -9.50098 56.499s9 42 23 62s34.833 38.333 62.5 55s64.167 29 109.5 37l62 172c-18 -25.333 -36.5 -48.333 -55.5 -69s-37.167 -36.834 -54.5 -48.501s-32.833 -17.667 -46.5 -18s-24.5 7.16699 -32.5 22.5c-5.33301 11.333 -7.16602 25 -5.49902 41
s5.16699 33.667 10.5 53c4.66699 16 10 32.167 16 48.5l17.5 48.5c5.66699 16 10.5 31 14.5 45s6.66699 26.333 8 37c0.666992 7.33301 4.33398 10.666 11.001 9.99902s14 -3.16699 22 -7.5s15.167 -10 21.5 -17s9.16602 -13.5 8.49902 -19.5c0 -4 -2.66699 -13.5 -8 -28.5
l-18 -51.5c-6.66699 -19.333 -13.167 -39.333 -19.5 -60s-10.833 -38.334 -13.5 -53.001c-2 -12.667 0.833008 -18.334 8.5 -17.001s18 7.66602 31 18.999s27.333 26.166 43 44.499s30.5 38 44.5 59s26 42 36 63s15.667 39.833 17 56.5
c0.666992 7.33301 4.83398 10.5 12.501 9.5s15.667 -4 24 -9s15.833 -11.167 22.5 -18.5s9 -13.666 7 -18.999l-28 -78l-21.5 -60.5l-23 -63.5l-32.5 -88c6.66699 0 13.834 -0.666992 21.501 -2s15 -4.16602 22 -8.49902s13 -10.666 18 -18.999s8.16699 -19.5 9.5 -33.5z
M104.999 -66.9961c-38 -6.66699 -67.333 -17.833 -88 -33.5s-35 -32.167 -43 -49.5s-10.167 -33.333 -6.5 -48s10.5 -23.834 20.5 -27.501s22.667 0.333008 38 12s31 34.834 47 69.501l16 37.5z" />
    <glyph glyph-name="z.001" horiz-adv-x="287" 
d="M119 -117c-26.667 -26.667 -56.168 -46.3301 -88.501 -58.9971s-62.833 -19.334 -91.5 -20.001s-53.167 4.16602 -73.5 14.499s-31.666 24.833 -33.999 43.5s6.33398 41 26.001 67s55.167 54.333 106.5 85c30 18 61.333 33.5 94 46.5s64.334 21.167 95.001 24.5
c5.33301 15.333 9.16602 29.333 11.499 42s2.5 24.334 0.5 35.001c-18 -21.333 -35.833 -37 -53.5 -47s-33.834 -15.833 -48.501 -17.5s-27.667 0.166016 -39 5.49902s-19.833 12.666 -25.5 21.999s-8.33398 19.666 -8.00098 30.999s4.83301 22 13.5 32
c16.667 18 36 30.5 58 37.5s44.333 10.5 67 10.5c8 14 15 27.667 21 41s10.333 25.5 13 36.5s3 20.5 1 28.5s-6.33301 13.333 -13 16s-15.667 1.33398 -27 -3.99902s-23 -12.333 -35 -21s-23.333 -17.5 -34 -26.5l-23 -19.5c-4 -3.33301 -7.83301 -4.5 -11.5 -3.5
s-6.5 3 -8.5 6s-2.83301 6.33301 -2.5 10s2.5 7.16699 6.5 10.5l40 32.5c14 11.667 28.5 22 43.5 31s30.167 15.833 45.5 20.5s30.666 5 45.999 1c18.667 -5.33301 32 -14.166 40 -26.499s11.667 -27 11 -44s-4.66699 -35.333 -12 -55s-16.666 -38.834 -27.999 -57.501
c14.667 -14 24.334 -30.167 29.001 -48.5s5.66699 -38 3 -59s-8.16699 -42.333 -16.5 -64s-18 -42.5 -29 -62.5s-22.667 -38.167 -35 -54.5s-23.833 -29.833 -34.5 -40.5zM3.99902 -116.996c60 46 104.998 102.665 134.998 169.998c-28.667 -5.33301 -57 -14 -85 -26
s-54.667 -25.667 -80 -41c-33.333 -21.333 -58.166 -40.666 -74.499 -57.999s-26.5 -32.166 -30.5 -44.499s-2.66699 -22 4 -29s16.667 -10.833 30 -11.5s28.833 2.33301 46.5 9s35.834 17 54.501 31zM108.997 205.002c-16.667 -2.66699 -30.5 -6.50098 -41.5 -11.501
s-19.667 -10.167 -26 -15.5s-10.5 -10.666 -12.5 -15.999s-2 -9.33301 0 -12c3.33301 -6 12 -5.83301 26 0.5s32 24.5 54 54.5z" />
    <glyph glyph-name="a.002" horiz-adv-x="314" 
d="M173 -28c-17.333 3.33301 -29.167 10.1699 -35.5 20.5029s-9.5 22.166 -9.5 35.499s2.16699 27 6.5 41s8.5 26.333 12.5 37l-23.5 -29.5c-7 -9 -14 -16.5 -21 -22.5s-14 -10.333 -21 -13s-14.833 -3 -23.5 -1c-22.667 4.66699 -38.334 15.667 -47.001 33
s-12.334 37.666 -11.001 60.999c1.33301 18.667 5.33301 38.167 12 58.5s15.5 39.5 26.5 57.5s23.667 33.5 38 46.5s29.5 22 45.5 27s32.333 4.83301 49 -0.5s32.667 -18 48 -38c7.33301 18.667 14.166 30.334 20.499 35.001s16.5 3 30.5 -5
c9.33301 -6 15.833 -11.833 19.5 -17.5s4.83398 -12.834 3.50098 -21.501s-4.5 -19.334 -9.5 -32.001l-18.5 -47c-1.33301 -4 -5.16602 -11.833 -11.499 -23.5l-21.5 -41.5l-24.5 -51c-8.33301 -18 -15.666 -34.667 -21.999 -50s-11 -28.5 -14 -39.5s-2.5 -17.5 1.5 -19.5z
M76.999 75.0039c6.66699 0 16.501 7.66602 29.501 22.999s26.333 33 40 53s26.167 39.833 37.5 59.5s18.666 33.834 21.999 42.501c-5.33301 7.33301 -12.333 12.5 -21 15.5s-15.667 2.83301 -21 -0.5c-6 -3.33301 -12.667 -10.333 -20 -21s-15 -23.167 -23 -37.5
s-15.5 -29.5 -22.5 -45.5s-12.833 -30.5 -17.5 -43.5s-7.5 -23.833 -8.5 -32.5s0.5 -13 4.5 -13z" />
    <glyph glyph-name="b.002" horiz-adv-x="308" 
d="M72 2c-7.33301 3.33301 -14.1641 8.33301 -20.4971 15s-10.5 13.667 -12.5 21c-0.666992 -2.66699 -1 -3.66699 -1 -3v3c0 1.33301 -0.166992 2.5 -0.5 3.5s-0.833008 0.5 -1.5 -1.5c-6 -10.667 -13.667 -18.834 -23 -24.501s-18 -9.16699 -26 -10.5
s-14.5 -0.833008 -19.5 1.5s-6.83301 5.83301 -5.5 10.5l38 117l61 185c21.333 62.667 44 124.334 68 185.001c-19.333 6 -35.833 15.667 -49.5 29s-21.167 30.666 -22.5 51.999c9.33301 -9.33301 22.5 -16.5 39.5 -21.5s35.167 -6.83301 54.5 -5.5h87l-44.5 -106
l-42.5 -107l-44 -114c19.333 30.667 38.666 53.334 57.999 68.001s36.666 23.5 51.999 26.5s28.166 1.16699 38.499 -5.5s16.166 -15.667 17.499 -27c2 -15.333 0.5 -33.333 -4.5 -54s-12.5 -42 -22.5 -64s-22 -43.5 -36 -64.5s-28.667 -39.667 -44 -56
s-31.166 -29.5 -47.499 -39.5s-31.833 -14.333 -46.5 -13zM47.002 52c13.333 2.66699 27.8311 12.168 43.498 28.501s30.834 35.333 45.501 57s27.5 43.834 38.5 66.501s18.833 41.667 23.5 57s4.83398 24.833 0.500977 28.5s-14.833 -2.5 -31.5 -18.5
c-12.667 -12 -25.334 -27.833 -38.001 -47.5s-24.5 -40.334 -35.5 -62.001s-20.667 -42.334 -29 -62.001s-14.166 -35.5 -17.499 -47.5z" />
    <glyph glyph-name="c.002" horiz-adv-x="288" 
d="M212 236c-17.333 20 -34.167 29.5039 -50.5 28.5039s-31.166 -8.5 -44.499 -22.5s-24.333 -31.833 -33 -53.5s-13.834 -43.334 -15.501 -65.001s0.833008 -40.834 7.5 -57.501s18.5 -26.667 35.5 -30s39.833 2 68.5 16s64.667 41.333 108 82
c2.66699 2.66699 5.66699 3.66699 9 3s6 -2.5 8 -5.5s3.16699 -6.33301 3.5 -10s-1.16699 -6.83398 -4.5 -9.50098c-42 -38 -79 -67.167 -111 -87.5s-63.667 -30.5 -95 -30.5c-18 0 -33.333 4.16699 -46 12.5s-23.167 19.166 -31.5 32.499s-14.166 28.333 -17.499 45
s-4.33301 33.334 -3 50.001c1.33301 23.333 6.83301 47.166 16.5 71.499s22.5 46.166 38.5 65.499c16.667 20.667 35.167 35 55.5 43s38.666 10.333 54.999 7s29.333 -12.166 39 -26.499s12.167 -33.833 7.5 -58.5z" />
    <glyph glyph-name="d.002" horiz-adv-x="334" 
d="M189 -30c-21.333 3.33301 -35.667 11.333 -43 24s-11 26.5 -11 41.5s2 29 6 42s6.66699 21.5 8 25.5c-17.333 -22 -32.166 -39.333 -44.499 -52s-26.833 -17.334 -43.5 -14.001c-24 4 -40.667 15.167 -50 33.5s-13 39.5 -11 63.5c2 27.333 10.167 55.5 24.5 84.5
s32.166 52.833 53.499 71.5s44.666 29.334 69.999 32.001s50.666 -9 75.999 -35l44.5 107.5l43.5 109.5c-19.333 6 -35.666 15.667 -48.999 29s-20.666 30.666 -21.999 51.999c9.33301 -9.33301 22.5 -16.5 39.5 -21.5s35.167 -6.83301 54.5 -5.5l86 -1l-44.5 -104.5
l-50 -115l-49.5 -115.5c-16 -38 -30.333 -73.5 -43 -106.5s-23.167 -62.167 -31.5 -87.5s-12.833 -44.666 -13.5 -57.999zM79.999 71c6.66699 0 16.001 5.99902 28.001 17.999s24.667 27.5 38 46.5s26.166 39.833 38.499 62.5s22.5 44.667 30.5 66
c-12.667 17.333 -25.5 24.5 -38.5 21.5s-25.5 -11.667 -37.5 -26s-23 -32.166 -33 -53.499s-17.833 -42 -23.5 -62s-9 -37.167 -10 -51.5s1.5 -21.5 7.5 -21.5z" />
    <glyph glyph-name="e.002" horiz-adv-x="266" 
d="M122 0c-24 0 -44.168 3.66797 -60.501 11.001s-29.333 17.166 -39 29.499s-16.167 26.5 -19.5 42.5s-4.33301 33 -3 51c2 22 7.33301 44.167 16 66.5s20.334 42.5 35.001 60.5s31.667 32.667 51 44s40.666 17 63.999 17c18.667 0 34.167 -4.66699 46.5 -14
s20.833 -20.833 25.5 -34.5s5.5 -28.334 2.5 -44.001s-10.333 -29.5 -22 -41.5s-28 -21 -49 -27s-46.5 -6.66699 -76.5 -2c-9.33301 -31.333 -12.166 -61.666 -8.49902 -90.999s16.167 -52 37.5 -68zM212.999 224.001c5.33301 14 4.83301 25.999 -1.5 35.999
s-15.5 15 -27.5 15s-25.667 -6.83301 -41 -20.5s-29.333 -37.5 -42 -71.5c8.66699 -1.33301 18.667 -1.66602 30 -0.999023s22.5 2.5 33.5 5.5s20.833 7.33301 29.5 13s15 13.5 19 23.5z" />
    <glyph glyph-name="f.002" horiz-adv-x="232" 
d="M186 120c-18.667 -0.666992 -37.0029 -0.500977 -55.0029 0.499023s-35.667 2.5 -53 4.5l-43 -113l-26 -68.5l-15.5 -39l-9.5 -23.5h-79l48 126.5l47 126.5l2 7c-12.667 4 -23.167 8.66699 -31.5 14s-13.166 11.666 -14.499 18.999
c13.333 -4.66699 31.333 -8.66699 54 -12l21.5 56.5l19.5 49.5c-18 2.66699 -32.667 5.83398 -44 9.50098s-20.5 8 -27.5 13s-12.667 10.5 -17 16.5s-7.83301 13 -10.5 21c14 -4 31.833 -7.16699 53.5 -9.5s45.5 -3.66602 71.5 -3.99902s53 0.5 81 2.5s55 5.66699 81 11
c10.667 0 17.834 -5.5 21.501 -16.5s-0.166016 -24.833 -11.499 -41.5c-40 -4 -79.333 -6 -118 -6l-41 -107c22.667 -1.33301 41 -4.5 55 -9.5s27.667 -14.167 41 -27.5z" />
    <glyph glyph-name="g.002" 
d="M152 -152c-20 -40 -40.5049 -69.665 -61.5049 -88.998s-41 -30.833 -60 -34.5s-35.833 -1 -50.5 8s-25.834 21.667 -33.501 38s-10.834 35.166 -9.50098 56.499s9 42 23 62s34.833 38.333 62.5 55s64.167 29 109.5 37l24 63l12 32c-16.667 -16 -34.167 -29.667 -52.5 -41
s-38.166 -16 -59.499 -14c-28 3.33301 -45.667 15.833 -53 37.5s-8.33301 46.834 -3 75.501c4.66699 22.667 12.834 45.834 24.501 69.501s25.334 45 41.001 64s32.667 34.167 51 45.5s36.5 15.666 54.5 12.999c14.667 -2 27.834 -7.16699 39.501 -15.5
s20.167 -18.5 25.5 -30.5l13 38c2 6.66699 6.83301 9.66699 14.5 9s15.5 -3.5 23.5 -8.5s15 -11.167 21 -18.5s8.33301 -14 7 -20c-7.33301 -28.667 -17.666 -62.834 -30.999 -102.501s-28.666 -81.834 -45.999 -126.501l-27 -67l-7 -15c28.667 -10 53 -24.333 73 -43
s33.333 -39 40 -61s5.83398 -44 -2.49902 -66s-26.5 -41.333 -54.5 -58c16.667 22 26.5 43 29.5 63s0.5 38.167 -7.5 54.5s-20.5 30.333 -37.5 42s-36.5 20.167 -58.5 25.5c-5.33301 -10.667 -10.5 -22.667 -15.5 -36s-11.167 -27.333 -18.5 -42zM224.995 242.002
c-3.33301 11.333 -7.6709 21.001 -13.0039 29.001s-14.666 11.333 -27.999 10c-11.333 -0.666992 -22.666 -6.33398 -33.999 -17.001s-21.833 -23.834 -31.5 -39.501s-18.167 -32.5 -25.5 -50.5s-12.666 -35.167 -15.999 -51.5s-4.16602 -30.166 -2.49902 -41.499
s6.5 -18 14.5 -20c6 -1.33301 13.5 0.5 22.5 5.5s18 11.333 27 19s17.833 16 26.5 25l22 23.5zM114.99 -66.9971c-38 -6.66699 -67.333 -17.833 -88 -33.5s-35 -32.167 -43 -49.5s-10.167 -33.333 -6.5 -48s10.5 -23.834 20.5 -27.501s22.667 0.333008 38 12
s31 34.834 47 69.501l16 37.5z" />
    <glyph glyph-name="h.002" horiz-adv-x="310" 
d="M222 -27c-26 1.33301 -43.501 10.333 -52.501 27s-12.833 37 -11.5 61s6.16602 49.833 14.499 77.5s17 53.167 26 76.5s16.833 42.833 23.5 58.5s8.66699 23.5 6 23.5c-8 0 -18.167 -4.66699 -30.5 -14s-25.166 -21.5 -38.499 -36.5s-26.666 -32 -39.999 -51
s-25 -37.833 -35 -56.5l-45 -128c-2.66699 -8 -8.16699 -10.833 -16.5 -8.5s-16.333 7.66602 -24 15.999s-13.334 18.666 -17.001 30.999s-2.16699 24.5 4.5 36.5l14 48l24.5 77.5l32 94l36.5 101l37 97.5c-19.333 5.33301 -36 14.833 -50 28.5s-21.667 31.167 -23 52.5
c9.33301 -9.33301 22.5 -16.5 39.5 -21.5s35.167 -6.83301 54.5 -5.5h84c-18.667 -44.667 -38 -94.5 -58 -149.5l-68 -182.5c18 26 36 47 54 63s34.833 27 50.5 33s30 6.83301 43 2.5s23.5 -14.166 31.5 -29.499c5.33301 -10.667 6.33301 -25.667 3 -45
s-8.66602 -40.333 -15.999 -63s-15.5 -45.834 -24.5 -69.501s-16.833 -45.667 -23.5 -66s-11 -37.666 -13 -51.999s0.666992 -23.166 8 -26.499z" />
    <glyph glyph-name="i.002" horiz-adv-x="137" 
d="M27 -13c-14 2 -24.1621 7.66309 -30.4951 16.9961s-10 20.833 -11 34.5s0 28.834 3 45.501s6.83301 33.334 11.5 50.001c5.33301 19.333 12.666 42.833 21.999 70.5s21.333 60.167 36 97.5c9.33301 4 19 6.83301 29 8.5s18.5 1.33398 25.5 -0.999023
s11.667 -7.16602 14 -14.499s1.16602 -18 -3.50098 -32c-4 -12 -9.66699 -26.833 -17 -44.5s-15.5 -36.334 -24.5 -56.001l-26.5 -60c-8.66699 -20.333 -15.834 -38.666 -21.501 -54.999s-9.33398 -30 -11.001 -41s0.166016 -17.5 5.49902 -19.5h-1zM147.005 404.996
c10 -7.33301 15.5 -16.667 16.5 -28s-1.66699 -21.5 -8 -30.5s-15.5 -15 -27.5 -18s-25.667 0.166992 -41 9.5c-11.333 6.66699 -17.833 16.167 -19.5 28.5s0.5 23.333 6.5 33s15.333 16 28 19s27.667 -1.5 45 -13.5z" />
    <glyph glyph-name="j.002" horiz-adv-x="170" 
d="M-40 -152c-20 -40 -40.4971 -69.6689 -61.4971 -89.002s-41 -30.833 -60 -34.5s-35.833 -1 -50.5 8s-25.834 21.667 -33.501 38s-10.834 35.166 -9.50098 56.499s9 42 23 62s34.833 38.333 62.5 55s64.167 29 109.5 37l117 337c2 6.66699 7 9.5 15 8.5s16 -4 24 -9
s15 -11.167 21 -18.5s8 -13.666 6 -18.999l-18 -54l-25.5 -73l-31 -86l-34.5 -94c31.333 -8 58 -21.5 80 -40.5s37.167 -39.833 45.5 -62.5s8.5 -45.667 0.5 -69s-26.667 -43.333 -56 -60c18 22.667 28.167 44.5 30.5 65.5s-1.33398 39.833 -11.001 56.5
s-24 30.834 -43 42.501s-40.5 19.834 -64.5 24.501c-5.33301 -11.333 -10.833 -24 -16.5 -38s-12.167 -28.667 -19.5 -44zM-76.9971 -67.002c-38 -6.66699 -67.333 -17.833 -88 -33.5s-35 -32.167 -43 -49.5s-10.167 -33.333 -6.5 -48s10.5 -23.834 20.5 -27.501
s22.667 0.333008 38 12s31 34.834 47 69.501l16 37.5zM147.003 404.999c10 -7.33301 15.5 -16.667 16.5 -28s-1.66699 -21.5 -8 -30.5s-15.5 -15 -27.5 -18s-25.667 0.166992 -41 9.5c-11.333 6.66699 -17.833 16.167 -19.5 28.5s0.5 23.333 6.5 33s15.333 16 28 19
s27.667 -1.5 45 -13.5z" />
    <glyph glyph-name="k.002" horiz-adv-x="316" 
d="M307 -50c-26.667 -8 -50.8311 -6.16992 -72.498 5.49707s-40.667 29.167 -57 52.5s-29.833 51 -40.5 83s-18.334 64.333 -23.001 97l-17.5 -26.5c-5.66699 -9 -10.834 -18.167 -15.501 -27.5l-55 -168c-2.66699 -8 -7.66699 -11.167 -15 -9.5s-14.5 6.5 -21.5 14.5
s-12.5 18.167 -16.5 30.5s-4 25.166 0 38.499l27 94l27 85.5l31.5 95.5l34 97.5l34.5 91.5c-19.333 5.33301 -36 14.833 -50 28.5s-21.667 31.167 -23 52.5c9.33301 -9.33301 22.5 -16.5 39.5 -21.5s35.167 -6.83301 54.5 -5.5h86l-17.5 -42l-21 -53l-20 -50.5
c-6.33301 -15.667 -10.833 -27.5 -13.5 -35.5l-14 -36l-26 -73c-7.33301 -20.667 -12.333 -36.334 -15 -47.001c18 26.667 38 49 60 67s42 28.333 60 31s32.5 -4.16602 43.5 -20.499s14.833 -45.5 11.5 -87.5c-0.666992 -7.33301 -4.5 -10.666 -11.5 -9.99902
s-14.333 3.16699 -22 7.5s-14.667 10 -21 17s-9.5 13.5 -9.5 19.5c0.666992 5.33301 2.16699 10.333 4.5 15s4.16602 8.83398 5.49902 12.501s1.83301 6.5 1.5 8.5s-2.83301 3 -7.5 3c-7.33301 0 -16 -3.33301 -26 -10s-21 -15.667 -33 -27
c4.66699 -5.33301 9.66699 -13.666 15 -24.999s10.333 -27.666 15 -48.999c2.66699 -16 6.83398 -34.167 12.501 -54.5s13 -40.833 22 -61.5s20 -40.5 33 -59.5s28.5 -34.833 46.5 -47.5z" />
    <glyph glyph-name="l.002" horiz-adv-x="143" 
d="M32 -19c-14 0 -24.3311 4.33301 -30.998 13s-10.834 20 -12.501 34s-1.33398 30.167 0.999023 48.5s5.83301 37.5 10.5 57.5c4.66699 22 12 48 22 78l33 95l37.5 101l37.5 96c-19.333 5.33301 -36 14.833 -50 28.5s-21.667 31.167 -23 52.5
c9.33301 -9.33301 22.5 -16.5 39.5 -21.5s35.167 -6.83301 54.5 -5.5l91 2l-84 -215l-71.5 -183c-20.333 -53.333 -35.5 -96.333 -45.5 -129s-12.333 -50 -7 -52h-2zM34.002 -19h1h-1h-2h2z" />
    <glyph glyph-name="m.002" horiz-adv-x="490" 
d="M377 -28l-1.00781 -0.00390625c-17.333 2 -29.166 8.83301 -35.499 20.5s-9.16602 26.167 -8.49902 43.5s3.83398 36.166 9.50098 56.499s11.834 40.166 18.501 59.499c6 16 11.667 32.5 17 49.5s10 32.5 14 46.5s6.5 25.5 7.5 34.5s-0.166992 13.5 -3.5 13.5
c-14.667 0 -32.5 -9 -53.5 -27s-40.167 -44 -57.5 -78c-10.667 -20 -19.667 -37.5 -27 -52.5s-11.666 -30.833 -12.999 -47.5c-0.666992 -7.33301 -4.5 -10.666 -11.5 -9.99902s-14.333 3.16699 -22 7.5s-14.667 10 -21 17s-9.16602 13.167 -8.49902 18.5
c0.666992 10.667 4.83398 26 12.501 46l22 59c7 19.333 11.833 35.833 14.5 49.5s-0.666016 19.167 -9.99902 16.5c-11.333 -2.66699 -23.5 -9.66699 -36.5 -21s-25.833 -24.166 -38.5 -38.499s-23.834 -28.833 -33.501 -43.5s-16.5 -26.334 -20.5 -35.001l-56 -160
c-2.66699 -8 -7.66699 -11 -15 -9s-14.5 6.83301 -21.5 14.5s-12.5 17.667 -16.5 30s-4 25.166 0 38.499l8.5 30l9.5 33l16.5 52.5l15 47c5 15 10.333 29.667 16 44l17.5 44.5c2 6.66699 6.5 9.33398 13.5 8.00098s14 -5 21 -11s13 -13.833 18 -23.5s6.5 -19.5 4.5 -29.5
l-11 -33c9.33301 14 19.666 27.333 30.999 40s24 24 38 34c18 12.667 34.333 19.5 49 20.5s27 -1.83301 37 -8.5s17.333 -16.5 22 -29.5s5.66699 -27.5 3 -43.5c1.33301 5.33301 5.5 12.333 12.5 21s15.5 17.167 25.5 25.5s20.833 15.833 32.5 22.5s23.5 10.834 35.5 12.501
s23.333 0 34 -5s19.667 -14.833 27 -29.5c4.66699 -8.66699 6.83398 -18.667 6.50098 -30s-2 -23.166 -5 -35.499s-6.83301 -25.166 -11.5 -38.499l-14 -40c-14 -32 -26 -61 -36 -87l-11.5 -32.5c-3.66699 -10.333 -6.66699 -19.666 -9 -27.999
s-3.66602 -15.166 -3.99902 -20.499s0.5 -8.33301 2.5 -9h1z" />
    <glyph glyph-name="n.002" horiz-adv-x="328" 
d="M212 -27l-1.99707 -0.00195312c-16 2 -27.333 8.16699 -34 18.5s-10.167 23.5 -10.5 39.5s1.66699 33.667 6 53s9.66602 39 15.999 59s12.833 39.333 19.5 58s12 35 16 49s5.83301 24.833 5.5 32.5s-4.16602 10.5 -11.499 8.5
c-11.333 -3.33301 -23.833 -11.166 -37.5 -23.499s-27.167 -26.333 -40.5 -42s-25.166 -31.334 -35.499 -47.001s-17.5 -27.834 -21.5 -36.501l-53 -165c-2.66699 -8 -7.66699 -11 -15 -9s-14.5 7 -21.5 15s-12.5 18 -16.5 30s-4 24.667 0 38
c3.33301 12.667 7 25.834 11 39.501l13 43.5l30.5 98.5c9 29.667 19.167 58.5 30.5 86.5c2.66699 6.66699 7.5 9.33398 14.5 8.00098s14 -5.16602 21 -11.499s12.833 -14.333 17.5 -24s6 -19.5 4 -29.5l-10 -33c27.333 40 53.166 66.667 77.499 80s45.166 18 62.499 14
s30.166 -14 38.499 -30s10.5 -33 6.5 -51c-6 -28 -14.833 -57.5 -26.5 -88.5l-32.5 -86c-10 -26.333 -17.833 -48.333 -23.5 -66s-5.83398 -27.167 -0.500977 -28.5h3h-1z" />
    <glyph glyph-name="o.002" horiz-adv-x="273" 
d="M202 95l-38.5 -49.0029c-13.667 -16.667 -27.834 -31.167 -42.501 -43.5s-29.667 -21.166 -45 -26.499s-31 -4.66602 -47 2.00098c-13.333 6 -23.5 14.167 -30.5 24.5s-11.333 22.5 -13 36.5s-1.16699 29 1.5 45s7 32.667 13 50c6.66699 18.667 16.834 40.5 30.501 65.5
s29.5 47.833 47.5 68.5s37.833 36.834 59.5 48.501s44.167 13.5 67.5 5.5c17.333 -6 29.833 -15.667 37.5 -29s11.834 -28.333 12.501 -45s-1.33301 -34 -6 -52s-10.334 -34.667 -17.001 -50c-3.33301 -7.33301 -7.5 -15.5 -12.5 -24.5s-10.833 -17.833 -17.5 -26.5z
M92 242.997c3.33301 0 8.16699 -0.831055 14.5 -2.49805s12.333 -4 18 -7s9.5 -7.33301 11.5 -13s0.666992 -12.5 -4 -20.5l-38 -62c6 -5.33301 14.167 -10.333 24.5 -15s19.166 -8.33398 26.499 -11.001c26.667 42 43 77.833 49 107.5s4.83301 51 -3.5 64
s-21.666 16.667 -39.999 11s-37.833 -22.834 -58.5 -51.501zM58.001 16.999c4.66699 0 10.666 2.66699 17.999 8s14.5 11.833 21.5 19.5s13.5 15.334 19.5 23.001s10.333 13.5 13 17.5l-28 10.5c-11.333 4.33301 -19.666 9.16602 -24.999 14.499
c-3.33301 -3.33301 -7.33301 -10 -12 -20s-8.5 -20.5 -11.5 -31.5s-4.5 -20.667 -4.5 -29s3 -12.5 9 -12.5z" />
    <glyph glyph-name="p.002" horiz-adv-x="324" 
d="M243 331c21.333 -2.66699 36.8281 -10.833 46.4951 -24.5s14.834 -30.334 15.501 -50.001s-2.66602 -41.167 -9.99902 -64.5s-17.333 -45.833 -30 -67.5s-27.334 -41 -44.001 -58s-34.167 -29 -52.5 -36s-36.666 -8 -54.999 -3s-35.5 18.833 -51.5 41.5
c-25.333 -70.667 -46.166 -132.167 -62.499 -184.5s-31.833 -97.5 -46.5 -135.5c-12.667 -8.66699 -26.667 -13.667 -42 -15s-28 2.33398 -38 11.001l127 389l71 209c2 6.66699 6.83301 9.5 14.5 8.5s15.667 -4 24 -9s15.5 -11.167 21.5 -18.5s8.33301 -14.333 7 -21l-7 -27
c16.667 16 34.334 29.667 53.001 41s38.334 16 59.001 14zM73.9951 102.001c3.33301 -11.333 7.66992 -21 13.0029 -29s14.666 -11.667 27.999 -11c11.333 0.666992 22.666 6.5 33.999 17.5s21.833 24.667 31.5 41s18.167 34 25.5 53s12.666 37 15.999 54s4 31.5 2 43.5
s-7 19 -15 21c-6 1.33301 -13.333 -0.5 -22 -5.5s-17.5 -11.5 -26.5 -19.5s-17.667 -16.333 -26 -25l-21.5 -23z" />
    <glyph glyph-name="q.002" horiz-adv-x="337" 
d="M315 281l-64.498 -193.003l-45.5 -140l-32.5 -101.5l-25.5 -77.5c13.333 -10 27.333 -17.5 42 -22.5s27.667 -6.83301 39 -5.5c-6.66699 -7.33301 -16.334 -13.666 -29.001 -18.999s-27 -8.66602 -43 -9.99902s-32.667 -0.5 -50 2.5s-34 9.5 -50 19.5l113 342
c-17.333 -16 -35.166 -29.667 -53.499 -41s-38.166 -16 -59.499 -14c-28 3.33301 -45.667 15.833 -53 37.5s-8.33301 46.834 -3 75.501c4.66699 22.667 12.5 45.667 23.5 69s24.167 44.166 39.5 62.499s32.166 32.833 50.499 43.5s36.5 14.667 54.5 12
c14 -2 27 -7.16699 39 -15.5s20.667 -18.5 26 -30.5c3.33301 9.33301 6.66602 18.166 9.99902 26.499s6.33301 16.833 9 25.5c2 6 7 8.83301 15 8.5s16.167 -2.66602 24.5 -6.99902s15.166 -10.666 20.499 -18.999s6.33301 -17.833 3 -28.5zM222.002 236.997
c-3.33301 11.333 -7.83301 21 -13.5 29s-15.167 11.333 -28.5 10c-11.333 -0.666992 -22.5 -6.16699 -33.5 -16.5s-21.167 -23.166 -30.5 -38.499s-17.5 -31.833 -24.5 -49.5s-11.833 -34.334 -14.5 -50.001s-3.16699 -29.167 -1.5 -40.5s6.5 -18 14.5 -20
c6 -2 13.333 -0.5 22 4.5s17.5 11.333 26.5 19s18 16 27 25s16.5 16.833 22.5 23.5z" />
    <glyph glyph-name="r.002" horiz-adv-x="323" 
d="M263 134c-22.667 10.667 -37.5 21.5029 -44.5 32.5029s-9.83301 22 -8.5 33s5.5 21.333 12.5 31l19 25.5c5.66699 7.33301 8.83398 13.166 9.50098 17.499s-4.33301 6.5 -15 6.5c-14 -1.33301 -29.333 -9 -46 -23s-33 -30.833 -49 -50.5s-30.833 -40.667 -44.5 -63
s-24.167 -42.833 -31.5 -61.5l-26 -71c-2.66699 -8 -8.16699 -10.833 -16.5 -8.5s-16.333 7.66602 -24 15.999s-13.334 18.666 -17.001 30.999s-2.16699 24.5 4.5 36.5l14 48c7.33301 25.333 16 52.5 26 81.5l36 103.5c1.33301 3.33301 6.33301 6 15 8
s17.834 3.16699 27.501 3.5s18.667 -0.333984 27 -2.00098s13.166 -3.83398 14.499 -6.50098c-3.33301 -9.33301 -6.5 -17.666 -9.5 -24.999l-8.5 -21.5l-8.5 -22.5l-10.5 -27c18 26 36 47 54 63s34.833 27 50.5 33s30 6.83301 43 2.5s23.5 -14.166 31.5 -29.499
c4.66699 -9.33301 7 -20.333 7 -33s-1.5 -26.167 -4.5 -40.5s-7 -29 -12 -44s-10.167 -29.5 -15.5 -43.5z" />
    <glyph glyph-name="s.002" horiz-adv-x="152" 
d="M54 190c12.667 -22 23.6631 -43.333 32.9961 -64s15.333 -40 18 -58s1.66699 -34.5 -3 -49.5s-14 -28.5 -28 -40.5c-7.33301 -6 -17.666 -11.167 -30.999 -15.5s-26.5 -6.16602 -39.5 -5.49902s-24.167 4 -33.5 10s-14 16.333 -14 31c8 -5.33301 17.333 -8 28 -8
s20 2 28 6c14.667 8 23.334 18.167 26.001 30.5s2 25.166 -2 38.499s-9.83301 26.166 -17.5 38.499l-18.5 30.5c-21.333 34 -31 64.667 -29 92s9.83301 50 23.5 68s30.334 30.833 50.001 38.5s37.167 8.83398 52.5 3.50098s25.5 -17.5 30.5 -36.5
s-0.833008 -45.833 -17.5 -80.5c1.33301 16 -1 29.333 -7 40s-13.167 17.667 -21.5 21s-16.5 2.33301 -24.5 -3s-13.667 -16 -17 -32c-1.33301 -6.66699 -1.16602 -14.5 0.500977 -23.5s6.16699 -19.5 13.5 -31.5z" />
    <glyph glyph-name="t.002" horiz-adv-x="176" 
d="M58 -57l-1.00098 0.000976562c-12 -4.66699 -24.5 -5.5 -37.5 -2.5s-22.833 11.167 -29.5 24.5c-7.33301 15.333 -9.83301 37.833 -7.5 67.5s8.16602 63.5 17.499 101.5c4 16.667 9.5 36 16.5 58l23 70l27 76.5l29.5 77.5c-11.333 2.66699 -23.666 6 -36.999 10
s-25.833 8.66699 -37.5 14s-21.667 11.5 -30 18.5s-12.5 14.5 -12.5 22.5c6.66699 -1.33301 15.834 -2.66602 27.501 -3.99902s24.167 -2.5 37.5 -3.5s26.333 -1.83301 39 -2.5s23.667 -1.33398 33 -2.00098l19 48.5l17 41.5c8.66699 7.33301 21.5 10.5 38.5 9.5
s33.5 -4.16699 49.5 -9.5l-34 -92c16.667 0.666992 33 1.16699 49 1.5s31.667 1.16602 47 2.49902c1.33301 -10 1.33301 -19.667 0 -29s-9 -18.333 -23 -27c-15.333 -2.66699 -30.833 -4.66699 -46.5 -6s-31.5 -2 -47.5 -2l-33.5 -96.5l-33.5 -102l-30 -98
c-9.33301 -31.667 -17 -59.667 -23 -84s-9.83301 -44 -11.5 -59s-0.5 -23.167 3.5 -24.5h2h-1z" />
    <glyph glyph-name="u.002" horiz-adv-x="348" 
d="M223 -31c-19.333 1.33301 -32.667 7.16797 -40 17.501s-11 23.166 -11 38.499s2.5 31.166 7.5 47.499s9.5 30.166 13.5 41.499c-6 -8 -14.333 -18 -25 -30s-22.334 -23.667 -35.001 -35s-26 -21 -40 -29s-27.333 -12 -40 -12c-16.667 0 -30.334 7.5 -41.001 22.5
s-16 35.167 -16 60.5c0 19.333 2.66699 40.166 8 62.499s11.5 44 18.5 65s14 40.667 21 59s12.5 33.166 16.5 44.499c1.33301 5.33301 4.5 9 9.5 11s10.833 3 17.5 3c11.333 0 22.5 -2.66699 33.5 -8s16.5 -11.666 16.5 -18.999v-2
c-3.33301 -11.333 -8.83301 -28.166 -16.5 -50.499l-23.5 -70c-8 -24.333 -15 -47.666 -21 -69.999s-9 -39.166 -9 -50.499c0 -9.33301 2.33301 -14 7 -14c10.667 0 23.334 5.66699 38.001 17s29.167 24.833 43.5 40.5s27 31.334 38 47.001s18.5 27.834 22.5 36.501l53 124
c2 5.33301 5.66699 8 11 8c4 0 8.33301 -1.66699 13 -5s9.16699 -8 13.5 -14s7.83301 -12.833 10.5 -20.5s4 -15.834 4 -24.501c0 -3.33301 -0.333008 -7 -1 -11s-1.66699 -7.66699 -3 -11c-2 -4.66699 -5.5 -13.334 -10.5 -26.001l-18 -45l-22 -55
c-7.66699 -19.333 -14.667 -38 -21 -56s-11.666 -34.667 -15.999 -50s-6.5 -27 -6.5 -35v-5v2z" />
    <glyph glyph-name="v.002" 
d="M70 -29c-22.667 -3.33301 -39.9961 -1.16309 -51.9961 6.50391s-20 19.334 -24 35.001s-5.16699 34 -3.5 55s4.83398 43.167 9.50098 66.5c2.66699 16 6.33398 32.333 11.001 49l14 49l13 46c4 14.667 7.33301 28 10 40c1.33301 7.33301 4.5 10.666 9.5 9.99902
s10.167 -3.33398 15.5 -8.00098s10 -10.5 14 -17.5s5.66699 -13.5 5 -19.5c-1.33301 -10.667 -3.66602 -24.834 -6.99902 -42.501l-11 -57.5c-4 -20.667 -7.66699 -41.667 -11 -63s-5.33301 -40.5 -6 -57.5s0.166016 -31 2.49902 -42s7.5 -16.5 15.5 -16.5
s18.167 6.66699 30.5 20s24.666 28.833 36.999 46.5s24 35.5 35 53.5s18.833 31.667 23.5 41c-10 22.667 -15.833 43.5 -17.5 62.5s-0.833984 35.167 2.49902 48.5s8.16602 24 14.499 32s12.833 13 19.5 15c14.667 4 25.5 3.66699 32.5 -1s11.333 -12 13 -22
s1.33398 -21.667 -0.999023 -35s-5.5 -26.5 -9.5 -39.5s-8.16699 -24.833 -12.5 -35.5l-9.5 -23c6 -11.333 12.833 -21.5 20.5 -30.5s16.167 -15.5 25.5 -19.5s19.333 -4.83301 30 -2.5s22 8.83301 34 19.5c3.33301 3.33301 7 4.66602 11 3.99902
s7.16699 -2.33398 9.5 -5.00098s3.66602 -6 3.99902 -10s-1.5 -7.66699 -5.5 -11c-14 -12.667 -27.833 -21 -41.5 -25s-26.834 -4.5 -39.501 -1.5s-24.334 8.83301 -35.001 17.5s-20.334 19.667 -29.001 33l-29 -48.5c-11.333 -18.333 -23.333 -36 -36 -53
s-26 -31.5 -40 -43.5s-28 -18.667 -42 -20zM219.004 204.003c11.333 30 17.499 52.3311 18.499 66.998s-0.166992 23.334 -3.5 26.001c-2.66699 2 -5.66699 1 -9 -3s-6.16602 -10.167 -8.49902 -18.5s-3.5 -18.666 -3.5 -30.999s2 -25.833 6 -40.5z" />
    <glyph glyph-name="w.002" horiz-adv-x="503" 
d="M44 -27c-26 -4 -43.8271 -0.329102 -53.4941 11.0039s-14.667 26 -15 44s2.5 36.833 8.5 56.5s11.333 36.167 16 49.5l30.5 92c11 33.333 18.167 63.666 21.5 90.999c0.666992 7.33301 3.66699 10.166 9 8.49902s11 -5.66699 17 -12s11.333 -13.666 16 -21.999
s6.66699 -15.5 6 -21.5c-1.33301 -10.667 -4.33301 -24.167 -9 -40.5l-15 -52.5l-16.5 -56.5c-5.66699 -19 -10.167 -36.333 -13.5 -52s-4.83301 -28.667 -4.5 -39s3.16602 -16.166 8.49902 -17.499c8 -2 19.667 4 35 18s30.833 30.833 46.5 50.5s30.167 40 43.5 61
s22.333 38.167 27 51.5c7.33301 19.333 13.833 39.166 19.5 59.499s10.167 40.833 13.5 61.5c0.666992 7.33301 3.5 10.333 8.5 9s10.167 -4.83301 15.5 -10.5s10.166 -12.334 14.499 -20.001s6.16602 -14.5 5.49902 -20.5c-1.33301 -10.667 -4 -23.667 -8 -39l-13 -48.5
l-13.5 -50.5c-4.33301 -16.667 -7.83301 -32 -10.5 -46s-3.66699 -25.5 -3 -34.5s4 -14.167 10 -15.5c8.66699 -2 19 1.83301 31 11.5s23.833 21.5 35.5 35.5s22.5 28.5 32.5 43.5s17.333 27.5 22 37.5c-4 8.66699 -7.5 22.167 -10.5 40.5s-4 36.5 -3 54.5
s5.16699 33.167 12.5 45.5s19.333 17.5 36 15.5c15.333 -2 24.5 -9.66699 27.5 -23s2.83301 -28.333 -0.5 -45s-8.16602 -33.167 -14.499 -49.5s-11.5 -28.5 -15.5 -36.5c6 -11.333 12.667 -21.5 20 -30.5s15.666 -15.5 24.999 -19.5s19.333 -5 30 -3s22 8.33301 34 19
c4 3.33301 7.83301 4.66602 11.5 3.99902s6.83398 -2.33398 9.50098 -5.00098s4.16699 -6 4.5 -10s-1.5 -7.66699 -5.5 -11c-14 -13.333 -27.833 -21.833 -41.5 -25.5s-26.834 -4 -39.501 -1s-24.334 9 -35.001 18s-20.334 20.167 -29.001 33.5
c-26.667 -46 -53 -81 -79 -105s-49.333 -38 -70 -42s-37 1.5 -49 16.5s-17 38.5 -15 70.5c-6 -8 -13.667 -17.5 -23 -28.5s-19.333 -21.833 -30 -32.5s-21.834 -20 -33.501 -28s-23.167 -13 -34.5 -15zM379.006 205.004l9 25.5029c2.66699 7.66699 4.66699 14.5 6 20.5
c4 16.667 5.5 28.667 4.5 36s-3 10.666 -6 9.99902s-6.33301 -4.83398 -10 -12.501s-6.16699 -17.834 -7.5 -30.501c-1.33301 -14.667 0 -31 4 -49z" />
    <glyph glyph-name="x.002" horiz-adv-x="331" 
d="M244 56l27.998 23.001l26 23c8 7.33301 14.833 13.833 20.5 19.5l12.5 12.5c2.66699 3.33301 5.83398 4.66602 9.50098 3.99902s6.83398 -2.33398 9.50098 -5.00098s4.16699 -6 4.5 -10s-1.16699 -7.66699 -4.5 -11l-15 -15l-22.5 -22
c-8.33301 -8 -17.5 -16.333 -27.5 -25s-19.667 -16.334 -29 -23.001c-25.333 -15.333 -46.666 -21.5 -63.999 -18.5s-32 11 -44 24s-21.833 29.333 -29.5 49s-14.5 38.5 -20.5 56.5l-63 -60.5c-18.667 -17.667 -30.334 -30.167 -35.001 -37.5
c-2 -3.33301 -4.83301 -5.33301 -8.5 -6s-7.16699 0.333008 -10.5 3c-7.33301 4.66699 -8.66602 11 -3.99902 19c6 8.66699 19.667 23.167 41 43.5l73 67.5l-15 60.5c-4.66699 19.667 -9.66699 36 -15 49s-11.833 20.833 -19.5 23.5s-17.5 -2.66602 -29.5 -15.999l-11 -17
c-4 -6 -8 -11 -12 -15c-1.33301 -3.33301 -3.83301 -6.5 -7.5 -9.5s-7.16699 -3.5 -10.5 -1.5c-7.33301 4 -9.33301 10 -6 18c38.667 76 74.334 110.833 107.001 104.5s58.667 -51.166 78 -134.499c0.666992 -0.666992 1 -2 1 -4c24 22 45.333 42.5 64 61.5
s31.334 33.167 38.001 42.5c2 3.33301 4.83301 5.33301 8.5 6s7.16699 0 10.5 -2c7.33301 -6 8.66602 -12.333 3.99902 -19c-4 -6 -10 -13.333 -18 -22l-27.5 -29l-34.5 -34l-39 -37c2 -14 4.83301 -30.833 8.5 -50.5s8.66699 -37.5 15 -53.5s14.666 -27.833 24.999 -35.5
s23.166 -6.5 38.499 3.5z" />
    <glyph glyph-name="y.002" 
d="M142 -152c-20 -40 -40.501 -69.6592 -61.501 -88.9922s-41 -30.833 -60 -34.5s-35.833 -1 -50.5 8s-25.834 21.667 -33.501 38s-10.834 35.166 -9.50098 56.499s9 42 23 62s34.833 38.333 62.5 55s64.167 29 109.5 37l62 172c-18 -25.333 -36.5 -48.333 -55.5 -69
s-37.167 -36.834 -54.5 -48.501s-32.833 -17.667 -46.5 -18s-24.5 7.16699 -32.5 22.5c-5.33301 11.333 -7.16602 25 -5.49902 41s5.16699 33.667 10.5 53c4.66699 16 10 32.167 16 48.5l17.5 48.5c5.66699 16 10.5 31 14.5 45s6.66699 26.333 8 37
c0.666992 7.33301 4.33398 10.666 11.001 9.99902s14 -3.16699 22 -7.5s15.167 -10 21.5 -17s9.16602 -13.5 8.49902 -19.5c0 -4 -2.66699 -13.5 -8 -28.5l-18 -51.5c-6.66699 -19.333 -13.167 -39.333 -19.5 -60s-10.833 -38.334 -13.5 -53.001
c-2 -12.667 0.833008 -18.334 8.5 -17.001s18 7.66602 31 18.999s27.333 26.166 43 44.499s30.5 38 44.5 59s26 42 36 63s15.667 39.833 17 56.5c0.666992 7.33301 4.83398 10.5 12.501 9.5s15.667 -4 24 -9s15.833 -11.167 22.5 -18.5s9 -13.666 7 -18.999l-28 -78
l-21.5 -60.5l-23 -63.5l-32.5 -88l-6 -12c30 -9.33301 55.667 -23.333 77 -42s36 -39.334 44 -62.001s7.83301 -45.334 -0.5 -68.001s-26.833 -42.334 -55.5 -59.001c17.333 22.667 27.166 44.334 29.499 65.001s-0.833984 39.167 -9.50098 55.5s-22.167 30.333 -40.5 42
s-39.166 20.167 -62.499 25.5c-5.33301 -11.333 -10.666 -23.833 -15.999 -37.5s-11.666 -28.167 -18.999 -43.5zM104.999 -66.9922c-38 -6.66699 -67.333 -17.833 -88 -33.5s-35 -32.167 -43 -49.5s-10.167 -33.333 -6.5 -48s10.5 -23.834 20.5 -27.501
s22.667 0.333008 38 12s31 34.834 47 69.501l16 37.5z" />
    <glyph glyph-name="z.002" horiz-adv-x="287" 
d="M119 -117c-26.667 -26.667 -56.168 -46.3291 -88.501 -58.9961s-62.833 -19.334 -91.5 -20.001s-53.167 4.16602 -73.5 14.499s-31.666 24.833 -33.999 43.5s6.33398 41 26.001 67s55.167 54.333 106.5 85c30 18 61.333 33.5 94 46.5s64.334 21.167 95.001 24.5
c5.33301 15.333 9.16602 29.333 11.499 42s2.5 24.334 0.5 35.001c-18 -21.333 -35.833 -37 -53.5 -47s-33.834 -15.833 -48.501 -17.5s-27.667 0.166016 -39 5.49902s-19.833 12.666 -25.5 21.999s-8.33398 19.666 -8.00098 30.999s4.83301 22 13.5 32
c16.667 18 36 30.5 58 37.5s44.333 10.5 67 10.5c8 14 15 27.667 21 41s10.333 25.5 13 36.5s3 20.5 1 28.5s-6.33301 13.333 -13 16s-15.667 1.33398 -27 -3.99902s-23 -12.333 -35 -21s-23.333 -17.5 -34 -26.5l-23 -19.5c-4 -3.33301 -7.83301 -4.5 -11.5 -3.5
s-6.5 3 -8.5 6s-2.83301 6.33301 -2.5 10s2.5 7.16699 6.5 10.5l40 32.5c14 11.667 28.5 22 43.5 31s30.167 15.833 45.5 20.5s30.666 5 45.999 1c18.667 -5.33301 32 -14.166 40 -26.499s11.667 -27 11 -44s-4.66699 -35.333 -12 -55s-16.666 -38.834 -27.999 -57.501
c18 -17.333 28.5 -38.166 31.5 -62.499s0.833008 -49.833 -6.5 -76.5c21.333 -7.33301 39.833 -17.333 55.5 -30s26.834 -27.5 33.501 -44.5s8.16699 -35.333 4.5 -55s-14.167 -39.5 -31.5 -59.5c6.66699 20.667 9.5 39.667 8.5 57s-5 32.666 -12 45.999
s-16.667 24.666 -29 33.999s-25.833 16.666 -40.5 21.999c-12 -33.333 -27.167 -64.166 -45.5 -92.499s-35.5 -50.833 -51.5 -67.5zM3.99902 -116.995c60 46 104.998 102.665 134.998 169.998c-28.667 -5.33301 -57 -14 -85 -26s-54.667 -25.667 -80 -41
c-33.333 -21.333 -58.166 -40.666 -74.499 -57.999s-26.5 -32.166 -30.5 -44.499s-2.66699 -22 4 -29s16.667 -10.833 30 -11.5s28.833 2.33301 46.5 9s35.834 17 54.501 31zM108.997 205.003c-16.667 -2.66699 -30.5 -6.50098 -41.5 -11.501s-19.667 -10.167 -26 -15.5
s-10.5 -10.666 -12.5 -15.999s-2 -9.33301 0 -12c3.33301 -6 12 -5.83301 26 0.5s32 24.5 54 54.5z" />
    <glyph glyph-name="a.003" horiz-adv-x="348" 
d="M640 253c6.66699 -36 3.16895 -70.3281 -10.498 -102.995s-33.5 -62.667 -59.5 -90s-56.5 -51.333 -91.5 -72s-70.5 -36.667 -106.5 -48s-70.5 -17.166 -103.5 -17.499s-60.833 5.66699 -83.5 18s-38.167 32 -46.5 59s-5.5 62.5 8.5 106.5l-23.5 -29.5
c-7 -9 -14 -16.5 -21 -22.5s-14 -10.333 -21 -13s-14.833 -3 -23.5 -1c-22.667 4.66699 -38.334 15.667 -47.001 33s-12.334 37.666 -11.001 60.999c1.33301 18.667 5.33301 38.167 12 58.5s15.5 39.5 26.5 57.5s23.667 33.5 38 46.5s29.5 22 45.5 27
s32.333 4.83301 49 -0.5s32.667 -18 48 -38c7.33301 18.667 14.166 30.334 20.499 35.001s16.5 3 30.5 -5c9.33301 -6 15.833 -11.833 19.5 -17.5s4.83398 -12.834 3.50098 -21.501s-4.5 -19.334 -9.5 -32.001l-18.5 -47c-1.33301 -4 -4.5 -11.333 -9.5 -22l-16.5 -37
l-18 -44c-6 -15.333 -10.667 -29 -14 -41c-10 -36.667 -7.66699 -62.334 7 -77.001s36.167 -20.834 64.5 -18.501s60.833 12.166 97.5 29.499s72.667 39.5 108 66.5s67.333 57.667 96 92s48.667 70.166 60 107.499zM77.002 75.0049c6.66699 0 16.501 7.66602 29.501 22.999
s26.333 33 40 53s26.167 39.833 37.5 59.5s18.666 33.834 21.999 42.501c-5.33301 7.33301 -12.333 12.5 -21 15.5s-15.667 2.83301 -21 -0.5c-6 -3.33301 -12.667 -10.333 -20 -21s-15 -23.167 -23 -37.5s-15.5 -29.5 -22.5 -45.5s-12.833 -30.5 -17.5 -43.5
s-7.5 -23.833 -8.5 -32.5s0.5 -13 4.5 -13z" />
    <glyph glyph-name="b.003" horiz-adv-x="331" 
d="M123 489c10 26 12.833 46.1621 8.5 60.4951s-13.333 23.333 -27 27s-31.334 3 -53.001 -2s-44.834 -13.667 -69.501 -26s-50 -27.5 -76 -45.5s-50.5 -38.167 -73.5 -60.5s-43.333 -46.166 -61 -71.499s-30.5 -51 -38.5 -77c-10 34.667 -9.83301 67.834 0.5 99.501
s27.166 60.667 50.499 87s51.333 49.5 84 69.5s66.334 35.833 101.001 47.5s68.334 18.834 101.001 21.501s60.834 0 84.501 -8s40.834 -22.167 51.501 -42.5s11.334 -47.5 2.00098 -81.5c-3.33301 -12 -7.5 -24.5 -12.5 -37.5s-11.5 -29 -19.5 -48l-28.5 -69l-40.5 -101.5
c19.333 30.667 38.666 53.334 57.999 68.001s36.666 23.5 51.999 26.5s28.166 1.16699 38.499 -5.5s16.166 -15.667 17.499 -27c2 -14 0.5 -30.5 -4.5 -49.5s-11.667 -38.333 -20 -58s-17.666 -38.667 -27.999 -57s-20.166 -33.5 -29.499 -45.5
c4 -24 12.167 -36.333 24.5 -37s25.833 4.33301 40.5 15s29 23.5 43 38.5l32 34.5c3.33301 3.33301 6.83301 4.83301 10.5 4.5s6.66699 -1.66602 9 -3.99902s3.66602 -5.5 3.99902 -9.5s-1.16699 -7.66699 -4.5 -11l-46 -49c-16.667 -17.333 -33.167 -31 -49.5 -41
s-32.333 -14 -48 -12s-29.5 14.667 -41.5 38c-15.333 -15.333 -31 -28.166 -47 -38.499s-31.333 -13.5 -46 -9.5c-7.33301 3.33301 -14.166 8.33301 -20.499 15s-10.5 13.667 -12.5 21c-0.666992 -2.66699 -1 -3.66699 -1 -3v3c0 1.33301 -0.166992 2.5 -0.5 3.5
s-0.833008 0.5 -1.5 -1.5c-6 -10.667 -13.667 -18.834 -23 -24.501s-18 -9.16699 -26 -10.5s-14.5 -0.833008 -19.5 1.5s-6.83301 5.83301 -5.5 10.5l38 117l59 177.5zM47 51.9951c13.333 2.66699 27.8311 12.168 43.498 28.501s30.834 35.333 45.501 57
s27.5 43.834 38.5 66.501s18.833 41.667 23.5 57s4.83398 24.833 0.500977 28.5s-14.833 -2.5 -31.5 -18.5c-12.667 -12 -25.334 -27.833 -38.001 -47.5s-24.5 -40.334 -35.5 -62.001s-20.667 -42.334 -29 -62.001s-14.166 -35.5 -17.499 -47.5z" />
    <glyph glyph-name="c.003" horiz-adv-x="288" 
d="M27 28c-11.333 13.333 -18.9961 29.5 -22.9961 48.5s-5.33301 38.167 -4 57.5c1.33301 23.333 6.83301 47.166 16.5 71.499s22.5 46.166 38.5 65.499c14 16.667 29.333 29.5 46 38.5s33.167 14.5 49.5 16.5s31.333 0.333008 45 -5s24.5 -13.666 32.5 -24.999
s12.333 -25.666 13 -42.999s-4 -37.666 -14 -60.999c-1.33301 -4 -3.5 -6.33301 -6.5 -7s-5.83301 -0.166992 -8.5 1.5s-4.83398 4 -6.50098 7s-1.5 6.5 0.5 10.5c9.33301 21.333 12.166 38.5 8.49902 51.5s-10.167 19.833 -19.5 20.5
c-11.333 0.666992 -22.666 -2.5 -33.999 -9.5s-22 -16.667 -32 -29s-19 -26.333 -27 -42s-14.167 -31.334 -18.5 -47.001s-6.5 -30.834 -6.5 -45.501s3 -27 9 -37c9.33301 -16.667 25 -26.5 47 -29.5s47.167 -0.666992 75.5 7s58.166 20.334 89.499 38.001
s61.166 38.5 89.499 62.5s53.666 50.667 75.999 80s38.5 60 48.5 92c6 -36.667 1.16699 -72.5 -14.5 -107.5s-38 -67 -67 -96s-62.5 -54.167 -100.5 -75.5s-75.833 -36.666 -113.5 -45.999s-73.5 -11.333 -107.5 -6s-61.333 19.666 -82 42.999z" />
    <glyph glyph-name="d.003" horiz-adv-x="352" 
d="M264 383l19.998 53.4961l20 52.5c13.333 36 14.333 61 3 75s-29.5 19.5 -54.5 16.5s-54.833 -13 -89.5 -30s-68.5 -38.667 -101.5 -65s-63.167 -56.166 -90.5 -89.499s-46.333 -67.333 -57 -102c-10 34.667 -9.83301 67.834 0.5 99.501s27.166 60.667 50.499 87
s51.333 49.5 84 69.5s66.334 35.833 101.001 47.5s68.334 18.834 101.001 21.501s60.834 0 84.501 -8s40.834 -22.167 51.501 -42.5s11.334 -47.5 2.00098 -81.5c-2 -6.66699 -4.16699 -12.834 -6.5 -18.501l-7.5 -18l-9.5 -21.5c-3.66699 -8 -7.83398 -17.667 -12.501 -29
l-76.5 -184l-70.5 -178c-1.33301 -4.66699 -2.5 -9.66699 -3.5 -15s2.16699 -9 9.5 -11c4.66699 -1.33301 11 0.333984 19 5.00098s16.667 11 26 19s19 17 29 27l28.5 29.5l23.5 25.5c6.66699 7.33301 11.334 12.666 14.001 15.999
c3.33301 3.33301 6.83301 4.83301 10.5 4.5s6.83398 -1.66602 9.50098 -3.99902s4.16699 -5.5 4.5 -9.5s-1.16699 -7.66699 -4.5 -11l-40.5 -43.5c-15.667 -17 -32.167 -33.333 -49.5 -49s-35 -28.667 -53 -39s-35 -14.5 -51 -12.5c-22.667 2.66699 -37 10.334 -43 23.001
s-8.16699 26.5 -6.5 41.5s5.16699 29.167 10.5 42.5s8.66602 22 9.99902 26c-17.333 -22 -32.166 -39.333 -44.499 -52s-26.833 -17.334 -43.5 -14.001c-24 4 -40.667 15.167 -50 33.5s-13 39.5 -11 63.5c2 27.333 10.167 55.5 24.5 84.5s32.166 52.833 53.499 71.5
s44.666 29.334 69.999 32.001s50.666 -9 75.999 -35l20 47zM79.998 70.9961c6.66699 0 16.001 5.99902 28.001 17.999s24.667 27.5 38 46.5s26.166 39.833 38.499 62.5s22.5 44.667 30.5 66c-12.667 17.333 -25.5 24.5 -38.5 21.5s-25.5 -11.667 -37.5 -26
s-23 -32.166 -33 -53.499s-17.833 -42 -23.5 -62s-9 -37.167 -10 -51.5s1.5 -21.5 7.5 -21.5z" />
    <glyph glyph-name="e.003" horiz-adv-x="290" 
d="M480 325c5.33301 -28 4.66797 -55.1621 -1.99902 -81.4951s-17.5 -51.166 -32.5 -74.499s-33.333 -44.833 -55 -64.5s-45.167 -36.834 -70.5 -51.501s-51.333 -26.834 -78 -36.501s-52.334 -15.834 -77.001 -18.501c-24 -2.66699 -46.5 -2 -67.5 2s-39 11.667 -54 23
s-26.5 26.166 -34.5 44.499s-11 40.5 -9 66.5c2 22 7.33301 44.167 16 66.5s20.334 42.5 35.001 60.5s31.667 32.667 51 44s40.666 17 63.999 17c18.667 0 34.167 -4.66699 46.5 -14s20.833 -20.833 25.5 -34.5s5.5 -28.334 2.5 -44.001s-10.333 -29.5 -22 -41.5
s-28 -21 -49 -27s-46.5 -6.66699 -76.5 -2c-14.667 -46 -17.167 -79.167 -7.5 -99.5s26.5 -31 50.5 -32s53 6.5 87 22.5s67.667 37.667 101 65s64.333 59.166 93 95.499s49.667 74.5 63 114.5zM213.002 224.005c5.33301 14 4.83301 25.999 -1.5 35.999s-15.5 15 -27.5 15
s-25.667 -6.83301 -41 -20.5s-29.333 -37.5 -42 -71.5c8.66699 -1.33301 18.667 -1.66602 30 -0.999023s22.5 2.5 33.5 5.5s20.833 7.33301 29.5 13s15 13.5 19 23.5z" />
    <glyph glyph-name="f.003" horiz-adv-x="232" 
d="M186 120c-18.667 -0.666992 -37.002 -0.501953 -55.002 0.498047s-35.667 2.5 -53 4.5l-43 -113l-26 -68.5l-15.5 -39l-9.5 -23.5h-79l48 126.5l47 126.5l2 7c-12.667 4 -23.167 8.66699 -31.5 14s-13.166 11.666 -14.499 18.999c13.333 -4.66699 31.333 -8.66699 54 -12
l21.5 56.5l19.5 49.5c-18 2.66699 -32.667 5.83398 -44 9.50098s-20.5 8 -27.5 13s-12.667 10.5 -17 16.5s-7.83301 13 -10.5 21c14 -4 31.833 -7.16699 53.5 -9.5s45.5 -3.66602 71.5 -3.99902s53 0.5 81 2.5s55 5.66699 81 11c10.667 0 17.834 -5.5 21.501 -16.5
s-0.166016 -24.833 -11.499 -41.5c-40 -4 -79.333 -6 -118 -6l-41 -107c7.33301 -0.666992 17 -0.833984 29 -0.500977s22 0.833008 30 1.5c13.333 -1.33301 22.166 -5.66602 26.499 -12.999s7.83301 -15.666 10.5 -24.999z" />
    <glyph glyph-name="g.003" 
d="M246 72l-33.0029 -93c23.333 2.66699 44.666 2.66699 63.999 0s33.5 -10 42.5 -22s11.5 -29.833 7.5 -53.5s-17.667 -54.5 -41 -92.5c8.66699 25.333 11 45.666 7 60.999s-11.333 27 -22 35s-23.667 12.833 -39 14.5s-30 1.5 -44 -0.5l-51 -119
c-20 -40.667 -40.833 -70.5 -62.5 -89.5s-42.167 -30 -61.5 -33s-36.5 0.333008 -51.5 10s-26.167 22.834 -33.5 39.501s-9.83301 35.5 -7.5 56.5s11.166 41.167 26.499 60.5c21.333 26.667 48 49.167 80 67.5s65 33.166 99 44.499l38 106l4 12
c-16.667 -16 -34.167 -29.667 -52.5 -41s-38.166 -16 -59.499 -14c-28 3.33301 -45.667 15.833 -53 37.5s-8.33301 46.834 -3 75.501c4.66699 22.667 12.834 45.834 24.501 69.501s25.334 45 41.001 64s32.667 34.167 51 45.5s36.5 15.666 54.5 12.999
c14.667 -2 27.834 -7.16699 39.501 -15.5s20.167 -18.5 25.5 -30.5l13 38c2 6.66699 6.83301 9.66699 14.5 9s15.5 -3.5 23.5 -8.5s15 -11.167 21 -18.5s8.33301 -14 7 -20c-6 -24.667 -14.667 -54 -26 -88s-25.666 -74 -42.999 -120zM224.997 242
c-3.33301 11.333 -7.6709 21.001 -13.0039 29.001s-14.666 11.333 -27.999 10c-11.333 -0.666992 -22.666 -6.33398 -33.999 -17.001s-21.833 -23.834 -31.5 -39.501s-18.167 -32.5 -25.5 -50.5s-12.666 -35.167 -15.999 -51.5s-4.16602 -30.166 -2.49902 -41.499
s6.5 -18 14.5 -20c6 -1.33301 13.5 0.5 22.5 5.5s18 11.333 27 19s17.833 16 26.5 25l22 23.5zM67.9922 -189.999l15.999 37.499l16 39.5l3 8c-23.333 -9.33301 -47.166 -20.666 -71.499 -33.999s-44.5 -31 -60.5 -53c-12 -16 -16.667 -31.5 -14 -46.5
s9.5 -24.833 20.5 -29.5s24.833 -1.66699 41.5 9s33 33.667 49 69z" />
    <glyph glyph-name="h.003" horiz-adv-x="355" 
d="M83 379c6.66699 18.667 13.6611 36.998 20.9941 54.998s14 36.333 20 55c12 35.333 12.167 59.833 0.5 73.5s-30.167 19.167 -55.5 16.5s-55 -12.5 -89 -29.5s-67.333 -38.667 -100 -65s-62.5 -56 -89.5 -89s-45.833 -66.833 -56.5 -101.5
c-10 34.667 -9.83301 67.834 0.5 99.501s27.166 60.667 50.499 87s51.333 49.5 84 69.5s66.334 35.833 101.001 47.5s68.334 18.834 101.001 21.501s60.834 0 84.501 -8s40.834 -22.167 51.501 -42.5s11.334 -47.5 2.00098 -81.5c-4 -14 -9 -27.333 -15 -40
s-13.667 -31 -23 -55l-30 -79.5l-32 -86.5c18 26 36 47 54 63s34.833 27 50.5 33s30 6.83301 43 2.5s23.5 -14.166 31.5 -29.499c5.33301 -11.333 7 -25 5 -41s-5.83301 -32.833 -11.5 -50.5s-12.167 -35.5 -19.5 -53.5s-13.5 -34.333 -18.5 -49s-7.5 -27.167 -7.5 -37.5
s4 -16.5 12 -18.5c6.66699 -2 15.334 0.666992 26.001 8s21.167 16.166 31.5 26.499s20.166 20.833 29.499 31.5l20 23c3.33301 3.33301 6.83301 4.83301 10.5 4.5s6.66699 -1.66602 9 -3.99902s3.66602 -5.5 3.99902 -9.5s-1.16699 -7.66699 -4.5 -11l-35 -38
c-12 -13.333 -24.667 -25.666 -38 -36.999s-27.166 -20.5 -41.499 -27.5s-29.5 -9.83301 -45.5 -8.5c-12.667 1.33301 -22.334 4.5 -29.001 9.5s-11.5 10.667 -14.5 17s-4.66699 13.5 -5 21.5s-0.166016 15.667 0.500977 23c0 4 2 12.333 6 25s8.83301 27.167 14.5 43.5
l17.5 52l16 50c4.66699 15 7.83398 27.5 9.50098 37.5s1.16699 15 -1.5 15c-8 0 -18.167 -4.66699 -30.5 -14s-25.166 -21.5 -38.499 -36.5s-26.666 -32 -39.999 -51s-25 -37.833 -35 -56.5l-45 -128c-2.66699 -8 -8.16699 -10.833 -16.5 -8.5s-16.333 7.66602 -24 15.999
s-13.334 18.666 -17.001 30.999s-2.16699 24.5 4.5 36.5l14 48c8.66699 30 20.5 66.667 35.5 110z" />
    <glyph glyph-name="i.003" horiz-adv-x="176" 
d="M123 263c-5.33301 -18 -12.8311 -39.002 -22.498 -63.002s-18.167 -47.167 -25.5 -69.5s-12.333 -41.666 -15 -57.999s0.333008 -25.5 9 -27.5c6.66699 -2 15.334 0.666992 26.001 8s21.167 16.166 31.5 26.499s20.166 20.833 29.499 31.5l20 23
c3.33301 3.33301 6.83301 4.83301 10.5 4.5s6.66699 -1.83301 9 -4.5s3.66602 -5.83398 3.99902 -9.50098s-1.16699 -7.5 -4.5 -11.5c-11.333 -11.333 -23 -23.833 -35 -37.5s-24.667 -26.167 -38 -37.5s-27.166 -20.5 -41.499 -27.5s-29.5 -9.5 -45.5 -7.5
c-14.667 1.33301 -25.5 5.83301 -32.5 13.5s-11.5 17.334 -13.5 29.001s-1.83301 25.167 0.5 40.5s5.83301 31.333 10.5 48c5.33301 19.333 12.666 42.833 21.999 70.5s21.333 60.167 36 97.5c9.33301 4 19 6.83301 29 8.5s18.5 1.33398 25.5 -0.999023
s11.667 -7.16602 14 -14.499s1.16602 -18 -3.50098 -32zM147.002 404.998c10 -7.33301 15.5 -16.667 16.5 -28s-1.66699 -21.5 -8 -30.5s-15.5 -15 -27.5 -18s-25.667 0.166992 -41 9.5c-11.333 6.66699 -17.833 16.167 -19.5 28.5s0.5 23.333 6.5 33s15.333 16 28 19
s27.667 -1.5 45 -13.5z" />
    <glyph glyph-name="j.003" horiz-adv-x="170" 
d="M17 -18c23.333 2.66699 44.667 2.66699 64 0s33.5 -10 42.5 -22s11.5 -29.833 7.5 -53.5s-17.667 -54.5 -41 -92.5c8.66699 25.333 11 45.666 7 60.999s-11.333 27 -22 35s-23.667 12.833 -39 14.5s-30 1.5 -44 -0.5l-51 -119c-20 -40.667 -40.833 -70.5 -62.5 -89.5
s-42.167 -30 -61.5 -33s-36.5 0.333008 -51.5 10s-26.167 22.834 -33.5 39.501s-10 35.5 -8 56.5s11 41.167 27 60.5c21.333 26.667 48 49.167 80 67.5s65 33.166 99 44.499l127 357c2 6.66699 7 9.5 15 8.5s16 -4 24 -9s15 -11.167 21 -18.5s8 -13.666 6 -18.999z
M-127.999 -187l15.999 37.499l16 39.5l3 8c-23.333 -9.33301 -47.166 -20.666 -71.499 -33.999s-44.5 -31 -60.5 -53c-12 -16 -16.667 -31.5 -14 -46.5s9.5 -24.833 20.5 -29.5s24.833 -1.66699 41.5 9s33 33.667 49 69zM147 404.999c10 -7.33301 15.5 -16.667 16.5 -28
s-1.66699 -21.5 -8 -30.5s-15.5 -15 -27.5 -18s-25.667 0.166992 -41 9.5c-11.333 6.66699 -17.833 16.167 -19.5 28.5s0.5 23.333 6.5 33s15.333 16 28 19s27.667 -1.5 45 -13.5z" />
    <glyph glyph-name="k.003" horiz-adv-x="385" 
d="M148 341l-26.002 -73.002c-7.33301 -20.667 -12.333 -36.334 -15 -47.001c18 26.667 38 49 60 67s42 28.333 60 31s32.5 -4.16602 43.5 -20.499s14.833 -45.5 11.5 -87.5c-0.666992 -7.33301 -4.5 -10.666 -11.5 -9.99902s-14.333 3.16699 -22 7.5s-14.667 10 -21 17
s-9.5 13.5 -9.5 19.5c0.666992 5.33301 2.16699 10.333 4.5 15s4.16602 8.83398 5.49902 12.501s1.83301 6.5 1.5 8.5s-2.83301 3 -7.5 3c-7.33301 0 -16 -3.33301 -26 -10s-21 -15.667 -33 -27c4.66699 -5.33301 9.66699 -13.666 15 -24.999s10.333 -27.666 15 -48.999
c4 -22 10.5 -42.833 19.5 -62.5s21 -33.5 36 -41.5s33.667 -7.66699 56 1s49.166 30 80.499 64c3.33301 3.33301 6.83301 4.83301 10.5 4.5s6.83398 -1.66602 9.50098 -3.99902s4 -5.5 4 -9.5s-1.66699 -8 -5 -12c-41.333 -44 -78.5 -72.667 -111.5 -86s-61.667 -15 -86 -5
s-44.333 29.667 -60 59s-26.5 65 -32.5 107l-17.5 -26.5c-5.66699 -9 -10.834 -18.167 -15.501 -27.5l-55 -168c-2.66699 -8 -7.66699 -11.167 -15 -9.5s-14.5 6.5 -21.5 14.5s-12.5 18.167 -16.5 30.5s-4 25.166 0 38.499l27 94c10.667 36 23.334 75.833 38.001 119.5
l45 131.5c6 17.333 12.333 34.666 19 51.999l20 52c10.667 27.333 14.167 48.5 10.5 63.5s-12.5 24.5 -26.5 28.5s-31.667 3.5 -53 -1.5s-44.5 -13.833 -69.5 -26.5s-50.667 -28.334 -77 -47.001s-51 -39.334 -74 -62.001s-43.5 -46.834 -61.5 -72.501s-31 -51.5 -39 -77.5
c-10 34.667 -9.83301 67.834 0.5 99.501s27.166 60.667 50.499 87s51.333 49.5 84 69.5s66.334 35.833 101.001 47.5s68.334 18.834 101.001 21.501s60.834 0 84.501 -8s40.834 -22.167 51.501 -42.5s11.334 -47.5 2.00098 -81.5c-2 -7.33301 -4.5 -14.833 -7.5 -22.5
l-11.5 -28l-17 -39.5c-6.66699 -15.333 -14.334 -34 -23.001 -56z" />
    <glyph glyph-name="l.003" horiz-adv-x="184" 
d="M179 365l-55.001 -139.501c-16 -41 -29.167 -76 -39.5 -105s-17.166 -51.333 -20.499 -67s-2.66602 -24.167 2.00098 -25.5c7.33301 -2 16.833 1.5 28.5 10.5s23.334 19.833 35.001 32.5s22.667 25.167 33 37.5l21.5 25.5c3.33301 3.33301 6.83301 4.83301 10.5 4.5
s6.66699 -1.66602 9 -3.99902s3.66602 -5.5 3.99902 -9.5s-1.16699 -7.66699 -4.5 -11c-11.333 -12 -23.333 -25.667 -36 -41s-26.167 -29.833 -40.5 -43.5s-29.166 -25.167 -44.499 -34.5s-31.333 -14 -48 -14c-14 0 -24.667 4.16699 -32 12.5s-11.833 19.666 -13.5 33.999
s-1.33398 30.666 0.999023 48.999s5.83301 37.5 10.5 57.5c7.33301 31.333 19.666 66.5 36.999 105.5s35 82.5 53 130.5c6 17.333 12.333 34.166 19 50.499s13 33.166 19 50.499c10.667 30.667 9.66699 52.834 -3 66.501s-32.167 20.334 -58.5 20.001
s-56.833 -6.83301 -91.5 -19.5s-68.667 -30.167 -102 -52.5s-63.5 -48.5 -90.5 -78.5s-45.833 -62.333 -56.5 -97c-10 34.667 -10 67 0 97s26.333 56.833 49 80.5s50.167 43.834 82.5 60.501s65.833 29.5 100.5 38.5s68.5 13.667 101.5 14s62 -4.16699 87 -13.5
s43.833 -23.666 56.5 -42.999s16 -44.333 10 -75l-13 -44.5c-4.66699 -15.667 -11.667 -35.5 -21 -59.5z" />
    <glyph glyph-name="m.003" horiz-adv-x="549" 
d="M29 227l20.4893 55.4951l20.5 54.5c12.667 35.333 13.334 60 2.00098 74s-29.666 19.5 -54.999 16.5s-55.166 -13 -89.499 -30s-68 -38.667 -101 -65s-63 -56 -90 -89s-45.833 -66.833 -56.5 -101.5c-10 34.667 -10 67.834 0 99.501s26.667 60.667 50 87
s51.166 49.5 83.499 69.5s65.666 35.833 99.999 47.5s67.833 18.834 100.5 21.501s60.667 0 84 -8s40.333 -22.167 51 -42.5s11.334 -47.5 2.00098 -81.5c-4 -14 -9.16699 -28.5 -15.5 -43.5l-23.5 -57.5c9.33301 14 19.5 27.167 30.5 39.5s23.5 23.5 37.5 33.5
c18 12.667 34.333 19.5 49 20.5s27 -1.83301 37 -8.5s17.333 -16.5 22 -29.5s5.66699 -27.5 3 -43.5c1.33301 5.33301 5.5 12.333 12.5 21s15.5 17.167 25.5 25.5s20.833 15.833 32.5 22.5s23.5 10.834 35.5 12.501s23.333 0 34 -5s19.667 -14.833 27 -29.5
c4.66699 -8.66699 6.83398 -18.667 6.50098 -30s-2 -23.166 -5 -35.499s-6.83301 -25.166 -11.5 -38.499l-14 -40c-8 -24.667 -14.333 -46.667 -19 -66c-4.66699 -16.667 -8 -32 -10 -46s-0.666992 -21.667 4 -23c6.66699 -2 17 2.33301 31 13s28.333 23.167 43 37.5
s28.334 28.333 41.001 42s21 22.834 25 27.501c3.33301 3.33301 6.83301 4.83301 10.5 4.5s6.66699 -1.66602 9 -3.99902s3.66602 -5.5 3.99902 -9.5s-1.16699 -7.66699 -4.5 -11l-40 -43c-15.333 -16.667 -31.666 -32.667 -48.999 -48s-34.833 -28 -52.5 -38
s-34.5 -14.333 -50.5 -13c-17.333 2 -29.166 8.83301 -35.499 20.5s-9.16602 26.167 -8.49902 43.5s3.83398 36.166 9.50098 56.499s11.834 40.166 18.501 59.499c6 16 11.667 32.5 17 49.5s10 32.5 14 46.5s6.5 25.5 7.5 34.5s-0.166992 13.5 -3.5 13.5
c-14.667 0 -32.5 -9 -53.5 -27s-40.167 -44 -57.5 -78c-10.667 -20 -19.667 -37.5 -27 -52.5s-11.666 -30.833 -12.999 -47.5c-0.666992 -7.33301 -4.5 -10.666 -11.5 -9.99902s-14.333 3.16699 -22 7.5s-14.667 10 -21 17s-9.16602 13.167 -8.49902 18.5
c0.666992 10.667 4.83398 26 12.501 46l22 59c7 19.333 11.833 35.833 14.5 49.5s-0.666016 19.167 -9.99902 16.5c-11.333 -2.66699 -23.5 -9.66699 -36.5 -21s-25.833 -24.166 -38.5 -38.499s-23.834 -28.833 -33.501 -43.5s-16.5 -26.334 -20.5 -35.001l-56 -160
c-2.66699 -8 -7.66699 -11 -15 -9s-14.5 6.83301 -21.5 14.5s-12.5 17.667 -16.5 30s-4 25.166 0 38.499l8.5 30l9.5 33l15 49z" />
    <glyph glyph-name="n.003" horiz-adv-x="383" 
d="M293 242c-6 -28 -12.9971 -55.335 -20.9971 -82.002l-21 -72c-6 -21.333 -10 -38.666 -12 -51.999s-0.333008 -20.666 5 -21.999c6.66699 -2 17 2.33301 31 13s28.167 23.167 42.5 37.5l40.5 42c12.667 13.667 21 22.834 25 27.501c3.33301 3.33301 6.83301 5 10.5 5
s6.66699 -1.33301 9 -4s3.83301 -5.83398 4.5 -9.50098s-0.666016 -7.5 -3.99902 -11.5l-40 -43c-15.333 -16.667 -31.833 -32.5 -49.5 -47.5s-35.334 -27.667 -53.001 -38s-34.5 -14.5 -50.5 -12.5s-27.333 8.16699 -34 18.5s-10.167 23.5 -10.5 39.5s1.66699 33.667 6 53
s9.66602 39 15.999 59s12.833 39.333 19.5 58s12 35 16 49s5.83301 24.833 5.5 32.5s-4.16602 10.5 -11.499 8.5c-11.333 -3.33301 -23.833 -11.166 -37.5 -23.499s-27.167 -26.333 -40.5 -42s-25.166 -31.334 -35.499 -47.001s-17.5 -27.834 -21.5 -36.501l-53 -165
c-2.66699 -8 -7.66699 -11 -15 -9s-14.5 7 -21.5 15s-12.5 18 -16.5 30s-4 24.667 0 38c3.33301 12.667 7 25.834 11 39.501l13 43.5l31.5 98l29.5 87c14 40 16 68.333 6 85s-26.833 24.167 -50.5 22.5s-52 -10.834 -85 -27.501s-66 -38.334 -99 -65.001
s-63.333 -56.667 -91 -90s-48.167 -67.333 -61.5 -102c-10 34.667 -10 67.834 0 99.501s26.667 60.667 50 87s51.166 49.5 83.499 69.5s65.666 35.833 99.999 47.5s67.833 18.834 100.5 21.501s60.667 0 84 -8s40.333 -22.167 51 -42.5s11.334 -47.5 2.00098 -81.5
c-4 -14 -9.66699 -29.167 -17 -45.5l-26 -60.5c27.333 40 53.166 66.667 77.499 80s45.166 18 62.499 14s30.166 -14 38.499 -30s10.5 -33 6.5 -51z" />
    <glyph glyph-name="o.003" horiz-adv-x="332" 
d="M-125 108c19.333 34 37.167 60.499 53.5 79.499s31.833 33 46.5 42s28.834 14 42.501 15s27.5 0.833008 41.5 -0.5c10 13.333 20.5 25.833 31.5 37.5s22.833 21.334 35.5 29.001s25.5 12.667 38.5 15s26.5 1.16602 40.5 -3.50098c17.333 -6 29.833 -15.667 37.5 -29
s11.834 -28.333 12.501 -45s-1.33301 -34 -6 -52s-10.334 -34.667 -17.001 -50c-3.33301 -7.33301 -7.5 -15.5 -12.5 -24.5s-10.833 -17.833 -17.5 -26.5c23.333 -4 47 -2.66699 71 4s43.667 18.334 59 35.001c6.66699 6.66699 14 7 22 1c6 -7.33301 6 -14.333 0 -21
c-22.667 -22.667 -49.667 -37.667 -81 -45s-61.333 -7 -90 1c-7.33301 -10 -16.5 -21.667 -27.5 -35s-23.167 -25.333 -36.5 -36s-27.666 -18.5 -42.999 -23.5s-31 -4.16699 -47 2.5c-13.333 6 -23.5 14.167 -30.5 24.5s-11.333 22.5 -13 36.5s-1.16699 29 1.5 45
s7 32.667 13 50c2 6.66699 4.66699 13.667 8 21s7 15 11 23c-16.667 0 -31.834 -1.16699 -45.501 -3.5s-26.334 -6 -38.001 -11s-22.5 -12 -32.5 -21s-19.333 -20.5 -28 -34.5zM92.001 242.999c3.33301 0 8.16699 -0.831055 14.5 -2.49805s12.333 -4 18 -7
s9.5 -7.33301 11.5 -13s0.666992 -12.5 -4 -20.5l-38 -62c6 -5.33301 14.167 -10.333 24.5 -15s19.166 -8.33398 26.499 -11.001c26.667 42 43 77.833 49 107.5s4.83301 51 -3.5 64s-21.666 16.667 -39.999 11s-37.833 -22.834 -58.5 -51.501zM58.002 17.001
c4.66699 0 10.666 2.66699 17.999 8s14.5 11.833 21.5 19.5s13.5 15.334 19.5 23.001s10.333 13.5 13 17.5l-28 10.5c-11.333 4.33301 -19.666 9.16602 -24.999 14.499c-3.33301 -3.33301 -7.33301 -10 -12 -20s-8.5 -20.5 -11.5 -31.5s-4.5 -20.667 -4.5 -29
s3 -12.5 9 -12.5z" />
    <glyph glyph-name="p.003" horiz-adv-x="375" 
d="M0 134l36.001 106.994l4 11.5l4 11.5l1 2l26 77c9.33301 28.667 8.33301 48.667 -3 60s-29 15.833 -53 13.5s-51.833 -10.666 -83.5 -24.999s-63.334 -33.166 -95.001 -56.499s-61 -50.333 -88 -81s-47.5 -63.334 -61.5 -98.001c-10 34.667 -10.333 67 -1 97
s25.166 57 47.499 81s49.166 44.667 80.499 62s63.833 31 97.5 41s66.5 16 98.5 18s60.167 -0.333008 84.5 -7s42.666 -18.167 54.999 -34.5s15.166 -37.833 8.49902 -64.5c-2.66699 -10.667 -6.16699 -21.5 -10.5 -32.5s-9.83301 -23.833 -16.5 -38.5v-2
c16.667 16 34.334 29.667 53.001 41s38.334 16 59.001 14c16.667 -2 29.667 -8 39 -18s15.333 -22.667 18 -38s2.5 -32.333 -0.5 -51s-8.16699 -37.667 -15.5 -57s-16.166 -38 -26.499 -56s-21.833 -33.667 -34.5 -47c15.333 -8 30.5 -10.333 45.5 -7s29.333 9.5 43 18.5
s26 19.167 37 30.5l26.5 28c4.66699 6 9.5 9.33301 14.5 10s9 -0.166016 12 -2.49902s5 -5.33301 6 -9s0.166992 -6.83398 -2.5 -9.50098l-34 -36.5c-14 -15 -30 -28.167 -48 -39.5s-37.5 -18.666 -58.5 -21.999s-42.5 2.33398 -64.5 17.001
c-14 -11.333 -27.833 -18.666 -41.5 -21.999s-26.667 -3.5 -39 -0.5s-23.5 8.83301 -33.5 17.5s-18 19.334 -24 32.001c-25.333 -70.667 -46.166 -132.167 -62.499 -184.5s-31.833 -97.5 -46.5 -135.5c-12.667 -8.66699 -26.667 -13.667 -42 -15s-28 2.33398 -38 11.001z
M74.001 101.994c3.33301 -11.333 7.66992 -21 13.0029 -29s14.666 -11.667 27.999 -11c11.333 0.666992 22.666 6.5 33.999 17.5s21.833 24.667 31.5 41s18.167 34 25.5 53s12.666 37 15.999 54s4 31.5 2 43.5s-7 19 -15 21c-6 1.33301 -13.333 -0.5 -22 -5.5
s-17.5 -11.5 -26.5 -19.5s-17.667 -16.333 -26 -25l-21.5 -23z" />
    <glyph glyph-name="q.003" horiz-adv-x="337" 
d="M315 281l-64.498 -193.003l-45.5 -140l-32.5 -101.5l-25.5 -77.5c13.333 -10 27.333 -17.5 42 -22.5s27.667 -6.83301 39 -5.5c-6.66699 -7.33301 -16.334 -13.666 -29.001 -18.999s-27 -8.66602 -43 -9.99902s-32.667 -0.5 -50 2.5s-34 9.5 -50 19.5l113 342
c-17.333 -16 -35.166 -29.667 -53.499 -41s-38.166 -16 -59.499 -14c-28 3.33301 -45.667 15.833 -53 37.5s-8.33301 46.834 -3 75.501c4.66699 22.667 12.5 45.667 23.5 69s24.167 44.166 39.5 62.499s32.166 32.833 50.499 43.5s36.5 14.667 54.5 12
c14 -2 27 -7.16699 39 -15.5s20.667 -18.5 26 -30.5c3.33301 9.33301 6.66602 18.166 9.99902 26.499s6.33301 16.833 9 25.5c2 6 7 8.83301 15 8.5s16.167 -2.66602 24.5 -6.99902s15.166 -10.666 20.499 -18.999s6.33301 -17.833 3 -28.5zM222.002 236.997
c-3.33301 11.333 -7.83301 21 -13.5 29s-15.167 11.333 -28.5 10c-11.333 -0.666992 -22.5 -6.16699 -33.5 -16.5s-21.167 -23.166 -30.5 -38.499s-17.5 -31.833 -24.5 -49.5s-11.833 -34.334 -14.5 -50.001s-3.16699 -29.167 -1.5 -40.5s6.5 -18 14.5 -20
c6 -2 13.333 -0.5 22 4.5s17.5 11.333 26.5 19s18 16 27 25s16.5 16.833 22.5 23.5z" />
    <glyph glyph-name="r.003" horiz-adv-x="300" 
d="M43 389c22 14.667 41.0029 23.834 57.0029 27.501s28.667 2.66699 38 -3s15 -15.334 17 -29.001s0.666992 -30.167 -4 -49.5c-3.33301 -11.333 -8.16602 -24.833 -14.499 -40.5l-27.5 -68.5c18 26 36 47 54 63s34.833 27 50.5 33s30 6.83301 43 2.5
s23.5 -14.166 31.5 -29.499c4.66699 -9.33301 6.5 -20.333 5.5 -33s-3.33301 -26.167 -7 -40.5s-8.5 -29 -14.5 -44l-17 -43.5c-21.333 12.667 -34.333 27.334 -39 44.001s-5.83398 32.667 -3.50098 48s5.66602 28.333 9.99902 39s4.83301 16 1.5 16
c-8 0 -19.167 -6.5 -33.5 -19.5s-29.333 -29.333 -45 -49s-30.834 -41.167 -45.501 -64.5s-26.334 -45.333 -35.001 -66l-26 -71c-2.66699 -8 -8.16699 -10.833 -16.5 -8.5s-16.333 7.66602 -24 15.999s-13.334 18.666 -17.001 30.999s-2.16699 24.5 4.5 36.5l14 48
c10.667 38 22.167 73.167 34.5 105.5l35.5 97.5c6 18 5.83301 30.333 -0.5 37s-15.166 11.667 -26.499 15z" />
    <glyph glyph-name="s.003" horiz-adv-x="158" 
d="M0 134c-17.333 28 -26.832 53.6719 -28.499 77.0049s1.5 43.666 9.5 60.999s19.167 31.666 33.5 42.999s29 18.666 44 21.999s28.833 2.66602 41.5 -2.00098s21.167 -14.167 25.5 -28.5s3 -33.666 -4 -57.999s-22.5 -54.166 -46.5 -89.499
c10 -16.667 18.167 -34.5 24.5 -53.5s9.66602 -37.667 9.99902 -56s-3.5 -35.333 -11.5 -51s-21.333 -28.167 -40 -37.5c-23.333 -11.333 -51.5 -16.666 -84.5 -15.999s-67.167 6.5 -102.5 17.5s-69.833 26.667 -103.5 47s-62.5 44.166 -86.5 71.499
s-41.167 57.666 -51.5 90.999s-10.166 68.666 0.500977 105.999c10.667 -34 29 -67.667 55 -101s55.167 -63.833 87.5 -91.5s65.5 -50.834 99.5 -69.501s64.167 -30 90.5 -34s46.666 0.666992 60.999 14s17.5 38.333 9.5 75c-3.33301 12 -8.5 23.667 -15.5 35z
M54.001 190.005c26 40 39.501 68.002 40.501 84.002s-5.83301 22 -20.5 18c-6 -2 -11.833 -5.83301 -17.5 -11.5s-9.83398 -12.834 -12.501 -21.501s-3.5 -18.834 -2.5 -30.501s5.16699 -24.5 12.5 -38.5z" />
    <glyph glyph-name="t.003" horiz-adv-x="228" 
d="M-37 388c0 2.66699 0.333984 5.66602 1.00098 8.99902s5 6.66602 13 9.99902s21.333 6.66602 40 9.99902s46.334 6.33301 83.001 9c14.667 40 22.834 70.167 24.501 90.5s-0.833008 34 -7.5 41s-16.334 9 -29.001 6s-26.334 -7.5 -41.001 -13.5
c26.667 21.333 51.334 33.5 74.001 36.5s41.167 -1.33301 55.5 -13s23.5 -29.667 27.5 -54s1 -52.833 -9 -85.5l134 12c0 -6.66699 -1.16699 -13.5 -3.5 -20.5s-8.33301 -13.167 -18 -18.5s-24.667 -9.83301 -45 -13.5s-48.833 -5.5 -85.5 -5.5
c-17.333 -44 -33.833 -89.167 -49.5 -135.5s-29 -88.666 -40 -126.999s-18.667 -70.166 -23 -95.499s-3.5 -39 2.5 -41c6 -1.33301 16.833 4.66699 32.5 18s32.334 28.666 50.001 45.999l49.5 50c15.333 16 25 26.333 29 31c2.66699 3.33301 5.83398 4.83301 9.50098 4.5
s6.66699 -1.66602 9 -3.99902s3.66602 -5.5 3.99902 -9.5s-0.833984 -7.66699 -3.50098 -11l-34 -40c-14 -16.667 -29.5 -33.667 -46.5 -51s-34.833 -33.5 -53.5 -48.5s-37.334 -25.5 -56.001 -31.5c-12 -4.66699 -24.5 -5.5 -37.5 -2.5s-22.833 11.167 -29.5 24.5
c-7.33301 15.333 -9.83301 37.833 -7.5 67.5s8.16602 63.5 17.499 101.5c4 14.667 9 31.834 15 51.501l20 62.5c7.33301 22 15.333 44.833 24 68.5l26 70.5v1h-122z" />
    <glyph glyph-name="u.003" horiz-adv-x="389" 
d="M25 227l16.498 46.4971l17.5 46.5c0 0.666992 0.333008 1.66699 1 3s2.66699 6 6 14c12.667 34.667 13.334 58.834 2.00098 72.501s-29.666 19.167 -54.999 16.5s-55.166 -12.5 -89.499 -29.5s-68 -38.5 -101 -64.5s-63 -55.5 -90 -88.5s-45.833 -66.833 -56.5 -101.5
c-10 34.667 -10 67.834 0 99.501s26.667 60.667 50 87s51.166 49.5 83.499 69.5s65.666 35.833 99.999 47.5s67.833 18.834 100.5 21.501s60.667 0 84 -8s40.333 -22.167 51 -42.5s11.334 -47.5 2.00098 -81.5c-2.66699 -10 -7 -23.833 -13 -41.5l-20 -58l-21.5 -64
c-7 -21.667 -12.667 -41.5 -17 -59.5s-6.83301 -32.5 -7.5 -43.5s2 -16.5 8 -16.5c11.333 2 24.166 8.66699 38.499 20s28.333 24.5 42 39.5s26 30 37 45s18.5 27.167 22.5 36.5l53 124c3.33301 7.33301 8.5 9.83301 15.5 7.5s13.667 -7.66602 20 -15.999
s11.166 -18.833 14.499 -31.5s2.66602 -25.334 -2.00098 -38.001c-2.66699 -7.33301 -7.66699 -20 -15 -38s-14.666 -37.167 -21.999 -57.5s-13.833 -40.333 -19.5 -60s-7.83398 -34.834 -6.50098 -45.501c0.666992 -10 5.5 -14.5 14.5 -13.5s20 6.16699 33 15.5
s27.333 22.166 43 38.499s30.5 34.833 44.5 55.5c6.66699 6 12.834 6.33301 18.501 1s5.83398 -11.666 0.500977 -18.999c-9.33301 -13.333 -20.833 -28.666 -34.5 -45.999s-28.834 -33.666 -45.501 -48.999s-34 -28.166 -52 -38.499s-35.667 -14.833 -53 -13.5
c-20 1.33301 -33.667 7.66602 -41 18.999s-10.666 24.5 -9.99902 39.5s3.33398 30.5 8.00098 46.5s9 29.333 13 40l-21 -25c-8.66699 -10 -18.167 -20 -28.5 -30s-21.333 -19.333 -33 -28s-23.167 -15 -34.5 -19s-22.5 -5 -33.5 -3s-20.833 8.66699 -29.5 20
c-9.33301 12 -14.666 27.167 -15.999 45.5s-0.333008 38.166 3 59.499c2.66699 15.333 6.16699 30.833 10.5 46.5s9.16602 31.167 14.499 46.5z" />
    <glyph glyph-name="v.003" 
d="M61 337c12.667 34.667 13.335 58.8301 2.00195 72.4971s-29.666 19 -54.999 16s-55 -12.833 -89 -29.5s-67.667 -38 -101 -64s-63.5 -55.5 -90.5 -88.5s-45.833 -66.833 -56.5 -101.5c-10 34.667 -10 67.834 0 99.501s26.667 60.667 50 87s51.166 49.5 83.499 69.5
s65.666 35.833 99.999 47.5s67.833 18.834 100.5 21.501s60.667 0 84 -8s40.333 -22.167 51 -42.5s11.334 -47.5 2.00098 -81.5c-3.33301 -12 -8 -24.167 -14 -36.5s-12 -28.166 -18 -47.499c-6.66699 -20 -14.167 -44.167 -22.5 -72.5s-15.166 -55.5 -20.499 -81.5
s-7.83301 -48 -7.5 -66s5.5 -27 15.5 -27c8 0 18.167 6.66699 30.5 20s24.666 28.833 36.999 46.5s24 35.5 35 53.5s18.833 31.667 23.5 41c-10 22.667 -15.833 43.5 -17.5 62.5s-0.833984 35.167 2.49902 48.5s8.16602 24 14.499 32s12.833 13 19.5 15
c14.667 4 25.5 3.66699 32.5 -1s11.333 -12 13 -22s1.33398 -21.667 -0.999023 -35s-5.5 -26.5 -9.5 -39.5s-8.16699 -24.833 -12.5 -35.5l-9.5 -23c6 -11.333 12.833 -21.5 20.5 -30.5s16.167 -15.5 25.5 -19.5s19.333 -4.83301 30 -2.5s22 8.83301 34 19.5
c3.33301 3.33301 7 4.66602 11 3.99902s7.16699 -2.33398 9.5 -5.00098s3.66602 -6 3.99902 -10s-1.5 -7.66699 -5.5 -11c-14 -12.667 -27.833 -21 -41.5 -25s-26.834 -4.5 -39.501 -1.5s-24.334 8.83301 -35.001 17.5s-20.334 19.667 -29.001 33l-29 -48.5
c-11.333 -18.333 -23.333 -36 -36 -53s-26 -31.5 -40 -43.5s-28 -18.667 -42 -20c-22.667 -3.33301 -40 -1.16602 -52 6.50098s-20 19.334 -24 35.001s-5.16699 34 -3.5 55s4.83398 43.167 9.50098 66.5c6.66699 36.667 15.334 71.167 26.001 103.5s22.334 65.5 35.001 99.5
zM219.001 203.996c11.333 30 17.499 52.3311 18.499 66.998s-0.166992 23.334 -3.5 26.001c-2.66699 2 -5.66699 1 -9 -3s-6.16602 -10.167 -8.49902 -18.5s-3.5 -18.666 -3.5 -30.999s2 -25.833 6 -40.5z" />
    <glyph glyph-name="w.003" horiz-adv-x="503" 
d="M44 -27c-26 -4 -43.8271 -0.333984 -53.4941 10.999s-14.667 26 -15 44s2.5 36.833 8.5 56.5s11.333 36.167 16 49.5l34 102.5c10.667 33.667 22.667 67.167 36 100.5c15.333 38 17.833 64.5 7.5 79.5s-28.166 21 -53.499 18s-55.5 -13.333 -90.5 -31
s-69.5 -40 -103.5 -67s-64.833 -57.5 -92.5 -91.5s-46.834 -68.333 -57.501 -103c-10 34.667 -10 67.834 0 99.501s26.667 60.667 50 87s51.166 49.5 83.499 69.5s65.666 35.833 99.999 47.5s67.833 18.834 100.5 21.501s60.667 0 84 -8s40.333 -22.167 51 -42.5
s11.334 -47.5 2.00098 -81.5c-3.33301 -12 -8.16602 -26.667 -14.499 -44s-13.333 -35.166 -21 -53.499l-22.5 -55.5l-20 -50c-6 -15.333 -11.333 -30 -16 -44s-8.33398 -26.5 -11.001 -37.5s-3.83398 -20 -3.50098 -27s2.83301 -10.833 7.5 -11.5c8 -2 19.667 4 35 18
s30.833 30.833 46.5 50.5s30.167 40 43.5 61s22.333 38.167 27 51.5c7.33301 19.333 13.833 39.166 19.5 59.499s10.167 40.833 13.5 61.5c0.666992 7.33301 5 10.833 13 10.5s16.333 -3 25 -8s16.5 -11 23.5 -18s10.167 -13.5 9.5 -19.5
c-1.33301 -10.667 -4.66602 -23.834 -9.99902 -39.501s-11.333 -32.167 -18 -49.5l-20 -52.5c-6.66699 -17.667 -12.334 -33.667 -17.001 -48s-7.33398 -26.166 -8.00098 -35.499s2 -14.666 8 -15.999c8.66699 -2 19 1.83301 31 11.5s23.833 21.5 35.5 35.5
s22.5 28.5 32.5 43.5s17.333 27.5 22 37.5c-4 8.66699 -7.5 22.167 -10.5 40.5s-4 36.5 -3 54.5s5.16699 33.167 12.5 45.5s19.333 17.5 36 15.5c15.333 -2 24.5 -9.66699 27.5 -23s2.83301 -28.333 -0.5 -45s-8.16602 -33.167 -14.499 -49.5s-11.5 -28.5 -15.5 -36.5
c6 -11.333 12.667 -21.5 20 -30.5s15.666 -15.5 24.999 -19.5s19.333 -5 30 -3s22 8.33301 34 19c4 3.33301 7.83301 4.66602 11.5 3.99902s6.83398 -2.33398 9.50098 -5.00098s4.16699 -6 4.5 -10s-1.5 -7.66699 -5.5 -11c-14 -13.333 -27.833 -21.833 -41.5 -25.5
s-26.834 -4 -39.501 -1s-24.334 9 -35.001 18s-20.334 20.167 -29.001 33.5c-26.667 -46 -53 -81 -79 -105s-49.333 -38 -70 -42s-37 1.5 -49 16.5s-17 38.5 -15 70.5c-6 -8 -13.667 -17.5 -23 -28.5s-19.333 -21.833 -30 -32.5s-21.834 -20 -33.501 -28
s-23.167 -13 -34.5 -15zM379.006 204.999l9 25.5029c2.66699 7.66699 4.66699 14.5 6 20.5c4 16.667 5.5 28.667 4.5 36s-3 10.666 -6 9.99902s-6.33301 -4.83398 -10 -12.501s-6.16699 -17.834 -7.5 -30.501c-1.33301 -14.667 0 -31 4 -49z" />
    <glyph glyph-name="x.003" horiz-adv-x="331" 
d="M244 56l27.998 23.001l26 23c8 7.33301 14.833 13.833 20.5 19.5l12.5 12.5c2.66699 3.33301 5.83398 4.66602 9.50098 3.99902s6.83398 -2.33398 9.50098 -5.00098s4.16699 -6 4.5 -10s-1.16699 -7.66699 -4.5 -11l-15 -15l-22.5 -22
c-8.33301 -8 -17.5 -16.333 -27.5 -25s-19.667 -16.334 -29 -23.001c-25.333 -15.333 -46.666 -21.5 -63.999 -18.5s-32 11 -44 24s-21.833 29.333 -29.5 49s-14.5 38.5 -20.5 56.5l-63 -60.5c-18.667 -17.667 -30.334 -30.167 -35.001 -37.5
c-2 -3.33301 -4.83301 -5.33301 -8.5 -6s-7.16699 0.333008 -10.5 3c-7.33301 4.66699 -8.66602 11 -3.99902 19c6 8.66699 19.667 23.167 41 43.5l73 67.5l-15 60.5c-4.66699 19.667 -9.66699 36 -15 49s-11.833 20.833 -19.5 23.5s-17.5 -2.66602 -29.5 -15.999l-11 -17
c-4 -6 -8 -11 -12 -15c-1.33301 -3.33301 -3.83301 -6.5 -7.5 -9.5s-7.16699 -3.5 -10.5 -1.5c-7.33301 4 -9.33301 10 -6 18c38.667 76 74.334 110.833 107.001 104.5s58.667 -51.166 78 -134.499c0.666992 -0.666992 1 -2 1 -4c24 22 45.333 42.5 64 61.5
s31.334 33.167 38.001 42.5c2 3.33301 4.83301 5.33301 8.5 6s7.16699 0 10.5 -2c7.33301 -6 8.66602 -12.333 3.99902 -19c-4 -6 -10 -13.333 -18 -22l-27.5 -29l-34.5 -34l-39 -37c2 -14 4.83301 -30.833 8.5 -50.5s8.66699 -37.5 15 -53.5s14.666 -27.833 24.999 -35.5
s23.166 -6.5 38.499 3.5z" />
    <glyph glyph-name="y.003" horiz-adv-x="323" 
d="M184 153c-18 -25.333 -36.5 -48.3271 -55.5 -68.9941s-37.167 -36.834 -54.5 -48.501s-32.833 -17.667 -46.5 -18s-24.5 7.16699 -32.5 22.5c-5.33301 11.333 -7.16602 25 -5.49902 41s5.16699 33.667 10.5 53c4.66699 16 10 32.167 16 48.5l17.5 48.5
c5.66699 16 10.5 31 14.5 45s6.66699 26.333 8 37c0.666992 7.33301 4.33398 10.666 11.001 9.99902s14 -3.16699 22 -7.5s15.167 -10 21.5 -17s9.16602 -13.5 8.49902 -19.5c0 -4 -2.66699 -13.5 -8 -28.5l-18 -51.5c-6.66699 -19.333 -13.167 -39.333 -19.5 -60
s-10.833 -38.334 -13.5 -53.001c-2 -12.667 0.833008 -18.334 8.5 -17.001s18 7.66602 31 18.999s27.333 26.166 43 44.499s30.5 38 44.5 59s26 42 36 63s15.667 39.833 17 56.5c0.666992 7.33301 4.83398 10.5 12.501 9.5s15.667 -4 24 -9s15.833 -11.167 22.5 -18.5
s9 -13.666 7 -18.999l-27.5 -77l-26.5 -72l-27 -73l-30 -79c23.333 2.66699 44.666 2.66699 63.999 0s33.5 -10 42.5 -22s11.5 -29.833 7.5 -53.5s-17.667 -54.5 -41 -92.5c8.66699 25.333 11 45.666 7 60.999s-11.333 27 -22 35s-23.667 12.833 -39 14.5s-30 1.5 -44 -0.5
l-51 -119c-20 -40.667 -40.833 -70.5 -62.5 -89.5s-42.167 -30 -61.5 -33s-36.5 0.333008 -51.5 10s-26.167 22.834 -33.5 39.501s-9.83301 35.5 -7.5 56.5s11.166 41.167 26.499 60.5c21.333 26.667 48 49.167 80 67.5s65 33.166 99 44.499zM50 -195.994l15.999 37.499
l16 39.5l3 8c-23.333 -9.33301 -47.166 -20.666 -71.499 -33.999s-44.5 -31 -60.5 -53c-12 -16 -16.667 -31.5 -14 -46.5s9.5 -24.833 20.5 -29.5s24.833 -1.66699 41.5 9s33 33.667 49 69z" />
    <glyph glyph-name="z.003" horiz-adv-x="287" 
d="M407 -6c-7.33301 13.333 -17.8291 25.667 -31.4961 37s-28.834 20.833 -45.501 28.5s-34 13.167 -52 16.5s-34.667 3.66602 -50 0.999023c-4.66699 -19.333 -11.167 -38.5 -19.5 -57.5s-17.666 -37 -27.999 -54s-20.833 -32.667 -31.5 -47s-20.667 -26.166 -30 -35.499
c-22 -22 -46.833 -39.833 -74.5 -53.5s-54.5 -23 -80.5 -28s-49.333 -5.33301 -70 -1s-35 13.5 -43 27.5s-9.5 29.333 -4.5 46s14.5 33.5 28.5 50.5s31.833 34 53.5 51s45.167 33.333 70.5 49s51.833 30 79.5 43s54.167 24.167 79.5 33.5
c7.33301 24.667 9.66602 45 6.99902 61c-18 -21.333 -35.833 -37 -53.5 -47s-33.834 -15.833 -48.501 -17.5s-27.667 0.166016 -39 5.49902s-19.833 12.666 -25.5 21.999s-8.33398 19.666 -8.00098 30.999s4.83301 22 13.5 32c16.667 18 36 30.5 58 37.5
s44.333 10.5 67 10.5c8 14 15 27.667 21 41s10.333 25.5 13 36.5s3 20.5 1 28.5s-6.33301 13.333 -13 16s-15.667 1.33398 -27 -3.99902s-23 -12.333 -35 -21s-23.333 -17.5 -34 -26.5l-23 -19.5c-4 -3.33301 -7.83301 -4.5 -11.5 -3.5s-6.5 3 -8.5 6
s-2.83301 6.33301 -2.5 10s2.5 7.16699 6.5 10.5l40 32.5c14 11.667 28.5 22 43.5 31s30.167 15.833 45.5 20.5s30.666 5 45.999 1c18.667 -5.33301 32 -14.166 40 -26.499s11.667 -27 11 -44s-4.66699 -35.333 -12 -55s-16.666 -38.834 -27.999 -57.501
c12 -11.333 20.5 -24.5 25.5 -39.5s7.5 -31.167 7.5 -48.5c25.333 6 49 6.33301 71 1s40.833 -14.166 56.5 -26.499s27.667 -27.666 36 -45.999s11.166 -37.833 8.49902 -58.5zM4.00391 -116.999c30.667 23.333 57.1641 49.667 79.4971 79s40.833 59 55.5 89
c-25.333 -10 -53.833 -22.167 -85.5 -36.5s-61.167 -30.166 -88.5 -47.499s-49.833 -35.833 -67.5 -55.5s-25.167 -39.5 -22.5 -59.5c0.666992 -6.66699 5.33398 -10.834 14.001 -12.501s19.334 -1 32.001 2s26.334 8.16699 41.001 15.5s28.667 16 42 26zM109.001 205.002
c-16.667 -2.66699 -30.5 -6.50098 -41.5 -11.501s-19.667 -10.167 -26 -15.5s-10.5 -10.666 -12.5 -15.999s-2 -9.33301 0 -12c3.33301 -6 12 -5.83301 26 0.5s32 24.5 54 54.5z" />
    <glyph glyph-name="a.004" horiz-adv-x="348" 
d="M243 30l86.002 76.0029c28 25.333 54.833 48.166 80.5 68.499s50.167 37 73.5 50s45.333 19.833 66 20.5s39.667 -6 57 -20s33 -38 47 -72c-31.333 22 -63.333 32.167 -96 30.5s-65.667 -10.834 -99 -27.501s-66.5 -38.334 -99.5 -65.001l-96.5 -81
c-14.667 -12.667 -29.667 -22.5 -45 -29.5s-29.666 -9.83301 -42.999 -8.5c-18 2 -30.333 8 -37 18s-10 21.667 -10 35s2.33301 27.333 7 42s9 27.667 13 39l-23.5 -29.5c-7 -9 -14 -16.5 -21 -22.5s-14 -10.333 -21 -13s-14.833 -3 -23.5 -1
c-22.667 4.66699 -38.334 15.667 -47.001 33s-12.334 37.666 -11.001 60.999c1.33301 18.667 5.33301 38.167 12 58.5s15.5 39.5 26.5 57.5s23.667 33.5 38 46.5s29.5 22 45.5 27s32.333 4.83301 49 -0.5s32.667 -18 48 -38c7.33301 18.667 14.166 30.334 20.499 35.001
s16.5 3 30.5 -5c9.33301 -6 15.833 -11.833 19.5 -17.5s4.83398 -12.834 3.50098 -21.501s-4.5 -19.334 -9.5 -32.001l-18.5 -47c-1.33301 -4 -4.33301 -11 -9 -21l-15.5 -34.5c-5.66699 -13 -11.334 -26.833 -17.001 -41.5s-10.334 -28.167 -14.001 -40.5
s-6 -22.666 -7 -30.999s0.833008 -13.166 5.5 -14.499c8.66699 -2 20.334 3.33301 35.001 16zM77.002 75.0029c6.66699 0 16.501 7.66602 29.501 22.999s26.333 33 40 53s26.167 39.833 37.5 59.5s18.666 33.834 21.999 42.501c-5.33301 7.33301 -12.333 12.5 -21 15.5
s-15.667 2.83301 -21 -0.5c-6 -3.33301 -12.667 -10.333 -20 -21s-15 -23.167 -23 -37.5s-15.5 -29.5 -22.5 -45.5s-12.833 -30.5 -17.5 -43.5s-7.5 -23.833 -8.5 -32.5s0.5 -13 4.5 -13z" />
    <glyph glyph-name="b.004" horiz-adv-x="331" 
d="M238 558l-44.5 -106.001l-42.5 -107l-44 -114c19.333 30.667 38.666 53.334 57.999 68.001s36.666 23.5 51.999 26.5s28.166 1.16699 38.499 -5.5s16.166 -15.667 17.499 -27c2 -14 0.5 -30.5 -4.5 -49.5s-11.667 -38.333 -20 -58s-17.666 -38.667 -27.999 -57
s-20.166 -33.5 -29.499 -45.5c4 -24 12.167 -36.333 24.5 -37s25.833 4.33301 40.5 15s29 23.5 43 38.5l32 34.5c3.33301 3.33301 6.83301 4.83301 10.5 4.5s6.66699 -1.66602 9 -3.99902s3.66602 -5.5 3.99902 -9.5s-1.16699 -7.66699 -4.5 -11l-46 -49
c-16.667 -17.333 -33.167 -31 -49.5 -41s-32.333 -14 -48 -12s-29.5 14.667 -41.5 38c-15.333 -15.333 -31 -28.166 -47 -38.499s-31.333 -13.5 -46 -9.5c-7.33301 3.33301 -14.166 8.33301 -20.499 15s-10.5 13.667 -12.5 21c-0.666992 -2.66699 -1 -3.66699 -1 -3v3
c0 1.33301 -0.166992 2.5 -0.5 3.5s-0.833008 0.5 -1.5 -1.5c-6 -10.667 -13.667 -18.834 -23 -24.501s-18 -9.16699 -26 -10.5s-14.5 -0.833008 -19.5 1.5s-6.83301 5.83301 -5.5 10.5l38 117l63 192c9.33301 28 17.333 54.5 24 79.5s10.5 48.333 11.5 70
s-1.66699 41.667 -8 60s-17.5 34.833 -33.5 49.5c4.66699 -4.66699 10.834 -8.83398 18.501 -12.501s18.334 -6.66699 32.001 -9s31 -4 52 -5s47.167 -1.16699 78.5 -0.5zM47 51.999c13.333 2.66699 27.8311 12.168 43.498 28.501s30.834 35.333 45.501 57
s27.5 43.834 38.5 66.501s18.833 41.667 23.5 57s4.83398 24.833 0.500977 28.5s-14.833 -2.5 -31.5 -18.5c-12.667 -12 -25.334 -27.833 -38.001 -47.5s-24.5 -40.334 -35.5 -62.001s-20.667 -42.334 -29 -62.001s-14.166 -35.5 -17.499 -47.5z" />
    <glyph glyph-name="c.004" horiz-adv-x="288" 
d="M240 265c-18.667 12.667 -36.834 16.335 -54.501 11.002s-33.667 -16 -48 -32s-26.333 -35.333 -36 -58s-16 -44.5 -19 -65.5s-1.66699 -39.5 4 -55.5s16.334 -25.333 32.001 -28s37.334 3 65.001 17s62.5 40.667 104.5 80c2.66699 2.66699 5.66699 3.66699 9 3
s6 -2.5 8 -5.5s3.16699 -6.33301 3.5 -10s-1.16699 -6.83398 -4.5 -9.50098c-42 -38 -79 -67.167 -111 -87.5s-63.667 -30.5 -95 -30.5c-18 0 -33.333 4.16699 -46 12.5s-23.167 19.166 -31.5 32.499s-14.166 28.333 -17.499 45s-4.33301 33.334 -3 50.001
c1.33301 23.333 6.83301 47.166 16.5 71.499s22.5 46.166 38.5 65.499c16.667 20 35.167 34.5 55.5 43.5s39.666 13 57.999 12s34.166 -6.66699 47.499 -17s21.333 -25.166 24 -44.499z" />
    <glyph glyph-name="d.004" horiz-adv-x="352" 
d="M421 557l-111.002 -260l-104 -259c-1.33301 -4.66699 -2.5 -9.66699 -3.5 -15s2.16699 -9 9.5 -11c4.66699 -1.33301 11 0.333984 19 5.00098s16.667 11 26 19s19 17 29 27l28.5 29.5l23.5 25.5c6.66699 7.33301 11.334 12.666 14.001 15.999
c3.33301 3.33301 6.83301 4.83301 10.5 4.5s6.83398 -1.66602 9.50098 -3.99902s4.16699 -5.5 4.5 -9.5s-1.16699 -7.66699 -4.5 -11l-40.5 -43.5c-15.667 -17 -32.167 -33.333 -49.5 -49s-35 -28.667 -53 -39s-35 -14.5 -51 -12.5c-22.667 2.66699 -37 10.334 -43 23.001
s-8.16699 26.5 -6.5 41.5s5.16699 29.167 10.5 42.5s8.66602 22 9.99902 26c-17.333 -22 -32.166 -39.333 -44.499 -52s-26.833 -17.334 -43.5 -14.001c-24 4 -40.667 15.167 -50 33.5s-13 39.5 -11 63.5c2 27.333 10.167 55.5 24.5 84.5s32.166 52.833 53.499 71.5
s44.666 29.334 69.999 32.001s50.666 -9 75.999 -35c10 28 21 55.333 33 82s20.833 52.5 26.5 77.5s6 49.167 1 72.5s-19.5 45.333 -43.5 66c4.66699 -4.66699 10.834 -8.83398 18.501 -12.501s18.334 -6.83398 32.001 -9.50098s30.834 -4.5 51.501 -5.5
s46.667 -1.16699 78 -0.5zM79.998 71c6.66699 0 16.001 5.99902 28.001 17.999s24.667 27.5 38 46.5s26.166 39.833 38.499 62.5s22.5 44.667 30.5 66c-12.667 17.333 -25.5 24.5 -38.5 21.5s-25.5 -11.667 -37.5 -26s-23 -32.166 -33 -53.499s-17.833 -42 -23.5 -62
s-9 -37.167 -10 -51.5s1.5 -21.5 7.5 -21.5z" />
    </font>
</defs>
</svg>
