<?xml version="1.0" standalone="no"?>
<!DOCTYPE svg PUBLIC "-//W3C//DTD SVG 1.1//EN" "http://www.w3.org/Graphics/SVG/1.1/DTD/svg11.dtd" >
<svg>
<metadata>
Created by FontForge 20090914 at Wed Jan 30 17:07:03 2019
 By www-data
Copyright (c) 2019 by Creative LAB. All rights reserved.
</metadata>
<defs>
<font id="IssabetaScript" horiz-adv-x="503" >
  <font-face 
    font-family="Issabeta Script"
    font-weight="400"
    font-stretch="normal"
    units-per-em="1000"
    panose-1="2 0 5 7 2 0 0 2 0 4"
    ascent="750"
    descent="-250"
    x-height="387"
    cap-height="635.997"
    bbox="-831.001 -543 14100 14242.9"
    underline-thickness="50"
    underline-position="-50"
    unicode-range="U+000D-U+E103"
  />
<missing-glyph horiz-adv-x="222" 
 />
    <glyph glyph-name=".notdef" horiz-adv-x="222" 
 />
    <glyph glyph-name="NULL" horiz-adv-x="0" 
 />
    <glyph glyph-name="NULL" horiz-adv-x="0" 
 />
    <glyph glyph-name="nonmarkingreturn" unicode="&#xd;" horiz-adv-x="222" 
 />
    <glyph glyph-name="space" unicode=" " horiz-adv-x="222" 
 />
    <glyph glyph-name="exclam" unicode="!" horiz-adv-x="261" 
d="M157 530c2 5.33301 6.33105 9.83203 12.998 13.499s13.667 5.5 21 5.5c12 0 22.667 -2 32 -6s14 -9.33301 14 -16l-132 -500c-1.33301 -3.33301 -3.66602 -5.66602 -6.99902 -6.99902c-7.33301 -2 -14 -3 -20 -3c-11.333 0 -19.166 3.33301 -23.499 10
s-6.5 16.667 -6.5 30zM83.998 -59.001c-8.66699 -9.33301 -19 -14.001 -31 -14.001s-22.833 4.83301 -32.5 14.5s-14.5 20.834 -14.5 33.501s5 23.167 15 31.5s19.667 12.5 29 12.5c12.667 0 23.667 -4.83301 33 -14.5s14 -20.5 14 -32.5c0 -12.667 -4 -23 -12 -31h-1z" />
    <glyph glyph-name="quotedbl" unicode="&#x22;" horiz-adv-x="374" 
d="M208 565c-4.66699 0 -8.83301 1.83496 -12.5 5.50195s-5.5 7.16699 -5.5 10.5c0 2 1.33301 4.66699 4 8l9 11c5.33301 5.33301 11 11.333 17 18s10.667 12.667 14 18c-6.66699 8 -10 16.667 -10 26c0 12 4.66699 22 14 30s19 12 29 12c12 0 23 -4.66699 33 -14
s15 -21 15 -35c0 -10.667 -3.5 -21.334 -10.5 -32.001s-15.667 -20.334 -26 -29.001s-21.833 -15.667 -34.5 -21s-24.667 -8 -36 -8zM78.001 565.002c-4 0 -7.83203 1.83496 -11.499 5.50195s-5.5 7.16699 -5.5 10.5c0.666992 2.66699 2 5.33398 4 8.00098
c1.33301 2 3 4.16699 5 6.5s4 4.83301 6 7.5s4.83301 6 8.5 10l10.5 11c3.33301 3.33301 6 6.16602 8 8.49902s2.66699 3.16602 2 2.49902c-4 3.33301 -6.66699 7.33301 -8 12s-2 9.33398 -2 14.001c0 12 4.66699 22.167 14 30.5s19.333 12.5 30 12.5
c11.333 0 21.833 -4.66699 31.5 -14s14.5 -21 14.5 -35c0 -10.667 -3.33301 -21.334 -10 -32.001s-15.334 -20.334 -26.001 -29.001s-22.167 -15.667 -34.5 -21s-24.5 -8 -36.5 -8z" />
    <glyph glyph-name="numbersign" unicode="#" horiz-adv-x="564" 
d="M392 554c2 10.667 8.67188 15.999 20.0049 15.999c15.333 0 23 -7.33301 23 -22v-7l-35 -130c15.333 0 30.666 0.333008 45.999 1s30.666 1 45.999 1c6.66699 0 12 -2.5 16 -7.5s6 -10.5 6 -16.5s-2.16699 -10.833 -6.5 -14.5s-9.16602 -5.5 -14.499 -5.5l-104 -2
l-17 -64.5l-17 -65.5c15.333 0 30.666 0.333008 45.999 1s30.666 1 45.999 1c6 0 11.167 -2 15.5 -6s7.16602 -8.66699 8.49902 -14c0 -6.66699 -2 -12.334 -6 -17.001s-9.33301 -7 -16 -7l-106 -2l-38 -143c-2 -5.33301 -4.83301 -9.66602 -8.5 -12.999
s-7.83398 -5 -12.501 -5c-6 0 -11.167 2.33301 -15.5 7s-6.5 9.66699 -6.5 15v1c0 2 0.333008 4 1 6h-1l35 132h-100l-37 -143c-1.33301 -5.33301 -4 -9.66602 -8 -12.999s-8.33301 -5 -13 -5c-7.33301 0 -12.833 2.66699 -16.5 8s-5.5 12.333 -5.5 21l34 130
c-14 0 -28.167 -0.166992 -42.5 -0.5s-28.5 -0.5 -42.5 -0.5c-6 0 -11 2 -15 6s-6.66699 9 -8 15c0 6.66699 2 12.167 6 16.5s9 6.5 15 6.5l99 1c6 24 11.667 45.667 17 65l17 64h-87c-14.667 0 -22 7.66699 -22 23c0 5.33301 1.66699 10 5 14s8.33301 6 15 6l100 2l39 146
c2 10 8.66699 15 20 15c15.333 0 23 -7.33301 23 -22v-7l-34 -132h98zM308.005 234.999l17 66l17 65h-99l-16.5 -65c-5 -20 -10.833 -42 -17.5 -66h99z" />
    <glyph glyph-name="dollar" unicode="$" horiz-adv-x="373" 
d="M211 613c0.666992 8 3.83398 14.165 9.50098 18.498s12.834 6.5 21.501 6.5c7.33301 -1.33301 13 -5 17 -11s6 -12.667 6 -20l-6 -42c20.667 -2 38.834 -9.5 54.501 -22.5s23.5 -30.167 23.5 -51.5c0 -11.333 -3.66699 -23.333 -11 -36s-16.666 -24.667 -27.999 -36
c-3.33301 -3.33301 -7.33301 -5 -12 -5c-3.33301 0 -6.83301 1.66699 -10.5 5s-5.5 7 -5.5 11c0 2 0.333008 3.83301 1 5.5s1.66699 3.5 3 5.5c20 20.667 30 37.334 30 50.001c0 11.333 -5.33301 20.333 -16 27s-21.667 10.667 -33 12l-26 -192
c1.33301 -2 4.33301 -5.16699 9 -9.5s8 -7.16602 10 -8.49902l30.5 -33c10.333 -11.333 19.666 -23.333 27.999 -36s15.166 -26.334 20.499 -41.001s8 -30.334 8 -47.001c0 -21.333 -4.16699 -41.333 -12.5 -60s-19.5 -35.167 -33.5 -49.5s-30 -26.166 -48 -35.499
s-37 -15 -57 -17l-6 -53c-0.666992 -8 -4 -14 -10 -18s-12 -6 -18 -6c-6.66699 0 -12.834 2.33301 -18.501 7s-8.5 12.334 -8.5 23.001l5 43c-16.667 0 -31.167 3.33301 -43.5 10s-22.833 15.5 -31.5 26.5s-15.167 23.5 -19.5 37.5s-6.83301 28.667 -7.5 44
c0 4 1.5 8 4.5 12s6.83301 6 11.5 6s8.5 -1.5 11.5 -4.5s4.83301 -6.5 5.5 -10.5c1.33301 -22 7.5 -42 18.5 -60s28.5 -27 52.5 -27c1.33301 0 1.83301 -0.166992 1.5 -0.5s0.166992 -0.166016 1.5 0.500977l37 274c-20.667 19.333 -38.334 42.333 -53.001 69
s-22 52.667 -22 78s8.33301 48.166 25 68.499s44.667 34.833 84 43.5zM190 51.998c18 13.333 33.332 29.999 45.999 49.999s19 41 19 63c0 14.667 -2.66699 29.834 -8 45.501s-14.666 31.167 -27.999 46.5zM196.999 507.997
c-9.33301 -7.33301 -16.332 -16.168 -20.999 -26.501s-7 -21.166 -7 -32.499c0 -9.33301 1.16699 -18.5 3.5 -27.5s5.16602 -17.5 8.49902 -25.5z" />
    <glyph glyph-name="percent" unicode="%" horiz-adv-x="333" 
d="M201 611c1.33301 7.33301 4.33398 12.833 9.00098 16.5s10.667 5.5 18 5.5c9.33301 0 16.166 -3.33301 20.499 -10s6.5 -14 6.5 -22l-122 -653c-1.33301 -8.66699 -5 -14.667 -11 -18s-12.667 -5 -20 -5c-7.33301 1.33301 -13 4.5 -17 9.5s-6 10.5 -6 16.5v6z
M104.001 538c-8.66699 -1.33301 -15.5 -7.83398 -20.5 -19.501s-7.5 -23.167 -7.5 -34.5c0 -5.33301 0.833008 -10.333 2.5 -15s4.5 -7 8.5 -7c7.33301 0 13.5 5.83301 18.5 17.5s8.5 22.834 10.5 33.501c-0.666992 5.33301 -1.66699 10.833 -3 16.5s-4 8.5 -8 8.5h-1z
M265.001 106.999c0 4 -0.670898 7.83301 -2.00391 11.5s-3.66602 6.16699 -6.99902 7.5c-9.33301 -1.33301 -16.666 -7.5 -21.999 -18.5s-8 -23.833 -8 -38.5c0 -5.33301 0.666992 -9.83301 2 -13.5s4 -5.5 8 -5.5c4.66699 0 8.83398 2.16699 12.501 6.5
s6.83398 9.5 9.50098 15.5s4.5 12.333 5.5 19s1.5 12 1.5 16zM193.997 107.999c4.66699 14.667 12.333 27.667 23 39s23.334 17 38.001 17c9.33301 0 17 -2 23 -6s10.833 -9 14.5 -15s6.16699 -12.667 7.5 -20s2 -14.333 2 -21c0 -9.33301 -1.5 -19.166 -4.5 -29.499
s-7.5 -20 -13.5 -29s-13.333 -16.5 -22 -22.5s-18.334 -9 -29.001 -9c-16.667 1.33301 -28.167 8.16602 -34.5 20.499s-9.5 25.833 -9.5 40.5c0 12 2 23.667 6 35h-1zM44.9961 519.999c5.33301 15.333 13 28.332 23 38.999s23 16 39 16c9.33301 0 17 -2 23 -6
s10.667 -9 14 -15s5.66602 -12.667 6.99902 -20s2 -14.666 2 -21.999c-1.33301 -10.667 -3.66602 -21.334 -6.99902 -32.001s-7.83301 -20.167 -13.5 -28.5s-12.5 -15 -20.5 -20s-17 -7.5 -27 -7.5c-16 0 -27.667 6.33301 -35 19s-11 26.334 -11 41.001
c0 7.33301 0.666992 13.833 2 19.5z" />
    <glyph glyph-name="ampersand" unicode="&#x26;" 
d="M419 9c-19.333 -25.333 -45.8359 -45.502 -79.5029 -60.502s-73.5 -22.5 -119.5 -22.5c-27.333 0 -52.333 3 -75 9s-42.5 15 -59.5 27s-30.167 27.333 -39.5 46s-14 41 -14 67c0 40 11.5 79.167 34.5 117.5s60.167 78.5 111.5 120.5
c-17.333 34 -30.833 67.167 -40.5 99.5s-14.5 61.833 -14.5 88.5c0 20.667 4.16699 39.167 12.5 55.5s19.333 29.833 33 40.5s29.334 18.834 47.001 24.501s35.834 8.5 54.501 8.5c14.667 0 29.334 -2 44.001 -6s27.667 -10 39 -18s20.5 -18.167 27.5 -30.5
s10.5 -26.5 10.5 -42.5c-0.666992 -21.333 -8.16699 -45.833 -22.5 -73.5s-40.166 -58.5 -77.499 -92.5v-1c-7.33301 -6 -13.833 -11.833 -19.5 -17.5s-12.167 -11.834 -19.5 -18.501l25 -48v1c22 -42 45.333 -81.167 70 -117.5s48 -68.166 70 -95.499
c9.33301 22.667 14 45.667 14 69c0 28 -7.83301 54.5 -23.5 79.5s-38.167 42.5 -67.5 52.5c-6 4 -9 9 -9 15c0 4.66699 2.16699 8.5 6.5 11.5s8.5 4.5 12.5 4.5c18.667 -6.66699 35.167 -15.667 49.5 -27s26.166 -24.166 35.499 -38.499s16.5 -29.833 21.5 -46.5
s7.5 -33.667 7.5 -51c0 -25.333 -4 -48.833 -12 -70.5s-19 -41.5 -33 -59.5zM203.997 287.998l-10 -10l-6 12zM385.997 19.998c-33.333 29.333 -67 66.835 -101 112.502s-64.333 94.167 -91 145.5c-30 -30.667 -52.333 -62.834 -67 -96.501s-22 -66.167 -22 -97.5
c0 -16.667 2.5 -32.5 7.5 -47.5s12.5 -28.333 22.5 -40s22.833 -20.834 38.5 -27.501s34.167 -10 55.5 -10c34 0 64.333 5.66699 91 17s48.667 26 66 44zM203.997 510c-0.666992 -3.33301 -1 -7 -1 -11c0 -20 3 -41.167 9 -63.5s14.333 -46.166 25 -71.499
c44 39.333 75.167 72.166 93.5 98.499s27.5 49.833 27.5 70.5c0 10.667 -2.66699 20 -8 28s-12 14.667 -20 20s-17 9.33301 -27 12s-19.667 4 -29 4c-21.333 0 -38 -8 -50 -24s-18.667 -36.667 -20 -62v-1z" />
    <glyph glyph-name="quotesingle" unicode="'" horiz-adv-x="215" 
d="M56 561c-4 1.33301 -7.66699 3.49805 -11 6.49805s-5 6.5 -5 10.5s4.66699 10.667 14 20c5.33301 4.66699 10.833 10.334 16.5 17.001s10.167 12.667 13.5 18c-7.33301 8.66699 -11 17.334 -11 26.001c0 12 4.83301 22 14.5 30s19.5 12 29.5 12
c12 0 22.833 -4.5 32.5 -13.5s14.5 -20.833 14.5 -35.5c0 -10.667 -3.33301 -21.5 -10 -32.5s-15.167 -20.833 -25.5 -29.5s-21.833 -15.667 -34.5 -21s-24.667 -8 -36 -8h-2z" />
    <glyph glyph-name="parenleft" unicode="(" horiz-adv-x="283" 
d="M230 637c6.66699 0 11.166 -2.32715 13.499 -6.99414s3.5 -9 3.5 -13c-1.33301 -4 -3.33301 -7.33301 -6 -10c-26 -22 -49.667 -49.667 -71 -83s-39.5 -69.833 -54.5 -109.5s-26.5 -81 -34.5 -124s-12 -85.5 -12 -127.5c0 -40.667 4.16699 -79.334 12.5 -116.001
s21.833 -69.667 40.5 -99h-1c1.33301 0 2 -1.66699 2 -5c0 -4.66699 -1.5 -8.83398 -4.5 -12.501s-7.16699 -5.5 -12.5 -5.5c-4 0 -7 1 -9 3c-36 30 -62 68.5 -78 115.5s-24 95.167 -24 144.5c0 14 0.666992 28.667 2 44s3 30.666 5 45.999s4.33301 30.166 7 44.499
s5.33398 27.5 8.00098 39.5c6.66699 23.333 16.167 50.166 28.5 80.499s27.5 59.333 45.5 87s38.5 51.667 61.5 72s48.5 32.166 76.5 35.499h1z" />
    <glyph glyph-name="parenright" unicode=")" horiz-adv-x="325" 
d="M177 635c20.667 -10 37.8311 -25.001 51.498 -45.001s24.5 -42.333 32.5 -67s13.5 -50.5 16.5 -77.5s4.5 -52.833 4.5 -77.5c0 -22 -1.5 -47 -4.5 -75s-8.16699 -57 -15.5 -87s-16.666 -59.833 -27.999 -89.5s-25.5 -57.334 -42.5 -83.001s-36.833 -48.167 -59.5 -67.5
s-48.667 -33.333 -78 -42c-5.33301 0 -10.166 2 -14.499 6s-6.5 7.66699 -6.5 11s0.5 5.66602 1.5 6.99902s2.83301 3.33301 5.5 6c26.667 20.667 50.334 46.834 71.001 78.501s38 66.667 52 105s24.667 78.5 32 120.5s11 83.667 11 125
c0 42.667 -4.16699 83.834 -12.5 123.501s-20.833 74.834 -37.5 105.501c-1.33301 2 -2 5.33301 -2 10c3.33301 11.333 9.66602 16 18.999 14z" />
    <glyph glyph-name="asterisk" unicode="*" horiz-adv-x="328" 
d="M225 580c5.33301 4 10.3369 5.99805 15.0039 5.99805c5.33301 0 10.166 -2.16699 14.499 -6.5s6.5 -9.16602 6.5 -14.499s-2.66699 -10.666 -8 -15.999l-34 -31h43c6 0 11 -2.33301 15 -7s6 -9.66699 6 -15c-1.33301 -6 -4 -11.167 -8 -15.5s-9 -6.5 -15 -6.5h-45
l15 -15.5c4.66699 -5 9 -10.167 13 -15.5h-1c4 -4 6 -8.33301 6 -13c0 -6 -2.16699 -11.5 -6.5 -16.5s-9.5 -7.5 -15.5 -7.5c-3.33301 0 -6.5 0.5 -9.5 1.5s-5.5 3.16699 -7.5 6.5v-1c-3.33301 4 -6 7 -8 9l-5.5 5.5l-5.5 5.5c-2 2 -4.66699 5 -8 9l-4 -43
c-1.33301 -5.33301 -4 -10.166 -8 -14.499s-9 -6.5 -15 -6.5c-5.33301 0 -10 2.33301 -14 7s-6 9.66699 -6 15l3 43l-33 -30c-4 -4.66699 -9 -7 -15 -7c-6.66699 0 -11.834 2.33301 -15.501 7s-5.5 9.66699 -5.5 15c0 6.66699 2.66699 12 8 16
c6.66699 6.66699 12 11.5 16 14.5s9.66699 8.16699 17 15.5h-43c-6 0 -10.833 2.16699 -14.5 6.5s-5.5 9.16602 -5.5 14.499s2.33301 10.5 7 15.5s9.66699 7.5 15 7.5h46l-28 31c-4 4 -6 8.66699 -6 14s2.16699 10.5 6.5 15.5s9.83301 7.5 16.5 7.5
c3.33301 0 6.16602 -0.833008 8.49902 -2.5l6.5 -4.5l29 -32l4 46v-1c0 6 2.33301 11.167 7 15.5s9.66699 6.5 15 6.5s10.166 -2 14.499 -6s6.5 -9.33301 6.5 -16l-3 -42z" />
    <glyph glyph-name="plus" unicode="+" horiz-adv-x="452" 
d="M231 134c-1.33301 -6.66699 -4.16504 -11.499 -8.49805 -14.499s-9.5 -4.5 -15.5 -4.5c-9.33301 0 -16.5 3.5 -21.5 10.5s-7.5 13.5 -7.5 19.5l14 125c-22.667 0 -44.834 -0.166992 -66.501 -0.5s-43.5 -0.5 -65.5 -0.5c-5.33301 0 -10.333 2.16699 -15 6.5
s-7 10.166 -7 17.499c0 8 2.66699 15.167 8 21.5s11.333 9.5 18 9.5l134 1l14 137c2 11.333 9.66699 17 23 17c8 0 15.167 -3 21.5 -9s9.5 -12.333 9.5 -19l-15 -126c22.667 0 44.667 0.166992 66 0.5s43.333 0.5 66 0.5c6.66699 0 12 -2.5 16 -7.5s6 -11.167 6 -18.5
c0 -8 -2.83301 -14.833 -8.5 -20.5s-11.834 -8.5 -18.501 -8.5l-133 -1z" />
    <glyph glyph-name="comma" unicode="," horiz-adv-x="224" 
d="M71 0c-4.66699 0 -8.83301 2.00293 -12.5 6.00293s-5.5 7.66699 -5.5 11s4.66699 9.66602 14 18.999l16 17.5c6 6.33301 10.667 12.166 14 17.499c-7.33301 8.66699 -11 17.334 -11 26.001c0 12 4.83301 22 14.5 30s19.5 12 29.5 12c12 0 22.833 -4.33301 32.5 -13
s14.5 -20.667 14.5 -36c0 -10.667 -3.33301 -21.334 -10 -32.001s-15 -20.334 -25 -29.001s-21.333 -15.667 -34 -21s-25 -8 -37 -8z" />
    <glyph glyph-name="hyphen" unicode="-" horiz-adv-x="350" 
d="M291 322c6 0 11.333 -2.66699 16 -8s7 -11.666 7 -18.999c0 -8 -2 -14.667 -6 -20s-9.66699 -8 -17 -8l-238 -2c-7.33301 0 -13 2.66699 -17 8s-6 12 -6 20c0 7.33301 2 13.666 6 18.999s9.66699 8 17 8z" />
    <glyph glyph-name="period" unicode="." horiz-adv-x="194" 
d="M113 121c13.333 0 22.835 -3.83203 28.502 -11.499s8.5 -16.167 8.5 -25.5c0 -8 -1.66699 -15.167 -5 -21.5s-7.33301 -11.833 -12 -16.5s-9.83398 -8.16699 -15.501 -10.5s-10.834 -3.5 -15.501 -3.5c-12 0 -21.333 4.5 -28 13.5s-10 19.167 -10 30.5
s3.83301 21.666 11.5 30.999s20.167 14 37.5 14z" />
    <glyph glyph-name="slash" unicode="/" horiz-adv-x="240" 
d="M139 607c1.33301 7.33301 4.66797 13.167 10.001 17.5s12.333 6.5 21 6.5c7.33301 -1.33301 13 -5 17 -11s6 -12.667 6 -20l-87 -659c-1.33301 -8 -5 -14 -11 -18s-12.667 -6 -20 -6c-6.66699 1.33301 -12.334 4.5 -17.001 9.5s-7 12.167 -7 21.5z" />
    <glyph glyph-name="zero" unicode="0" horiz-adv-x="446" 
d="M214 524c-22.667 -8 -42.501 -23.501 -59.501 -46.501s-31.333 -50 -43 -81s-20.334 -63.667 -26.001 -98s-8.5 -66.5 -8.5 -96.5c0 -51.333 7 -88.166 21 -110.499s31 -33.5 51 -33.5c16 0 32.667 5.66699 50 17s33.833 26.5 49.5 45.5s29.334 41.333 41.001 67
s19.834 52.834 24.501 81.501c2 13.333 3.66699 28.166 5 44.499s2 32.166 2 47.499c0 18.667 -1.5 37.834 -4.5 57.501s-7.66699 37.5 -14 53.5s-15 29.167 -26 39.5s-24.5 15.5 -40.5 15.5c-8 0 -15.333 -1 -22 -3zM240.999 559.999c32 0 58.333 -6.5 79 -19.5
s37 -30 49 -51s20.167 -44.5 24.5 -70.5s6.5 -52 6.5 -78c0 -20 -1.66699 -42.333 -5 -67s-8.66602 -49.667 -15.999 -75s-16.833 -49.833 -28.5 -73.5s-25.5 -44.834 -41.5 -63.501s-34.667 -33.667 -56 -45s-45.333 -17 -72 -17c-28.667 0 -52.167 6.66699 -70.5 20
s-32.666 30 -42.999 50s-17.333 41.5 -21 64.5s-5.5 44.167 -5.5 63.5c0 22 1.5 46.167 4.5 72.5s7.66699 53 14 80s14.666 53 24.999 78s23 47.333 38 67s32.167 35.334 51.5 47.001s41.666 17.5 66.999 17.5z" />
    <glyph glyph-name="one" unicode="1" horiz-adv-x="257" 
d="M163 569l49.002 9.00098c5.33301 0 9.16602 -1.16699 11.499 -3.5s4.16602 -5.83301 5.49902 -10.5l-0.5 -3c-0.333008 -2 -1.66602 -8.16699 -3.99902 -18.5l-11 -49l-21 -95l-34.5 -156.5l-51 -233c-4.66699 -4 -10.5 -7.33301 -17.5 -10s-13.833 -4 -20.5 -4
c-8 0 -14.5 1.66699 -19.5 5s-7.5 9 -7.5 17l103 515l-12 -3c-6.66699 0 -11.334 1.66699 -14.001 5s-4 6.66602 -4 9.99902c0 10 5 15.667 15 17z" />
    <glyph glyph-name="two" unicode="2" horiz-adv-x="451" 
d="M399 422c0 -29.333 -4.50098 -60.502 -13.501 -93.502s-20.5 -65.5 -34.5 -97.5s-29.833 -62.333 -47.5 -91s-35.167 -53 -52.5 -73c8 -1.33301 15.667 -2.33301 23 -3s14.666 -1 21.999 -1c16 0 31.5 2 46.5 6s29.5 11.667 43.5 23
c2 1.33301 3.83301 2.16602 5.5 2.49902s3.16699 0.5 4.5 0.5c10 0 15 -5.33301 15 -16c0 -1.33301 -0.166992 -3.33301 -0.5 -6s-2.16602 -5 -5.49902 -7c-18 -13.333 -36 -22.666 -54 -27.999s-36.333 -8 -55 -8c-12.667 0 -25 0.833008 -37 2.5
s-23.667 3.83398 -35 6.50098c-17.333 -16.667 -35.166 -28 -53.499 -34s-37.166 -9 -56.499 -9c-28 0 -48.333 4.33301 -61 13s-19 18.334 -19 29.001c0 12 7.83301 23.5 23.5 34.5s36.834 16.5 63.501 16.5c8.66699 0 17.667 -0.5 27 -1.5s17.666 -2.5 24.999 -4.5
c0.666992 0 1.66699 -0.333008 3 -1c16.667 18.667 33.5 41.5 50.5 68.5s32.167 55.667 45.5 86s24.333 60.833 33 91.5s13 59.334 13 86.001c0 30.667 -5.16699 53.667 -15.5 69s-23.166 23 -38.499 23c-17.333 0 -35.333 -10 -54 -30s-32.334 -50 -41.001 -90
c-4.66699 -12 -10.334 -18 -17.001 -18s-11 1.83301 -13 5.5s-3 7.83398 -3 12.501c1.33301 29.333 6.5 55 15.5 77s20.5 40.5 34.5 55.5s29.5 26.167 46.5 33.5s34.167 11 51.5 11c14.667 0 29 -2.83301 43 -8.5s26.333 -14.334 37 -26.001s19.167 -26.334 25.5 -44.001
s9.5 -38.5 9.5 -62.5zM162.999 66.998l6.00098 -15.999h-2c-0.666992 0 -1.33398 0.333008 -2.00098 1l-18 2c1.33301 1.33301 3 2.66602 5 3.99902s4 3 6 5zM91 30.999c6.66699 0 14.833 1.66699 24.5 5s20.167 9.33301 31.5 18c-5.33301 0.666992 -10.5 1.16699 -15.5 1.5
s-9.5 0.5 -13.5 0.5c-16.667 0 -28.667 -1.66699 -36 -5s-11 -7 -11 -11c0 -6 6.66699 -9 20 -9z" />
    <glyph glyph-name="three" unicode="3" horiz-adv-x="433" 
d="M363 542c18.667 -20.667 27.9971 -43.9922 27.9971 -69.9922c0 -14 -2.5 -28 -7.5 -42s-11.667 -27.333 -20 -40s-17.833 -24.334 -28.5 -35.001s-21.667 -19.667 -33 -27c26 -21.333 45.167 -44.666 57.5 -69.999s18.5 -50.333 18.5 -75c0 -24 -5.33301 -47 -16 -69
s-25.167 -41.167 -43.5 -57.5s-39.666 -29.333 -63.999 -39s-50.166 -14.5 -77.499 -14.5c-19.333 0 -37.833 2.83301 -55.5 8.5s-33.167 14.5 -46.5 26.5s-23.833 27.167 -31.5 45.5s-11.5 40.166 -11.5 65.499c0 4 0.166992 10.333 0.5 19s1.5 17.167 3.5 25.5
s4.83301 15.666 8.5 21.999s8.5 9.5 14.5 9.5c3.33301 0 6.5 -1 9.5 -3s4.5 -5.66699 4.5 -11c0 -1.33301 -0.166992 -2.83301 -0.5 -4.5s-0.5 -3.16699 -0.5 -4.5v-9c0 -24.667 2.83301 -45.834 8.5 -63.501s13.167 -32.334 22.5 -44.001s20 -20.334 32 -26.001
s24.667 -8.5 38 -8.5c18 0 34.667 4.33301 50 13s28.833 19.834 40.5 33.501s20.667 28.5 27 44.5s9.5 31.667 9.5 47c0 22.667 -6.66699 44.667 -20 66s-35 39.666 -65 54.999c-4 1.33301 -7.33301 3.66602 -10 6.99902s-4 6.66602 -4 9.99902
c0 2.66699 0.833008 5.33398 2.5 8.00098s5.16699 4.66699 10.5 6l-1 -1c13.333 4.66699 25.833 11.5 37.5 20.5s21.667 19.167 30 30.5s15 23.166 20 35.499s7.5 24.166 7.5 35.499c0 19.333 -6.16699 35 -18.5 47s-26.833 18 -43.5 18
c-17.333 0 -34.166 -7.16699 -50.499 -21.5s-28.833 -38.5 -37.5 -72.5c-2 -8 -7.33301 -12 -16 -12c-6.66699 0 -11 1.83301 -13 5.5s-3 7.5 -3 11.5c1.33301 20.667 6.33301 39.667 15 57s19.667 32 33 44s28.5 21.333 45.5 28s34.5 10 52.5 10
c16 0 31.833 -2.83301 47.5 -8.5s30.167 -14.167 43.5 -25.5v-1z" />
    <glyph glyph-name="four" unicode="4" horiz-adv-x="483" 
d="M326 547c-17.333 -43.333 -36.334 -82.999 -57.001 -118.999s-42.667 -72 -66 -108c19.333 2.66699 39.333 4.83398 60 6.50098s39 2.5 55 2.5l22.5 114c7 36 14.167 69 21.5 99c4 11.333 9.66699 18 17 20h47c10 -3.33301 15 -9.66602 15 -18.999
c-12 -52.667 -22.833 -104.834 -32.5 -156.501l-28.5 -154.5l-21 -111l-21 -110v2c0 -0.666992 -0.333008 -1.16699 -1 -1.5s-1 -0.833008 -1 -1.5c0 -4.66699 -1.66699 -8.33398 -5 -11.001s-7 -4 -11 -4h-45c-4 0 -7.66699 1.5 -11 4.5s-5 7.16699 -5 12.5
c0 0.666992 -0.166992 1.66699 -0.5 3s0.166992 2.66602 1.5 3.99902l20.5 106.5l19.5 102.5l12 68c-12 -0.666992 -25.5 -1.66699 -40.5 -3l-44.5 -4c-8.66699 -1.33301 -16.667 -2.33301 -24 -3s-15.333 -1.33398 -24 -2.00098c-17.333 -25.333 -35 -43.166 -53 -53.499
s-33.333 -15.5 -46 -15.5c-13.333 0 -24 3.33301 -32 10s-12 15.667 -12 27s6.16699 23.166 18.5 35.499s33.833 21.5 64.5 27.5c2 3.33301 4.33301 6.33301 7 9s5 5.33398 7 8.00098l31 45.5l31.5 50.5l30 52l26.5 49l15 27c1.33301 3.33301 4.33301 5 9 5h41
c4 0 6.83301 -1.5 8.5 -4.5s1.83398 -6.16699 0.500977 -9.5zM104.999 297.001l10 -16c-14.667 -3.33301 -25.5 -7.33301 -32.5 -12s-10.5 -8 -10.5 -10c0 0.666992 -1 2 -3 4c3.33301 2 8.33301 5.66699 15 11z" />
    <glyph glyph-name="five" unicode="5" horiz-adv-x="453" 
d="M81 287c-4.66699 0 -8.83496 0.668945 -12.502 2.00195s-5.5 6.66602 -5.5 15.999l49 258c3.33301 10.667 15.333 16 36 16c10 0 22.167 -0.833008 36.5 -2.5s29.166 -3.16699 44.499 -4.5c18.667 -2.66699 37.334 -5.16699 56.001 -7.5s36.334 -3.5 53.001 -3.5
c9.33301 0 18.166 0.833008 26.499 2.5s15.166 3.83398 20.499 6.50098c1.33301 0.666992 2.83301 1.33398 4.5 2.00098s3.16699 1 4.5 1c4 0 7.5 -1.66699 10.5 -5s4.5 -7 4.5 -11c0 -6.66699 -4.83301 -12.334 -14.5 -17.001s-20.667 -8.5 -33 -11.5
s-24.666 -5.16699 -36.999 -6.5s-21.166 -2 -26.499 -2c-19.333 0 -38.666 1.33301 -57.999 4s-38 6 -56 10l-19 -102l-19 -103c18 7.33301 34.833 12.5 50.5 15.5s31.167 4.5 46.5 4.5c45.333 0 81.166 -13.167 107.499 -39.5s39.5 -60.166 39.5 -101.499
c0 -33.333 -6.66699 -63 -20 -89s-29.833 -48 -49.5 -66s-40.667 -31.667 -63 -41s-42.833 -14 -61.5 -14c-20.667 0 -40.5 3.83301 -59.5 11.5s-35.667 18.667 -50 33s-25.833 31.666 -34.5 51.999s-13 43.5 -13 69.5v4v15.5c0 5.66699 0.666992 11 2 16
s3.5 9.16699 6.5 12.5s7.5 5 13.5 5c5.33301 0 10.333 -1.5 15 -4.5s7 -7.16699 7 -12.5c-1.33301 -5.33301 -2 -10.5 -2 -15.5v-14.5c0 -20.667 2.83301 -38.834 8.5 -54.501s13.167 -28.834 22.5 -39.501s20.166 -18.667 32.499 -24s25.166 -8 38.499 -8
c14.667 0 29.834 3.5 45.501 10.5s29.834 17.5 42.501 31.5s23.167 31.667 31.5 53s12.5 46 12.5 74c0 32 -9 55.333 -27 70s-41 22 -69 22c-27.333 0 -57.666 -6.33301 -90.999 -19c-2.66699 0 -4.66699 0.333008 -6 1h-41z" />
    <glyph glyph-name="six" unicode="6" horiz-adv-x="465" 
d="M423 498c2 -2.66699 3 -6.33203 3 -10.999c0 -3.33301 -1.33301 -7 -4 -11s-6.66699 -6 -12 -6c-4 0 -8 2 -12 6c-17.333 22.667 -33.5 38.667 -48.5 48s-29.167 14 -42.5 14c-19.333 0 -37.5 -7.66699 -54.5 -23s-32.5 -33.833 -46.5 -55.5s-26 -44.334 -36 -68.001
s-18 -43.834 -24 -60.501c37.333 15.333 73.666 23 108.999 23c23.333 0 43.333 -3.16699 60 -9.5s30.334 -15.166 41.001 -26.499s18.5 -24.5 23.5 -39.5s7.5 -30.833 7.5 -47.5c0 -26 -5.5 -53 -16.5 -81s-26 -53.833 -45 -77.5s-41.333 -43 -67 -58
s-52.834 -22.5 -81.501 -22.5c-18.667 0 -36.667 3.33301 -54 10s-32.5 17.5 -45.5 32.5s-23.5 34 -31.5 57s-12 51.167 -12 84.5c0 30 3.33301 60.667 10 92s15.167 61.5 25.5 90.5s21.5 55.667 33.5 80s23.333 44.833 34 61.5c19.333 28 42.333 50.167 69 66.5
s53.334 24.5 80.001 24.5s52 -7.66699 76 -23s44.667 -39 62 -71zM135 294.002c-0.666992 -1.33301 -0.999023 -3 -0.999023 -5c-2.66699 -1.33301 -4.33398 -2 -5.00098 -2zM217.001 304.002c-20.667 0 -48.333 -5.00098 -83 -15.001
c-11.333 -45.333 -17 -86.666 -17 -123.999c0 -32 4.83301 -60 14.5 -84s27.167 -40.667 52.5 -50c4 -1.33301 7.33301 -2 10 -2c12 0 24.667 6 38 18s25.333 27.167 36 45.5s19.5 38.5 26.5 60.5s10.5 43.333 10.5 64c0 24 -6.66699 44.5 -20 61.5s-36 25.5 -68 25.5z" />
    <glyph glyph-name="seven" unicode="7" horiz-adv-x="373" 
d="M235 577c3.33301 0 6.33008 0.167969 8.99707 0.500977s5.33398 0.5 8.00098 0.5h17c18.667 0 33.834 -1.5 45.501 -4.5s17.5 -8.5 17.5 -16.5c0 -4.66699 -2.33301 -9.33398 -7 -14.001c-22.667 -20.667 -42.5 -45 -59.5 -73s-33.167 -62.667 -48.5 -104
s-30.833 -91 -46.5 -149l-53.5 -208c-3.33301 -9.33301 -8.66602 -14 -15.999 -14h-48c-9.33301 0 -14 6.33301 -14 19l49 190.5c14.667 54.333 29 101.666 43 141.999s28.333 75 43 104s31 55.167 49 78.5c-27.333 -6 -56 -9 -86 -9c-6 0 -15.167 0.666992 -27.5 2
s-24.666 3.5 -36.999 6.5s-23.333 7 -33 12s-14.5 10.833 -14.5 17.5c0 4 1.66699 7.5 5 10.5s6.66602 4.5 9.99902 4.5s7 -1.33301 11 -4l-1 1c8.66699 -5.33301 23 -8 43 -8c13.333 0 28 0.833008 44 2.5s32 3.83398 48 6.50098l49 6h1z" />
    <glyph glyph-name="eight" unicode="8" horiz-adv-x="399" 
d="M89 27c-19.333 13.333 -32.832 27.6709 -40.499 43.0039s-11.5 30.666 -11.5 45.999c0 16.667 4 33.167 12 49.5s18 32.166 30 47.499s25.333 29.833 40 43.5s28.667 25.5 42 35.5c-34 32 -57.833 61.833 -71.5 89.5s-20.5 52.167 -20.5 73.5
c0 37.333 13.833 67.166 41.5 89.499s65.167 33.5 112.5 33.5c17.333 0 34.166 -2 50.499 -6s31 -10 44 -18s23.333 -18.167 31 -30.5s11.5 -27.166 11.5 -44.499c0 -18 -4 -35.5 -12 -52.5s-18 -32.667 -30 -47s-24.667 -27.5 -38 -39.5s-25.333 -22 -36 -30l38.5 -38.5
c13 -13 24.5 -26.833 34.5 -41.5s18.167 -30.334 24.5 -47.001s9.5 -34.334 9.5 -53.001c-1.33301 -22.667 -6.83301 -42.167 -16.5 -58.5s-22.167 -29.833 -37.5 -40.5s-32.5 -18.667 -51.5 -24s-37.833 -8 -56.5 -8c-17.333 0 -34.833 2.33301 -52.5 7
s-33.5 11.667 -47.5 21zM271.001 136.005c0 14 -2.33301 26.8301 -7 38.4971s-10.834 22.667 -18.501 33s-16.5 20.5 -26.5 30.5l-31 30l-37 -31.5c-13.333 -11.667 -25.666 -24.167 -36.999 -37.5s-20.833 -27.166 -28.5 -41.499s-11.5 -28.166 -11.5 -41.499
c0 -9.33301 2.33301 -18.666 7 -27.999s11.167 -18 19.5 -26s18.333 -14.5 30 -19.5s24.5 -7.5 38.5 -7.5c12.667 0 25.167 2.33301 37.5 7s23.166 11.167 32.499 19.5s16.833 18.5 22.5 30.5s8.83398 25 9.50098 39v5zM171.001 525.002
c-18.667 -14.667 -28.002 -33 -28.002 -55c0 -12 2.5 -24.333 7.5 -37s11.5 -25 19.5 -37s16.5 -23.333 25.5 -34s17.5 -20 25.5 -28c10.667 8.66699 22.167 18.834 34.5 30.501s23.833 23.834 34.5 36.501s19.334 25.667 26.001 39s10 26.666 10 39.999
c0 10.667 -3 20.167 -9 28.5s-13.5 15.166 -22.5 20.499s-18.833 9.33301 -29.5 12s-20.667 4 -30 4c-11.333 0 -22.666 -1.66699 -33.999 -5s-21.333 -8.33301 -30 -15z" />
    <glyph glyph-name="nine" unicode="9" horiz-adv-x="445" 
d="M39 32c-6 2.66699 -9.00195 7.33301 -9.00195 14c0 3.33301 1.83301 6.83301 5.5 10.5s7.83398 5.5 12.501 5.5c1.33301 0 2.5 -0.166992 3.5 -0.5s2.83301 -1.16602 5.5 -2.49902c24 -15.333 46.667 -23 68 -23c24 0 45.333 8 64 24s35.167 35.333 49.5 58
s26.166 46.5 35.499 71.5s16.666 46.5 21.999 64.5c-22 -10.667 -42.667 -18 -62 -22s-39.666 -6 -60.999 -6c-43.333 0 -74.666 11.833 -93.999 35.5s-29 52.5 -29 86.5c0 26 5.16699 52.667 15.5 80s24.666 52.333 42.999 75s39.833 41.334 64.5 56.001s51.667 22 81 22
c18.667 0 36.334 -3.5 53.001 -10.5s31.334 -18.167 44.001 -33.5s22.667 -35.333 30 -60s11 -54.334 11 -89.001c0 -28.667 -2.66699 -58.334 -8 -89.001s-13.166 -60.667 -23.499 -90s-22.833 -57.333 -37.5 -84s-31.334 -50 -50.001 -70s-39 -35.833 -61 -47.5
s-45.667 -17.5 -71 -17.5c-17.333 0 -35 3.5 -53 10.5s-35.333 17.833 -52 32.5zM303.998 292.999c0 1.33301 0.332031 2.33301 0.999023 3c0.666992 0 2.33398 0.666992 5.00098 2zM206.997 273.999c24 0 56.665 7.33301 97.998 22c5.33301 23.333 8 46 8 68
c0 21.333 -1.83301 42.666 -5.5 63.999s-8.5 40.5 -14.5 57.5s-13.167 30.667 -21.5 41s-17.166 15.5 -26.499 15.5c-13.333 0 -26.833 -6.16699 -40.5 -18.5s-26 -27.666 -37 -45.999s-20.167 -38.5 -27.5 -60.5s-11 -43 -11 -63c0 -22 5.83301 -40.833 17.5 -56.5
s31.834 -23.5 60.501 -23.5z" />
    <glyph glyph-name="colon" unicode=":" horiz-adv-x="146" 
d="M77 220c11.333 0 20.667 -3.50098 28 -10.501s11 -15.833 11 -26.5c0 -13.333 -5.33301 -25.166 -16 -35.499s-22.334 -15.5 -35.001 -15.5c-10 0 -19 3.66699 -27 11s-12 16.333 -12 27c0 12 5.33301 23.333 16 34s22.334 16 35.001 16zM77.001 399.999
c11.333 0 20.666 -3.33496 27.999 -10.002s11 -15.667 11 -27c0 -13.333 -5.5 -25.166 -16.5 -35.499s-22.833 -15.5 -35.5 -15.5c-10.667 0 -19.667 3.83301 -27 11.5s-11 16.834 -11 27.501c0 12 5.33301 23.167 16 33.5s22.334 15.5 35.001 15.5z" />
    <glyph glyph-name="semicolon" unicode=";" horiz-adv-x="164" 
d="M83 399c10 0 18.834 -3.33398 26.501 -10.001s11.5 -15.667 11.5 -27c0 -14 -5.33301 -26.167 -16 -36.5s-22.334 -15.5 -35.001 -15.5c-10 0 -19 3.66699 -27 11s-12 16.333 -12 27c0 12.667 5.33301 24.334 16 35.001s22.667 16 36 16zM21.001 91.999
c-4 0 -7.83203 1.83301 -11.499 5.5s-5.5 7.83398 -5.5 12.501c0 4 4.33301 10.333 13 19l16.5 16.5c6.33301 6.33301 11.166 11.833 14.499 16.5c-6.66699 8.66699 -10 17.667 -10 27c0 12 4.66699 22 14 30s19.333 12 30 12c12 0 22.667 -4.33301 32 -13
s14 -20.334 14 -35.001c0 -10.667 -3.33301 -21.5 -10 -32.5s-15.167 -20.833 -25.5 -29.5s-21.833 -15.667 -34.5 -21s-25 -8 -37 -8z" />
    <glyph glyph-name="less" unicode="&#x3c;" horiz-adv-x="327" 
d="M276 372c-28.667 -21.333 -53.999 -37.998 -75.999 -49.998s-41.333 -21 -58 -27c14.667 -5.33301 31.167 -13.833 49.5 -25.5s38.166 -27.834 59.499 -48.501c4.66699 -4.66699 7 -10.334 7 -17.001s-3.33301 -13 -10 -19s-14 -9 -22 -9
c-8.66699 0 -15.667 2.66699 -21 8c-14.667 14.667 -28.5 26.667 -41.5 36s-25.167 16.666 -36.5 21.999s-21.5 9.33301 -30.5 12s-16.833 4.66699 -23.5 6c-10.667 2.66699 -19.334 6 -26.001 10s-10 11 -10 21c0 15.333 3.16699 25 9.5 29s16.833 7.33301 31.5 10
c6.66699 1.33301 15.167 3.33301 25.5 6s22.166 7 35.499 13s28.333 13.833 45 23.5s35.334 22.167 56.001 37.5c3.33301 2.66699 6.83301 4.33398 10.5 5.00098s7.16699 1 10.5 1c6.66699 0 12.834 -1.83301 18.501 -5.5s8.5 -9.16699 8.5 -16.5
c0 -4 -1.16699 -8.16699 -3.5 -12.5s-5.5 -7.83301 -9.5 -10.5z" />
    <glyph glyph-name="equal" unicode="=" horiz-adv-x="391" 
d="M257 237c6.66699 0 11.999 -2.5 15.999 -7.5s6 -11.5 6 -19.5s-2.16699 -14.5 -6.5 -19.5s-9.16602 -7.5 -14.499 -7.5l-196 -2c-5.33301 0 -10 2.5 -14 7.5s-6 11.5 -6 19.5s2 14.5 6 19.5s8.66699 7.5 14 7.5zM307.999 411c5.33301 0 9.83301 -2.5 13.5 -7.5
s6.16699 -11.167 7.5 -18.5c0 -8 -2 -14.667 -6 -20s-9 -8 -15 -8l-196 -1c-6 0 -11 2.5 -15 7.5s-6 11.5 -6 19.5s2 14.5 6 19.5s8.66699 7.5 14 7.5z" />
    <glyph glyph-name="greater" unicode="&#x3e;" horiz-adv-x="338" 
d="M57 224c28 20.667 52.998 37.001 74.998 49.001s41.333 20.667 58 26c-14.667 6.66699 -31 15.667 -49 27s-37.667 27.333 -59 48c-4.66699 4.66699 -7 10.334 -7 17.001c0 7.33301 3.33301 13.666 10 18.999s14 8 22 8c8.66699 0 15.334 -2.33301 20.001 -7
c14.667 -14.667 28.5 -26.5 41.5 -35.5s25.167 -16.333 36.5 -22s21.5 -9.83398 30.5 -12.501l23.5 -7c11.333 -3.33301 20.166 -6.5 26.499 -9.5s9.5 -9.83301 9.5 -20.5c0 -8 -0.666992 -14.5 -2 -19.5s-3.5 -8.83301 -6.5 -11.5s-7 -4.66699 -12 -6
s-11.167 -2.66602 -18.5 -3.99902s-16 -3.16602 -26 -5.49902s-21.833 -6.33301 -35.5 -12s-29.167 -13.5 -46.5 -23.5s-36.666 -23 -57.999 -39c-5.33301 -3.33301 -11.333 -5 -18 -5c-7.33301 0 -13.666 2 -18.999 6s-8 9.66699 -8 17c0 3.33301 1 7.16602 3 11.499
s5 8.16602 9 11.499z" />
    <glyph glyph-name="question" unicode="?" horiz-adv-x="492" 
d="M138 399c0 -5.33301 -0.996094 -10.0059 -2.99609 -14.0059s-6.66699 -6 -14 -6c-4 0 -7.83301 2.66699 -11.5 8s-6.66699 11.666 -9 18.999s-4.16602 14.833 -5.49902 22.5s-2 13.5 -2 17.5c0 29.333 5.5 55.5 16.5 78.5s25.333 42.333 43 58s37.667 27.667 60 36
s44.833 12.5 67.5 12.5s44.5 -3.83301 65.5 -11.5s39.5 -18.667 55.5 -33s28.667 -31.5 38 -51.5s14 -42.333 14 -67c0 -30 -3.66699 -55.167 -11 -75.5s-17.333 -37.666 -30 -51.999s-27.334 -27 -44.001 -38s-34.334 -21.833 -53.001 -32.5
c-20.667 -12 -41.834 -25.667 -63.501 -41s-42.167 -35.166 -61.5 -59.499s-36.5 -54.166 -51.5 -89.499s-25.833 -79 -32.5 -131c-1.33301 -3.33301 -4.33301 -6.66602 -9 -9.99902s-9.66699 -5 -15 -5s-10.166 2.33301 -14.499 7s-8 10.5 -11 17.5s-5.33301 14 -7 21
s-2.5 13.167 -2.5 18.5c0 36.667 5.66699 69.334 17 98.001s26.166 54.667 44.499 78s39 44.333 62 63l68.5 54l50 39.5c16 13 30.167 26.5 42.5 40.5s22.166 28.5 29.499 43.5s11 31.5 11 49.5c0 20.667 -3.33301 38.834 -10 54.501s-15.167 28.834 -25.5 39.501
s-22.333 18.834 -36 24.501s-27.5 8.5 -41.5 8.5c-16 0 -31.833 -3.33301 -47.5 -10s-29.834 -16.334 -42.501 -29.001s-23 -28 -31 -46s-12 -38 -12 -60c0 -13.333 3.66699 -28 11 -44zM84.0039 -62.0059c13.333 0 23.167 -3.99902 29.5 -11.999s9.5 -16.667 9.5 -26
c0 -12.667 -4.16699 -24.667 -12.5 -36s-19.5 -17 -33.5 -17c-12.667 0 -22.5 4.66699 -29.5 14s-10.5 19.666 -10.5 30.999s3.83301 21.833 11.5 31.5s19.5 14.5 35.5 14.5z" />
    <glyph glyph-name="at" unicode="@" horiz-adv-x="674" 
d="M488 14c-21.333 -13.333 -39.667 -19.9961 -55 -19.9961c-20 0 -35 8.16699 -45 24.5s-15 38.166 -15 65.499c0 16.667 1.66699 35.5 5 56.5s8.66602 45.167 15.999 72.5c-14 -18.667 -29 -36.5 -45 -53.5s-32.167 -32.167 -48.5 -45.5s-32.666 -24 -48.999 -32
s-32.5 -12 -48.5 -12c-13.333 0 -24.5 2.83301 -33.5 8.5s-16.167 13.334 -21.5 23.001s-9.16602 20.667 -11.499 33s-3.5 25.166 -3.5 38.499c0 34.667 6.83301 70.667 20.5 108s31.5 71.5 53.5 102.5s47.167 56.333 75.5 76s57.166 29.5 86.499 29.5
c26 0 47.833 -6 65.5 -18s31.167 -27.333 40.5 -46c4.66699 4.66699 10 7.5 16 8.5s12 1.5 18 1.5c10.667 0 19.834 -2.33301 27.501 -7s11.5 -10.334 11.5 -17.001c-28 -65.333 -50.333 -123.5 -67 -174.5s-25 -91.167 -25 -120.5c0 -12 1.66699 -18 5 -18
c8 0 18.167 7 30.5 21s24.5 32.333 36.5 55s22.167 48.5 30.5 77.5s12.5 58.833 12.5 89.5c0 29.333 -5.33301 58.166 -16 86.499s-29.334 53.833 -56.001 76.5c-20 17.333 -39.833 30 -59.5 38s-38.5 12 -56.5 12c-26 0 -50.833 -6.5 -74.5 -19.5s-45.667 -30.333 -66 -52
s-38.833 -46.5 -55.5 -74.5s-31 -57 -43 -87s-21.167 -59.667 -27.5 -89s-9.5 -56.333 -9.5 -81c0 -22 2.33301 -42.667 7 -62s11.167 -36.166 19.5 -50.499s18.833 -25.666 31.5 -33.999s27 -12.5 43 -12.5c15.333 0 34.666 5 57.999 15c3.33301 0 7.5 -1.33301 12.5 -4
s7.5 -7 7.5 -13c0 -5.33301 -4.16699 -10.333 -12.5 -15s-17.833 -8.5 -28.5 -11.5s-21 -5.33301 -31 -7s-16.333 -2.5 -19 -2.5c-24.667 0 -46.167 6.16699 -64.5 18.5s-33.666 29.166 -45.999 50.499s-21.5 46.166 -27.5 74.499s-9 58.166 -9 89.499
c0 45.333 6.5 92 19.5 140s32.333 91.5 58 130.5s57.834 71 96.501 96s83.667 37.5 135 37.5c39.333 0 75.166 -8.16699 107.499 -24.5s59.833 -38.5 82.5 -66.5s40.167 -60.5 52.5 -97.5s18.5 -76.167 18.5 -117.5c0 -26.667 -2.66699 -53 -8 -79
s-13.5 -50.833 -24.5 -74.5s-24.5 -45.667 -40.5 -66s-35 -37.5 -57 -51.5zM232.999 278.004c-7.33301 -19.333 -13.167 -38.167 -17.5 -56.5s-6.5 -35.5 -6.5 -51.5c0 -21.333 2.66699 -36.166 8 -44.499s11 -12.5 17 -12.5c10 0 21.333 4.5 34 13.5
s25.834 20.5 39.501 34.5s27.5 29.667 41.5 47s26.833 34.5 38.5 51.5s22 32.833 31 47.5s15.5 26.667 19.5 36c2 4 3.83301 8 5.5 12l4.5 11l-1 -1c1.33301 3.33301 2.66602 7 3.99902 11s2.66602 7.66699 3.99902 11c-3.33301 16 -11.166 30.833 -23.499 44.5
s-26.166 20.5 -41.499 20.5s-31.333 -7 -48 -21s-32.334 -30.5 -47.001 -49.5s-27.5 -38.333 -38.5 -58s-18.833 -34.834 -23.5 -45.501z" />
    <glyph glyph-name="A" unicode="A" horiz-adv-x="949" 
d="M513 466c0 -20 5.99512 -38.0068 17.9951 -54.0068s30.667 -24.667 56 -26c4 -1.33301 7.66699 -3.83301 11 -7.5s5 -7.16699 5 -10.5s-1.33301 -6.66602 -4 -9.99902s-6.66699 -5 -12 -5c-18.667 0.666992 -34.834 4.33398 -48.501 11.001s-24.834 15.167 -33.501 25.5
s-15.167 22.166 -19.5 35.499s-6.5 27 -6.5 41c0 26.667 5.5 50.5 16.5 71.5s25.333 38.667 43 53s37.834 25.333 60.501 33s45.667 11.5 69 11.5c31.333 0 58.333 -5.66699 81 -17s41.5 -27.5 56.5 -48.5s26.167 -46.167 33.5 -75.5s11 -61.666 11 -96.999
c0 -38.667 -2.33301 -77.5 -7 -116.5s-9 -72.5 -13 -100.5l-8 -52l17 28c7.33301 12 15.333 25.833 24 41.5l28 50.5l30 55v-1c2.66699 6 7 9 13 9c11.333 0 17 -5.33301 17 -16v-4c0 -1.33301 -0.666992 -2.66602 -2 -3.99902l-47 -86.5
c-17.333 -31 -34.5 -59.833 -51.5 -86.5s-33 -48.834 -48 -66.501s-27.167 -26.5 -36.5 -26.5c-8 0 -13.5 3.83301 -16.5 11.5s-4.5 17.5 -4.5 29.5c0 12.667 1 27.334 3 44.001l7 57c2 12.667 3.83301 23.667 5.5 33s3.16699 20.666 4.5 33.999h-95
c-10 -27.333 -22.667 -57 -38 -89s-33.666 -61.667 -54.999 -89s-45.5 -50 -72.5 -68s-56.833 -27 -89.5 -27c-20 0 -37 3.5 -51 10.5s-25.5 16.833 -34.5 29.5s-15.5 27.334 -19.5 44.001s-6 34.667 -6 54c0 17.333 1.33301 33.666 4 48.999l-10 -3
c-26.667 -6.66699 -53 -13.667 -79 -21s-50 -16.5 -72 -27.5s-41 -24.667 -57 -41s-27.333 -36.5 -34 -60.5c-2 -7.33301 -7.33301 -11 -16 -11c-3.33301 0 -6.66602 0.666992 -9.99902 2s-5.66602 4.66602 -6.99902 9.99902c0.666992 34.667 8.33398 62.834 23.001 84.501
s33.834 39.334 57.501 53.001s50.5 24.167 80.5 31.5s60.667 14.333 92 21c8.66699 1.33301 15.834 2.5 21.501 3.5s12.5 2.5 20.5 4.5c6 22.667 14.167 44.5 24.5 65.5s22 39.5 35 55.5s27.167 28.833 42.5 38.5s31 14.5 47 14.5c20.667 0 36.167 -6.66699 46.5 -20
s15.5 -28.666 15.5 -45.999c0 -21.333 -5.33301 -39.666 -16 -54.999s-24.667 -28.666 -42 -39.999s-36.666 -20.833 -57.999 -28.5s-42.666 -14.5 -63.999 -20.5c-1.33301 -7.33301 -2.33301 -14.833 -3 -22.5s-1 -14.5 -1 -20.5c0 -26.667 4.66699 -49.167 14 -67.5
s24.666 -27.5 45.999 -27.5c16 0 33.5 5.66699 52.5 17s38.5 29.5 58.5 54.5s39.5 57.167 58.5 96.5s36.5 87.333 52.5 144c4.66699 17.333 9.16699 35.5 13.5 54.5s8.16602 37.5 11.499 55.5s5.83301 34.833 7.5 50.5s2.5 29.167 2.5 40.5
c0 20.667 -3.83301 35.334 -11.5 44.001s-17.167 13 -28.5 13s-23.333 -3.33301 -36 -10s-24.5 -15.5 -35.5 -26.5s-20 -23.667 -27 -38s-10.5 -29.5 -10.5 -45.5zM732.995 570.993c0 -1.33301 0.165039 -2.49902 0.498047 -3.49902s0.5 -2.16699 0.5 -3.5
c-2.66699 3.33301 -5.66699 6.16602 -9 8.49902s-6.66602 4.83301 -9.99902 7.5l15 8c0 3.33301 0.333008 2 1 -4s1.33398 -10.667 2.00098 -14v1zM768.993 262.994l2.00098 20.9971c1.33301 16.667 2.66602 34.834 3.99902 54.501s2 39.167 2 58.5
c0 32.667 -2.83301 64 -8.5 94s-17.167 54.333 -34.5 73c0.666992 -4 1.16699 -8.16699 1.5 -12.5s0.5 -8.83301 0.5 -13.5c0 -21.333 -2 -44.666 -6 -69.999s-8.66699 -50.666 -14 -75.999s-11.333 -49.333 -18 -72l-17 -58zM481.994 274.991
c2 4 3.83301 8.66797 5.5 14.001s2.5 10.333 2.5 15c0 7.33301 -1.66699 13.5 -5 18.5s-9.33301 7.5 -18 7.5c-12 0 -23.333 -3.5 -34 -10.5s-20.5 -16.5 -29.5 -28.5s-17.333 -25.833 -25 -41.5s-13.834 -32.167 -18.501 -49.5c27.333 7.33301 51.833 16.666 73.5 27.999
s37.834 27 48.501 47z" />
    <glyph glyph-name="B" unicode="B" horiz-adv-x="959" 
d="M424 -35c-3.33301 -0.666992 -7.00391 -1.1709 -11.0039 -1.50391s-8 -0.5 -12 -0.5c-20 0 -37 3.5 -51 10.5s-25.5 16.833 -34.5 29.5s-15.5 27.334 -19.5 44.001s-6 34.667 -6 54c0 17.333 1.33301 33.666 4 48.999l-11 -3c-26.667 -6.66699 -53 -13.667 -79 -21
s-50 -16.5 -72 -27.5s-41 -24.667 -57 -41s-27.333 -36.5 -34 -60.5c-2 -8 -7 -12 -15 -12c-3.33301 0 -6.66602 0.833008 -9.99902 2.5s-5.66602 5.16699 -6.99902 10.5c0.666992 34.667 8.33398 62.834 23.001 84.501s33.834 39.334 57.501 53.001s50.5 24.167 80.5 31.5
s60.667 14.333 92 21c8.66699 1.33301 15.834 2.33301 21.501 3s12.5 2 20.5 4c6 23.333 14.167 45.5 24.5 66.5s22 39.5 35 55.5s27.167 28.667 42.5 38s31 14 47 14c20.667 0 36.167 -6.5 46.5 -19.5s15.5 -28.167 15.5 -45.5c0 -21.333 -5.33301 -39.666 -16 -54.999
s-24.667 -28.666 -42 -39.999s-36.666 -21 -57.999 -29s-42.666 -15 -63.999 -21c-1.33301 -7.33301 -2.33301 -14.666 -3 -21.999s-1 -14 -1 -20c0 -26.667 4.66699 -49.334 14 -68.001s24.666 -28 45.999 -28c14.667 0 30.834 5.33301 48.501 16
s35.334 27.334 53.001 50.001s35.167 51.667 52.5 87s33.333 78 48 128c6 22.667 11.333 45 16 67s8.5 42.667 11.5 62s5.33301 36.666 7 51.999s2.5 27.333 2.5 36c0 19.333 -3.5 33 -10.5 41s-15.833 12 -26.5 12c-11.333 0 -23.333 -3.33301 -36 -10
s-24.5 -15.5 -35.5 -26.5s-20.167 -23.833 -27.5 -38.5s-11 -29.667 -11 -45c0 -20 5.83301 -38 17.5 -54s30.5 -24.667 56.5 -26c3.33301 -1.33301 6.66602 -3.66602 9.99902 -6.99902s5 -6.66602 5 -9.99902c0 -4 -1.16699 -7.66699 -3.5 -11s-6.16602 -5 -11.499 -5
c-18.667 0.666992 -34.834 4.33398 -48.501 11.001s-24.834 15.167 -33.501 25.5s-15.167 22.166 -19.5 35.499s-6.5 27 -6.5 41c0 21.333 4.5 42.666 13.5 63.999s21 40.333 36 57s31.833 30.167 50.5 40.5s38 15.5 58 15.5c13.333 0 25.666 -1.83301 36.999 -5.5
s22.666 -10.167 33.999 -19.5c12.667 8.66699 26.5 15.667 41.5 21s30.167 8 45.5 8c12 0 24 -2.16699 36 -6.5s22.667 -10.833 32 -19.5s17 -19.667 23 -33s9 -29.333 9 -48s-3.66699 -37.334 -11 -56.001s-16.666 -36.667 -27.999 -54s-24 -33.5 -38 -48.5
s-28 -28.5 -42 -40.5h7c18 0 35.333 -2 52 -6s31.667 -10.5 45 -19.5s24 -20.5 32 -34.5s12 -31 12 -51c0 -33.333 -9.66699 -63.5 -29 -90.5s-43.666 -50.167 -72.999 -69.5s-61.333 -34.333 -96 -45s-67 -16 -97 -16c-14.667 0 -28.834 1.33301 -42.501 4
s-25.834 6.66699 -36.501 12c-14 -12 -28.833 -21.833 -44.5 -29.5s-32.5 -13.167 -50.5 -16.5h-1zM718.996 77.9961c11.333 8.66699 21.834 18.665 31.501 29.998s18.167 23.333 25.5 36s13 25.334 17 38.001s6 24.667 6 36c0 20.667 -8.16699 36.167 -24.5 46.5
s-42.5 15.5 -78.5 15.5h-19.5c-5.66699 0 -10.167 -0.666992 -13.5 -2c-6 -20 -13 -40.667 -21 -62s-17 -42.666 -27 -63.999s-20.667 -42 -32 -62s-23.666 -38 -36.999 -54c5.33301 -1.33301 10.666 -2.16602 15.999 -2.49902s11.666 -0.5 18.999 -0.5
c23.333 0 47.833 4.16699 73.5 12.5s47.167 19.166 64.5 32.499zM695.997 353.994c24 23.333 44.834 49.334 62.501 78.001s26.5 57 26.5 85c0 20.667 -5.33301 37.667 -16 51s-23 20 -37 20c-6 0 -11.5 -0.666992 -16.5 -2s-10.833 -4.66602 -17.5 -9.99902
c3.33301 -8.66699 5.66602 -17.834 6.99902 -27.501s2 -19.167 2 -28.5c0 -32.667 -2.5 -63.834 -7.5 -93.501s-11.167 -58.167 -18.5 -85.5zM467.998 280.995c2 4 3.83301 8.50098 5.5 13.501s2.5 10.167 2.5 15.5c0 7.33301 -1.66699 13.5 -5 18.5s-9.33301 7.5 -18 7.5
c-12 0 -23.333 -3.5 -34 -10.5s-20.5 -16.5 -29.5 -28.5s-17.333 -25.833 -25 -41.5s-13.834 -32.167 -18.501 -49.5c27.333 7.33301 51.833 16.666 73.5 27.999s37.834 27 48.501 47z" />
    <glyph glyph-name="C" unicode="C" horiz-adv-x="358" 
d="M375 546c18 4.66699 36.1719 9.66992 54.5049 15.0029s35.166 11.833 50.499 19.5s28.666 17 39.999 28s19.333 24.5 24 40.5c1.33301 3.33301 3.33301 6.16602 6 8.49902s5.33398 3.5 8.00098 3.5c6.66699 0 11.667 -4.66699 15 -14
c-0.666992 -25.333 -6.33398 -45.666 -17.001 -60.999s-24.5 -27.833 -41.5 -37.5s-36.333 -17.334 -58 -23.001s-43.834 -10.834 -66.501 -15.501l-30 -7c-4.66699 -16 -10.667 -31.333 -18 -46s-15.666 -27.667 -24.999 -39s-19.5 -20.333 -30.5 -27
s-22.167 -10 -33.5 -10c-16 0 -28 4.83301 -36 14.5s-12 21.167 -12 34.5c0 14.667 4 27.667 12 39s18.167 21.333 30.5 30s26.166 16 41.499 22s30.666 11.333 45.999 16c0.666992 1.33301 0.833984 3.16602 0.500977 5.49902s-0.5 4.5 -0.5 6.5
c0 22.667 -7.66699 34 -23 34c-11.333 0 -22.833 -5.5 -34.5 -16.5s-22.834 -23.833 -33.501 -38.5s-20 -29.334 -28 -44.001s-13.333 -25.334 -16 -32.001c-11.333 -25.333 -22 -52.5 -32 -81.5s-18.667 -58.167 -26 -87.5s-13.166 -58 -17.499 -86s-6.5 -53.333 -6.5 -76
c0 -24.667 2.66699 -43.834 8 -57.501s14.333 -20.5 27 -20.5c18 0 37 9.16699 57 27.5s39 40.5 57 66.5s33.833 53.5 47.5 82.5s22.834 54.167 27.501 75.5c1.33301 5.33301 3.33301 9.66602 6 12.999s6 5 10 5c3.33301 0 7 -1.83301 11 -5.5s6 -8.16699 6 -13.5
c-4 -18.667 -10.167 -39 -18.5 -61s-18.5 -44.167 -30.5 -66.5s-25.333 -43.666 -40 -63.999s-30.334 -38.5 -47.001 -54.5s-34.334 -28.667 -53.001 -38s-37.667 -14 -57 -14c-34 0 -59.167 14.833 -75.5 44.5s-24.5 67.5 -24.5 113.5c0 28.667 2.83301 58.334 8.5 89.001
s13.167 60.667 22.5 90s19.833 57.333 31.5 84s23.5 50.667 35.5 72c7.33301 12.667 17 27.334 29 44.001s25.5 32.334 40.5 47.001s31 27 48 37s34.5 15 52.5 15c8.66699 0 17.167 -1.33301 25.5 -4s15.833 -7 22.5 -13s12 -13.667 16 -23s6 -21 6 -35
c0 -3.33301 0.166992 -4.83301 0.5 -4.5s0.166016 -2.5 -0.500977 -8.5zM244.005 445.003c-3.33301 -6.66699 -5 -13 -5 -19c0 -10.667 4.66699 -16 14 -16c16 0 30.333 8 43 24s22.667 36.667 30 62c-19.333 -5.33301 -36 -11.833 -50 -19.5s-24.667 -18.167 -32 -31.5z
" />
    <glyph glyph-name="D" unicode="D" horiz-adv-x="895" 
d="M527 635c18 0 34.001 -2.67188 48.001 -8.00488s26 -12.5 36 -21.5s18.167 -19.5 24.5 -31.5s11.166 -24.333 14.499 -37c30 22 57 33 81 33c16.667 0 31.167 -4.83301 43.5 -14.5s22.5 -22.834 30.5 -39.501s13.833 -36.167 17.5 -58.5s5.5 -46.166 5.5 -71.499
c0 -41.333 -5 -84.666 -15 -129.999s-24.833 -87.166 -44.5 -125.499s-43.5 -70 -71.5 -95s-60 -37.5 -96 -37.5c-22 0 -45.333 5.66699 -70 17c-14.667 -16 -31.334 -29.167 -50.001 -39.5s-37.334 -15.5 -56.001 -15.5c-23.333 0 -42.833 4.33301 -58.5 13
s-28.334 20 -38.001 34s-16.5 29.833 -20.5 47.5s-6 35.834 -6 54.501c0 14 1 27.667 3 41l-10 -3c-26.667 -6.66699 -53 -13.667 -79 -21s-50 -16.5 -72 -27.5s-41 -24.667 -57 -41s-27.333 -36.5 -34 -60.5c-2 -8 -7.33301 -12 -16 -12c-3.33301 0 -6.5 0.833008 -9.5 2.5
s-5.16699 5.16699 -6.5 10.5c0.666992 34.667 8.33398 62.834 23.001 84.501s33.834 39.334 57.501 53.001s50.334 24.167 80.001 31.5s60.167 14.333 91.5 21c8.66699 1.33301 16 2.33301 22 3s12.667 2 20 4c6 23.333 14.167 45.5 24.5 66.5s22 39.5 35 55.5
s27.167 28.667 42.5 38s31 14 47 14c21.333 0 37 -6.5 47 -19.5s15 -28.167 15 -45.5c0 -21.333 -5.33301 -39.666 -16 -54.999s-24.667 -28.666 -42 -39.999s-36.666 -21 -57.999 -29s-42.666 -15 -63.999 -21c-1.33301 -7.33301 -2.33301 -14.666 -3 -21.999
s-1 -14 -1 -20c0 -26.667 4.83301 -49.334 14.5 -68.001s25.167 -28 46.5 -28c22.667 0 42.667 7.5 60 22.5s32.666 34.5 45.999 58.5s24.5 51.333 33.5 82s16.333 61.667 22 93s9.83398 61.666 12.501 90.999s4 54.666 4 75.999c0 20 -1.5 38.333 -4.5 55s-8 31 -15 43
s-16 21.5 -27 28.5s-24.5 10.5 -40.5 10.5c-11.333 0 -22.166 -2.5 -32.499 -7.5s-19.333 -12 -27 -21s-13.834 -19.5 -18.501 -31.5s-7 -25 -7 -39c0 -20 6 -38 18 -54s30.667 -24.667 56 -26c4 -1.33301 7.66699 -3.66602 11 -6.99902s5 -6.66602 5 -9.99902
c0 -4 -1.33301 -7.66699 -4 -11s-6.66699 -5 -12 -5c-18.667 0.666992 -34.834 4.33398 -48.501 11.001s-24.834 15.167 -33.501 25.5s-15.167 22.166 -19.5 35.499s-6.5 27 -6.5 41c0 20 4 39.167 12 57.5s19 34.666 33 48.999s30.167 25.666 48.5 33.999
s37.833 12.5 58.5 12.5zM751.001 297.995c1.33301 10 2.66504 21.998 3.99805 35.998s2 28.667 2 44c0 16.667 -0.833008 33.5 -2.5 50.5s-4.5 32.5 -8.5 46.5s-9.33301 25.333 -16 34s-15 13 -25 13c-11.333 0 -27 -8 -47 -24c0.666992 -8 1 -16.333 1 -25v-26
c0 -33.333 -2.33301 -68.666 -7 -105.999s-11.5 -74 -20.5 -110s-20.333 -70.5 -34 -103.5s-29.5 -62.167 -47.5 -87.5c8 -2.66699 17 -4 27 -4c24.667 0 46.834 10 66.501 30s36.834 43.833 51.501 71.5s26.667 56.334 36 86.001s16 54.5 20 74.5zM479 280.993
c2 4 3.83301 8.50098 5.5 13.501s2.5 10.167 2.5 15.5c0 7.33301 -1.66699 13.5 -5 18.5s-9.33301 7.5 -18 7.5c-12 0 -23.333 -3.5 -34 -10.5s-20.5 -16.5 -29.5 -28.5s-17.333 -25.833 -25 -41.5s-13.834 -32.167 -18.501 -49.5c27.333 7.33301 51.833 16.666 73.5 27.999
s37.834 27 48.501 47z" />
    <glyph glyph-name="E" unicode="E" horiz-adv-x="405" 
d="M60 99c0 17.333 2.17383 35.501 6.50684 54.501s10 37.5 17 55.5s14.667 34.667 23 50s16.5 28 24.5 38c-6.66699 9.33301 -11.334 20 -14.001 32s-4 25 -4 39c0 27.333 4.66699 56.666 14 87.999s22.166 60.166 38.499 86.499s35.333 48.333 57 66
s45.167 26.5 70.5 26.5c18.667 0 35 -5.66699 49 -17s21 -29.333 21 -54c0 -12 -2.66699 -26 -8 -42s-12.833 -31.167 -22.5 -45.5s-21.167 -26.666 -34.5 -36.999s-28 -15.5 -44 -15.5c-4.66699 0 -9.33398 0.833008 -14.001 2.5s-7 5.16699 -7 10.5
c0 6.66699 3.33301 10 10 10c11.333 10 22 20.667 32 32c8.66699 9.33301 17.334 19.5 26.001 30.5s15.667 21.833 21 32.5c1.33301 3.33301 2.66602 8 3.99902 14s2 11.667 2 17s-0.833008 9.83301 -2.5 13.5s-4.5 5.5 -8.5 5.5c-10.667 0 -23.334 -8 -38.001 -24
s-28.5 -35.167 -41.5 -57.5s-24 -45.666 -33 -69.999s-13.5 -44.5 -13.5 -60.5c0 -4 0.333008 -7 1 -9c16.667 16.667 33.667 30.334 51 41.001s36.666 16 57.999 16c3.33301 0 7.5 -0.333008 12.5 -1s9.66699 -1.83398 14 -3.50098s8.16602 -4 11.499 -7
s5 -6.83301 5 -11.5c0 -10 -5.33301 -15 -16 -15h-4c-22.667 -10 -45.167 -27 -67.5 -51s-42.166 -50.667 -59.499 -80s-31.5 -58.833 -42.5 -88.5s-16.5 -54.834 -16.5 -75.501c0 -21.333 3.83301 -35.833 11.5 -43.5s15.5 -11.5 23.5 -11.5
c8.66699 0 17.834 2.33301 27.501 7s19.167 10.167 28.5 16.5s18 13.333 26 21s14.667 14.5 20 20.5c10.667 12 21.5 25.667 32.5 41s21.5 31.833 31.5 49.5s19.167 35.5 27.5 53.5s15.166 35.333 20.499 52c2.66699 7.33301 8 11 16 11c6 0 10.167 -1.5 12.5 -4.5
s3.5 -8.5 3.5 -16.5c-11.333 -34.667 -26.5 -69.167 -45.5 -103.5s-40.5 -65.333 -64.5 -93s-49.333 -50.167 -76 -67.5s-53.334 -26 -80.001 -26c-34.667 0 -58.834 9.5 -72.501 28.5s-20.5 42.167 -20.5 69.5z" />
    <glyph glyph-name="F" unicode="F" horiz-adv-x="887" 
d="M545 339c-7.33301 0 -14.1631 0.664062 -20.4961 1.99707s-12.5 3 -18.5 5c8.66699 -13.333 13 -27.333 13 -42c0 -21.333 -5.5 -39.666 -16.5 -54.999s-25 -28.666 -42 -39.999s-36.333 -21 -58 -29s-42.834 -15 -63.501 -21
c-1.33301 -7.33301 -2.33301 -14.666 -3 -21.999s-1 -14 -1 -20c0 -26.667 4.66699 -49.334 14 -68.001s24.666 -28 45.999 -28c20 0 39.667 7 59 21s37.666 32.5 54.999 55.5s33.333 49.5 48 79.5s27.167 61 37.5 93s18.5 64 24.5 96s9 61.333 9 88c0 32 -5 58.333 -15 79
s-25.667 31 -47 31c-12.667 0 -24.834 -3 -36.501 -9s-21.834 -14.167 -30.501 -24.5s-15.5 -22.333 -20.5 -36s-7.5 -27.834 -7.5 -42.501c0 -20 5.83301 -38 17.5 -54s30.5 -24.667 56.5 -26c4 -1.33301 7.5 -3.66602 10.5 -6.99902s4.5 -6.66602 4.5 -9.99902
c0 -4 -1.16699 -7.66699 -3.5 -11s-6.16602 -5 -11.499 -5zM836.003 385.997c0 -5.33301 -1.83398 -11.168 -5.50098 -17.501s-9.16699 -12.333 -16.5 -18s-16.833 -10.5 -28.5 -14.5s-25.5 -6.33301 -41.5 -7c-4.66699 -9.33301 -8.66699 -19.166 -12 -29.499l-9 -28.5
c-2.66699 -8.66699 -6.33398 -16.334 -11.001 -23.001l-7 -9c-10.667 0 -16 6 -16 18c1.33301 10 3.66602 21.167 6.99902 33.5s7.66602 25.166 12.999 38.499c-2 0 -4.16699 -0.166992 -6.5 -0.5s-4.83301 -0.5 -7.5 -0.5c-10 -36 -23.5 -75.5 -40.5 -118.5
s-37.5 -82.833 -61.5 -119.5s-52.167 -67.334 -84.5 -92.001s-69.166 -37 -110.499 -37c-18.667 0 -34.5 3.83301 -47.5 11.5s-23.667 17.834 -32 30.501s-14.5 27.5 -18.5 44.5s-6 34.833 -6 53.5c0 17.333 1.33301 33.666 4 48.999l-11 -3
c-26.667 -6.66699 -53 -13.667 -79 -21s-50 -16.5 -72 -27.5s-41 -24.667 -57 -41s-27.333 -36.5 -34 -60.5c-2 -8 -7 -12 -15 -12c-3.33301 0 -6.66602 0.833008 -9.99902 2.5s-5.66602 5.16699 -6.99902 10.5c0.666992 34.667 8.33398 62.834 23.001 84.501
s33.834 39.334 57.501 53.001s50.5 24.167 80.5 31.5s60.667 14.333 92 21c8 1.33301 15 2.33301 21 3s13 2 21 4c6 23.333 14 45.5 24 66.5s21.5 39.5 34.5 55.5s27.167 28.667 42.5 38s31 14 47 14c2.66699 0 5 -0.166992 7 -0.5s4.33301 -0.833008 7 -1.5
c-11.333 11.333 -19.666 24.333 -24.999 39s-8 30 -8 46c0 60.667 17.5 103.667 52.5 129s86.833 38 155.5 38c10.667 0 21.167 -0.5 31.5 -1.5s21.166 -2.16699 32.499 -3.5c12.667 -1.33301 25.5 -2.5 38.5 -3.5s26.167 -1.5 39.5 -1.5c17.333 0 33 2.33301 47 7
s21 13.667 21 27c0 2 -0.333008 3.83301 -1 5.5s-1.33398 3.5 -2.00098 5.5c-1.33301 3.33301 -2.66602 7.16602 -3.99902 11.499s-2 8.5 -2 12.5s1.5 7.66699 4.5 11s7.16699 5 12.5 5c4.66699 0 8.66699 -2.5 12 -7.5s6 -10.833 8 -17.5s3.5 -12.834 4.5 -18.501
s1.5 -9.5 1.5 -11.5c0 -15.333 -3.66699 -28.166 -11 -38.499s-16.666 -18.666 -27.999 -24.999s-23.833 -11 -37.5 -14s-26.5 -4.5 -38.5 -4.5h-7c-2.66699 0 -5 0.333008 -7 1c-7.33301 0.666992 -15.333 2 -24 4s-17.667 4.66699 -27 8
c-6 1.33301 -11.5 2.83301 -16.5 4.5s-10.167 2.83398 -15.5 3.50098c13.333 -18 22.166 -38 26.499 -60s6.5 -44.667 6.5 -68c0 -17.333 -0.833008 -33.5 -2.5 -48.5s-3.5 -28.5 -5.5 -40.5c3.33301 0 7 0.166992 11 0.5s8.33301 0.5 13 0.5c10 14 22.167 26.167 36.5 36.5
s28.166 15.5 41.499 15.5c11.333 0 19.5 -2.66699 24.5 -8s7.5 -12 7.5 -20zM472.002 280.995c2 4 3.83203 8.50098 5.49902 13.501s2.5 10.167 2.5 15.5c0 7.33301 -1.66699 13.5 -5 18.5s-9.66602 7.5 -18.999 7.5c-11.333 0 -22.333 -3.5 -33 -10.5
s-20.5 -16.5 -29.5 -28.5s-17.333 -25.833 -25 -41.5s-13.834 -32.167 -18.501 -49.5c27.333 7.33301 51.833 16.666 73.5 27.999s37.834 27 48.501 47zM803.001 380.996l-1 -0.000976562c0.666992 0.666992 1 1.33398 1 2.00098v-2zM802.001 380.995
c-5.33301 -0.666992 -10.833 -2.49805 -16.5 -5.49805s-11.167 -6.83301 -16.5 -11.5c9.33301 1.33301 16.833 3.66602 22.5 6.99902s9.16699 6.66602 10.5 9.99902zM747.001 361.997c4.66699 0 8.66797 0.166992 12.001 0.5s6.66602 0.833008 9.99902 1.5
c-2 -2.66699 -4.33301 -5.5 -7 -8.5s-5 -6.16699 -7 -9.5z" />
    <glyph glyph-name="G" unicode="G" horiz-adv-x="757" 
d="M657 576c15.333 3.33301 31.001 7.00195 47.001 11.002s31 9 45 15s26 13 36 21s17 17.667 21 29c2 6.66699 6.66699 10 14 10c5.33301 0 10 -3.66699 14 -11c-0.666992 -20 -5.83398 -36.167 -15.501 -48.5s-22.167 -22.333 -37.5 -30s-33 -13.667 -53 -18
s-40.333 -8.16602 -61 -11.499l-24 -4c-4 -12 -9.66699 -23.833 -17 -35.5s-15.5 -22 -24.5 -31s-18.5 -16.333 -28.5 -22s-20.333 -8.5 -31 -8.5c-15.333 0 -26.666 4.33301 -33.999 13s-11 18 -11 28c0 12 3.5 22.5 10.5 31.5s16 17 27 24s23.5 13 37.5 18
s28.333 9.16699 43 12.5v7c0 4 -1.33301 7.83301 -4 11.5s-8 5.5 -16 5.5c-10 0 -20.333 -3.66699 -31 -11s-20.834 -16 -30.501 -26s-18.167 -20.167 -25.5 -30.5s-12.666 -18.5 -15.999 -24.5c-10 -18.667 -19.5 -39.167 -28.5 -61.5s-17 -44.666 -24 -66.999
s-12.5 -43.833 -16.5 -64.5s-6 -39 -6 -55c0 -17.333 2.33301 -31.333 7 -42s12.667 -16 24 -16c12.667 0 26 4.33301 40 13s27.833 20 41.5 34s26.667 29.5 39 46.5s23.166 33.833 32.499 50.5l4 36l4 35c3.33301 6.66699 8.5 11.834 15.5 15.501s14.5 5.5 22.5 5.5
c7.33301 0 14.5 -2 21.5 -6s12.167 -10.667 15.5 -20c-8 -101.333 -19.333 -193.5 -34 -276.5s-33.167 -154 -55.5 -213s-48.666 -104.5 -78.999 -136.5s-65.166 -48 -104.499 -48c-20 0 -37.833 4.33301 -53.5 13s-29.334 20.5 -41.001 35.5s-21 32.333 -28 52
s-11.5 40.167 -13.5 61.5l-18 -10l-71 -37c-23.333 -12.667 -44.166 -26.834 -62.499 -42.501s-33.333 -33.167 -45 -52.5s-17.834 -41.333 -18.501 -66c-2 -10 -8 -15 -18 -15c-4.66699 0 -8.33398 2 -11.001 6s-4.5 8.66699 -5.5 14s-1.66699 10.666 -2 15.999
s-0.5 9.66602 -0.5 12.999c0 25.333 6.16699 48.166 18.5 68.499s28.5 38.5 48.5 54.5s42.5 30.333 67.5 43s50.167 24.667 75.5 36l41 19c0.666992 24.667 3.83398 49.167 9.50098 73.5s13.5 45.833 23.5 64.5s22.333 33.834 37 45.501s31 17.5 49 17.5
c19.333 0 34.333 -7 45 -21s16 -30 16 -48c0 -18.667 -3.83301 -35.667 -11.5 -51s-18 -29.5 -31 -42.5s-27.833 -25 -44.5 -36s-34 -21.167 -52 -30.5c2 -17.333 5.5 -33.5 10.5 -48.5s11 -28.333 18 -40s15.167 -20.834 24.5 -27.501s19.333 -10 30 -10
c16 0 32.5 7.66699 49.5 23s34 41.166 51 77.499s33.333 84.666 49 144.999s29.834 135.5 42.501 225.5c-21.333 -28 -45.5 -52.333 -72.5 -73s-56.5 -31 -88.5 -31c-32.667 0 -56.5 12 -71.5 36s-22.5 53.333 -22.5 88c0 21.333 2.66699 43.666 8 66.999
s12.166 46.333 20.499 69s17.833 44.334 28.5 65.001s21.667 39 33 55c6.66699 10 15.667 21.167 27 33.5s24 24 38 35s28.667 20.5 44 28.5s30.666 12 45.999 12c7.33301 0 15 -1.16699 23 -3.5s15.333 -6 22 -11s12.167 -11.667 16.5 -20s6.5 -18.166 6.5 -29.499v-2v-2z
M412.001 55.002c0.666992 3.33301 1.16797 6.33301 1.50098 9s0.5 5.33398 0.5 8.00098c0 8.66699 -1.66699 16.834 -5 24.501s-9 11.5 -17 11.5c-13.333 0 -24.833 -4.33301 -34.5 -13s-17.834 -20 -24.501 -34s-11.667 -29.833 -15 -47.5s-5.33301 -35.834 -6 -54.501
c25.333 13.333 46.833 27.666 64.5 42.999s29.5 33.333 35.5 54v-1zM582.002 497.002c9.33301 9.33301 16.999 21.333 22.999 36c-22.667 -6 -40.167 -13.333 -52.5 -22s-18.5 -16.667 -18.5 -24c0 -6.66699 4.33301 -10 13 -10c10.667 0 22.334 6.66699 35.001 20z" />
    <glyph glyph-name="H" unicode="H" horiz-adv-x="1005" 
d="M576 562c-13.333 0 -25.999 -2.6748 -37.999 -8.00781s-22.5 -12.666 -31.5 -21.999s-16.167 -20 -21.5 -32s-8 -24.333 -8 -37c0 -20 5.83301 -38 17.5 -54s30.5 -24.667 56.5 -26c3.33301 -1.33301 6.66602 -3.83301 9.99902 -7.5s5 -7.16699 5 -10.5
s-1.16699 -6.66602 -3.5 -9.99902s-6.16602 -5 -11.499 -5c-18.667 0.666992 -34.834 4.33398 -48.501 11.001s-24.834 15.167 -33.501 25.5s-15.167 22.166 -19.5 35.499s-6.5 27 -6.5 41c0 18.667 3.16699 37.5 9.5 56.5s16 36.333 29 52s28.833 28.334 47.5 38.001
s40.667 14.5 66 14.5c46 0 78.833 -14 98.5 -42s29.5 -65 29.5 -111c0 -30 -3.83301 -62.5 -11.5 -97.5s-18.167 -71.5 -31.5 -109.5h115l39 153l20 77.5l13.5 50l9 31.5c2.33301 8 4.83301 15.333 7.5 22c2.66699 4.66699 8.16699 8.33398 16.5 11.001s16.833 4 25.5 4
c9.33301 0 17 -1.66699 23 -5s9 -9.33301 9 -18c0 -3.33301 -0.666992 -6.33301 -2 -9l1 1l-56 -208l-25 -92.5l-17 -65c-4.66699 -18.333 -8.5 -34.833 -11.5 -49.5s-5.5 -30 -7.5 -46c-1.33301 -8 -2.5 -15.333 -3.5 -22s-1.5 -12.667 -1.5 -18
c20.667 24 43.334 56 68.001 96s48.667 82 72 126v-1c2.66699 6 7.33398 9 14.001 9c11.333 0 17 -7.33301 17 -22c-18.667 -36 -37.834 -70.5 -57.501 -103.5s-39 -62.167 -58 -87.5s-36.833 -45.666 -53.5 -60.999s-31.334 -23 -44.001 -23c-11.333 0 -20 4.33301 -26 13
s-9 22.667 -9 42c0 17.333 2.16699 39.333 6.5 66s11.166 59 20.499 97c-20 0 -39.333 -0.166992 -58 -0.5s-38.334 -0.5 -59.001 -0.5c-10 -27.333 -22.5 -56.666 -37.5 -87.999s-32.833 -60.333 -53.5 -87s-44.5 -48.834 -71.5 -66.501s-57.5 -26.5 -91.5 -26.5
c-20 0 -37 3.5 -51 10.5s-25.5 16.833 -34.5 29.5s-15.5 27.334 -19.5 44.001s-6 34.667 -6 54c0 17.333 1.33301 33.666 4 48.999l-11 -3c-26.667 -6.66699 -53 -13.667 -79 -21s-50 -16.5 -72 -27.5s-41 -24.667 -57 -41s-27.333 -36.5 -34 -60.5
c-2 -8 -7.33301 -12 -16 -12c-3.33301 0 -6.5 0.833008 -9.5 2.5s-5.16699 5.16699 -6.5 10.5c0.666992 34.667 8.33398 62.834 23.001 84.501s33.834 39.334 57.501 53.001s50.5 24.167 80.5 31.5s60.667 14.333 92 21c8 1.33301 15 2.33301 21 3s12.667 2 20 4
c6 23.333 14.167 45.5 24.5 66.5s22 39.5 35 55.5s27.167 28.667 42.5 38s31 14 47 14c21.333 0 37 -6.5 47 -19.5s15 -28.167 15 -45.5c0 -21.333 -5.33301 -39.666 -16 -54.999s-24.667 -28.666 -42 -39.999s-36.666 -21 -57.999 -29s-42.666 -15 -63.999 -21l-2 -22
c-0.666992 -7.33301 -1 -14 -1 -20c0 -26.667 4.66699 -49.334 14 -68.001s24.666 -28 45.999 -28c14.667 0 30.5 4.66699 47.5 14s34.167 24.666 51.5 45.999c12 11.333 26.333 31.666 43 60.999s32.5 62.333 47.5 99s27.667 74.834 38 114.501s15.5 75.834 15.5 108.501
c0 28 -5.33301 51.167 -16 69.5s-29 27.833 -55 28.5zM481.001 280.992c4.66699 9.33301 7 19.001 7 29.001c0 7.33301 -1.5 13.5 -4.5 18.5s-9.16699 7.5 -18.5 7.5c-12 0 -23.333 -3.5 -34 -10.5s-20.5 -16.5 -29.5 -28.5s-17.167 -25.833 -24.5 -41.5
s-13.666 -32.167 -18.999 -49.5c28 7.33301 52.667 16.666 74 27.999s37.666 27 48.999 47z" />
    <glyph glyph-name="I" unicode="I" horiz-adv-x="764" 
d="M521 351c11.333 -13.333 17 -29.0039 17 -47.0039c0 -21.333 -5.33301 -39.666 -16 -54.999s-24.667 -28.666 -42 -39.999s-36.666 -21 -57.999 -29s-42.666 -15 -63.999 -21c-1.33301 -7.33301 -2.33301 -14.666 -3 -21.999s-1 -14 -1 -20
c0 -26.667 4.83301 -49.334 14.5 -68.001s25.167 -28 46.5 -28c20 0 39.333 7 58 21s36 32.667 52 56s30.667 50 44 80s24.666 61.167 33.999 93.5s16.666 64.5 21.999 96.5s8 61.333 8 88c0 38 -5.83301 66 -17.5 84s-29.167 27 -52.5 27c-14 0 -27.667 -2.83301 -41 -8.5
s-25.333 -13.167 -36 -22.5s-19.167 -20.166 -25.5 -32.499s-9.5 -25.5 -9.5 -39.5c0 -20 5.5 -38 16.5 -54s29.167 -24.667 54.5 -26c4 -1.33301 7.66699 -3.83301 11 -7.5s5 -7.16699 5 -10.5s-1.33301 -6.66602 -4 -9.99902s-6.66699 -5 -12 -5h-1zM417 -40.0039
c-38 4.66699 -64.833 19.667 -80.5 45s-23.5 56 -23.5 92c0 8 0.333008 16.667 1 26s1.66699 18.333 3 27l-10 -3c-26.667 -6.66699 -53 -13.667 -79 -21s-50 -16.5 -72 -27.5s-41 -24.667 -57 -41s-27.333 -36.5 -34 -60.5c-2 -8 -7.33301 -12 -16 -12
c-3.33301 0 -6.5 0.833008 -9.5 2.5s-5.16699 5.16699 -6.5 10.5c0.666992 34.667 8.33398 62.834 23.001 84.501s33.834 39.334 57.501 53.001s50.334 24.167 80.001 31.5s60.167 14.333 91.5 21c8.66699 1.33301 16 2.33301 22 3s12.667 2 20 4
c5.33301 21.333 12.666 42 21.999 62s19.833 37.667 31.5 53s24.5 28.166 38.5 38.499s28.333 16.5 43 18.5c-16.667 11.333 -28.667 25.5 -36 42.5s-11 35.167 -11 54.5c0 18.667 3.83301 38.167 11.5 58.5s18.667 38.833 33 55.5s32.166 30.5 53.499 41.5
s45.666 16.5 72.999 16.5c24 0 44.5 -4.33301 61.5 -13s31 -21 42 -37s19 -35.167 24 -57.5s7.5 -46.833 7.5 -73.5c0 -33.333 -3.83301 -68.5 -11.5 -105.5s-18.167 -74 -31.5 -111s-29 -72.333 -47 -106s-37.833 -63.334 -59.5 -89.001s-44.5 -46.167 -68.5 -61.5
s-48.333 -23 -73 -23h-8c-2.66699 0 -4.66699 0.333008 -6 1h1zM491 280.996c2 4 3.83301 8.50098 5.5 13.501s2.5 10.167 2.5 15.5c0 7.33301 -1.66699 13.5 -5 18.5s-9.33301 7.5 -18 7.5c-12 0 -23.333 -3.5 -34 -10.5s-20.5 -16.5 -29.5 -28.5
s-17.333 -25.833 -25 -41.5s-13.834 -32.167 -18.501 -49.5c27.333 7.33301 51.833 16.666 73.5 27.999s37.834 27 48.501 47z" />
    <glyph glyph-name="J" unicode="J" horiz-adv-x="757" 
d="M485 432c-3.33301 -6 -7.99902 -9.00781 -13.999 -9.00781c-4.66699 0 -8.83398 1.16699 -12.501 3.5s-5.5 6.83301 -5.5 13.5c10 26.667 21.333 48 34 64s26.667 28.333 42 37s31.666 14.167 48.999 16.5s35.666 3.5 54.999 3.5h26c5.33301 0 9.33301 -0.166992 12 -0.5
s6.66699 -0.5 12 -0.5c13.333 21.333 30.166 39 50.499 53s44.166 21 71.499 21c12.667 -1.33301 22 -5.33301 28 -12s9 -14.667 9 -24c0 -8 -2.5 -16.667 -7.5 -26s-11.833 -18.166 -20.5 -26.499s-19 -15.5 -31 -21.5s-25 -9.33301 -39 -10
c-4 -12 -8.16699 -26.667 -12.5 -44s-8.83301 -37.333 -13.5 -60l-24 -97c-8.66699 -34 -18.834 -67.667 -30.501 -101s-25.334 -65.166 -41.001 -95.499s-34 -57.166 -55 -80.499s-45.167 -41.833 -72.5 -55.5s-58.666 -20.5 -93.999 -20.5
c-38 4.66699 -64.667 19.667 -80 45s-23 56 -23 92c0 8 0.333008 16.667 1 26s1.66699 18.333 3 27l-11 -3c-26.667 -6.66699 -53 -13.667 -79 -21s-50 -16.5 -72 -27.5s-41 -24.667 -57 -41s-27.333 -36.5 -34 -60.5c-2 -8 -7.33301 -12 -16 -12
c-3.33301 0 -6.5 0.833008 -9.5 2.5s-5.16699 5.16699 -6.5 10.5c0.666992 34.667 8.33398 62.834 23.001 84.501s33.834 39.334 57.501 53.001s50.5 24.167 80.5 31.5s60.667 14.333 92 21c8 1.33301 15 2.33301 21 3s12.667 2 20 4c6 23.333 14.167 45.5 24.5 66.5
s22 39.5 35 55.5s27.167 28.667 42.5 38s31 14 47 14c21.333 0 37 -6.5 47 -19.5s15 -28.167 15 -45.5c0 -21.333 -5.33301 -39.666 -16 -54.999s-24.667 -28.666 -42 -39.999s-36.666 -21 -57.999 -29s-42.666 -15 -63.999 -21
c-1.33301 -7.33301 -2.16602 -14.666 -2.49902 -21.999s-0.5 -13.666 -0.5 -18.999c0 -26.667 4.83301 -49 14.5 -67s25.167 -27 46.5 -27c34.667 0 64 11.333 88 34s44.667 51.667 62 87s31.833 74.166 43.5 116.499s22.167 83.5 31.5 123.5l18.5 73.5
c5.66699 23 12.167 43.5 19.5 61.5c-6.66699 0.666992 -13 1.16699 -19 1.5s-12 0.5 -18 0.5c-32.667 0 -61 -5.83301 -85 -17.5s-42.667 -35.5 -56 -71.5v-1zM476.001 280.992l4.5 13.501c1.66699 5 2.5 10.167 2.5 15.5c0 7.33301 -1.5 13.5 -4.5 18.5
s-9.16699 7.5 -18.5 7.5c-12 0 -23.333 -3.5 -34 -10.5s-20.5 -16.5 -29.5 -28.5s-17.167 -25.833 -24.5 -41.5s-13.666 -32.167 -18.999 -49.5c28 7.33301 52.667 16.666 74 27.999s37.666 27 48.999 47zM803.001 600.993c-6.66699 0 -13.001 -3.16797 -19.001 -9.50098
s-12 -15.166 -18 -26.499c9.33301 4 17.833 9.83301 25.5 17.5s11.834 14.167 12.501 19.5z" />
    <glyph glyph-name="K" unicode="K" horiz-adv-x="941" 
d="M438 -33c-3.33301 -0.666992 -7.00488 -1.16992 -11.0049 -1.50293s-8 -0.5 -12 -0.5c-20 0 -37 3.66699 -51 11s-25.5 17.333 -34.5 30s-15.5 27.334 -19.5 44.001s-6 34.667 -6 54c0 9.33301 0.333008 17.666 1 24.999s1.66699 15.666 3 24.999l-11 -3
c-26 -6.66699 -52 -13.834 -78 -21.501s-50 -17 -72 -28s-41.167 -24.5 -57.5 -40.5s-27.833 -36 -34.5 -60c-1.33301 -8 -6.33301 -12 -15 -12c-3.33301 0 -6.66602 0.833008 -9.99902 2.5s-5.66602 5.16699 -6.99902 10.5c0.666992 34.667 8.33398 62.834 23.001 84.501
s33.834 39.167 57.501 52.5s50.5 23.833 80.5 31.5s60.667 14.5 92 20.5c8.66699 1.33301 15.834 2.5 21.501 3.5s12.5 2.5 20.5 4.5c6 23.333 14.167 45.5 24.5 66.5s22 39.5 35 55.5s27.167 28.667 42.5 38s31 14 47 14c20.667 0 36.167 -6.5 46.5 -19.5
s15.5 -28.167 15.5 -45.5c0 -21.333 -5.33301 -39.666 -16 -54.999s-24.667 -28.666 -42 -39.999s-36.666 -21 -57.999 -29s-42.666 -15 -63.999 -21c-1.33301 -7.33301 -2.33301 -14.666 -3 -21.999s-1 -14.333 -1 -21c0 -26.667 4.66699 -49.334 14 -68.001
s24.666 -28 45.999 -28c24 0 45.667 7.5 65 22.5s36.5 33.333 51.5 55s28 44.667 39 69s19.833 45.833 26.5 64.5c9.33301 25.333 18 51.333 26 78s14.833 52.334 20.5 77.001s10.167 47.667 13.5 69s5 39.666 5 54.999c0 22.667 -4.5 38.834 -13.5 48.501
s-20.167 14.5 -33.5 14.5c-12 0 -24.5 -3 -37.5 -9s-24.833 -14 -35.5 -24s-19.5 -21.667 -26.5 -35s-10.5 -27.666 -10.5 -42.999c0 -20 5.83301 -38 17.5 -54s30.5 -24.667 56.5 -26c3.33301 -1.33301 6.66602 -3.83301 9.99902 -7.5s5 -7.16699 5 -10.5
s-1.16699 -6.66602 -3.5 -9.99902s-6.16602 -5 -11.499 -5c-18.667 0.666992 -34.834 4.33398 -48.501 11.001s-24.834 15.167 -33.501 25.5s-15.167 22.166 -19.5 35.499s-6.5 27 -6.5 41c0 18 3.5 37.167 10.5 57.5s17.333 39 31 56s30.5 31.167 50.5 42.5
s42.667 17 68 17c38.667 0 66.5 -11.167 83.5 -33.5s25.5 -50.833 25.5 -85.5c0 -18.667 -2 -40.667 -6 -66s-9.66699 -53 -17 -83c24 29.333 47.333 52.333 70 69s43.334 25 62.001 25c16.667 0 30 -4.83301 40 -14.5s15 -20.167 15 -31.5
c0 -6.66699 -2.83301 -13 -8.5 -19s-13.167 -11.833 -22.5 -17.5s-20 -11.334 -32 -17.001s-24.667 -11.167 -38 -16.5l-32 -14.5l-33 -15.5v-4l5 -58c2 -23.333 4.83301 -45.666 8.5 -66.999s7.83398 -39.666 12.501 -54.999s10.334 -23 17.001 -23s14.667 4.83301 24 14.5
s19.5 22 30.5 37s22.167 31.833 33.5 50.5l33 55l22 34l-1 -1c1.33301 3.33301 3.33301 5.66602 6 6.99902s5 2 7 2c11.333 0 17 -5.33301 17 -16c0 -4.66699 -1 -8 -3 -10c-8 -12 -15 -24.333 -21 -37l-43 -69.5c-14.667 -23 -29.334 -44 -44.001 -63s-29 -34.333 -43 -46
s-27.333 -17.5 -40 -17.5c-22.667 0 -40.167 17.833 -52.5 53.5s-21.5 82.5 -27.5 140.5c-11.333 -32.667 -24 -64.667 -38 -96s-30.167 -59.833 -48.5 -85.5s-39.333 -47.334 -63 -65.001s-50.834 -28.5 -81.501 -32.5zM481.995 284.997c2 4 3.83301 8.50098 5.5 13.501
s2.5 10.167 2.5 15.5c0 7.33301 -1.66699 13.5 -5 18.5s-9.33301 7.5 -18 7.5c-12 0 -23.333 -3.5 -34 -10.5s-20.5 -16.5 -29.5 -28.5s-17.333 -25.833 -25 -41.5s-13.834 -32.167 -18.501 -49.5c27.333 7.33301 51.833 16.666 73.5 27.999s37.834 27 48.501 47z
M740.995 362.998l-16 -20v-3l-13 6zM842.995 408.998c8.66699 4 12.999 7.33496 12.999 10.002c0 7.33301 -7 11 -21 11c-12.667 0 -27 -6 -43 -18s-33 -28.333 -51 -49c20.667 11.333 40.334 21.166 59.001 29.499s33 14.166 43 17.499v-1z" />
    <glyph glyph-name="L" unicode="L" horiz-adv-x="431" 
d="M250 235c-5.33301 -27.333 -11.1641 -55.4971 -17.4971 -84.4971s-13.833 -55.167 -22.5 -78.5c14.667 -2.66699 29.834 -6.83398 45.501 -12.501l47.5 -17.5c16.667 -7.33301 33.667 -13.833 51 -19.5s31.666 -8.5 42.999 -8.5c9.33301 0 17.833 2.66699 25.5 8
s14.167 15 19.5 29c2 3.33301 6.33301 5 13 5c4.66699 0 8.83398 -1.5 12.501 -4.5s5.5 -7.16699 5.5 -12.5c-9.33301 -24.667 -20.5 -41.5 -33.5 -50.5s-27.833 -13.5 -44.5 -13.5c-14.667 0 -31.334 3 -50.001 9s-36.667 12.667 -54 20l-51 19
c-16.667 6 -32.667 9.66699 -48 11c-13.333 -21.333 -30.166 -39 -50.499 -53s-44.5 -21 -72.5 -21c-12.667 1.33301 -22 5.33301 -28 12s-9 14.334 -9 23.001c0 8 2.5 16.833 7.5 26.5s11.833 18.5 20.5 26.5s19 15 31 21s25.333 9.66699 40 11
c5.33301 17.333 11.166 38.666 17.499 63.999s12.166 51.666 17.499 78.999c6.66699 34.667 14.5 71.167 23.5 109.5s20.167 75 33.5 110s29.5 67 48.5 96s42.167 52.167 69.5 69.5c12.667 7.33301 26 13.333 40 18s26.667 7 38 7c19.333 0 35 -5.66699 47 -17
s18 -29.333 18 -54c0 -3.33301 0.166992 -4.33301 0.5 -3s0.166016 0.333008 -0.500977 -3c1.33301 0.666992 2.83301 1 4.5 1s3.16699 0.333008 4.5 1l55.5 14.5c18.333 5 35.166 11.333 50.499 19s28.666 17.167 39.999 28.5s19 25 23 41
c1.33301 3.33301 3.5 6.16602 6.5 8.49902s5.83301 3.5 8.5 3.5c6 0 10.667 -4.66699 14 -14c-0.666992 -25.333 -6.33398 -45.833 -17.001 -61.5s-24.5 -28.334 -41.5 -38.001s-36.333 -17.167 -58 -22.5s-43.5 -10.333 -65.5 -15l-31 -7
c-4.66699 -16 -10.667 -31.333 -18 -46s-15.666 -27.667 -24.999 -39s-19.333 -20.333 -30 -27s-21.667 -10 -33 -10c-16 0 -28 4.83301 -36 14.5s-12 20.834 -12 33.501c0 14.667 4 27.834 12 39.501s18.167 21.667 30.5 30s26.166 15.666 41.499 21.999
s30.333 11.5 45 15.5c0.666992 2.66699 0.833984 5.16699 0.500977 7.5s-0.5 4.16602 -0.5 5.49902c0 12 -2 20.333 -6 25s-9.33301 7 -16 7c-10.667 0 -21.5 -3.16699 -32.5 -9.5s-19.167 -12.166 -24.5 -17.499c-19.333 -20.667 -35.5 -44.167 -48.5 -70.5
s-24.333 -54 -34 -83s-17.667 -58.667 -24 -89s-12.166 -59.833 -17.499 -88.5zM363.002 457.003c-3.33301 -6.66699 -5.00098 -13.332 -5.00098 -19.999c0 -4 1 -7.5 3 -10.5s5.66699 -4.5 11 -4.5c16 0 30.333 8 43 24s22.334 36.333 29.001 61
c-18.667 -4.66699 -35.167 -10.834 -49.5 -18.501s-24.833 -18.167 -31.5 -31.5zM71.001 -6.99512c7.33301 0 13.668 2.66699 19.001 8s11.333 14.666 18 27.999c-9.33301 -4.66699 -17.833 -10.667 -25.5 -18s-11.834 -13.666 -12.501 -18.999c0 0.666992 0.333008 1 1 1z
" />
    <glyph glyph-name="M" unicode="M" horiz-adv-x="1277" 
d="M1255 260h-1h1zM504 465c0 -20 5.83203 -38.0078 17.499 -54.0078s30.5 -24.667 56.5 -26c4 -1.33301 7.5 -3.83301 10.5 -7.5s4.5 -7.16699 4.5 -10.5s-1.16699 -6.66602 -3.5 -9.99902s-6.16602 -5 -11.499 -5c-18.667 0.666992 -34.834 4.33398 -48.501 11.001
s-24.834 15.167 -33.501 25.5s-15.167 22.166 -19.5 35.499s-6.5 27 -6.5 41c0 21.333 5.66699 42.166 17 62.499s25.833 38.333 43.5 54s37.167 28.167 58.5 37.5s41.666 14 60.999 14c26.667 0 49.334 -9.16699 68.001 -27.5s28 -49.5 28 -93.5
c0 -20.667 -2.83301 -46 -8.5 -76s-13.5 -63 -23.5 -99c25.333 42.667 47.333 77.5 66 104.5s35.167 48.333 49.5 64s27 26.334 38 32.001s22.167 8.5 33.5 8.5c15.333 0 27.166 -4.66699 35.499 -14s12.5 -21 12.5 -35c0 -18.667 -2.5 -42.334 -7.5 -71.001
s-10.833 -59 -17.5 -91c-3.33301 -15.333 -6.33301 -28.166 -9 -38.499s-5 -19.833 -7 -28.5s-3.5 -17.167 -4.5 -25.5s-1.83301 -17.5 -2.5 -27.5l26.5 52l29.5 60l37 74c12.667 24.667 25.167 47.834 37.5 69.501s24.166 40.834 35.499 57.501s22 29.334 32 38.001
c12.667 9.33301 26.667 14 42 14c16 0 30.167 -4.33301 42.5 -13s18.5 -23 18.5 -43c-0.666992 -2 -1 -4.33301 -1 -7c0 -2 -0.166992 -4.16699 -0.5 -6.5s-0.5 -4.5 -0.5 -6.5c-4 -19.333 -8.66699 -40.166 -14 -62.499s-11.666 -45.833 -18.999 -70.5l-18.5 -69.5
c-6.33301 -23.667 -12 -46.834 -17 -69.501s-9.16699 -44.167 -12.5 -64.5s-5 -38.833 -5 -55.5c0 -11.333 1 -21.333 3 -30c8.66699 10.667 17.167 22.834 25.5 36.501l25 42.5c8.33301 14.667 16.166 29.334 23.499 44.001l21 41v-1
c9.33301 19.333 17.5 35.166 24.5 47.499s13.167 18.5 18.5 18.5c11.333 0 17 -5.33301 17 -16c0 -5.33301 -3 -8.16602 -9 -8.49902s-9.66699 1.83398 -11 6.50098c0 -22 0.666992 -33 2 -33l-25 -52.5c-10 -20.333 -21 -41 -33 -62s-24.333 -41 -37 -60
s-25 -34.5 -37 -46.5c-11.333 -12 -23.666 -18 -36.999 -18c-29.333 0 -44 26.333 -44 79c0 15.333 1 31.666 3 48.999s4.66699 35.666 8 54.999c7.33301 40 16.166 79.167 26.499 117.5s20.166 72.5 29.499 102.5l19.5 68.5c5.66699 20.333 8.5 35.5 8.5 45.5
c0 7.33301 0.333008 11 1 11c-6 0 -15 -8 -27 -24s-25 -35.667 -39 -59l-42.5 -74.5c-14.333 -26.333 -26.5 -49.5 -36.5 -69.5l-40 -79c-13.333 -25.333 -26 -47.666 -38 -66.999s-23.167 -34.833 -33.5 -46.5s-19.5 -17.5 -27.5 -17.5c-8.66699 0 -16 4.33301 -22 13
s-9 21.667 -9 39s2.5 39.333 7.5 66l15.5 81c0.666992 4.66699 1.5 9 2.5 13s1.83301 8 2.5 12c0 2 0.666992 5.66699 2 11l5.5 27.5c2.33301 11.667 4.66602 24 6.99902 37s4.33301 25.833 6 38.5s2.5 24 2.5 34c0 12.667 -0.333008 19 -1 19
c-4 0 -11.167 -6.16699 -21.5 -18.5s-24.333 -32 -42 -59s-39.5 -62.167 -65.5 -105.5l-91 -159v1c-11.333 -22 -24.166 -45 -38.499 -69s-30.666 -45.833 -48.999 -65.5s-38.833 -35.834 -61.5 -48.501s-48 -19 -76 -19c-20 0 -37 3.66699 -51 11s-25.5 17.5 -34.5 30.5
s-15.667 27.833 -20 44.5s-6.5 34.667 -6.5 54c0 9.33301 0.333008 17.666 1 24.999s1.66699 15.666 3 24.999l-10 -3c-26.667 -6.66699 -53 -13.667 -79 -21s-50 -16.5 -72 -27.5s-41 -24.667 -57 -41s-27.333 -36.5 -34 -60.5c-2 -8 -7.33301 -12 -16 -12
c-3.33301 0 -6.66602 0.833008 -9.99902 2.5s-5.33301 5.16699 -6 10.5c0 34.667 7.33301 62.834 22 84.501s33.834 39.334 57.501 53.001s50.5 24.167 80.5 31.5s60.667 14.333 92 21c8.66699 1.33301 16 2.33301 22 3s12.667 2 20 4c6 23.333 14.167 45.5 24.5 66.5
s22 39.5 35 55.5s27.167 28.667 42.5 38s31 14 47 14c21.333 0 37 -6.5 47 -19.5s15 -28.167 15 -45.5c0 -21.333 -5.33301 -39.666 -16 -54.999s-24.667 -28.666 -42 -39.999s-36.666 -21 -57.999 -29s-42.666 -15 -63.999 -21
c-1.33301 -7.33301 -2.33301 -14.833 -3 -22.5s-1 -14.834 -1 -21.501c0 -28 4.83301 -52.167 14.5 -72.5s25.167 -30.5 46.5 -30.5c24.667 0 48.167 10 70.5 30s43 45.667 62 77s36.167 66.333 51.5 105s28.5 76.5 39.5 113.5s19.5 70.833 25.5 101.5s9 54.334 9 71.001
c0 23.333 -5.33301 40 -16 50s-23.667 15 -39 15c-12.667 0 -25.834 -2.83301 -39.501 -8.5s-26.167 -13.5 -37.5 -23.5s-20.666 -21.667 -27.999 -35s-11 -27.666 -11 -42.999zM492.999 280.992c2 4 3.83301 8.50098 5.5 13.501s2.5 10.167 2.5 15.5
c0 7.33301 -1.66699 13.5 -5 18.5s-9.33301 7.5 -18 7.5c-12 0 -23.333 -3.5 -34 -10.5s-20.5 -16.5 -29.5 -28.5s-17.333 -25.833 -25 -41.5s-13.834 -32.167 -18.501 -49.5c27.333 7.33301 51.833 16.666 73.5 27.999s37.834 27 48.501 47z" />
    <glyph glyph-name="N" unicode="N" horiz-adv-x="1012" 
d="M737 516c0 -26.667 -2.33203 -53.3408 -6.99902 -80.0078s-10.667 -53 -18 -79l41 82.5c14 27 28 51.167 42 72.5s28.333 38.5 43 51.5s29.334 19.5 44.001 19.5c10.667 0 20 -2 28 -6s14.5 -9 19.5 -15s8.66699 -12.667 11 -20s3.5 -14 3.5 -20
c0 -10.667 -1.33301 -20 -4 -28v1l-9 -30l-16.5 -56.5l-20 -74c-7 -27 -13.5 -54.167 -19.5 -81.5s-10.833 -53.833 -14.5 -79.5s-5.5 -48.5 -5.5 -68.5c0 -6 -0.166992 -11 -0.5 -15s-0.5 -7.33301 -0.5 -10c8.66699 10 17.167 21.333 25.5 34s16.333 26 24 40l22.5 42
c7.33301 14 14 27.333 20 40l27.5 53.5c7.66699 14.333 15.167 21.5 22.5 21.5c10.667 0 16 -5.33301 16 -16c0 -2.66699 -1 -5 -3 -7v-4c-2.66699 -6 -7.66699 -16.5 -15 -31.5l-26.5 -52c-10.333 -19.667 -21.833 -40.167 -34.5 -61.5s-25.5 -40.833 -38.5 -58.5
s-26 -32.334 -39 -44.001s-24.833 -17.5 -35.5 -17.5c-15.333 0 -26.333 7 -33 21s-10 32.667 -10 56c0 20 2 43.333 6 70s9 54.334 15 83.001s12.667 57.334 20 86.001s14.333 54.834 21 78.501l17.5 60c5 16.333 8.5 26.833 10.5 31.5c3.33301 8 5 18.333 5 31
c0 1.33301 -0.333008 2.33301 -1 3s-1 1.33398 -1 2.00098c-6 -0.666992 -14 -7.66699 -24 -21s-21.167 -30.5 -33.5 -51.5s-25.333 -44.333 -39 -70l-40.5 -77.5l-29 -58.5l-29 -55c-9.33301 -17 -18.166 -32.333 -26.499 -46s-15.833 -24.167 -22.5 -31.5l1 2
c-34 -56 -68 -98.167 -102 -126.5s-70 -42.5 -108 -42.5c-20 0 -37 3.5 -51 10.5s-25.5 16.833 -34.5 29.5s-15.5 27.334 -19.5 44.001s-6 34.667 -6 54c0 17.333 1.33301 33.666 4 48.999l-11 -3c-26.667 -6.66699 -53 -13.667 -79 -21s-50 -16.5 -72 -27.5
s-41 -24.667 -57 -41s-27.333 -36.5 -34 -60.5c-2 -8 -7.33301 -12 -16 -12c-3.33301 0 -6.5 0.833008 -9.5 2.5s-5.16699 5.16699 -6.5 10.5c0.666992 34.667 8.33398 62.834 23.001 84.501s33.834 39.334 57.501 53.001s50.5 24.167 80.5 31.5s60.667 14.333 92 21
c8 1.33301 15 2.33301 21 3s12.667 2 20 4c6 23.333 14.167 45.5 24.5 66.5s22 39.5 35 55.5s27.167 28.667 42.5 38s31 14 47 14c21.333 0 37 -6.5 47 -19.5s15 -28.167 15 -45.5c0 -21.333 -5.33301 -39.666 -16 -54.999s-24.667 -28.666 -42 -39.999
s-36.666 -21 -57.999 -29s-42.666 -15 -63.999 -21l-2 -22c-0.666992 -7.33301 -1 -14 -1 -20c0 -26.667 4.66699 -49.334 14 -68.001s24.666 -28 45.999 -28c23.333 0 44.666 7.66699 63.999 23s36.666 33.833 51.999 55.5s28.666 44.667 39.999 69
s20.666 45.5 27.999 63.5c8.66699 24.667 17 50.334 25 77.001s15 52.5 21 77.5s10.833 48.333 14.5 70s5.5 39.5 5.5 53.5c0 22.667 -5 38.834 -15 48.501s-21.667 14.5 -35 14.5c-12 0 -24.833 -3 -38.5 -9s-26 -14 -37 -24s-20.167 -21.667 -27.5 -35
s-11 -27.333 -11 -42c0 -20 6 -38 18 -54s30.667 -24.667 56 -26c4 -1.33301 7.66699 -3.83301 11 -7.5s5 -7.16699 5 -10.5s-1.33301 -6.66602 -4 -9.99902s-6.66699 -5 -12 -5c-18.667 0.666992 -34.834 4.33398 -48.501 11.001s-24.834 15.167 -33.501 25.5
s-15.167 22.166 -19.5 35.499s-6.5 27 -6.5 41c0 20.667 6 41.167 18 61.5s27.333 38.666 46 54.999s39.167 29.5 61.5 39.5s43.5 15 63.5 15c25.333 0 46.5 -9 63.5 -27s25.5 -48.333 25.5 -91zM484.001 280.993c4.66699 9.33301 7 19.001 7 29.001
c0 7.33301 -1.5 13.5 -4.5 18.5s-9.16699 7.5 -18.5 7.5c-12 0 -23.333 -3.5 -34 -10.5s-20.5 -16.5 -29.5 -28.5s-17.167 -25.833 -24.5 -41.5s-13.666 -32.167 -18.999 -49.5c28 7.33301 52.667 16.666 74 27.999s37.666 27 48.999 47z" />
    <glyph glyph-name="O" unicode="O" horiz-adv-x="459" 
d="M214 490c0 4.66699 0.333984 8.00098 1.00098 10.001c-20 -20.667 -37 -45.334 -51 -74.001s-25.667 -58 -35 -88s-16.166 -59 -20.499 -87s-6.5 -51.667 -6.5 -71c0 -14 1 -29.667 3 -47s5.66699 -33.5 11 -48.5s13.166 -27.5 23.499 -37.5s24.166 -15 41.499 -15
c13.333 0 26.166 3.66699 38.499 11s23.833 16.166 34.5 26.499s20.334 21.666 29.001 33.999s16 23.5 22 33.5c8.66699 15.333 17.667 33.333 27 54s17.666 42.834 24.999 66.501s13.333 47.834 18 72.501s7 48.667 7 72c0 12.667 -0.5 25 -1.5 37s-3.5 22.667 -7.5 32
c-20.667 -10.667 -40.167 -19.167 -58.5 -25.5s-35.166 -9.5 -50.499 -9.5c-16 0 -28.333 5.5 -37 16.5s-13 23.5 -13 37.5zM477.001 578.001c-6.66699 -15.333 -16.3281 -31.332 -28.9951 -47.999s-28.334 -30.667 -47.001 -42c4.66699 -11.333 8 -24.333 10 -39
s3 -29 3 -43c0 -25.333 -2.5 -51.5 -7.5 -78.5s-11.333 -53.333 -19 -79s-16.334 -49.5 -26.001 -71.5s-19.167 -40.667 -28.5 -56c-8 -12.667 -17.333 -26.167 -28 -40.5s-22.5 -27.5 -35.5 -39.5s-27 -21.833 -42 -29.5s-30.833 -11.5 -47.5 -11.5
c-27.333 0 -50.166 6.83301 -68.499 20.5s-32.833 31.167 -43.5 52.5s-18.167 45 -22.5 71s-6.5 51.667 -6.5 77c0 46.667 6 94.167 18 142.5s29 92.166 51 131.499s48.667 71.666 80 96.999s66.666 38 105.999 38c21.333 0 42.166 -5.16699 62.499 -15.5
s38.5 -27.166 54.5 -50.499c1.33301 -2 2.33301 -4 3 -6s1 -3.66699 1 -5c0 -3.33301 -1.66699 -7 -5 -11s-8.33301 -5.33301 -15 -4c-22.667 7.33301 -42.667 12 -60 14c20 -7.33301 36.333 -19.333 49 -36c13.333 9.33301 25.666 20.333 36.999 33
s21.666 26.667 30.999 42c1.33301 1.33301 3 2.83301 5 4.5s4.33301 2.5 7 2.5c3.33301 0 6.5 -1.5 9.5 -4.5s4.5 -6.16699 4.5 -9.5v-2zM264.007 468.002h5c10.667 0 23.5 2.66699 38.5 8s31.167 13.333 48.5 24c-16 18 -35 27 -57 27c-4 0 -8.83301 -0.833008 -14.5 -2.5
s-11.167 -4 -16.5 -7s-9.83301 -6.83301 -13.5 -11.5s-5.5 -10 -5.5 -16c0 -4.66699 0.833008 -9.16699 2.5 -13.5s5.16699 -6.83301 10.5 -7.5z" />
    <glyph glyph-name="P" unicode="P" horiz-adv-x="918" 
d="M438 -35c-4 -0.666992 -8.00098 -1.16992 -12.001 -1.50293s-8 -0.5 -12 -0.5c-19.333 0 -36 3.5 -50 10.5s-25.5 16.833 -34.5 29.5s-15.5 27.334 -19.5 44.001s-6 34.667 -6 54c0 17.333 1.33301 33.666 4 48.999l-11 -3c-26.667 -6.66699 -53 -13.667 -79 -21
s-50 -16.5 -72 -27.5s-41 -24.667 -57 -41s-27.333 -36.5 -34 -60.5c-2 -8 -7.33301 -12 -16 -12c-3.33301 0 -6.5 0.833008 -9.5 2.5s-5.16699 5.16699 -6.5 10.5c0.666992 34.667 8.33398 62.834 23.001 84.501s33.834 39.334 57.501 53.001s50.334 24.167 80.001 31.5
s60.167 14.333 91.5 21c8.66699 1.33301 16 2.33301 22 3s12.667 2 20 4c6 23.333 14.167 45.5 24.5 66.5s22 39.5 35 55.5s27.167 28.667 42.5 38s31 14 47 14c21.333 0 37 -6.5 47 -19.5s15 -28.167 15 -45.5c0 -21.333 -5.33301 -39.666 -16 -54.999
s-24.667 -28.666 -42 -39.999s-36.666 -21 -57.999 -29s-42.666 -15 -63.999 -21c-1.33301 -7.33301 -2.33301 -14.666 -3 -21.999s-1 -14.333 -1 -21c0 -26.667 4.83301 -49.167 14.5 -67.5s25.167 -27.5 46.5 -27.5s41.166 6.33301 59.499 19s35.166 29.667 50.499 51
s28.833 45.833 40.5 73.5s21.5 56.834 29.5 87.501s14.167 61.5 18.5 92.5s6.5 60.167 6.5 87.5c0 48 -6.16699 84.333 -18.5 109s-31.5 37 -57.5 37c-12 0 -23.667 -2.5 -35 -7.5s-21.333 -11.833 -30 -20.5s-15.667 -18.834 -21 -30.501s-8 -23.834 -8 -36.501
c0 -20 5.83301 -38 17.5 -54s30.5 -24.667 56.5 -26c3.33301 -1.33301 6.66602 -3.66602 9.99902 -6.99902s5 -6.66602 5 -9.99902c0 -4 -1.16699 -7.66699 -3.5 -11s-6.16602 -5 -11.499 -5c-18.667 0.666992 -34.834 4.33398 -48.501 11.001s-24.834 15.167 -33.501 25.5
s-15.167 22.166 -19.5 35.499s-6.5 27 -6.5 41c0 18 4.33301 36.167 13 54.5s20.167 34.666 34.5 48.999s30.5 26 48.5 35s36.333 13.5 55 13.5c19.333 0 37.833 -5.5 55.5 -16.5s32.834 -30.167 45.501 -57.5c16 8 31.833 14 47.5 18s29.5 6 41.5 6
c18 0 33.667 -3.5 47 -10.5s24.166 -16.333 32.499 -28s14.666 -25.334 18.999 -41.001s6.5 -31.834 6.5 -48.501c0 -23.333 -3.83301 -46.833 -11.5 -70.5s-18.667 -45.167 -33 -64.5s-32.333 -35 -54 -47s-46.5 -18 -74.5 -18h-12.5
c-4.33301 0 -8.16602 0.333008 -11.499 1c-7.33301 -28 -16.5 -58.167 -27.5 -90.5s-25 -62.833 -42 -91.5s-37.5 -53.167 -61.5 -73.5s-52.667 -32.833 -86 -37.5zM650.999 293.997c2 0 3.83203 0.166992 5.49902 0.5s3.83398 0.5 6.50098 0.5l-3 -13zM677.998 433.997
c0 -24.667 -1.33203 -49.168 -3.99902 -73.501s-6.33398 -46.166 -11.001 -65.499c17.333 2.66699 33.333 9.5 48 20.5s27.5 24 38.5 39s19.5 31.333 25.5 49s9 34.5 9 50.5c0 20 -5.66699 37.167 -17 51.5s-29.666 21.5 -54.999 21.5c-6 0 -12.333 -0.333008 -19 -1
s-14.334 -2 -23.001 -4c3.33301 -13.333 5.5 -27.333 6.5 -42s1.5 -30 1.5 -46zM481.999 280.996l4.50098 13.501c1.66699 5 2.5 10.167 2.5 15.5c0 7.33301 -1.66699 13.5 -5 18.5s-9.33301 7.5 -18 7.5c-12 0 -23.333 -3.5 -34 -10.5s-20.5 -16.5 -29.5 -28.5
s-17.333 -25.833 -25 -41.5s-13.834 -32.167 -18.501 -49.5c27.333 7.33301 51.833 16.666 73.5 27.999s38.167 27 49.5 47z" />
    <glyph glyph-name="Q" unicode="Q" horiz-adv-x="417" 
d="M160 94c14.667 5.33301 29.001 14.1689 43.001 26.502s27.333 27.166 40 44.499c-14.667 26 -27.5 51.667 -38.5 77s-16.5 50.666 -16.5 75.999c0 12.667 1.66699 24.834 5 36.501s8.33301 22.167 15 31.5s14.667 16.833 24 22.5s19.666 8.5 30.999 8.5
c21.333 0 38.333 -9.83301 51 -29.5s19 -42.5 19 -68.5c0 -23.333 -3.66699 -47.833 -11 -73.5s-17.666 -50.5 -30.999 -74.5l8 -13c8.66699 18 16.667 37.333 24 58s13.833 41.5 19.5 62.5s10.167 41.833 13.5 62.5s5 40 5 58c0 30 -5.5 54.833 -16.5 74.5
s-29.833 29.5 -56.5 29.5c-12 0 -25 -2.83301 -39 -8.5s-24 -14.167 -30 -25.5c-2 -1.33301 -4 -2.83301 -6 -4.5s-4.66699 -2.5 -8 -2.5c-7.33301 0 -12 2.33301 -14 7c-16 -18 -30.333 -39.167 -43 -63.5s-23.334 -49.666 -32.001 -75.999s-15.334 -52.833 -20.001 -79.5
s-7 -51.334 -7 -74.001c0 -16.667 1.5 -33.334 4.5 -50.001s7.5 -31.667 13.5 -45s13.667 -24.166 23 -32.499s20.666 -12.5 33.999 -12.5c40.667 0 77.334 26.667 110.001 80l-8 15c-6 -8 -12.833 -16.667 -20.5 -26s-15.667 -18 -24 -26s-16.666 -14.5 -24.999 -19.5
s-15.833 -7.5 -22.5 -7.5c-7.33301 0 -13 2.16699 -17 6.5s-6 10.166 -6 17.499c0 2 0.166992 4.16699 0.5 6.5s1.5 4.83301 3.5 7.5zM374.001 509.003c-4.66699 1.33301 -9.16504 2.83203 -13.498 4.49902s-9.16602 3.16699 -14.499 4.5
c16.667 -11.333 28.667 -27.166 36 -47.499s11 -44.166 11 -71.499c0 -20.667 -2 -42.667 -6 -66s-9.5 -46.833 -16.5 -70.5s-14.833 -46.834 -23.5 -69.501s-18 -43.667 -28 -63c11.333 -16 22.333 -32.5 33 -49.5s20.334 -34 29.001 -51s15.5 -34 20.5 -51
s7.5 -33.5 7.5 -49.5c0 -18 -3.5 -35.667 -10.5 -53s-18.5 -34.666 -34.5 -51.999c-3.33301 -1.33301 -5.5 -2.16602 -6.5 -2.49902s-2.16699 -0.5 -3.5 -0.5c-11.333 0 -17 5.66699 -17 17v3.5c0 1 0.666992 2.16699 2 3.5c12.667 24 19 47 19 69c0 26 -6.66699 54 -20 84
s-28.333 59 -45 87c-10.667 -16 -21.834 -29.5 -33.501 -40.5s-23.334 -19.833 -35.001 -26.5s-23 -11.334 -34 -14.001s-21.167 -4 -30.5 -4c-20.667 0 -39.334 5.66699 -56.001 17s-31 26.666 -43 45.999s-21.167 41.833 -27.5 67.5s-9.5 52.5 -9.5 80.5
c0 46.667 6.16699 93.167 18.5 139.5s29.666 88 51.999 125s48.833 67 79.5 90s64.334 34.5 101.001 34.5c21.333 0 42.5 -5.66699 63.5 -17s40.167 -28 57.5 -50c1.33301 -2 2.16602 -3.83301 2.49902 -5.5s0.5 -3.16699 0.5 -4.5c0 -3.33301 -1.66699 -7 -5 -11
s-7 -6 -11 -6s-7 1 -9 3zM282.003 374.002c-5.33301 5.33301 -10.667 7.99902 -16 7.99902c-7.33301 0 -13.333 -2.5 -18 -7.5s-8.33398 -11 -11.001 -18s-4.66699 -14 -6 -21s-2 -12.833 -2 -17.5c0 -18.667 3.33301 -37.167 10 -55.5s16.334 -37.5 29.001 -57.5
c10 19.333 18 38.833 24 58.5s9 38.167 9 55.5c0 11.333 -1.33301 21.833 -4 31.5s-7.66699 17.834 -15 24.501v-1z" />
    <glyph glyph-name="R" unicode="R" horiz-adv-x="981" 
d="M635 176c-13.333 -32 -28.3369 -61.1729 -45.0039 -87.5059s-34.667 -48.666 -54 -66.999s-39.833 -32.666 -61.5 -42.999s-43.834 -15.5 -66.501 -15.5c-20 0 -37 3.5 -51 10.5s-25.5 16.833 -34.5 29.5s-15.5 27.334 -19.5 44.001s-6 34.667 -6 54
c0 17.333 1.33301 33.666 4 48.999l-11 -3c-26.667 -6.66699 -53 -13.667 -79 -21s-50 -16.5 -72 -27.5s-41 -24.667 -57 -41s-27.333 -36.5 -34 -60.5c-2 -8 -7.33301 -12 -16 -12c-3.33301 0 -6.5 0.833008 -9.5 2.5s-5.16699 5.16699 -6.5 10.5
c0.666992 34.667 8.33398 62.834 23.001 84.501s33.834 39.334 57.501 53.001s50.5 24.167 80.5 31.5s60.667 14.333 92 21c8 1.33301 15 2.33301 21 3s12.667 2 20 4c6 23.333 14.167 45.5 24.5 66.5s22 39.5 35 55.5s27.167 28.667 42.5 38s31 14 47 14
c21.333 0 37 -6.5 47 -19.5s15 -28.167 15 -45.5c0 -21.333 -5.33301 -39.666 -16 -54.999s-24.667 -28.666 -42 -39.999s-36.666 -21 -57.999 -29s-42.666 -15 -63.999 -21l-2 -22c-0.666992 -7.33301 -1 -14 -1 -20c0 -26.667 4.66699 -49.334 14 -68.001
s24.666 -28 45.999 -28c23.333 0 45.666 9 66.999 27s41.166 41.167 59.499 69.5s35 60.5 50 96.5s27.833 72.167 38.5 108.5s18.834 70.833 24.501 103.5s8.5 60.334 8.5 83.001c0 25.333 -5 43 -15 53s-22.333 15 -37 15c-12 0 -24.833 -3 -38.5 -9s-26 -14.167 -37 -24.5
s-20.167 -22.333 -27.5 -36s-11 -28.5 -11 -44.5c0 -20 6 -38 18 -54s30.667 -24.667 56 -26c4 -1.33301 7.66699 -3.83301 11 -7.5s5 -7.16699 5 -10.5s-1.33301 -6.66602 -4 -9.99902s-6.66699 -5 -12 -5c-18.667 0.666992 -34.834 4.33398 -48.501 11.001
s-24.834 15.167 -33.501 25.5s-15.167 22.166 -19.5 35.499s-6.5 27 -6.5 41c0 24 5 46.333 15 67s22.833 38.834 38.5 54.501s33.5 27.834 53.5 36.501s40 13 60 13c19.333 0 37.666 -4.5 54.999 -13.5s32 -24.167 44 -45.5c21.333 11.333 40.833 19.166 58.5 23.499
s33.834 6.5 48.501 6.5c20 0 36.833 -3.83301 50.5 -11.5s24.5 -17.167 32.5 -28.5s13.667 -24 17 -38s5 -27.333 5 -40c0 -28 -5.66699 -56.5 -17 -85.5s-27.5 -55.167 -48.5 -78.5s-46.833 -42.5 -77.5 -57.5s-65.334 -22.5 -104.001 -22.5
c6.66699 -20.667 14.5 -40.667 23.5 -60s18.667 -36.5 29 -51.5s21 -27 32 -36s22.167 -13.5 33.5 -13.5c10.667 0 22.5 6.5 35.5 19.5s26.5 29.833 40.5 50.5s27.833 44.167 41.5 70.5s26.5 52.833 38.5 79.5c1.33301 3.33301 3.33301 5.66602 6 6.99902s5 2 7 2
c4.66699 0 8.83398 -1.66699 12.501 -5s5.5 -8.33301 5.5 -15c-17.333 -38.667 -34.666 -75 -51.999 -109s-34.666 -63.667 -51.999 -89s-34.666 -45.333 -51.999 -60s-34.666 -22 -51.999 -22s-33.333 6 -48 18s-27.667 27 -39 45s-21.166 37.167 -29.499 57.5
s-14.5 39.166 -18.5 56.499zM657.996 275.994c3.33301 0 8.33398 0.666992 15.001 2c-2.66699 -6.66699 -4.33398 -11.667 -5.00098 -15zM722.997 515.994c0 -41.333 -5.33496 -82.166 -16.002 -122.499s-22 -78.833 -34 -115.5c24.667 4.66699 47.334 13.834 68.001 27.501
s38.5 30 53.5 49s26.833 40.167 35.5 63.5s13 46.666 13 69.999s-5.33301 41 -16 53s-24.667 18 -42 18s-38 -6.33301 -62 -19c0.666992 -4 0.833984 -7.83301 0.500977 -11.5s-0.5 -7.83398 -0.5 -12.501zM474.995 280.994c4.66699 9.33301 7 19.001 7 29.001
c0 7.33301 -1.5 13.5 -4.5 18.5s-9.16699 7.5 -18.5 7.5c-12 0 -23.333 -3.5 -34 -10.5s-20.5 -16.5 -29.5 -28.5s-17.167 -25.833 -24.5 -41.5s-13.666 -32.167 -18.999 -49.5c28 7.33301 52.667 16.666 74 27.999s37.666 27 48.999 47z" />
    <glyph glyph-name="S" unicode="S" horiz-adv-x="608" 
d="M266 138c0 -23.333 4.99902 -43.999 14.999 -61.999s27.333 -27 52 -27h8c18 1.33301 34.167 7.16602 48.5 17.499s26.333 22.666 36 36.999s17.167 29.333 22.5 45s8 29.5 8 41.5c0 24 -5 48.333 -15 73s-21 49 -33 73c-12.667 25.333 -24 50.166 -34 74.499
s-15 49.166 -15 74.499c0 14.667 3 30.667 9 48s15.333 33.166 28 47.499s28.167 26.333 46.5 36s40.166 14.5 65.499 14.5c14 0 27.333 -1.83301 40 -5.5s23.834 -9.33398 33.501 -17.001s17.334 -17.5 23.001 -29.5s8.5 -26 8.5 -42c0 -27.333 -7 -53.166 -21 -77.499
s-29.333 -46.166 -46 -65.499c-3.33301 -3.33301 -7 -5 -11 -5c-5.33301 0 -9.5 1.83301 -12.5 5.5s-4.5 7.5 -4.5 11.5c0 4.66699 1.33301 8.33398 4 11.001c12 15.333 23.833 33.333 35.5 54s17.5 40.667 17.5 60c0 10.667 -1.66699 19.5 -5 26.5
s-7.66602 12.667 -12.999 17s-11 7.5 -17 9.5s-11.333 3 -16 3c-15.333 0 -28.333 -2.83301 -39 -8.5s-19.334 -12.667 -26.001 -21s-11.5 -17.666 -14.5 -27.999s-4.5 -20.166 -4.5 -29.499c0 -23.333 5.16699 -47.166 15.5 -71.499s21.166 -45.833 32.499 -64.5
c16 -28.667 28.5 -57.334 37.5 -86.001s13.5 -57 13.5 -85c0 -26.667 -5.16699 -51.834 -15.5 -75.501s-24.5 -44.5 -42.5 -62.5s-38.833 -32.167 -62.5 -42.5s-48.5 -15.5 -74.5 -15.5c-23.333 0 -42.833 4.16699 -58.5 12.5s-28.167 19.166 -37.5 32.499
s-16 28.333 -20 45s-6 33.667 -6 51c0 4.66699 -0.166992 7.16699 -0.5 7.5s-0.166016 2.83301 0.500977 7.5l-57 -16c-18.667 -5.33301 -36 -12.166 -52 -20.499s-29.667 -18.5 -41 -30.5s-19.333 -27 -24 -45c-1.33301 -3.33301 -3.5 -6.16602 -6.5 -8.49902
s-5.83301 -3.5 -8.5 -3.5c-6.66699 0 -11.667 4.66699 -15 14c0.666992 27.333 6.66699 49.333 18 66s26.166 30.167 44.499 40.5s39 18.333 62 24l69.5 16.5l18 3c4 17.333 9.5 34 16.5 50s15.5 30.333 25.5 43s21.5 22.667 34.5 30s27.5 11 43.5 11
s27.833 -5.5 35.5 -16.5s11.5 -23.167 11.5 -36.5c0 -16 -4 -29.833 -12 -41.5s-18.167 -22 -30.5 -31s-26.166 -16.667 -41.499 -23s-30.333 -11.833 -45 -16.5c-0.666992 -4 -1.16699 -8 -1.5 -12s-0.5 -8 -0.5 -12zM357.999 258.001c3.33301 5.33301 5 10.6709 5 16.0039
c0 8 -4.66699 12 -14 12c-8 0 -15.5 -2.33301 -22.5 -7s-13.667 -10.834 -20 -18.501s-12 -16.334 -17 -26.001s-9.16699 -19.834 -12.5 -30.501c18.667 5.33301 35 12.166 49 20.499s24.667 19.5 32 33.5z" />
    <glyph glyph-name="T" unicode="T" horiz-adv-x="792" 
d="M524 353c-3.33301 0 -6.16699 0.160156 -8.5 0.493164s-4.83301 0.5 -7.5 0.5c14 -12 21 -28.667 21 -50s-5.5 -39.666 -16.5 -54.999s-25 -28.666 -42 -39.999s-36.333 -21 -58 -29s-42.834 -15 -63.501 -21c-1.33301 -7.33301 -2.33301 -14.666 -3 -21.999
s-1 -14 -1 -20c0 -26.667 4.66699 -49.334 14 -68.001s24.666 -28 45.999 -28c11.333 0 24 3.16699 38 9.5s28.833 17.333 44.5 33s32 36.667 49 63s34.167 59.5 51.5 99.5c8.66699 24 17.334 49.833 26.001 77.5s16.167 54.834 22.5 81.501s11.5 51.334 15.5 74.001
s6 40.667 6 54c0 26 -6.5 44.667 -19.5 56s-28.833 17 -47.5 17c-15.333 0 -31 -3.16699 -47 -9.5s-30.667 -15 -44 -26s-24.333 -24 -33 -39s-13 -31.167 -13 -48.5c0 -19.333 5.33301 -36.666 16 -51.999s28.667 -23.666 54 -24.999c4 -1.33301 7.5 -3.83301 10.5 -7.5
s4.5 -7.16699 4.5 -10.5s-1.16699 -6.66602 -3.5 -9.99902s-6.16602 -5 -11.499 -5zM931.999 641.993c-4 -15.333 -13.333 -28 -28 -38s-31.5 -18 -50.5 -24s-38.667 -10.167 -59 -12.5s-38.5 -3.5 -54.5 -3.5c-5.33301 0 -7.5 -0.166992 -6.5 -0.5
s-0.166992 -0.166016 -3.5 0.500977c4 -12 6 -27 6 -45c0 -14 -1.33301 -30.667 -4 -50s-6.33398 -40.333 -11.001 -63s-10.334 -46.334 -17.001 -71.001s-14 -49.334 -22 -74.001c-10 -29.333 -22.667 -61.333 -38 -96s-33.833 -67 -55.5 -97s-46.834 -55 -75.501 -75
s-61.334 -30 -98.001 -30c-20 0 -37 3.5 -51 10.5s-25.5 16.833 -34.5 29.5s-15.5 27.334 -19.5 44.001s-6 34.667 -6 54c0 17.333 1.33301 33.666 4 48.999l-11 -3c-26.667 -6.66699 -53 -13.667 -79 -21s-50 -16.5 -72 -27.5s-41 -24.667 -57 -41s-27.333 -36.5 -34 -60.5
c-2 -8 -7 -12 -15 -12c-3.33301 0 -6.66602 0.833008 -9.99902 2.5s-5.66602 5.16699 -6.99902 10.5c0.666992 34.667 8.33398 62.834 23.001 84.501s33.834 39.334 57.501 53.001s50.5 24.167 80.5 31.5s60.667 14.333 92 21c8.66699 1.33301 15.834 2.33301 21.501 3
s12.5 2 20.5 4c6 22.667 13.833 44.5 23.5 65.5s21 39.5 34 55.5s27 28.667 42 38s30.5 14.333 46.5 15c-17.333 10.667 -30 24.667 -38 42s-12 35.666 -12 54.999c0 16 3 33.5 9 52.5s15.5 37 28.5 54s30.167 31.167 51.5 42.5s47.666 17 78.999 17
c12 0 24 -0.833008 36 -2.5s24.333 -3.5 37 -5.5c15.333 -2.66699 31 -5 47 -7s32.667 -3 50 -3c24 0 49.833 2.83301 77.5 8.5s57.5 16.167 89.5 31.5zM481.999 280.993c2 4 3.83301 8.50098 5.5 13.501s2.5 10.167 2.5 15.5c0 7.33301 -1.66699 13.5 -5 18.5
s-9.33301 7.5 -18 7.5c-12 0 -23.333 -3.5 -34 -10.5s-20.5 -16.5 -29.5 -28.5s-17.333 -25.833 -25 -41.5s-13.834 -32.167 -18.501 -49.5c27.333 7.33301 51.833 16.666 73.5 27.999s37.834 27 48.501 47z" />
    <glyph glyph-name="U" unicode="U" horiz-adv-x="589" 
d="M55 460c0 -20 5.83398 -37.9951 17.501 -53.9951s30.5 -24.667 56.5 -26c4 -1.33301 7.5 -3.83301 10.5 -7.5s4.5 -6.83398 4.5 -9.50098c0 -4 -1.16699 -7.66699 -3.5 -11s-6.16602 -5 -11.499 -5c-18.667 0.666992 -34.834 4.33398 -48.501 11.001
s-24.834 15.167 -33.501 25.5s-15.167 22.166 -19.5 35.499s-6.5 27 -6.5 41c0 24.667 4.33301 47 13 67s20 37 34 51s29.5 24.833 46.5 32.5s34.167 11.5 51.5 11.5c14 0 27.5 -2.66699 40.5 -8s24.5 -13.833 34.5 -25.5s18 -26.5 24 -44.5s9 -39.333 9 -64
c0 -11.333 -1.33301 -25.333 -4 -42s-6 -34.834 -10 -54.501s-8.66699 -40.334 -14 -62.001s-10.333 -43.167 -15 -64.5l-13.5 -55.5c-4.33301 -17.667 -8 -34.167 -11 -49.5s-5.5 -29 -7.5 -41s-3 -21.333 -3 -28v-8c4.66699 0 11.334 6.83301 20.001 20.5
s18.834 32.5 30.501 56.5s24.667 52.333 39 85l45.5 107c3.33301 5.33301 6.16602 11 8.49902 17l8.5 22l29 61c10.667 22 22 42.5 34 61.5s24.833 34.833 38.5 47.5s27.5 19 41.5 19c5.33301 0 11 -1.5 17 -4.5s11.667 -6.66699 17 -11s9.66602 -9 12.999 -14
s5 -9.5 5 -13.5c0 -8.66699 -5 -14.667 -15 -18c-12 -4 -24 -15.167 -36 -33.5s-23.5 -40.833 -34.5 -67.5s-21.167 -56 -30.5 -88s-17.5 -63.833 -24.5 -95.5s-12.5 -61.667 -16.5 -90s-6 -51.833 -6 -70.5c0 -21.333 1 -32.333 3 -33
c10 5.33301 20.833 14.666 32.5 27.999s23.5 29 35.5 47s24 37.167 36 57.5l35 60.5c8.66699 15.333 17 29.333 25 42l22 35l-1 -1c2 4 4.33301 6.33301 7 7s4.66699 1 6 1c4.66699 0 8.66699 -1.5 12 -4.5s5 -7.16699 5 -12.5c0 -1.33301 -0.166992 -2.83301 -0.5 -4.5
s-1.5 -3.5 -3.5 -5.5c-4.66699 -6.66699 -10.667 -17 -18 -31l-25 -48l-44 -79.5c-16 -28.333 -32.667 -54.666 -50 -78.999s-35.166 -44.666 -53.499 -60.999s-36.5 -24.5 -54.5 -24.5c-18 1.33301 -30.667 11.166 -38 29.499s-11 41.833 -11 70.5
c0 24.667 2.16699 51.667 6.5 81s9.5 58 15.5 86l-31.5 -72.5c-11 -25 -22.833 -47.833 -35.5 -68.5s-25.667 -37.667 -39 -51s-27 -20 -41 -20s-25.5 6.16699 -34.5 18.5s-13.5 31.833 -13.5 58.5c0 14 1.16699 29.667 3.5 47s5.16602 35.166 8.49902 53.499
s7.33301 37 12 56l14 55.5l17 73.5c6 25 9.66699 45.167 11 60.5c0.666992 6 1.16699 11.667 1.5 17s0.5 10 0.5 14c0 35.333 -5.5 60.666 -16.5 75.999s-24.167 23 -39.5 23c-10 0 -20 -2.66699 -30 -8s-19 -12.833 -27 -22.5s-14.5 -21 -19.5 -34s-7.5 -27.5 -7.5 -43.5z
" />
    <glyph glyph-name="V" unicode="V" horiz-adv-x="550" 
d="M480 511c0 15.333 -0.998047 31.002 -2.99805 47.002c-15.333 -1.33301 -30.166 -3.16602 -44.499 -5.49902s-27.5 -5.83301 -39.5 -10.5s-22.5 -11.334 -31.5 -20.001s-15.167 -20 -18.5 -34c-1.33301 -3.33301 -3.33301 -6.16602 -6 -8.49902s-5.66699 -3.5 -9 -3.5
c-2 0 -4.33301 1.16699 -7 3.5s-4.66699 5.16602 -6 8.49902c0 23.333 4.33301 41.666 13 54.999s20 23.333 34 30s29.833 10.834 47.5 12.501s35.834 3.16699 54.501 4.5h10v2c0 19.333 3.16699 35.333 9.5 48s14.333 22.834 24 30.501s20.5 13.167 32.5 16.5s24 5 36 5
c17.333 0 30.333 -4.16699 39 -12.5s13 -19.5 13 -33.5c0 -15.333 -3.66699 -28 -11 -38s-16.5 -18.167 -27.5 -24.5s-23.5 -11.166 -37.5 -14.499s-27.333 -6 -40 -8c1.33301 -8 2 -16.167 2 -24.5v-25.5c0 -42 -4.83301 -83.667 -14.5 -125s-22.334 -81 -38.001 -119
s-33.834 -73.333 -54.501 -106s-42.167 -61.167 -64.5 -85.5s-44.666 -43.333 -66.999 -57s-43.166 -20.5 -62.499 -20.5c-21.333 0 -37.666 8.16699 -48.999 24.5s-17 44.5 -17 84.5c0 33.333 3.16699 65.333 9.5 96s13.5 61.334 21.5 92.001
c7.33301 29.333 14.166 58.166 20.499 86.499s9.5 57.166 9.5 86.499c0 36 -6.16699 61.667 -18.5 77s-26.833 23 -43.5 23c-10.667 0 -21.334 -2.66699 -32.001 -8s-20.334 -12.833 -29.001 -22.5s-15.667 -21 -21 -34s-8 -27.5 -8 -43.5c0 -20 5.83301 -38 17.5 -54
s30.5 -24.667 56.5 -26c4 -1.33301 7.66699 -3.83301 11 -7.5s5 -6.83398 5 -9.50098c0 -4 -1.33301 -7.66699 -4 -11s-6.66699 -5 -12 -5c-18.667 0.666992 -34.834 4.33398 -48.501 11.001s-24.834 15.167 -33.501 25.5s-15.167 22.166 -19.5 35.499s-6.5 27 -6.5 41
c0 24.667 4.66699 47.167 14 67.5s21.333 37.833 36 52.5s31.167 26 49.5 34s36.5 12 54.5 12c14.667 0 28.667 -2.83301 42 -8.5s25 -14.334 35 -26.001s18 -26.667 24 -45s9 -40.5 9 -66.5c0 -26.667 -3.16699 -55.334 -9.5 -86.001s-13.5 -62 -21.5 -94
c-8 -34 -15.5 -67.5 -22.5 -100.5s-10.5 -63.833 -10.5 -92.5c0 -18 1.5 -32.833 4.5 -44.5s9.16699 -17.5 18.5 -17.5s19.833 4.16699 31.5 12.5s23.667 19 36 32s24.5 27.667 36.5 44s22.667 32.5 32 48.5c12.667 24 25.167 49.667 37.5 77s23 55.166 32 83.499
s16.167 56.833 21.5 85.5s8 56.334 8 83.001zM591.002 633.002c2.66699 5.33301 4.00098 9.33203 4.00098 11.999c0 9.33301 -6.33301 14 -19 14c-15.333 0 -29.833 -4.66699 -43.5 -14s-21.5 -26.666 -23.5 -51.999c18.667 2 35.167 5.83301 49.5 11.5
s25.166 15.167 32.499 28.5z" />
    <glyph glyph-name="W" unicode="W" horiz-adv-x="724" 
d="M682 575c0 -1.33301 0.333008 -1.33301 1 0h-1zM682 575l-15 -2.99219c-23.333 -6 -47.666 -13.167 -72.999 -21.5s-49.166 -18.333 -71.499 -30s-41.666 -25.334 -57.999 -41.001s-27.5 -34.167 -33.5 -55.5c-2 -8 -7 -12 -15 -12
c-3.33301 0 -6.66602 0.833008 -9.99902 2.5s-5.66602 5.16699 -6.99902 10.5c0.666992 34.667 8.33398 63 23.001 85s33.834 39.667 57.501 53s50.5 23.666 80.5 30.999s60.667 14 92 20l36 7c4.66699 28 12.167 52.833 22.5 74.5s22.5 40 36.5 55s29.167 26.333 45.5 34
s32.833 11.5 49.5 11.5c21.333 0 37.166 -6.5 47.499 -19.5s15.5 -28.167 15.5 -45.5c0 -22 -5.66699 -40.833 -17 -56.5s-26 -29.334 -44 -41.001s-38.167 -21.334 -60.5 -29.001s-44.5 -14.5 -66.5 -20.5c-2.66699 -47.333 -8.83398 -94.5 -18.501 -141.5
s-22.334 -92.167 -38.001 -135.5s-33.834 -83.666 -54.501 -120.999s-42.834 -69.833 -66.501 -97.5s-48.5 -49.334 -74.5 -65.001s-52.333 -23.5 -79 -23.5c-13.333 0 -24.166 2.83301 -32.499 8.5s-15 13 -20 22s-8.5 18.833 -10.5 29.5s-3 20.667 -3 30
c-28 -28.667 -54.667 -50.834 -80 -66.501s-46 -23.5 -62 -23.5c-19.333 0 -33.166 7.16699 -41.499 21.5s-12.5 33.5 -12.5 57.5c0 16 1.33301 33.5 4 52.5s6.33398 38.667 11.001 59s9.83398 40.833 15.501 61.5l16.5 60c5.33301 23.333 11.166 46.833 17.499 70.5
s10.166 41.167 11.499 52.5v5c0.666992 5.33301 1.16699 10.333 1.5 15s0.5 9 0.5 13c0 36 -6.16699 61.667 -18.5 77s-26.833 23 -43.5 23c-10.667 0 -21.334 -2.66699 -32.001 -8s-20.334 -12.833 -29.001 -22.5s-15.667 -21 -21 -34s-8 -27.5 -8 -43.5
c0 -20 6 -38 18 -54s30.667 -24.667 56 -26c4 -1.33301 7.66699 -3.83301 11 -7.5s5 -6.83398 5 -9.50098c0 -4 -1.33301 -7.66699 -4 -11s-6.66699 -5 -12 -5c-18.667 0.666992 -34.834 4.33398 -48.501 11.001s-24.834 15.167 -33.501 25.5s-15.167 22.166 -19.5 35.499
s-6.5 27 -6.5 41c0 24.667 4.66699 47.167 14 67.5s21.333 37.833 36 52.5s31.334 26 50.001 34s37 12 55 12c14.667 0 28.834 -2.83301 42.501 -8.5s25.667 -14.334 36 -26.001s18.666 -26.667 24.999 -45s9.5 -40.5 9.5 -66.5c0 -8 -0.333008 -16.333 -1 -25
s-1.66699 -17.667 -3 -27c-2 -14 -5.33301 -30.167 -10 -48.5l-16 -60.5c-5.33301 -20 -10.5 -40.5 -15.5 -61.5s-9.5 -41.5 -13.5 -61.5s-7.33301 -39 -10 -57s-4 -33.667 -4 -47c0 -10.667 0.833008 -19.167 2.5 -25.5s4.5 -9.5 8.5 -9.5c9.33301 0 22 6.83301 38 20.5
s37.333 36.5 64 68.5c4 26 10.833 54 20.5 84s20.5 60 32.5 90l3 3c2 2 4.33301 3.66699 7 5c6 3.33301 14.333 7.66602 25 12.999s19.667 8 27 8c15.333 0 23 -7 23 -21c0 -5.33301 -1.5 -12.333 -4.5 -21s-5.83301 -15.667 -8.5 -21l-7 -16
c-12 -32.667 -21.833 -65 -29.5 -97s-11.5 -60.667 -11.5 -86c0 -16.667 1.83301 -28.334 5.5 -35.001s8.83398 -10 15.501 -10c11.333 0 25.166 6.5 41.499 19.5s32.166 28 47.499 45s28.833 34.167 40.5 51.5s19.167 30.333 22.5 39c30 52 54.5 110.833 73.5 176.5
s30.833 132.834 35.5 201.501h-1zM858 708.008c2 3.33301 3.83496 7.66699 5.50195 13s2.5 10.666 2.5 15.999c0 6.66699 -1.66699 12.667 -5 18s-9.66602 8 -18.999 8c-12 0 -24 -3.16699 -36 -9.5s-23.333 -15.166 -34 -26.499s-20.334 -25.333 -29.001 -42
s-15.334 -35 -20.001 -55c30 7.33301 57.167 16.833 81.5 28.5s42.166 28.167 53.499 49.5z" />
    <glyph glyph-name="X" unicode="X" horiz-adv-x="1057" 
d="M1041 538c-7.33301 -11.333 -18.9961 -27.501 -34.9961 -48.501l-53 -68l-58.5 -72c-19.667 -23.667 -36.834 -43.5 -51.501 -59.5c18.667 -60 33.5 -103.833 44.5 -131.5s21.167 -41.5 30.5 -41.5c11.333 0 25.833 15.833 43.5 47.5s39.167 77.5 64.5 137.5
c2.66699 6.66699 7.33398 10 14.001 10c10.667 0 16 -6.66699 16 -20c-6.66699 -19.333 -15.834 -42.833 -27.501 -70.5s-25 -54 -40 -79s-31 -46.333 -48 -64s-34.167 -26.5 -51.5 -26.5c-9.33301 0 -18.333 2.66699 -27 8s-17.167 14.666 -25.5 27.999
s-17.166 31.166 -26.499 53.499s-19.333 50.5 -30 84.5c-5.33301 -5.33301 -11 -10.666 -17 -15.999s-11.667 -10.666 -17 -15.999l-90 -84c-29.333 -26.667 -57.833 -50.334 -85.5 -71.001s-54.167 -37.167 -79.5 -49.5s-49.333 -18.5 -72 -18.5
c-18 0 -33.667 3.16699 -47 9.5s-24.333 14.5 -33 24.5s-15.167 21.333 -19.5 34s-6.5 25.667 -6.5 39c0 17.333 2.66699 35.333 8 54s12.666 37.334 21.999 56.001h-5l-58 4c-19.333 1.33301 -37.666 2 -54.999 2c-35.333 0 -67.5 -4.5 -96.5 -13.5
s-53.167 -27.833 -72.5 -56.5c-5.33301 -4 -9.66602 -6 -12.999 -6c-11.333 0 -17 5.33301 -17 16c8 22 18 40.167 30 54.5s25.667 25.666 41 33.999s32 14.166 50 17.499s36.667 5 56 5c20.667 0 41.5 -1.16699 62.5 -3.5s42.167 -5.16602 63.5 -8.49902l40 -5
c23.333 34 50.166 62.5 80.499 85.5s59.833 34.5 88.5 34.5c24 0 41.5 -6.5 52.5 -19.5s16.5 -27.167 16.5 -42.5c0 -20 -5.33301 -36.667 -16 -50s-24.5 -24 -41.5 -32s-35.667 -13.667 -56 -17s-40.166 -5 -59.499 -5c-8 0 -15.333 0.166992 -22 0.5s-15 0.833008 -25 1.5
c-8.66699 -16 -15.5 -32.333 -20.5 -49s-7.5 -31.667 -7.5 -45c0 -12 3 -24.333 9 -37s16.333 -19 31 -19c13.333 0 33.166 7.5 59.499 22.5s56 35.167 89 60.5s67.833 54.5 104.5 87.5s72.667 67.167 108 102.5l-12.5 36.5c-3.66699 11 -6.5 21.167 -8.5 30.5l-19 63.5
c-6.66699 21.667 -14.667 41.167 -24 58.5s-20.333 31.666 -33 42.999s-27.667 17 -45 17c-14 0 -27.833 -2.33301 -41.5 -7s-25.834 -11.334 -36.501 -20.001s-19.334 -18.667 -26.001 -30s-10 -23.666 -10 -36.999c0 -20 6 -38 18 -54s30.667 -24.667 56 -26
c4 -1.33301 7.66699 -3.83301 11 -7.5s5 -7.16699 5 -10.5s-1.33301 -6.66602 -4 -9.99902s-6.66699 -5 -12 -5c-18.667 0.666992 -34.834 4.33398 -48.501 11.001s-24.834 15.167 -33.501 25.5s-15.167 22.166 -19.5 35.499s-6.5 27 -6.5 41c0 18.667 3.33301 37.5 10 56.5
s16.667 36.167 30 51.5s29.833 27.833 49.5 37.5s42.5 14.5 68.5 14.5c32.667 0 59.5 -6.66699 80.5 -20s38.167 -30.666 51.5 -51.999s23.833 -45 31.5 -71s14.5 -51.667 20.5 -77c2 -8.66699 3.16699 -14.167 3.5 -16.5s1.83301 -7.5 4.5 -15.5l41.5 50.5l46.5 58.5
l42 54.5l29 38.5c8.66699 6.66699 18.334 10 29.001 10c9.33301 0 17.666 -2.66699 24.999 -8s11 -13 11 -23c0 -1.33301 -0.166992 -2.16602 -0.5 -2.49902s-0.5 -0.833008 -0.5 -1.5v-3zM551.004 254.999c5.33301 4 9.83594 9.5 13.5029 16.5s5.5 14.167 5.5 21.5
c0 5.33301 -2.33301 10.333 -7 15s-13.334 7 -26.001 7c-21.333 0 -43.333 -8.83301 -66 -26.5s-43 -39.167 -61 -64.5c7.33301 -0.666992 13.166 -1 17.499 -1h15.5c22 0 42.167 2.16699 60.5 6.5s34.166 12.833 47.499 25.5z" />
    <glyph glyph-name="Y" unicode="Y" horiz-adv-x="934" 
d="M573 477c0 25.333 -5.50098 43.6611 -16.501 54.9941s-24.167 17 -39.5 17c-10 0 -20.833 -2.5 -32.5 -7.5s-22.334 -12.167 -32.001 -21.5s-17.667 -20.833 -24 -34.5s-9.5 -28.834 -9.5 -45.501c0 -16 4.33301 -30.833 13 -44.5s23.667 -23.167 45 -28.5
c3.33301 -1.33301 6.33301 -3.66602 9 -6.99902s4 -6.66602 4 -9.99902c0 -10.667 -6.33301 -16 -19 -16c-30.667 7.33301 -52.667 20.833 -66 40.5s-20 40.834 -20 63.501c0 25.333 5 48.166 15 68.499s22.833 37.5 38.5 51.5s32.667 24.833 51 32.5s35.833 11.5 52.5 11.5
c14.667 0 28.834 -2.66699 42.501 -8s25.834 -13.333 36.501 -24s19 -24.167 25 -40.5s9 -35.5 9 -57.5c0 -26 -4.66699 -53.833 -14 -83.5s-20 -60.5 -32 -92.5v1c-11.333 -31.333 -22 -62.5 -32 -93.5s-16 -62.5 -18 -94.5c1.33301 -10 4.66602 -15 9.99902 -15
c6.66699 0 17.334 5 32.001 15s30.834 24 48.501 42s35.667 39.667 54 65s34.5 53 48.5 83l-1 -1l24 79l22 75c0.666992 2.66699 1.66699 5.83398 3 9.50098s2.33301 6.5 3 8.5c2.66699 10.667 8.66699 20.167 18 28.5s19.166 15.333 29.499 21s20.5 10 30.5 13
s17.667 4.5 23 4.5s8.83301 -0.5 10.5 -1.5s2.5 -5.16699 2.5 -12.5c-10 -21.333 -21.5 -52 -34.5 -92l-42.5 -133l-47 -147c-16.667 -51.333 -34.667 -102.166 -54 -152.499s-40.333 -98.333 -63 -144s-47 -86 -73 -121s-53.667 -62.833 -83 -83.5s-60.666 -31 -93.999 -31
c-42.667 0 -73 11.833 -91 35.5s-27 54.5 -27 92.5c0 16 1.33301 31.667 4 47l-14 -3c-25.333 -6 -50.833 -12.833 -76.5 -20.5s-49.5 -17.167 -71.5 -28.5s-41.167 -25 -57.5 -41s-27.5 -35.667 -33.5 -59c-2.66699 -7.33301 -7.66699 -11 -15 -11
c-3.33301 0 -6.66602 0.666992 -9.99902 2s-5.66602 4.66602 -6.99902 9.99902c0.666992 34.667 8.33398 63 23.001 85s33.834 39.833 57.501 53.5s50.5 24.334 80.5 32.001s60.667 14.5 92 20.5l21 3.5c6 1 13 2.5 21 4.5c6 22.667 14 44.5 24 65.5s21.5 39.5 34.5 55.5
s27.167 28.667 42.5 38s31 14 47 14c21.333 0 37.166 -6.66699 47.499 -20s15.5 -28.666 15.5 -45.999c0 -21.333 -5.5 -39.666 -16.5 -54.999s-25 -28.666 -42 -39.999s-36.333 -20.833 -58 -28.5s-42.834 -14.167 -63.501 -19.5
c-1.33301 -7.33301 -2.33301 -14.833 -3 -22.5s-1 -14.834 -1 -21.501c0 -26.667 4.66699 -49.167 14 -67.5s24.666 -27.5 45.999 -27.5c20 0 39.333 6.83301 58 20.5s36.667 31.834 54 54.501s33.666 49 48.999 79s29.833 61.333 43.5 94s26.5 65.667 38.5 99l33 94
c4 10.667 6.5 18.167 7.5 22.5s1.83301 7.5 2.5 9.5s1.5 4 2.5 6s3.16699 6.66699 6.5 14c-15.333 -18 -30.833 -34.333 -46.5 -49s-30.834 -27.167 -45.501 -37.5s-28.167 -18.333 -40.5 -24s-22.833 -8.5 -31.5 -8.5c-21.333 0 -36.5 6.5 -45.5 19.5
s-13.5 30.5 -13.5 52.5c0 34 5.33301 67.5 16 100.5s21.667 64.5 33 94.5l27 79.5c8.66699 26.333 14 53.5 16 81.5v8zM485.999 -74.0049c2 4 3.8291 8.66992 5.49609 14.0029s2.5 10.333 2.5 15c0 7.33301 -1.66699 13.666 -5 18.999s-9.66602 8 -18.999 8
c-11.333 0 -22.333 -3.5 -33 -10.5s-20.667 -16.5 -30 -28.5s-17.666 -25.833 -24.999 -41.5s-13.666 -32.167 -18.999 -49.5c28 7.33301 52.833 16.666 74.5 27.999s37.834 26.666 48.501 45.999z" />
    <glyph glyph-name="Z" unicode="Z" horiz-adv-x="475" 
d="M25 465c-1.33301 -1.33301 -2.66797 -2.50391 -4.00098 -3.50391s-3.66602 -1.5 -6.99902 -1.5s-6.83301 1.5 -10.5 4.5s-5.5 6.83301 -5.5 11.5s3.5 10.334 10.5 17.001s15.333 13.334 25 20.001s19.667 12.667 30 18s19.166 9.33301 26.499 12
c15.333 6.66699 31.166 11.667 47.499 15s33.5 5 51.5 5c37.333 0 76.666 -9 117.999 -27c18 36 36.833 61 56.5 75s38.167 21 55.5 21s31 -5.5 41 -16.5s15 -24.167 15 -39.5c0 -9.33301 -2.5 -19.166 -7.5 -29.499s-12.167 -19.833 -21.5 -28.5
s-20.666 -16.167 -33.999 -22.5s-28.333 -9.83301 -45 -10.5c-10 -30.667 -19.5 -63.667 -28.5 -99l-26.5 -107l-28.5 -112.5c-9.66699 -37 -21.834 -75.167 -36.501 -114.5c12.667 -6.66699 25.167 -12 37.5 -16s25.5 -6 39.5 -6c11.333 0 22.166 1.16699 32.499 3.5
s20.833 8 31.5 17s21.5 22.333 32.5 40s23.167 41.5 36.5 71.5c2.66699 6 7.66699 9 15 9c5.33301 0 9.33301 -1.66699 12 -5s4 -6.66602 4 -9.99902c0 -0.666992 -0.166992 -1.5 -0.5 -2.5s-0.5 -1.83301 -0.5 -2.5c-14 -34.667 -27.667 -62.167 -41 -82.5
s-26.666 -35.833 -39.999 -46.5s-26.666 -17.5 -39.999 -20.5s-27 -4.5 -41 -4.5c-16.667 0 -32.5 2.5 -47.5 7.5s-29.167 10.5 -42.5 16.5c-9.33301 -15.333 -22.166 -28.666 -38.499 -39.999s-36.833 -17 -61.5 -17c-19.333 0 -34.833 5.66699 -46.5 17
s-17.5 25.666 -17.5 42.999c0 10.667 2.16699 20.334 6.5 29.001s9.83301 16 16.5 22s14 10.667 22 14s16 5 24 5c4.66699 0 10.167 -0.666992 16.5 -2s12.833 -3 19.5 -5c10 33.333 19.167 65.666 27.5 96.999l25.5 95c9.33301 38.667 19.333 76.5 30 113.5
s22.334 74.5 35.001 112.5c-17.333 9.33301 -35.333 15.833 -54 19.5s-35.334 5.5 -50.001 5.5c-36 0 -67.667 -6.5 -95 -19.5s-50.666 -28.167 -69.999 -45.5zM399.998 552.996c-3.33301 -4.66699 -6.50195 -9.66309 -9.50195 -14.9961s-5.83301 -11.333 -8.5 -18
c11.333 1.33301 20.833 4.16602 28.5 8.49902s13.834 9.16602 18.501 14.499s8 10.666 10 15.999s3 9.66602 3 12.999c0 6.66699 -2.66699 10 -8 10c-9.33301 0 -20.666 -9.66699 -33.999 -29zM125.996 -1c4 0 7.66699 1.33301 11 4c8 7.33301 14.167 15.5 18.5 24.5
s8.16602 18.167 11.499 27.5c-10 4 -18.333 6 -25 6c-7.33301 0 -15.666 -3.16699 -24.999 -9.5s-14 -15.5 -14 -27.5c0 -7.33301 2.33301 -13.333 7 -18s10 -7 16 -7z" />
    <glyph glyph-name="bracketleft" unicode="[" horiz-adv-x="361" 
d="M286 626c4.66699 0 8.83496 -1.49902 12.502 -4.49902s5.5 -7.16699 5.5 -12.5c0 -4.66699 -1.83301 -8.5 -5.5 -11.5s-7.83398 -4.5 -12.501 -4.5h-63l-46 -309l-46 -309h58c11.333 0 17 -5.66699 17 -17c0 -10.667 -5.66699 -16 -17 -16h-122
c-7.33301 0 -12 1.66699 -14 5s-3 8.33301 -3 15l96 649c0.666992 5.33301 2.66699 9.16602 6 11.499s7.66602 3.5 12.999 3.5h121z" />
    <glyph glyph-name="backslash" unicode="\" horiz-adv-x="234" 
d="M48 598c0 7.33301 2.33203 14.333 6.99902 21s11.334 10 20.001 10c6.66699 0 12.667 -2.16699 18 -6.5s8.66602 -9.5 9.99902 -15.5l87 -661c0 -8.66699 -2.16699 -16 -6.5 -22s-11.166 -9 -20.499 -9c-7.33301 0 -13.333 2.5 -18 7.5s-7.66699 10.833 -9 17.5z" />
    <glyph glyph-name="bracketright" unicode="]" horiz-adv-x="368" 
d="M84 -61c-10.667 0 -15.999 5.33301 -15.999 16c0 11.333 5.33301 17 16 17h63l46 309l46 309h-58c-11.333 0 -17 5.66699 -17 17c0 10.667 5.66699 16 17 16h120c5.33301 0 9.83301 -1 13.5 -3s5.5 -7 5.5 -15l-96 -650
c-0.666992 -3.33301 -2.33398 -6.83301 -5.00098 -10.5s-6.66699 -5.5 -12 -5.5h-123z" />
    <glyph glyph-name="asciicircum" unicode="^" horiz-adv-x="274" 
d="M223 506c1.33301 -2 2.00293 -4.66406 2.00293 -7.99707c0 -5.33301 -2.5 -10.5 -7.5 -15.5s-10.833 -7.5 -17.5 -7.5c-6 0 -11 2.66699 -15 8c-12 15.333 -21.667 30.166 -29 44.499s-12.666 27.166 -15.999 38.499c-4.66699 -12 -10.334 -25.167 -17.001 -39.5
s-15.334 -28.833 -26.001 -43.5c-4 -5.33301 -9.33301 -8 -16 -8c-6 0 -11.667 2.33301 -17 7s-8 10 -8 16c0 1.33301 0.166992 2.66602 0.5 3.99902s1.5 3.33301 3.5 6c17.333 23.333 29 44.333 35 63s10 33.667 12 45s4.33301 19.833 7 25.5s9.66699 8.5 21 8.5h12
c11.333 0 18.166 -2.83301 20.499 -8.5s4.5 -14.167 6.5 -25.5s5.66699 -25.833 11 -43.5s17.666 -39.167 36.999 -64.5z" />
    <glyph glyph-name="underscore" unicode="_" horiz-adv-x="396" 
d="M332 57c8 0 14.1689 -2.49902 18.502 -7.49902s7.16602 -11.167 8.49902 -18.5c0 -7.33301 -2.5 -13.833 -7.5 -19.5s-11.167 -8.5 -18.5 -8.5l-298 -2c-8 0 -14.667 2.66699 -20 8s-8 11.666 -8 18.999c0 8 2.66699 14.5 8 19.5s11.666 7.5 18.999 7.5z" />
    <glyph glyph-name="grave" unicode="`" horiz-adv-x="157" 
d="M53 748c12.667 0 22.999 -2.83105 30.999 -8.49805s14.333 -13.334 19 -23.001s8.16699 -20.667 10.5 -33s4.5 -25.5 6.5 -39.5l3 -23c0 -6.66699 -3.66699 -12.167 -11 -16.5s-13.333 -6.5 -18 -6.5c-9.33301 0 -17.833 4 -25.5 12s-14.167 17.667 -19.5 29
s-9.5 23.666 -12.5 36.999s-4.5 25.333 -4.5 36c0 8 0.833008 16 2.5 24s7.83398 12 18.501 12z" />
    <glyph glyph-name="a" unicode="a" horiz-adv-x="364" 
d="M173 341c1.33301 3.33301 2.33105 6.66797 2.99805 10.001s1.66699 6.66602 3 9.99902c-3.33301 -2.66699 -7 -4 -11 -4h-9c-1.33301 0 -2.66602 0.166992 -3.99902 0.5s-2.66602 0.5 -3.99902 0.5c-17.333 0 -33.5 -7.83301 -48.5 -23.5s-27.833 -34.5 -38.5 -56.5
s-19 -44.667 -25 -68s-9 -42.333 -9 -57c0 -11.333 0.666992 -17 2 -17c4 0 10 3.5 18 10.5s16.5 15.333 25.5 25l27 30.5l22.5 27c4.66699 4 8.66699 8.33301 12 13l14 16l22 84v-1zM189.998 392.002c3.33301 4.66699 10.3311 9 20.998 13s20.334 6 29.001 6
c6 0 10.833 -1.16699 14.5 -3.5s5.5 -7.83301 5.5 -16.5c-10 -37.333 -19.167 -73.333 -27.5 -108s-15.333 -66.5 -21 -95.5s-10.167 -54.5 -13.5 -76.5s-5 -39.333 -5 -52c0 -6 -0.333008 -9.66699 -1 -11c12.667 10 26 25.167 40 45.5s27.667 41.833 41 64.5
s25.5 45 36.5 67s20.167 39.667 27.5 53c2 4.66699 4.33301 8.66699 7 12l7 9c2.66699 2.66699 5 5.33398 7 8.00098c3.33301 0 6.83301 -1.5 10.5 -4.5s5.5 -8.16699 5.5 -15.5c-2.66699 -6.66699 -7.66699 -18.334 -15 -35.001s-16.5 -35.667 -27.5 -57
s-23.167 -43.666 -36.5 -66.999s-27.333 -44.5 -42 -63.5s-29.667 -34.833 -45 -47.5s-30 -19 -44 -19c-13.333 0 -24 5.66699 -32 17s-12 29 -12 53c0 19.333 1.5 40 4.5 62s6.5 42 10.5 60c-10 -11.333 -21 -23 -33 -35s-23.833 -23 -35.5 -33
s-23.167 -18.167 -34.5 -24.5s-21.666 -9.5 -30.999 -9.5c-15.333 0 -26.5 6.33301 -33.5 19s-10.5 29.667 -10.5 51c0 23.333 4.33301 49.666 13 78.999s20.667 57 36 83s34 47.833 56 65.5s46.667 26.5 74 26.5c8.66699 0 18.5 -2.83301 29.5 -8.5
s17.167 -14.5 18.5 -26.5l2 6c0.666992 2 1.66699 4.33301 3 7z" />
    <glyph glyph-name="b" unicode="b" horiz-adv-x="375" 
d="M40 171l-9.5 -44.502c-3 -14.333 -5.16699 -28.5 -6.5 -42.5c13.333 7.33301 28 13.5 44 18.5s30 9.16699 42 12.5c19.333 26.667 34.833 56.334 46.5 89.001s21.167 65 28.5 97c1.33301 4.66699 2.16602 9.33398 2.49902 14.001s0.5 8.66699 0.5 12
c0 9.33301 -1.66699 14 -5 14c-9.33301 0 -22 -7 -38 -21s-31.667 -30.5 -47 -49.5s-28.666 -37.833 -39.999 -56.5s-17.333 -33 -18 -43zM-15 31.998c0 8.66699 2.66699 16.6592 8 23.9922h-9c-9.33301 0 -17.666 1.83301 -24.999 5.5s-11 9.83398 -11 18.501
c15.333 94.667 35.166 184.667 59.499 270s56.833 167.666 97.5 246.999v-1c20 39.333 40.167 72.833 60.5 100.5s40 50.334 59 68.001s36.833 30.5 53.5 38.5s31 12 43 12c17.333 0 30.833 -5.16699 40.5 -15.5s14.5 -24.5 14.5 -42.5c0 -16 -4.33301 -34.667 -13 -56
s-22.834 -45 -42.501 -71s-45.667 -53.667 -78 -83s-72.5 -59.333 -120.5 -90c-11.333 -29.333 -21.833 -59.166 -31.5 -89.499s-18.167 -59.833 -25.5 -88.5c10 13.333 21.333 27 34 41s25.834 26.833 39.501 38.5s27.334 21.334 41.001 29.001s26.5 11.5 38.5 11.5
s22.667 -4.5 32 -13.5s14 -25.167 14 -48.5c0 -17.333 -1.83301 -35.166 -5.5 -53.499s-8.33398 -36.166 -14.001 -53.499s-12 -34 -19 -50s-13.833 -30 -20.5 -42c18.667 5.33301 34.5 12.5 47.5 21.5s24.667 19.333 35 31s19.666 24.834 27.999 39.501l26.5 48v-1
c1.33301 2.66699 2.83301 5.83398 4.5 9.50098s4.5 8.16699 8.5 13.5c3.33301 6 8 9 14 9c11.333 0 17 -5.33301 17 -16v-4c0 -1.33301 -0.666992 -2.66602 -2 -3.99902l-13 -22c-12.667 -22.667 -24.5 -42.834 -35.5 -60.501s-23.333 -33.167 -37 -46.5
s-29.667 -24.666 -48 -33.999s-41.5 -17 -69.5 -23c-8 -10 -17.667 -20.833 -29 -32.5s-23.5 -22.5 -36.5 -32.5s-26.5 -18.333 -40.5 -25s-28 -10 -42 -10c-13.333 0 -24.666 3 -33.999 9s-14 14 -14 24zM265 714.99c-26.667 -32 -49.998 -65.499 -69.998 -100.499
s-37.333 -70.167 -52 -105.5c70.667 50.667 121.667 98.167 153 142.5s47 79.166 47 104.499c0 4.66699 -0.333008 9.16699 -1 13.5s-1.66699 6.5 -3 6.5c-4.66699 0 -10.834 -2.83301 -18.501 -8.5s-15.334 -12 -23.001 -19s-14.667 -14 -21 -21s-10.5 -11.5 -12.5 -13.5z
M18.002 35.9912c-0.666992 0 -1.16797 0.166016 -1.50098 0.499023s-0.833008 0.5 -1.5 0.5c6 2 8.5 1.83301 7.5 -0.5s-2.66699 -4.66602 -5 -6.99902s-4.16602 -3.5 -5.49902 -3.5s0.666992 3.33301 6 10z" />
    <glyph glyph-name="c" unicode="c" horiz-adv-x="232" 
d="M241 287c-3.33301 -8.66699 -9.66504 -21.8379 -18.998 -39.5049s-20.833 -37.167 -34.5 -58.5s-28.667 -43.166 -45 -65.499s-33.166 -42.666 -50.499 -60.999s-34.333 -33.333 -51 -45s-31.667 -17.5 -45 -17.5c-23.333 2 -39.333 10.833 -48 26.5s-13 35.167 -13 58.5
c0 18.667 2.16699 38.334 6.5 59.001s9.5 40.834 15.5 60.501s12.333 37.834 19 54.501s12.334 30 17.001 40c7.33301 14.667 15 29.167 23 43.5s16.667 26.833 26 37.5s19.166 19.167 29.499 25.5s21.833 9.5 34.5 9.5c13.333 0 25.666 -5.16699 36.999 -15.5
s17 -24.833 17 -43.5c0 -5.33301 -1.16699 -12 -3.5 -20s-5.33301 -16 -9 -24s-7.66699 -14.833 -12 -20.5s-8.83301 -8.5 -13.5 -8.5c-5.33301 0 -9.33301 2.16699 -12 6.5s-4 8.5 -4 12.5c0 1.33301 0.166992 3 0.5 5s1.5 4.33301 3.5 7
c6 5.33301 10.667 11.666 14 18.999s5 14.666 5 21.999c0 4 -0.666992 7.5 -2 10.5s-2.66602 4.5 -3.99902 4.5c-9.33301 0 -20.833 -10 -34.5 -30s-26.667 -44.333 -39 -73s-22.833 -58.5 -31.5 -89.5s-13 -57.5 -13 -79.5c0 -11.333 1.33301 -20.666 4 -27.999
s7.66699 -11 15 -11c9.33301 0 20.166 5 32.499 15s25.166 22.833 38.499 38.5s26.5 33 39.5 52s25 37.333 36 55s20.667 33.834 29 48.501s14.166 25.667 17.499 33c2.66699 2 4.66699 3.16699 6 3.5s2.66602 0.5 3.99902 0.5c4.66699 0 8.33398 -1.5 11.001 -4.5
s4 -6.5 4 -10.5z" />
    <glyph glyph-name="d" unicode="d" horiz-adv-x="365" 
d="M139 72c0 9.33301 0.333984 20.3252 1.00098 32.9922s2.33398 26.667 5.00098 42c-10.667 -12 -22.5 -24.667 -35.5 -38s-26.667 -25.666 -41 -36.999s-28.5 -20.666 -42.5 -27.999s-27.333 -11 -40 -11c-19.333 0 -33 7.33301 -41 22s-12 32.334 -12 53.001
c0 15.333 2 31.833 6 49.5s9 35.167 15 52.5s12.833 34 20.5 50s15.167 29.667 22.5 41v-1c8.66699 12.667 18.5 25.5 29.5 38.5s22.667 24.667 35 35s25.333 18.666 39 24.999s27.5 9.5 41.5 9.5c19.333 0 38 -6.66699 56 -20c26 84 53.833 155 83.5 213s59 105 88 141
s56.333 62.167 82 78.5s47.167 24.5 64.5 24.5s30.666 -5.16699 39.999 -15.5s14 -24.166 14 -41.499c0 -16 -4.5 -34.667 -13.5 -56s-23.667 -44.833 -44 -70.5s-47.166 -53.167 -80.499 -82.5s-74 -59.333 -122 -90c-13.333 -36 -26.5 -75.5 -39.5 -118.5
s-25.167 -90.167 -36.5 -141.5c-2 -7.33301 -4.16699 -17.166 -6.5 -29.499l-7.5 -39.5c-2.66699 -14 -4.83398 -27.667 -6.50098 -41s-2.5 -24.666 -2.5 -33.999c0 -10 -0.333008 -15.333 -1 -16c3.33301 0.666992 9.83301 8.33398 19.5 23.001
s20.834 32.834 33.501 54.501l39 70l37 68.5v-1c1.33301 2.66699 2.66602 5.16699 3.99902 7.5s2.66602 4.83301 3.99902 7.5v-1c1.33301 3.33301 3.33301 5.83301 6 7.5s5 2.5 7 2.5c4.66699 0 8.83398 -1.83301 12.501 -5.5s5.5 -7.16699 5.5 -10.5
c0 -0.666992 -0.166992 -1.66699 -0.5 -3s-0.5 -2.33301 -0.5 -3l-53 -99c-18 -33.333 -35.833 -63.666 -53.5 -90.999s-34.834 -49.666 -51.501 -66.999s-32 -26 -46 -26c-9.33301 0 -17.333 4.66699 -24 14s-10 27.666 -10 54.999zM9.00098 100.992
c0 -15.333 1.33203 -22.999 3.99902 -22.999c7.33301 0 17.666 5.5 30.999 16.5s27.333 23.833 42 38.5s28.334 29.167 41.001 43.5l27 30.5l4 3c0.666992 8 2.16699 18.333 4.5 31s5 25.667 8 39s6.16699 26.5 9.5 39.5s6.33301 23.833 9 32.5
c-3.33301 1.33301 -7.33301 2.66602 -12 3.99902s-8.66699 2 -12 2c-20 0 -39.167 -10.333 -57.5 -31s-34.666 -45.167 -48.999 -73.5s-26 -56.833 -35 -85.5s-13.833 -51 -14.5 -67zM306 522.993l26 18c-4.66699 -9.33301 -9 -19 -13 -29zM529 800.993
c-11.333 0 -24.6641 -6.49805 -39.9971 -19.498s-31.833 -31 -49.5 -54s-35.834 -50.333 -54.501 -82s-36.334 -66.5 -53.001 -104.5c37.333 26 69 51.167 95 75.5s47.167 47.166 63.5 68.499s28.166 40.666 35.499 57.999s11 32 11 44c0 9.33301 -2.66699 14 -8 14z" />
    <glyph glyph-name="e" unicode="e" horiz-adv-x="256" 
d="M88 322c-3.33301 -4 -7.33398 -10.333 -12.001 -19l-11 14c15.333 5.33301 27.333 12.833 36 22.5s13.334 17.167 14.001 22.5c0 -2.66699 2 -4 6 -4c-2.66699 -1.33301 -6.5 -4.5 -11.5 -9.5s-12.167 -13.833 -21.5 -26.5zM153.999 371
c0 -10 -2.99707 -19.998 -8.99707 -29.998s-13.5 -19.333 -22.5 -28s-18.833 -15.834 -29.5 -21.501s-20.667 -9.16699 -30 -10.5c-6 -9.33301 -12.167 -21 -18.5 -35s-12.166 -29 -17.499 -45s-9.83301 -32.333 -13.5 -49s-5.5 -32.334 -5.5 -47.001
c0 -16.667 2.83301 -31 8.5 -43s15.167 -18 28.5 -18c11.333 0 23.666 4.5 36.999 13.5s26.5 21 39.5 36s25.667 31.667 38 50s23.666 37 33.999 56s19.333 37.167 27 54.5s13.5 32 17.5 44c2.66699 6.66699 7.66699 10 15 10c4 0 7.83301 -1.33301 11.5 -4
s5.5 -7.66699 5.5 -15c-4.66699 -14 -11.5 -30.667 -20.5 -50s-19.5 -39.833 -31.5 -61.5s-25.5 -43.167 -40.5 -64.5s-30.667 -40.333 -47 -57s-33.333 -30.334 -51 -41.001s-35.5 -16 -53.5 -16c-30 0 -51.5 11 -64.5 33s-19.5 48 -19.5 78c0 28 5 59.333 15 94
s23.167 67.334 39.5 98.001s34.666 56.5 54.999 77.5s41.166 31.5 62.499 31.5c13.333 0 23.333 -4.66699 30 -14s10 -18 10 -26z" />
    <glyph glyph-name="f" unicode="f" horiz-adv-x="177" 
d="M293 755c1.33301 -5.33301 2.49902 -10.333 3.49902 -15s1.5 -10 1.5 -16c0 -16.667 -3.5 -36.334 -10.5 -59.001s-18.5 -47.5 -34.5 -74.5s-37 -55.667 -63 -86s-57.667 -61.5 -95 -93.5c-6.66699 -23.333 -12.834 -48.166 -18.501 -74.499s-11 -53 -16 -80
s-9.66699 -53.667 -14 -80s-8.16602 -51.5 -11.499 -75.5c7.33301 5.33301 16 12.666 26 21.999s20.667 21.666 32 36.999s23 34.333 35 57s24 49.667 36 81c3.33301 6.66699 8 10 14 10c4.66699 0 8.83398 -1.5 12.501 -4.5s5.5 -6.5 5.5 -10.5
c0 -0.666992 -0.166992 -1.16699 -0.5 -1.5s-0.5 -0.833008 -0.5 -1.5c-14.667 -39.333 -30 -73 -46 -101s-31.167 -51.333 -45.5 -70s-27.5 -32.667 -39.5 -42s-21.667 -15.333 -29 -18l4 -10l11.5 -32.5c4.33301 -12.333 8.5 -25.5 12.5 -39.5s7.33301 -28.333 10 -43
s4 -28.334 4 -41.001c0 -23.333 -5.33301 -41.666 -16 -54.999s-25 -20 -43 -20c-21.333 0 -38.166 10.5 -50.499 31.5s-18.5 55.5 -18.5 103.5c0 36 2.33301 75.667 7 119s10.667 86.333 18 129s15.333 83.334 24 122.001s17 71.334 25 98.001
c17.333 64 36.333 119.167 57 165.5s41 84.333 61 114s39.167 51.667 57.5 66s34.166 21.5 47.499 21.5c22 0 37.667 -11 47 -33zM178.999 642c-11.333 -22.667 -22.668 -47.8301 -34.001 -75.4971s-22.666 -60.167 -33.999 -97.5c30 27.333 55 53.666 75 78.999
s35.833 49 47.5 71s20 42.167 25 60.5s7.5 34.5 7.5 48.5c0 12 -2 18 -6 18c-4.66699 0 -11 -4.33301 -19 -13s-16.167 -18.834 -24.5 -30.501s-16 -23.334 -23 -35.001s-11.833 -20.167 -14.5 -25.5zM27.9971 38.0039l-2 -20.999c-0.666992 -6.66699 -1 -13.334 -1 -20.001
l-15 39zM45.9971 -107.995c0 17.333 -2.16895 35 -6.50195 53s-9.16602 35.333 -14.499 52c-0.666992 -6 -1 -11.833 -1 -17.5v-16.5c0 -34.667 1.83301 -59.5 5.5 -74.5s7.83398 -22.5 12.501 -22.5c2.66699 0 4 8.66699 4 26z" />
    <glyph glyph-name="g" unicode="g" horiz-adv-x="380" 
d="M290 392l-17 -73.002c-5.33301 -22 -10.666 -42.833 -15.999 -62.5l-16 -57c-5.33301 -18.333 -11 -36.833 -17 -55.5c25.333 21.333 49.5 45 72.5 71s43.833 54.333 62.5 85v-2c2.66699 6.66699 7 10 13 10c4.66699 0 8.83398 -1.66699 12.501 -5s5.5 -7.33301 5.5 -12
c0 -0.666992 -0.166992 -1.66699 -0.5 -3s-0.5 -2.33301 -0.5 -3c-24 -40 -51.833 -76.667 -83.5 -110s-64.834 -62.666 -99.501 -87.999c-27.333 -80 -54.833 -147.333 -82.5 -202s-54.5 -98.834 -80.5 -132.501s-50.167 -58 -72.5 -73s-41.833 -22.5 -58.5 -22.5
c-19.333 0 -34.166 7.16699 -44.499 21.5s-15.5 32.833 -15.5 55.5c0 28 9.5 61.333 28.5 100s50.833 79.667 95.5 123c12.667 13.333 27.167 26 43.5 38l50.5 36l35 25l17 12l10 26c4 10.667 7.16699 18.834 9.5 24.501s4.5 11.5 6.5 17.5s4.33301 13.5 7 22.5
s6 21.5 10 37.5l-35.5 -28c-12.333 -9.33301 -24.833 -17.666 -37.5 -24.999s-25.334 -13.166 -38.001 -17.499s-24.334 -6.5 -35.001 -6.5c-21.333 0 -36.166 6.66699 -44.499 20s-12.5 28.666 -12.5 45.999c0 26 5 52.5 15 79.5s23.333 51.167 40 72.5
s35.667 38.833 57 52.5s43.666 20.5 66.999 20.5c13.333 0 25.5 -2 36.5 -6s22.167 -12.333 33.5 -25c4 11.333 10.333 19.333 19 24s21.667 7 39 7c14 0 21 -4.66699 21 -14v-4zM104 14.998l-1 -1l12 30l15 -10l-6 -4zM-60 -270.002c24.667 24 50.5 58.499 77.5 103.499
s55.5 105.167 85.5 180.5l-57 -39.5c-18 -13 -34 -26.5 -48 -40.5c-42 -40.667 -71.5 -78.5 -88.5 -113.5s-25.5 -64.5 -25.5 -88.5c0 -19.333 4.33301 -29 13 -29c5.33301 0 12 2.83301 20 8.5s15.667 11.834 23 18.501zM196 324.997
c0.666992 2.66699 1.33105 4.99805 1.99805 6.99805s1.33398 4.66699 2.00098 8c-15.333 18 -31 27 -47 27c-12 0 -25.5 -6.5 -40.5 -19.5s-29.333 -29.167 -43 -48.5s-25 -40 -34 -62s-13.5 -41.667 -13.5 -59c0 -13.333 3.66699 -20 11 -20
c8.66699 0 19.834 3.83301 33.501 11.5s27.667 16.834 42 27.501s27.833 21.334 40.5 32.001l30 25z" />
    <glyph glyph-name="h" unicode="h" horiz-adv-x="388" 
d="M106 415c-10.667 -29.333 -20.6719 -60.668 -30.0049 -94.001s-18.333 -70 -27 -110l27 45.5l28 44.5v-1c19.333 29.333 38.166 54 56.499 74s36.833 30 55.5 30c10 0 18.333 -2.33301 25 -7s12.167 -10.5 16.5 -17.5s7.33301 -15.167 9 -24.5s2.5 -18.333 2.5 -27
c0 -4.66699 -0.833008 -11.334 -2.5 -20.001s-3.66699 -18.5 -6 -29.5s-5.16602 -22.667 -8.49902 -35s-6.33301 -24.5 -9 -36.5c-6.66699 -23.333 -12.5 -46 -17.5 -68s-8.16699 -38 -9.5 -48c-0.666992 -3.33301 -1 -6.66602 -1 -9.99902c0 -10 0.333008 -15 1 -15
c4 0 10 4.5 18 13.5s17 20.833 27 35.5s20.167 30.834 30.5 48.501l30.5 52.5c10 17.333 18.833 33.5 26.5 48.5l18.5 35.5v-1c2.66699 6 7.66699 9 15 9c3.33301 0 6.83301 -1.33301 10.5 -4s5.5 -6.66699 5.5 -12c0 -0.666992 -0.166992 -1.5 -0.5 -2.5
s-0.5 -1.83301 -0.5 -2.5l-22.5 -44.5c-9 -18.333 -19.333 -37.666 -31 -57.999s-24.167 -40.833 -37.5 -61.5s-27 -39.5 -41 -56.5s-28.167 -30.667 -42.5 -41s-28.166 -15.5 -41.499 -15.5c-14 0 -23.833 5.5 -29.5 16.5s-8.5 25.5 -8.5 43.5
c0 13.333 1.16699 27.666 3.5 42.999s5.16602 31 8.49902 47s7 32 11 48s8 31 12 45v-1l13 48c5.33301 24.667 8 41.667 8 51v8c-8 -0.666992 -19.667 -10.834 -35 -30.501s-31.666 -44 -48.999 -73s-34.166 -59.833 -50.499 -92.5s-29.166 -62 -38.499 -88l-8 -54
c-1.33301 -4 -7.16602 -8.5 -17.499 -13.5s-20.166 -7.5 -29.499 -7.5c-8.66699 0 -15.667 1.83301 -21 5.5s-8 9.16699 -8 16.5v1l2 6l-1 -2c18.667 136.667 44 252.167 76 346.5s65.833 171 101.5 230s71.167 101.667 106.5 128s66 39.5 92 39.5
c17.333 0 31 -5.16699 41 -15.5s15 -24.5 15 -42.5c0 -15.333 -4.5 -33.5 -13.5 -54.5s-24 -44.333 -45 -70s-48.667 -53.167 -83 -82.5s-76.833 -59.666 -127.5 -90.999zM306.995 718.998c-13.333 -8 -27.668 -19.1719 -43.001 -33.5049s-31.166 -32.166 -47.499 -53.499
s-32.333 -46 -48 -74s-30.5 -59.667 -44.5 -95c40 26.667 74 52.334 102 77.001s50.5 47.834 67.5 69.501s29.333 41.334 37 59.001s11.5 32.834 11.5 45.501c0 10.667 -2.66699 16 -8 16c-8 0 -17 -3.66699 -27 -11z" />
    <glyph glyph-name="i" unicode="i" horiz-adv-x="178" 
d="M74 319c-5.33301 -18.667 -10.668 -39.0059 -16.001 -61.0059s-10.333 -43.667 -15 -65s-8.33398 -41.166 -11.001 -59.499s-4 -33.166 -4 -44.499c0 -12.667 0.333008 -19 1 -19c4.66699 0 11.167 5.16699 19.5 15.5s17.333 23.333 27 39s19.334 32.834 29.001 51.501
l27 53.5c8.33301 17 15.333 31.833 21 44.5s9.16699 20.667 10.5 24c2.66699 6.66699 7.33398 10 14.001 10c4.66699 0 8.83398 -1.33301 12.501 -4s5.5 -6.66699 5.5 -12c0 -4 -1 -7 -3 -9l-7 -14l-20 -41.5c-8 -17 -17.167 -35.167 -27.5 -54.5s-21.5 -39 -33.5 -59
s-24.167 -38.167 -36.5 -54.5s-24.666 -29.5 -36.999 -39.5s-23.833 -15 -34.5 -15c-12.667 0 -22.834 4.83301 -30.501 14.5s-11.5 24.5 -11.5 44.5c0 2.66699 0.666992 11.334 2 26.001s3.5 32.834 6.5 54.501s7 45.834 12 72.501s10.833 53.667 17.5 81l7 28
c1.33301 5.33301 6 10 14 14s16.333 6 25 6c9.33301 0 17.666 -2 24.999 -6s11 -10 11 -18v-3zM46.998 430.994c14 0 24.5 -4.49902 31.5 -13.499s10.5 -19.167 10.5 -30.5s-3.5 -21.5 -10.5 -30.5s-17.5 -13.5 -31.5 -13.5c-14.667 0 -25.667 4.5 -33 13.5
s-11 18.833 -11 29.5c0 11.333 3.66699 21.666 11 30.999s18.333 14 33 14z" />
    <glyph glyph-name="j" unicode="j" horiz-adv-x="185" 
d="M70 318c-2 -18 -3.99805 -33.999 -5.99805 -47.999l-6 -40c-2 -12.667 -4.33301 -25 -7 -37s-5.33398 -25.333 -8.00098 -40c24.667 23.333 47.834 47.333 69.501 72s40.167 49.667 55.5 75v-1c1.33301 2.66699 3.66602 4.66699 6.99902 6s6 2 8 2
c3.33301 0 6.83301 -1.33301 10.5 -4s5.5 -6.66699 5.5 -12c0 -1.33301 -0.166992 -2.83301 -0.5 -4.5s-1.5 -3.5 -3.5 -5.5l1 2c-21.333 -32.667 -46.166 -64.334 -74.499 -95.001s-58.5 -61 -90.5 -91c-18.667 -87.333 -39.334 -160.5 -62.001 -219.5
s-45.5 -106.167 -68.5 -141.5s-45.333 -60.5 -67 -75.5s-40.834 -22.5 -57.501 -22.5c-14 0 -25.5 3 -34.5 9s-16.167 13.833 -21.5 23.5s-9 20.167 -11 31.5s-3 22 -3 32c0 32 7.16699 62.833 21.5 92.5s32.333 57.667 54 84s45.167 50.833 70.5 73.5l70 61
c4.66699 3.33301 9.16699 7 13.5 11s8.5 7.66699 12.5 11c8.66699 42.667 16.334 82.667 23.001 120s12.667 74 18 110l6 27c1.33301 7.33301 5.83301 12.5 13.5 15.5s16.167 4.5 25.5 4.5s17.666 -2 24.999 -6s11 -10.333 11 -19v-1zM-63.998 12.001l-4 -2.00098
c2 4.66699 3.66699 9.83398 5 15.501l4 16.5l17 -9zM-221.998 -305c7.33301 4 16.166 10.833 26.499 20.5s21.833 25.834 34.5 48.501s26.834 53.5 42.501 92.5s32.5 90.167 50.5 153.5l-18 -18l-57.5 -52c-20.333 -18.667 -39 -38.834 -56 -60.501s-31 -44.5 -42 -68.5
s-16.5 -49.333 -16.5 -76c0 -11.333 1.16699 -21.833 3.5 -31.5s7.5 -14.5 15.5 -14.5c3.33301 0 9 2 17 6zM38.002 431c14 -0.666992 24.5 -5.33203 31.5 -13.999s10.5 -18.334 10.5 -29.001c0 -11.333 -3.66699 -21.666 -11 -30.999s-18 -14 -32 -14
s-24.5 4.66699 -31.5 14s-10.5 19 -10.5 29c0 11.333 3.66699 21.666 11 30.999s18 14 32 14z" />
    <glyph glyph-name="k" unicode="k" horiz-adv-x="321" 
d="M12 20c-3.33301 -6 -8.5 -10.502 -15.5 -13.502s-14.833 -4.5 -23.5 -4.5c-9.33301 0 -17.5 1.83301 -24.5 5.5s-10.5 9.16699 -10.5 16.5c4 27.333 8.5 55.166 13.5 83.499s10.333 55.666 16 81.999s11.334 51 17.001 74s10.834 42.5 15.501 58.5
c13.333 46 27.166 87.333 41.499 124s29.166 69.334 44.499 98.001s31 54 47 76s32.333 41.667 49 59l25 24c9.33301 8.66699 19.5 16.834 30.5 24.501s22.5 14 34.5 19s24 7.5 36 7.5c17.333 0 31.666 -5 42.999 -15s17 -25 17 -45c0 -15.333 -4.66699 -33.5 -14 -54.5
s-24.5 -44.167 -45.5 -69.5s-48.5 -52.666 -82.5 -81.999s-76 -59.666 -126 -90.999c-5.33301 -15.333 -10 -30 -14 -44l-13 -44c15.333 17.333 30.333 29 45 35s28.334 9 41.001 9c14 0 25.167 -3.33301 33.5 -10s12.5 -15.334 12.5 -26.001
c0 -14 -9.66699 -29.167 -29 -45.5s-53 -29.833 -101 -40.5c6.66699 -6.66699 12.334 -14.667 17.001 -24s8.5 -19.166 11.5 -29.499s5.33301 -20.833 7 -31.5l4.5 -30c2 -14.667 4.16699 -27 6.5 -37s5.5 -15 9.5 -15c8 0 19.5 8 34.5 24s31 35.833 48 59.5
s33.667 49.167 50 76.5s29.5 52.333 39.5 75v-1c2.66699 6.66699 7 10 13 10c4.66699 0 8.66699 -1.83301 12 -5.5s5 -8.83398 5 -15.501c-4.66699 -11.333 -11.667 -26 -21 -44s-20.5 -37.333 -33.5 -58s-27 -41.667 -42 -63s-30.333 -40.666 -46 -57.999
s-31 -31.333 -46 -42s-28.833 -16 -41.5 -16c-9.33301 0 -16.833 2.33301 -22.5 7s-10.667 10.667 -15 18s-8 16 -11 26s-5.83301 20.667 -8.5 32c-4.66699 20.667 -9.33398 38 -14.001 52c-3.33301 -18.667 -6.5 -37.667 -9.5 -57l-9.5 -61zM301 701.998
c-26.667 -17.333 -56.5 -46.667 -89.5 -88s-63.833 -97 -92.5 -167c40 26.667 73.833 52.167 101.5 76.5s50 47 67 68s29.333 40.167 37 57.5s11.5 32.333 11.5 45c0 12 -3.33301 18 -10 18c-6 0 -14.667 -3.66699 -26 -11zM50 253.997l27 8
c-6.66699 -8 -11.667 -15.667 -15 -23zM169 318.997c-11.333 0 -25.5 -4.33203 -42.5 -12.999s-33.5 -23.334 -49.5 -44.001c36.667 13.333 62.5 24.833 77.5 34.5s22.5 17.167 22.5 22.5h-8z" />
    <glyph glyph-name="l" unicode="l" horiz-adv-x="240" 
d="M231 654c-13.333 -20 -27.332 -43.5 -41.999 -70.5s-29.334 -57.5 -44.001 -91.5c61.333 46 106.333 90 135 132s43 76.667 43 104c0 4.66699 -0.333008 8.83398 -1 12.501s-1.66699 5.5 -3 5.5c-6 0 -13.333 -4 -22 -12s-17.5 -17.333 -26.5 -28
s-17.167 -20.834 -24.5 -30.501s-12.333 -16.5 -15 -20.5v-1zM357.001 734c0 -16.667 -4.33301 -36.165 -13 -58.498s-22.5 -46.5 -41.5 -72.5s-43.333 -53.333 -73 -82s-65.5 -57 -107.5 -85c-11.333 -28.667 -21.666 -58.334 -30.999 -89.001s-17.5 -60.334 -24.5 -89.001
s-12.333 -55.167 -16 -79.5s-5.5 -44.5 -5.5 -60.5c0 -21.333 1.16699 -36.5 3.5 -45.5s6.16602 -13.5 11.499 -13.5c9.33301 0 21.166 8.5 35.499 25.5s29.333 37.833 45 62.5s31 50.834 46 78.501l38.5 73.5c3.33301 5.33301 8 8 14 8c4 0 7.83301 -1.33301 11.5 -4
s5.5 -6.66699 5.5 -12c0 -4 -1 -7 -3 -9c-1.33301 -2 -5.5 -10.333 -12.5 -25s-16 -32.334 -27 -53.001s-23.833 -42.834 -38.5 -66.501s-30 -45.667 -46 -66s-32.167 -37.166 -48.5 -50.499s-32.166 -20 -47.499 -20c-12 0 -22.167 3.33301 -30.5 10
s-14.833 15.5 -19.5 26.5s-8 23.5 -10 37.5s-3 28.667 -3 44c0 17.333 1 35.333 3 54s4.16699 36.167 6.5 52.5s4.83301 31 7.5 44s5 22.5 7 28.5c7.33301 26.667 16.166 55.5 26.499 86.5s22 62.333 35 94s27.167 63 42.5 94s31.833 59.833 49.5 86.5s36 50.667 55 72
s38.5 38 58.5 50c16.667 10 32.334 15 47.001 15c16 0 28.167 -5.83301 36.5 -17.5s12.5 -26.5 12.5 -44.5z" />
    <glyph glyph-name="m" unicode="m" horiz-adv-x="513" 
d="M72 393c1.33301 -4.66699 2.33594 -9.33496 3.00293 -14.002s1 -10 1 -16c0 -15.333 -2 -31.333 -6 -48s-8.66699 -34 -14 -52c8.66699 14 18.334 28.667 29.001 44s21.667 29.333 33 42s22.5 23.167 33.5 31.5s21.167 12.5 30.5 12.5c6.66699 0 12.5 -2 17.5 -6
s9.16699 -9 12.5 -15s5.83301 -12.5 7.5 -19.5s2.5 -13.5 2.5 -19.5c0 -11.333 -2.33301 -25.333 -7 -42s-9.66699 -32.667 -15 -48c22 30.667 45 59.834 69 87.501s49.667 49.834 77 66.501c14 5.33301 24 8 30 8c15.333 0 26.166 -5.83301 32.499 -17.5
s9.5 -25.167 9.5 -40.5c0 -12.667 -1.66699 -25.667 -5 -39c-4 -14 -9 -29.333 -15 -46s-12.667 -33.667 -20 -51c-9.33301 -24.667 -18 -48.834 -26 -72.501s-12 -47.167 -12 -70.5v-2c5.33301 6 13.5 17 24.5 33l37 56.5l43.5 70.5l44 74v-1
c3.33301 5.33301 7.33301 8 12 8c11.333 0 17 -5.33301 17 -16v-4c0 -1.33301 -0.666992 -2.66602 -2 -3.99902c-21.333 -39.333 -42.666 -76.333 -63.999 -111s-41.666 -65 -60.999 -91s-36.833 -46.667 -52.5 -62s-27.834 -23 -36.501 -23
c-12 0 -20.167 6.16699 -24.5 18.5s-6.5 26.166 -6.5 41.499c0 13.333 1 26.5 3 39.5s4.66699 26.833 8 41.5s7.66602 30.5 12.999 47.5s11.666 35.833 18.999 56.5l15 46c10.667 32 16 53.333 16 64c0 0.666992 0.333008 1 1 1
c-4.66699 -0.666992 -11.334 -5.5 -20.001 -14.5s-18.834 -20.5 -30.501 -34.5l-37 -46.5l-38.5 -50.5l-31.5 -42c-10.333 -13.333 -20 -25 -29 -35s-16.833 -18 -23.5 -24s-12 -9 -16 -9c-14.667 2.66699 -22 12.334 -22 29.001c0 8 1.83301 17.667 5.5 29l12.5 37l9 28
c18 60 27 96.333 27 109v1c-4.66699 -2.66699 -10.834 -9 -18.501 -19s-16.667 -22.5 -27 -37.5l-34 -50.5l-37.5 -58c-14.667 -19.333 -27 -34.333 -37 -45s-18 -16 -24 -16c-7.33301 0.666992 -12.666 4 -15.999 10s-5 13.667 -5 23c0 8 1 17 3 27s4.5 20.667 7.5 32
s6.5 22.833 10.5 34.5l11 32.5l11 36l-1 -1l5 20c2.66699 8 5.16699 16.333 7.5 25s3.5 15.667 3.5 21c0 4.66699 -0.333008 8.33398 -1 11.001c0 1.33301 0.166992 2.5 0.5 3.5s0.5 2.16699 0.5 3.5c5.33301 7.33301 11.833 13.166 19.5 17.499s15.167 6.5 22.5 6.5
s13 -2.66699 17 -8z" />
    <glyph glyph-name="n" unicode="n" horiz-adv-x="363" 
d="M82 389c-0.666992 -23.333 -4.33398 -48.1709 -11.001 -74.5039s-14.667 -52.833 -24 -79.5c0 0.666992 0.333008 1.33398 1 2.00098l33.5 39l31.5 38l9 12l-1 -1c15.333 18.667 31.333 36 48 52s34.667 24 54 24c16 0 27.333 -6.33301 34 -19s10 -27 10 -43
c0 -19.333 -3.83301 -39.833 -11.5 -61.5l-21.5 -58.5l-12 -30l1 1l-21.5 -68.5c-7 -22.333 -11.5 -39.166 -13.5 -50.499c6.66699 6 15.834 16.833 27.501 32.5s24.667 34.167 39 55.5l44.5 69l44 72v-1c3.33301 5.33301 8 8 14 8c3.33301 0 6.66602 -1.5 9.99902 -4.5
s5 -6.5 5 -10.5v-4c0 -1.33301 -0.666992 -2.66602 -2 -3.99902c-22 -39.333 -44 -76.333 -66 -111s-42.833 -64.834 -62.5 -90.501s-37.5 -45.834 -53.5 -60.501s-28.333 -22 -37 -22c-11.333 0 -19.333 5.5 -24 16.5s-7 23.5 -7 37.5s1.33301 28.667 4 44
s6.5 32.166 11.5 50.499s11.333 38.833 19 61.5l26.5 78c4.66699 14 8.5 26.833 11.5 38.5s4.5 20.167 4.5 25.5c-4 -2 -10.167 -7.16699 -18.5 -15.5s-17.833 -18.833 -28.5 -31.5l-34.5 -42l-36.5 -46l-34 -42.5c-10.667 -13.667 -20.667 -25.667 -30 -36
s-17.5 -18.666 -24.5 -24.999s-12.5 -9.5 -16.5 -9.5c-7.33301 0 -12.5 3.83301 -15.5 11.5s-4.5 14.834 -4.5 21.501c0 13.333 2.5 29.5 7.5 48.5l16.5 61.5c6.66699 20.667 13 42.334 19 65.001s10.667 44.334 14 65.001c1.33301 8 6.33301 14.5 15 19.5
s18.334 7.5 29.001 7.5c9.33301 0 17.333 -2.66699 24 -8z" />
    <glyph glyph-name="o" unicode="o" horiz-adv-x="342" 
d="M119 318c0 15.333 2.66992 30 8.00293 44c-16.667 -11.333 -31 -27.166 -43 -47.499s-21.833 -42 -29.5 -65s-13.334 -45.833 -17.001 -68.5s-5.5 -42.334 -5.5 -59.001c0 -25.333 2.5 -44.833 7.5 -58.5s12.167 -20.5 21.5 -20.5c13.333 0 30.166 12.167 50.499 36.5
s40.166 60.833 59.499 109.5c-16.667 17.333 -29.5 37.333 -38.5 60s-13.5 45.667 -13.5 69zM122.003 410c4.66699 0 9.6709 -0.332031 15.0039 -0.999023s9.66602 -3.33398 12.999 -8.00098c5.33301 5.33301 11.166 9.5 17.499 12.5s13.166 4.5 20.499 4.5
c14.667 0 27 -6.5 37 -19.5s15 -33.5 15 -61.5c0 -12 -1 -24.167 -3 -36.5s-4.5 -24.5 -7.5 -36.5s-6.16699 -23.333 -9.5 -34l-9 -29c7.33301 -5.33301 13.5 -8.83301 18.5 -10.5s9.83301 -2.5 14.5 -2.5c10 0 19.167 3.5 27.5 10.5s15.666 16 21.999 27
s11.833 22.833 16.5 35.5s8.66699 25 12 37c1.33301 3.33301 3.66602 5.83301 6.99902 7.5s6 2.5 8 2.5c12.667 0 19 -5.66699 19 -17c0 -4 -1 -7 -3 -9c-5.33301 -14.667 -11.333 -29.5 -18 -44.5s-14.5 -28.667 -23.5 -41s-19 -22.5 -30 -30.5s-23.5 -12 -37.5 -12
c-6 0 -13.333 1.33301 -22 4s-16.667 6 -24 10c-21.333 -50.667 -45.666 -91.5 -72.999 -122.5s-56.333 -46.5 -87 -46.5c-22 0 -40.667 9.66699 -56 29s-23 50.333 -23 93c0 21.333 2.66699 48.333 8 81s14.333 64.5 27 95.5s29.5 57.5 50.5 79.5s46.833 33 77.5 33z
M179.007 211.001c0.666992 2.66699 1.33301 5.16797 2 7.50098s1.66699 5.16602 3 8.49902c2 -2.66699 3.66699 -5 5 -7s3 -3.66699 5 -5zM155.006 318.002c0 -16.667 2.49902 -33.168 7.49902 -49.501s12.167 -30.166 21.5 -41.499c5.33301 15.333 10.5 32.833 15.5 52.5
s7.5 38.5 7.5 56.5c0 16.667 -2.16699 28.667 -6.5 36s-8.5 11 -12.5 11c-9.33301 0 -17.166 -6.5 -23.499 -19.5s-9.5 -28.167 -9.5 -45.5z" />
    <glyph glyph-name="p" unicode="p" horiz-adv-x="383" 
d="M67 319c13.333 15.333 28.9951 29 46.9951 41s36 18 54 18c14 0 26 -2.83301 36 -8.5s18.167 -13 24.5 -22s10.833 -19.167 13.5 -30.5s4 -22.666 4 -33.999c0 -14.667 -1.66699 -30 -5 -46s-7.5 -31.833 -12.5 -47.5s-10.333 -30.167 -16 -43.5s-10.834 -25 -15.501 -35
c12.667 2 25.834 7 39.501 15s27.334 19.5 41.001 34.5s27.167 34 40.5 57s26.333 50.5 39 82.5c3.33301 5.33301 8.33301 8 15 8c5.33301 0 9.33301 -1.16699 12 -3.5s4 -7.16602 4 -14.499c-15.333 -39.333 -31.5 -72.5 -48.5 -99.5s-34.167 -48.833 -51.5 -65.5
s-34.833 -28.667 -52.5 -36s-34.834 -11 -51.501 -11c-2 0 -3.16699 -0.166992 -3.5 -0.5s-1.5 -0.166016 -3.5 0.500977c-21.333 -28 -44.166 -48.333 -68.499 -61s-45.5 -19 -63.5 -19c-12 0 -23 3.33301 -33 10c-6 -26 -13.167 -54 -21.5 -84s-18 -59.667 -29 -89
s-23.5 -57.666 -37.5 -84.999s-30 -51.333 -48 -72s-37.833 -37.167 -59.5 -49.5s-45.834 -18.5 -72.501 -18.5c-22 0 -40.5 3.16699 -55.5 9.5s-27.167 14.833 -36.5 25.5s-16.166 23.167 -20.499 37.5s-6.5 29.166 -6.5 44.499c0 7.33301 0.5 14.666 1.5 21.999
s2.16699 15 3.5 23l-13 -3l-75.5 -16.5c-25 -5.66699 -48 -13 -69 -22s-39.333 -20 -55 -33s-26.5 -29.5 -32.5 -49.5c-2 -8 -7.33301 -12 -16 -12c-7.33301 0 -12.666 4.66699 -15.999 14c0.666992 30 8.33398 54.333 23.001 73s33.667 33.5 57 44.5s49.5 19.333 78.5 25
s58.5 10.834 88.5 15.501l41 7c6.66699 20 15.167 39 25.5 57s22 33.667 35 47s26.833 23.833 41.5 31.5s29.667 11.5 45 11.5c19.333 0 34 -6 44 -18s15 -25.667 15 -41c0 -18.667 -5.33301 -34.834 -16 -48.501s-24.5 -25.334 -41.5 -35.001
s-36.167 -17.834 -57.5 -24.501s-42.333 -12 -63 -16c-1.33301 -6 -2.33301 -12.667 -3 -20s-1 -13.666 -1 -18.999c0 -22.667 4.5 -41.5 13.5 -56.5s24.167 -22.5 45.5 -22.5c15.333 0 29.333 3.33301 42 10s25 16.667 37 30l-1 -1c33.333 40.667 61 88.5 83 143.5
s40.167 111.667 54.5 170s25.5 115.666 33.5 171.999l21 149.5l5 43c0.666992 4.66699 2.83398 9 6.50098 13s8.33398 7.5 14.001 10.5s11.5 5.33301 17.5 7s11.333 2.5 16 2.5c14.667 0 23 -6.66699 25 -20zM116.995 108l3 4h6zM25.9951 80
c12 8.66699 26.667 15.834 44 21.501s34 9.16699 50 10.5c14.667 27.333 27.167 56 37.5 86s15.5 57 15.5 81c0 16.667 -2.5 28.667 -7.5 36s-11.5 11 -19.5 11c-7.33301 0 -15.5 -2.33301 -24.5 -7s-17.833 -11.334 -26.5 -20.001s-17 -19 -25 -31s-14.333 -25 -19 -39l1 1
l-6 -37.5l-6 -38.5zM-200.005 -116c2 3.33301 3.83203 7.33301 5.49902 12s2.5 9.33398 2.5 14.001c0 5.33301 -1.66699 10.166 -5 14.499s-9 6.5 -17 6.5c-11.333 0 -22 -2.83301 -32 -8.5s-19.333 -13.5 -28 -23.5s-16.667 -21.5 -24 -34.5s-13.666 -26.833 -18.999 -41.5
c26.667 6 50.167 13.333 70.5 22s35.833 21.667 46.5 39zM82.9941 66c2.66699 2 4.33301 3.16699 5 3.5l1 0.5l0.5 1c0.333008 0.666992 1.5 2.66699 3.5 6c-20 -5.33301 -35.833 -12 -47.5 -20s-17.5 -14.667 -17.5 -20c0 -0.666992 2 -1 6 -1
c5.33301 0 12.5 3.16699 21.5 9.5l21.5 15.5l5 4z" />
    <glyph glyph-name="q" unicode="q" horiz-adv-x="357" 
d="M281 387l-38.9971 -90.9951c-10.667 -25.333 -19.667 -47.5 -27 -66.5l-19 -50l-15 -40.5c14 2.66699 27.167 6.66699 39.5 12s24.5 13.833 36.5 25.5s24.5 27.167 37.5 46.5s27.167 44.666 42.5 75.999c2.66699 6 8 9 16 9c10 0 15 -7 15 -21
c-19.333 -38.667 -37 -69.334 -53 -92.001s-31.833 -40.334 -47.5 -53.001s-31.334 -21.334 -47.001 -26.001s-32.834 -8.33398 -51.501 -11.001c-1.33301 -2.66699 -2 -4.33398 -2 -5.00098l-2 -12c10 -34 17.167 -66.5 21.5 -97.5s6.5 -60.5 6.5 -88.5
c0 -29.333 -2.33301 -56.5 -7 -81.5s-11 -46.5 -19 -64.5s-17.667 -32 -29 -42s-24 -15 -38 -15c-12.667 0 -23 4.16699 -31 12.5s-14.5 19 -19.5 32s-8.5 27.333 -10.5 43s-3 30.834 -3 45.501c0 58.667 6.5 111.667 19.5 159s27.167 92 42.5 134
c-15.333 -11.333 -30.5 -20.5 -45.5 -27.5s-31.5 -10.5 -49.5 -10.5c-21.333 0 -36.5 6.16699 -45.5 18.5s-13.5 28.5 -13.5 48.5c0 19.333 4.16699 41.166 12.5 65.499s19.333 47.833 33 70.5s28.667 42.834 45 60.501s32.5 29.5 48.5 35.5c14.667 6 29 9 43 9
c13.333 0 25.666 -2 36.999 -6s22 -9.66699 32 -17c4 10.667 9.83301 19.5 17.5 26.5s22.167 10.5 43.5 10.5c7.33301 0 13.5 -1.33301 18.5 -4s7.5 -6.66699 7.5 -12v-2zM119.003 182.005c0 1.33301 0.333008 2.33301 1 3l1 1zM33.0029 132.005
c10 0 22.6709 5.00098 38.0039 15.001s31.666 22.667 48.999 38c7.33301 20 14 37.333 20 52l15.5 39c4.33301 11.333 8.33301 21.166 12 29.499l10.5 23.5c0 2 0.5 3.66699 1.5 5s2.16699 3 3.5 5c-8.66699 6 -17.667 9 -27 9c-16.667 0 -33.334 -6.5 -50.001 -19.5
s-31.834 -28.833 -45.501 -47.5s-24.834 -38.667 -33.501 -60s-13 -40.333 -13 -57c0 -8.66699 1.5 -16.167 4.5 -22.5s7.83301 -9.5 14.5 -9.5zM156.007 62.0059l-11.002 -34c-1.33301 5.33301 -2.66602 11 -3.99902 17s-2.66602 11.667 -3.99902 17h19zM161.005 -99.9941
c0 40.667 -5.33301 83.333 -16 128c-10.667 -37.333 -18.667 -72.5 -24 -105.5s-8 -68.833 -8 -107.5c0 -20 0.5 -36.833 1.5 -50.5s3.16699 -20.5 6.5 -20.5c4 0 8.33301 4.16699 13 12.5s9 19.5 13 33.5s7.33301 30.5 10 49.5s4 39.167 4 60.5z" />
    <glyph glyph-name="r" unicode="r" horiz-adv-x="238" 
d="M222 299c3.33301 5.33301 7.99707 8.00098 13.9971 8.00098c3.33301 0 6.83301 -1.5 10.5 -4.5s5.5 -8.16699 5.5 -15.5c-2.66699 -6.66699 -7.66699 -18.334 -15 -35.001s-16.5 -35.667 -27.5 -57s-23.167 -43.666 -36.5 -66.999s-27.333 -44.5 -42 -63.5
s-29.667 -34.833 -45 -47.5s-30 -19 -44 -19c-13.333 0 -24.166 6 -32.499 18s-12.5 28.333 -12.5 49c0 24 3.66699 50.833 11 80.5l21 82.5l10 33c-22 8 -39.167 19.667 -51.5 35s-18.5 32.333 -18.5 51c0 16.667 4.33301 31.5 13 44.5s18.334 19.5 29.001 19.5
c10 0 18.167 -5.66699 24.5 -17s9.5 -24 9.5 -38c0 -5.33301 -0.333008 -11.166 -1 -17.499s-2 -12.833 -4 -19.5l13 -2c8 -1.33301 16 -3 24 -5s15.333 -4.5 22 -7.5s12.167 -6.83301 16.5 -11.5s6.5 -10.334 6.5 -17.001c0 -1.33301 -0.333008 -3.33301 -1 -6
s-1.66699 -5.66699 -3 -9c0 -1.33301 -2.83301 -10.333 -8.5 -27s-11.667 -36.334 -18 -59.001s-12.166 -45.5 -17.499 -68.5s-8 -41.167 -8 -54.5c0 -5.33301 -1 -8 -3 -8c1.33301 0 1.83301 0.166992 1.5 0.5s0.5 1.16602 2.5 2.49902c10 8.66699 20.5 20.167 31.5 34.5
s21.833 29.833 32.5 46.5s21 33.834 31 51.501l27.5 50c8.33301 15.667 15.333 29.667 21 42s9.5 21.5 11.5 27.5zM13.9971 361.001c0.666992 0 1.66699 0.333008 3 1c-1.33301 -1.33301 -2.5 -3.33301 -3.5 -6s-1.5 -5.66699 -1.5 -9c0 -7.33301 2.66699 -13.333 8 -18
l-14 -3c3.33301 8 5 16.333 5 25c0 6.66699 1 10 3 10z" />
    <glyph glyph-name="s" unicode="s" horiz-adv-x="268" 
d="M93 234c5.33301 -9.33301 9.49609 -16.9941 12.4961 -22.9941s5.83301 -12.667 8.5 -20c14.667 4 28 8.66699 40 14s23.333 12.166 34 20.499s21 18.5 31 30.5s20.667 26.667 32 44v-1c3.33301 5.33301 7.66602 8 12.999 8c4.66699 0 8.66699 -1.33301 12 -4
s5 -6.66699 5 -12c0 -4 -1 -7.33301 -3 -10l1 2c-10.667 -16.667 -20.834 -31.334 -30.501 -44.001s-20.167 -23.834 -31.5 -33.501s-24.5 -18.334 -39.5 -26.001s-33.167 -14.5 -54.5 -20.5c0.666992 -4 1.16699 -8.83301 1.5 -14.5s0.5 -10.834 0.5 -15.501
c0 -19.333 -2.83301 -38.166 -8.5 -56.499s-14 -34.666 -25 -48.999s-24.5 -25.833 -40.5 -34.5s-34.333 -13 -55 -13c-23.333 0 -43 7 -59 21s-24 31.333 -24 52c0 9.33301 2.16699 19.166 6.5 29.499s11.5 20.666 21.5 30.999s22.833 20.5 38.5 30.5s34.834 19 57.501 27
c3.33301 1.33301 5.33301 2 6 2s2.66699 0.666992 6 2c-4 11.333 -9.16699 23.333 -15.5 36s-12.166 23.667 -17.499 33c-9.33301 17.333 -17.5 34.666 -24.5 51.999s-10.5 34.666 -10.5 51.999c0 16 2.66699 29.5 8 40.5s12.333 20 21 27s18.334 12.167 29.001 15.5
s21.334 5 32.001 5c23.333 0 40.666 -6.66699 51.999 -20s17 -29.333 17 -48c0 -3.33301 -0.5 -8 -1.5 -14s-2.66699 -12.167 -5 -18.5s-5.16602 -11.833 -8.49902 -16.5s-7 -7 -11 -7c-3.33301 0 -7.16602 1.83301 -11.499 5.5s-6.5 7.83398 -6.5 12.501
c0 1.33301 0.5 3 1.5 5s2.16699 3.66699 3.5 5c5.33301 9.33301 8 19 8 29c0 9.33301 -2.66699 17.5 -8 24.5s-13.666 10.5 -24.999 10.5c-10 0 -17 -3.66699 -21 -11s-6 -15.333 -6 -24c0 -11.333 1.83301 -23.5 5.5 -36.5s8 -25.667 13 -38s9.83301 -23.5 14.5 -33.5z
M66.9961 142.006l-11 -4c0 2 -0.166992 4 -0.5 6s-0.5 4 -0.5 6zM56.9961 132.006c0 2 -0.333984 3.99805 -1.00098 5.99805c-40.667 -12.667 -69 -27.667 -85 -45s-24 -32.666 -24 -45.999c0 -9.33301 3.16699 -17.166 9.5 -23.499s14.166 -9.5 23.499 -9.5
c12.667 0 23.834 3.83301 33.501 11.5s17.834 17.5 24.501 29.5s11.5 24.833 14.5 38.5s4.5 26.5 4.5 38.5z" />
    <glyph glyph-name="t" unicode="t" horiz-adv-x="247" 
d="M129 491c11.333 1.33301 21.8369 4.16309 31.5039 8.49609s20.167 11.166 31.5 20.499c6.66699 0 11.834 -3 15.501 -9s5.5 -12.667 5.5 -20c0 -2.66699 -1 -5 -3 -7c-11.333 -11.333 -24 -19.166 -38 -23.499s-27.667 -6.5 -41 -6.5
c-3.33301 0 -5.83301 -0.166992 -7.5 -0.5s-4.16699 -0.166016 -7.5 0.500977l-13 -43l-17 -58l-18 -67c-6 -23.333 -11.333 -46.333 -16 -69s-8.5 -44 -11.5 -64s-4.5 -37.333 -4.5 -52c0 -10.667 0.833008 -19.167 2.5 -25.5s4.16699 -9.5 7.5 -9.5
c6 0 15.167 6.16699 27.5 18.5s26.666 29 42.999 50s34.333 45.667 54 74l60.5 91.5l-1 -1c3.33301 5.33301 8 8 14 8c4.66699 0 8.66699 -1.33301 12 -4s5 -6.66699 5 -12c0 -3.33301 -1.66699 -6.66602 -5 -9.99902l1 2l-33 -51l-35.5 -52.5l-33.5 -48l-26 -36.5
c-7.33301 -9.33301 -15.833 -19 -25.5 -29s-20 -19.167 -31 -27.5s-22.167 -15.166 -33.5 -20.499s-21.666 -8 -30.999 -8c-14.667 0 -26.5 6 -35.5 18s-13.5 32.333 -13.5 61c0 32 2.66699 63 8 93s11.666 59 18.999 87l6 28c7.33301 30 14.833 58.5 22.5 85.5
s16.5 55.5 26.5 85.5c-3.33301 0.666992 -6.83301 1.16699 -10.5 1.5s-7.16699 0.5 -10.5 0.5c-12.667 0 -25.167 -2.66699 -37.5 -8s-22.833 -15 -31.5 -29c-3.33301 -1.33301 -5.5 -2.16602 -6.5 -2.49902s-2.16699 -0.5 -3.5 -0.5c-8.66699 0 -14 6.66699 -16 20
c11.333 19.333 25 32.5 41 39.5s32.667 10.5 50 10.5c5.33301 0 11.166 -0.166992 17.499 -0.5s12.166 -0.833008 17.499 -1.5l7.5 20c3 8 7.5 18.667 13.5 32c4 6 11.667 11 23 15s21.666 6 30.999 6c7.33301 0 13.166 -0.833008 17.499 -2.5s6.5 -6.5 6.5 -14.5z" />
    <glyph glyph-name="u" unicode="u" horiz-adv-x="360" 
d="M212 395c3.33301 4 10.0049 7.33105 20.0049 9.99805s19.333 4 28 4c7.33301 0 13.333 -1.16699 18 -3.5s7 -7.16602 7 -14.499c-11.333 -31.333 -22.5 -64.5 -33.5 -99.5l-30.5 -101c-9.33301 -32.333 -16.833 -61.5 -22.5 -87.5s-8.5 -45 -8.5 -57l-1 -2
c4.66699 4 12 13.667 22 29s21.833 34.5 35.5 57.5l44.5 78.5l49 91v-2c2.66699 6.66699 7.33398 10 14.001 10c10.667 0 16 -5.33301 16 -16v-4c0 -1.33301 -0.666992 -2.66602 -2 -3.99902c-53.333 -99.333 -97.5 -174.833 -132.5 -226.5s-61.833 -77.5 -80.5 -77.5
c-11.333 0 -20.333 5.16699 -27 15.5s-10 23.5 -10 39.5c0 34.667 8.33301 80.334 25 137.001c-10.667 -18 -21.5 -34.833 -32.5 -50.5s-22.167 -29.5 -33.5 -41.5s-22.833 -21.333 -34.5 -28s-22.834 -10 -33.501 -10c-18.667 0 -31.834 7 -39.501 21
s-11.5 31.667 -11.5 53c0 25.333 3.33301 52.5 10 81.5s13 54.167 19 75.5l7 24c0 1.33301 0.333008 2.66602 1 3.99902c0 0.666992 0.333008 1.66699 1 3c3.33301 13.333 7.33301 27.833 12 43.5s9.66699 31.5 15 47.5c2 4 6.83301 7.33301 14.5 10s15.167 4 22.5 4
c8.66699 0 16.667 -1.66699 24 -5s11 -8.66602 11 -15.999c-5.33301 -14 -10.333 -29.167 -15 -45.5s-9 -32.5 -13 -48.5v2c-1.33301 -4 -2 -6.66699 -2 -8c-2.66699 -8 -5.83398 -18.833 -9.50098 -32.5s-7.33398 -28.334 -11.001 -44.001s-6.83398 -31 -9.50098 -46
s-4 -28.167 -4 -39.5c0 -15.333 2 -23 6 -23c7.33301 0 15.5 4.66699 24.5 14s18.667 21.5 29 36.5s20.666 32 30.999 51s20.333 38.5 30 58.5l27.5 58l22 49l10 22z" />
    <glyph glyph-name="v" unicode="v" horiz-adv-x="341" 
d="M348 281l-29.502 -41.502c-10.333 -14.333 -21 -27.5 -32 -39.5s-22.333 -21.833 -34 -29.5s-23.5 -11.5 -35.5 -11.5c-16 0 -32.333 9.33301 -49 28c-17.333 -26 -34.666 -50.5 -51.999 -73.5s-34.166 -42.833 -50.499 -59.5s-31.833 -29.834 -46.5 -39.501
s-28 -14.5 -40 -14.5c-12.667 2 -22 8.33301 -28 19s-9 27.334 -9 50.001c0 22 2.66699 47 8 75s11.833 55.5 19.5 82.5s16 52.333 25 76s17.167 42.5 24.5 56.5c4 4 12.167 8 24.5 12s22.5 6 30.5 6c14 0 21 -6.33301 21 -19c-5.33301 -10 -12.833 -27.167 -22.5 -51.5
s-19 -50.666 -28 -78.999s-16.833 -56.5 -23.5 -84.5s-10 -50.333 -10 -67c0 -12.667 1.33301 -19 4 -19c7.33301 0 16.5 5 27.5 15s22.667 22.667 35 38s24.833 32.333 37.5 51l36 54c-4.66699 10.667 -8 21.5 -10 32.5s-3 22.167 -3 33.5c0 12 1.33301 25.5 4 40.5
s7 29.167 13 42.5s13.667 24.5 23 33.5s20.666 13.5 33.999 13.5s22.833 -3.66699 28.5 -11s8.5 -17.333 8.5 -30c0 -10 -1.5 -20.667 -4.5 -32s-6.33301 -22.166 -10 -32.499s-7.33398 -19.333 -11.001 -27l-7.5 -15.5l-9 -14l1 1l-20 -34c10 -15.333 20.333 -23 31 -23
c8.66699 0 17.5 3.5 26.5 10.5s18 15.833 27 26.5s17.833 22.334 26.5 35.001l25 36c0.666992 1.33301 1.83398 2.16602 3.50098 2.49902s2.83398 0.5 3.50098 0.5s1.16699 0.166992 1.5 0.5s0.833008 0.5 1.5 0.5c4 0 7.66699 -1.33301 11 -4s5 -6.66699 5 -12v-2z
M161.998 235.998l12 19c0.666992 -7.33301 2.66699 -14.333 6 -21zM170.998 280.998c0 -8.66699 0.998047 -17.3311 2.99805 -25.998l11 22v-1c2 3.33301 4.66699 8.66602 8 15.999s6.83301 15.5 10.5 24.5s6.83398 18 9.50098 27s4 17.167 4 24.5
c0 5.33301 -1.66699 8.66602 -5 9.99902c-8 0 -14.5 -3.66699 -19.5 -11s-9.16699 -16 -12.5 -26s-5.66602 -20.5 -6.99902 -31.5s-2 -20.5 -2 -28.5z" />
    <glyph glyph-name="w" unicode="w" 
d="M505 281l-29.499 -41.499c-10.333 -14.333 -21 -27.5 -32 -39.5s-22.333 -21.833 -34 -29.5s-23.5 -11.5 -35.5 -11.5c-16 0 -32.333 9.33301 -49 28c-17.333 -26 -34.666 -50.5 -51.999 -73.5s-34.166 -42.833 -50.499 -59.5s-31.833 -29.834 -46.5 -39.501
s-28 -14.5 -40 -14.5c-13.333 2 -23 9.33301 -29 22s-9 28.667 -9 48c0 3.33301 -0.333008 4.66602 -1 3.99902c0 2.66699 0.333008 5 1 7c-22 -26 -42.833 -46 -62.5 -60s-36.834 -21 -51.501 -21c-13.333 2 -23 9.5 -29 22.5s-9 29.5 -9 49.5c0 26.667 4 58 12 94
s17.5 70.833 28.5 104.5s22.167 63.5 33.5 89.5s20.666 42 27.999 48c2 2 5.16699 4 9.5 6s9.33301 3.83301 15 5.5s11.5 3 17.5 4s11.333 1.5 16 1.5c14.667 0 22 -6.33301 22 -19c-8.66699 -14.667 -19.167 -36.834 -31.5 -66.501s-24.333 -61.167 -36 -94.5
s-21.5 -65.5 -29.5 -96.5s-12 -55.5 -12 -73.5c0 -11.333 1 -17 3 -17c4 0 9.33301 2.33301 16 7s13.667 10.834 21 18.501s15 16.5 23 26.5l23 30c3.33301 16.667 7.83301 33.834 13.5 51.501s11.334 34.167 17.001 49.5s11 28.666 16 39.999s8.83301 19.333 11.5 24
c3.33301 3.33301 10.833 6.83301 22.5 10.5s21.5 5.5 29.5 5.5c6 0 11 -1.5 15 -4.5s6 -7.83301 6 -14.5c-5.33301 -10 -11.833 -24.833 -19.5 -44.5s-15 -40.5 -22 -62.5s-13 -43.833 -18 -65.5s-7.5 -39.5 -7.5 -53.5c0 -12 1.66699 -18 5 -18c7.33301 0 16.333 5 27 15
s22.167 22.667 34.5 38s24.666 32.333 36.999 51l35.5 54c-4 10 -7 20.667 -9 32s-3 22.333 -3 33c0 12 1.33301 25.5 4 40.5s7 29.167 13 42.5s13.667 24.5 23 33.5s20.666 13.5 33.999 13.5c12.667 0 21.834 -3.66699 27.501 -11s8.5 -17.333 8.5 -30
c0 -10 -1.5 -20.667 -4.5 -32s-6.33301 -22.166 -10 -32.499s-7.33398 -19.333 -11.001 -27l-7.5 -15.5l-9 -14l1 1l-19 -34c9.33301 -15.333 19.333 -23 30 -23c8.66699 0 17.5 3.5 26.5 10.5s18 15.833 27 26.5s17.833 22.334 26.5 35.001l25 36
c0.666992 1.33301 1.83398 2.16602 3.50098 2.49902s3.16699 0.5 4.5 0.5c0.666992 0 1.16699 0.166992 1.5 0.5s0.833008 0.5 1.5 0.5c3.33301 0 6.66602 -1.33301 9.99902 -4s5 -6.66699 5 -12v-2zM320.001 236.001l11 19c0.666992 -7.33301 2.66699 -14.333 6 -21z
M328.001 281.001c0 -8.66699 0.998047 -17.3311 2.99805 -25.998l12 22v-1c1.33301 3.33301 3.66602 8.66602 6.99902 15.999s6.83301 15.5 10.5 24.5s6.83398 18 9.50098 27s4 17.167 4 24.5c0 5.33301 -1.33301 8.66602 -4 9.99902c-8 0 -14.667 -3.66699 -20 -11
s-9.66602 -16 -12.999 -26s-5.66602 -20.5 -6.99902 -31.5s-2 -20.5 -2 -28.5z" />
    <glyph glyph-name="x" unicode="x" horiz-adv-x="391" 
d="M-51 36c12 0.666992 23.166 4.49609 33.499 11.4961s19.833 15.333 28.5 25s16.667 20.167 24 31.5s13.666 21.666 18.999 30.999l-15.5 39c-5 12.667 -9.16699 23.667 -12.5 33l-33 89l-32 89c0 8 2.16699 13.667 6.5 17s10.166 5 17.499 5
c22.667 0 39.834 -10.167 51.501 -30.5s22.834 -46.833 33.501 -79.5l12 -35.5c3.33301 -10.333 8.66602 -24.833 15.999 -43.5c2.66699 4.66699 5 9.33398 7 14.001s4.33301 9.33398 7 14.001l30 59.5c10 19 21 35.667 33 50s25.167 25.833 39.5 34.5s31.166 13 50.499 13
c1.33301 0 4.66602 -0.166992 9.99902 -0.5s10.833 -1.16602 16.5 -2.49902s10.667 -3.16602 15 -5.49902s6.5 -5.5 6.5 -9.5s-1.83301 -8.16699 -5.5 -12.5s-9.16699 -6.5 -16.5 -6.5c-3.33301 0.666992 -6.16602 1.16699 -8.49902 1.5s-4.16602 0.5 -5.49902 0.5
c-14.667 0 -27.667 -3.66699 -39 -11s-22 -17.333 -32 -30s-19.333 -27.5 -28 -44.5l-27 -53.5l-15 -32l-15 -32c6 -13.333 12.833 -26.166 20.5 -38.499s15.667 -23.333 24 -33s16.666 -17.334 24.999 -23.001s16.5 -8.5 24.5 -8.5s17.833 6.66699 29.5 20
s23.667 30.166 36 50.499s24.833 42.333 37.5 66l35 66.5v-1l17 35c3.33301 5.33301 8 8 14 8c4 0 7.83301 -1.5 11.5 -4.5s5.5 -6.5 5.5 -10.5v-4c0 -1.33301 -0.666992 -2.66602 -2 -3.99902l-48 -94c-17.333 -33.333 -35.166 -64 -53.499 -92
s-36.666 -51.167 -54.999 -69.5s-36.166 -27.5 -53.499 -27.5c-11.333 0 -22.5 3 -33.5 9s-21.5 13.667 -31.5 23s-19.167 19.5 -27.5 30.5s-15.5 21.167 -21.5 30.5c-6 -9.33301 -13.333 -19.333 -22 -30s-18 -20.667 -28 -30s-20.667 -17.166 -32 -23.499
s-22.333 -9.5 -33 -9.5c-4 0 -9.5 0.666992 -16.5 2s-10.5 6.33301 -10.5 15c0 8 4.33301 14 13 18h3z" />
    <glyph glyph-name="y" unicode="y" horiz-adv-x="395" 
d="M292 388c-6 -27.333 -11.666 -52.002 -16.999 -74.002l-15.5 -62.5c-5 -19.667 -10.167 -38.834 -15.5 -57.501s-11.333 -38 -18 -58c28.667 23.333 56 48.333 82 75s48 56.334 66 89.001v-2c2 6.66699 6.66699 10 14 10c3.33301 0 6.83301 -1.5 10.5 -4.5
s5.5 -7.16699 5.5 -12.5c0 -0.666992 -0.166992 -1.66699 -0.5 -3s-0.5 -2.33301 -0.5 -3c-23.333 -42 -52.5 -79.5 -87.5 -112.5s-71.5 -63.167 -109.5 -90.5c-25.333 -74 -50.666 -136.667 -75.999 -188s-50.333 -93 -75 -125s-48.167 -55.167 -70.5 -69.5
s-42.5 -21.5 -60.5 -21.5c-15.333 0 -28.166 5 -38.499 15s-15.5 27.333 -15.5 52c0 18.667 4.5 40 13.5 64s23.667 49.667 44 77s46.833 56 79.5 86s72.334 60 119.001 90l2 2c9.33301 26.667 18.833 56 28.5 88s19.167 66 28.5 102
c-11.333 -20.667 -23.333 -41.334 -36 -62.001s-25.834 -39.167 -39.501 -55.5s-27.667 -29.666 -42 -39.999s-28.5 -15.5 -42.5 -15.5c-11.333 0 -20.333 3.16699 -27 9.5s-11.667 14 -15 23s-5.5 18.333 -6.5 28s-1.5 18.167 -1.5 25.5c0 23.333 3.66699 54.666 11 93.999
s19.666 83.666 36.999 132.999c2 4.66699 6.16699 8.33398 12.5 11.001s13.166 4 20.499 4c9.33301 0 18.166 -1.66699 26.499 -5s12.5 -8.66602 12.5 -15.999c0 -4 -1 -7 -3 -9c-16.667 -49.333 -28.167 -91.5 -34.5 -126.5s-9.5 -64.167 -9.5 -87.5
c0 -12 0.5 -20.5 1.5 -25.5s2.5 -7.5 4.5 -7.5c5.33301 0 12.333 4.83301 21 14.5s18 21.834 28 36.501s20.167 31 30.5 49l29.5 53l25 46.5l16 30.5c7.33301 19.333 14.833 32.333 22.5 39s20.167 10 37.5 10c8 0 14.667 -1.66699 20 -5s8 -8.66602 8 -15.999v-2z
M-42.999 -247.002c22.667 24 46.168 56.168 70.501 96.501s50.5 94.166 78.5 161.499c-36 -26.667 -66.667 -52.5 -92 -77.5s-46.333 -49 -63 -72s-28.834 -44.333 -36.501 -64s-11.5 -37.167 -11.5 -52.5c0 -10 0.666992 -16.833 2 -20.5s3.33301 -5.5 6 -5.5
c5.33301 0 12.5 3.83301 21.5 11.5s17.167 15.167 24.5 22.5z" />
    <glyph glyph-name="z" unicode="z" horiz-adv-x="327" 
d="M-74 55c-3.33301 0 -6.83008 0.999023 -10.4971 2.99902s-5.5 6 -5.5 12c0 4.66699 0.833008 7.5 2.5 8.5s4.16699 3.16699 7.5 6.5c18 12.667 38 28.667 60 48s42.833 40 62.5 62s36.167 44.333 49.5 67s20 43.667 20 63c0 12.667 -5 19 -15 19
c-9.33301 0 -21 -5 -35 -15s-27.667 -25.667 -41 -47l1 1c-3.33301 -5.33301 -8.33301 -8 -15 -8c-10.667 0 -16 5.33301 -16 16c0 1.33301 0.166992 3 0.5 5s1.5 4 3.5 6l-1 -2c18.667 28.667 40 50.334 64 65.001s45 22 63 22c16.667 0 31 -5 43 -15s18 -24.667 18 -44
c0 -17.333 -7 -39.333 -21 -66s-38 -57.334 -72 -92.001c2.66699 0.666992 5.66699 1 9 1c15.333 0 26.166 -5.66699 32.499 -17s9.5 -23.666 9.5 -36.999v-8c0 -2 -0.333008 -4.66699 -1 -8c25.333 22.667 51.5 49.834 78.5 81.501s57.167 71.167 90.5 118.5
c5.33301 4 9.66602 6 12.999 6c11.333 0 17 -5.33301 17 -16c0 -4.66699 -1 -8 -3 -10c-41.333 -59.333 -79.333 -107.666 -114 -144.999s-68 -69 -100 -95c-26 -74 -52 -136.333 -78 -187s-50.833 -91.834 -74.5 -123.501s-45.334 -54.334 -65.001 -68.001
s-36.5 -20.5 -50.5 -20.5c-15.333 0 -27.5 5.83301 -36.5 17.5s-13.5 26.834 -13.5 45.501s4.33301 39.667 13 63s22.167 48.166 40.5 74.499s42.166 54.333 71.499 84s65 60.167 107 91.5l2 3l9 24c3.33301 8.66699 6.5 17.334 9.5 26.001s5.5 16.667 7.5 24
s3 13.666 3 18.999s-2 8 -6 8c-10 0 -23.5 -4.83301 -40.5 -14.5l-48.5 -28.5c-9.33301 -5.33301 -17.666 -10.5 -24.999 -15.5s-12.333 -7.83301 -15 -8.5h-5zM25.0029 -31.001l-6 -4c-2 -1.33301 -4 -3 -6 -5l6 15.5l6 15.5l13 -12l-5 -4zM-58.9971 -187.001
c24 40 48 89 72 147c-31.333 -24 -58 -48.167 -80 -72.5s-40.333 -47.5 -55 -69.5s-25.334 -42.333 -32.001 -61s-10 -35 -10 -49c0 -9.33301 0.666992 -14 2 -14c6 0 14 5 24 15s20.333 21.667 31 35s20.334 26.5 29.001 39.5s15 22.833 19 29.5z" />
    <glyph glyph-name="braceleft" unicode="{" horiz-adv-x="380" 
d="M71 330c1.33301 0 3.50195 7.33496 6.50195 22.002l10.5 51c4 23.333 9.16699 48.333 15.5 75s14.666 51.5 24.999 74.5s23.666 42.167 39.999 57.5s36.833 23 61.5 23c2 0 6.66699 -0.666992 14 -2s14.666 -3 21.999 -5s14 -4.66699 20 -8s9 -7 9 -11
c0 -5.33301 -1.83301 -9.5 -5.5 -12.5s-7.5 -4.5 -11.5 -4.5c-3.33301 0 -6.33301 0.166992 -9 0.5s-5.66699 1.16602 -9 2.49902c-1.33301 0 -4 0.666992 -8 2c-2 0.666992 -3.66699 1 -5 1c-10.667 0 -19.834 -4.33301 -27.501 -13s-14.167 -19 -19.5 -31
s-10.166 -29.667 -14.499 -53l-12.5 -69l-14 -73.5c-4.66699 -23.667 -10.667 -41.5 -18 -53.5c4 -6 7 -13.667 9 -23s3 -19 3 -29c0 -15.333 -0.833008 -30.333 -2.5 -45l-4.5 -40c-1.33301 -7.33301 -2.16602 -13.833 -2.49902 -19.5s-0.5 -10.167 -0.5 -13.5
c0 -13.333 1.16699 -28.5 3.5 -45.5s6.5 -33.333 12.5 -49s13.833 -28.834 23.5 -39.501s22.167 -16 37.5 -16c1.33301 0 3.33301 0.666992 6 2l8 4c3.33301 2 5.83301 3.83301 7.5 5.5s4.83398 2.5 9.50098 2.5s8.83398 -1.5 12.501 -4.5s5.5 -6.83301 5.5 -11.5
c0 -6 -2.33301 -11.167 -7 -15.5s-10.334 -7.66602 -17.001 -9.99902s-13.167 -4 -19.5 -5s-10.833 -1.5 -13.5 -1.5c-17.333 0 -35.333 4.16699 -54 12.5s-35 19.5 -49 33.5c-16 17.333 -26.667 38.666 -32 63.999s-8 51.666 -8 78.999c0 11.333 0.166992 23.5 0.5 36.5
s0.833008 25.167 1.5 36.5l2 27c0.666992 8.66699 1 16.667 1 24c0 12.667 -1.33301 21.5 -4 26.5s-5.33398 8.83301 -8.00098 11.5c-6 4.66699 -9 9.33398 -9 14.001c0 1.33301 1.33301 4.33301 4 9s6.66699 7 12 7h2v0z" />
    <glyph glyph-name="bar" unicode="|" horiz-adv-x="166" 
d="M45 611c0 7.33301 2.49902 13.5 7.49902 18.5s11.5 7.5 19.5 7.5s14.5 -2.5 19.5 -7.5s7.5 -11.167 7.5 -18.5l4 -628c0 -7.33301 -2.66699 -13.333 -8 -18s-11.666 -7 -18.999 -7c-8 0 -14.5 2.33301 -19.5 7s-7.5 10.667 -7.5 18z" />
    <glyph glyph-name="braceright" unicode="}" horiz-adv-x="386" 
d="M325 379c-1.33301 -12 -2.33105 -23.5 -2.99805 -34.5s-1 -20.5 -1 -28.5c0 -9.33301 0.833008 -15.666 2.5 -18.999s3.16699 -5.66602 4.5 -6.99902c2.66699 -1.33301 4.66699 -3 6 -5s2 -5.33301 2 -10c-1.33301 -4.66699 -3.16602 -8.33398 -5.49902 -11.001
s-6.16602 -4 -11.499 -4c-6 0 -11.167 -7.66699 -15.5 -23s-8.5 -34.666 -12.5 -57.999c-3.33301 -20 -7.66602 -41.333 -12.999 -64s-12.5 -44.167 -21.5 -64.5s-20.5 -38.333 -34.5 -54s-31.667 -26.5 -53 -32.5c-5.33301 -1.33301 -12.833 -2.83301 -22.5 -4.5
s-19.834 -2.5 -30.501 -2.5c-6.66699 0 -14.167 0.666992 -22.5 2s-16.333 3.66602 -24 6.99902s-14 7.83301 -19 13.5s-7.5 12.5 -7.5 20.5c0 11.333 5.33301 17 16 17c7.33301 0 14 -4 20 -12v1c2 -3.33301 4.5 -6.33301 7.5 -9s7.16699 -4 12.5 -4
c21.333 0 39.166 8.33301 53.499 25s25.833 35.667 34.5 57s15 42.166 19 62.499s6.66699 34.5 8 42.5c0 1.33301 0.166992 2.33301 0.5 3s0.5 1.33398 0.5 2.00098c3.33301 21.333 7.16602 41.166 11.499 59.499s11.5 31.833 21.5 40.5c-2.66699 8.66699 -4 20.667 -4 36
c0 11.333 0.666992 23.5 2 36.5s2.66602 26.833 3.99902 41.5l4 50c1.33301 16.667 2 32.667 2 48c0 13.333 -0.666992 26 -2 38s-3.83301 22.5 -7.5 31.5s-8.66699 16.167 -15 21.5s-14.833 8 -25.5 8c-4 0 -7.66699 -0.333008 -11 -1c-12.667 0 -19 5.66699 -19 17
c0 4.66699 1.33301 8.16699 4 10.5s6 4 10 5s8.16699 1.66699 12.5 2s8.16602 0.5 11.499 0.5c24 0 43.5 -5.16699 58.5 -15.5s26.667 -23.833 35 -40.5s14 -35.5 17 -56.5s4.5 -42.167 4.5 -63.5c0 -13.333 -0.333008 -26.5 -1 -39.5s-1.66699 -24.833 -3 -35.5z" />
    <glyph glyph-name="asciitilde" unicode="~" horiz-adv-x="431" 
d="M38 264c-1.33301 0 -3.49902 1 -6.49902 3s-5.5 5.66699 -7.5 11c0 2.66699 0.166992 5.33398 0.5 8.00098s2.16602 5.66699 5.49902 9c23.333 18.667 45.333 33.167 66 43.5s43 15.5 67 15.5c12.667 0 25 -1.66699 37 -5s24.333 -7 37 -11
c14 -4 28.5 -7.83301 43.5 -11.5s29.167 -5.5 42.5 -5.5c8.66699 0 17.667 1.16699 27 3.5s19.333 6.16602 30 11.499c5.33301 0 9.33301 -1.66699 12 -5s4 -7.33301 4 -12c0 -3.33301 -0.833008 -6.33301 -2.5 -9s-3.16699 -4.66699 -4.5 -6
c-23.333 -12 -45.833 -21.5 -67.5 -28.5s-44.167 -10.5 -67.5 -10.5c-13.333 0 -26 1.5 -38 4.5s-24 6.16699 -36 9.5s-24 6.5 -36 9.5s-23 4.5 -33 4.5c-10.667 0 -21.5 -2.16699 -32.5 -6.5s-22.5 -11.833 -34.5 -22.5h-6z" />
    <glyph glyph-name="quoteright" unicode="&#x2019;" horiz-adv-x="218" 
d="M59 564c-4.66699 0 -8.83301 1.83203 -12.5 5.49902s-5.5 7.16699 -5.5 10.5c0 2 1.33301 4.66699 4 8l9 11l17 17.5c6 6.33301 10.667 12.166 14 17.499c-6.66699 8.66699 -10 17.334 -10 26.001c0 12 4.83301 22.167 14.5 30.5s19.5 12.5 29.5 12.5
c11.333 0 22 -4.66699 32 -14s15 -21 15 -35c0 -11.333 -3.5 -22.333 -10.5 -33s-15.667 -20.167 -26 -28.5s-21.833 -15.166 -34.5 -20.499s-24.667 -8 -36 -8z" />
    <glyph glyph-name="quotesinglbase" unicode="&#x201a;" horiz-adv-x="184" 
d="M44 -21c-4.66699 0 -8.66797 1.83203 -12.001 5.49902s-5 7.16699 -5 10.5c0 2 1.5 5.33301 4.5 10s6.5 8.66699 10.5 12c1.33301 1.33301 3.5 4 6.5 8s6.16699 7.66699 9.5 11c3.33301 4 7.33301 8.33301 12 13c-3.33301 3.33301 -5.66602 7.5 -6.99902 12.5
s-2 9.5 -2 13.5c0 12 4.66699 22.167 14 30.5s19 12.5 29 12.5c12.667 0 23.667 -4.5 33 -13.5s14 -20.833 14 -35.5c0 -11.333 -3.33301 -22.333 -10 -33s-15.167 -20.167 -25.5 -28.5s-21.833 -15.166 -34.5 -20.499s-25 -8 -37 -8z" />
    <glyph glyph-name="quotedblleft" unicode="&#x201c;" horiz-adv-x="833" 
d="M501 630c5.33301 0 9.33105 -2.16895 11.998 -6.50195s4 -8.16602 4 -11.499c0 -4 -4.33301 -10.333 -13 -19c-5.33301 -5.33301 -10.666 -11.166 -15.999 -17.499s-9.66602 -11.833 -12.999 -16.5c6 -8 9 -16.333 9 -25c0 -13.333 -4.66699 -23.833 -14 -31.5
s-19.333 -11.5 -30 -11.5c-12 0 -22.667 4.33301 -32 13s-14 20 -14 34c0 11.333 3.33301 22.5 10 33.5s15.167 20.833 25.5 29.5s21.833 15.667 34.5 21s25 8 37 8zM328.998 629.998c5.33301 0 9.33105 -2.16895 11.998 -6.50195s4 -8.16602 4 -11.499
c0 -4 -4.33301 -10.333 -13 -19c-5.33301 -5.33301 -10.666 -11.166 -15.999 -17.499s-9.66602 -11.833 -12.999 -16.5c6 -8 9 -16.333 9 -25c0 -13.333 -4.66699 -23.833 -14 -31.5s-19.333 -11.5 -30 -11.5c-12 0 -22.667 4.33301 -32 13s-14 20 -14 34
c0 11.333 3.33301 22.5 10 33.5s15.167 20.833 25.5 29.5s21.833 15.667 34.5 21s25 8 37 8z" />
    <glyph glyph-name="quotedblright" unicode="&#x201d;" horiz-adv-x="314" 
d="M51 563c-4.66699 0 -8.83105 1.83398 -12.498 5.50098s-5.5 7.5 -5.5 11.5c0 0.666992 1.33301 2.83398 4 6.50098s5.33398 6.83398 8.00098 9.50098c5.33301 5.33301 11.166 11.666 17.499 18.999s11.166 13.666 14.499 18.999c-6.66699 8.66699 -10 17 -10 25
c0 12 4.83301 22.167 14.5 30.5s19.5 12.5 29.5 12.5c12 0 22.833 -4.5 32.5 -13.5s14.5 -20.5 14.5 -34.5c0 -11.333 -3.33301 -22.333 -10 -33s-15.334 -20.334 -26.001 -29.001s-22.167 -15.667 -34.5 -21s-24.5 -8 -36.5 -8zM165.003 563.001
c-4 0 -7.83398 1.83301 -11.501 5.5s-5.5 7.5 -5.5 11.5c0 0.666992 1.33301 2.83398 4 6.50098s5.33398 6.83398 8.00098 9.50098l17 19c6.66699 7.33301 11.667 13.666 15 18.999c-6.66699 8.66699 -10 17 -10 25c0 12 4.66699 22.167 14 30.5s19.333 12.5 30 12.5
c12 0 22.667 -4.5 32 -13.5s14 -20.5 14 -34.5c0 -11.333 -3.33301 -22.333 -10 -33s-15.167 -20.334 -25.5 -29.001s-21.833 -15.667 -34.5 -21s-25 -8 -37 -8z" />
    <glyph glyph-name="quotedblbase" unicode="&#x201e;" horiz-adv-x="361" 
d="M223 -16c-4.66699 0 -8.83301 1.83301 -12.5 5.5s-5.5 7.83398 -5.5 12.501c0 4 3.66699 9 11 15l17 19c6.66699 7.33301 11.667 13.666 15 18.999c-6 8 -9 16.667 -9 26c0 12 4.5 22 13.5 30s19.167 12 30.5 12s21.833 -4.5 31.5 -13.5s14.5 -20.5 14.5 -34.5
c0 -10.667 -3.33301 -21.5 -10 -32.5s-15.167 -20.833 -25.5 -29.5s-21.833 -15.667 -34.5 -21s-24.667 -8 -36 -8zM93.001 -16c-4 0 -7.83203 1.83301 -11.499 5.5s-5.5 7.83398 -5.5 12.501c0 4 4.33301 10.333 13 19l16.5 16.5
c6.33301 6.33301 11.166 11.833 14.499 16.5c-6.66699 8.66699 -10 17.667 -10 27c0 12 4.66699 22 14 30s19.333 12 30 12c12 0 22.667 -4.33301 32 -13s14 -20.334 14 -35.001c0 -10.667 -3.16699 -21.5 -9.5 -32.5s-14.666 -20.833 -24.999 -29.5
s-21.833 -15.667 -34.5 -21s-25.334 -8 -38.001 -8z" />
    <glyph glyph-name="a.001" unicode="&#xe000;" horiz-adv-x="364" 
d="M177 345c1.33301 3.33301 2.33105 6.66797 2.99805 10.001s1.66699 6.66602 3 9.99902c-4 -2 -8 -3 -12 -3h-8c-1.33301 0 -2.66602 0.166992 -3.99902 0.5s-2.66602 0.5 -3.99902 0.5c-18 0 -34.5 -8 -49.5 -24s-28 -35.167 -39 -57.5s-19.5 -45.333 -25.5 -69
s-9 -42.834 -9 -57.501c0 -11.333 0.666992 -17 2 -17c4 0 10 3.5 18 10.5s16.667 15.333 26 25l28 30.5l23 27c2.66699 2.66699 4.66699 4.83398 6 6.50098s3 4.16699 5 7.5l15 16l22 85v-1zM193.998 397.002c3.33301 4.66699 10.499 9.00195 21.499 13.002s20.5 6 28.5 6
c6.66699 0 11.834 -1.16699 15.501 -3.5s5.5 -7.83301 5.5 -16.5c-10 -38 -19.167 -74.5 -27.5 -109.5s-15.5 -67.167 -21.5 -96.5s-10.667 -55.166 -14 -77.499s-5 -39.833 -5 -52.5c0 -4.66699 -0.666992 -8.33398 -2 -11.001
c7.33301 5.33301 17.166 13.666 29.499 24.999l41.5 38l70.5 64l82.5 71l88 70.5c30 23 59.5 43.333 88.5 61s56.667 31.834 83 42.501s50.5 16 72.5 16s33 -5.33301 33 -16c0 -4 -2.16699 -7.83301 -6.5 -11.5s-8.83301 -5.83398 -13.5 -6.50098
c-20 -2 -42.333 -8.33301 -67 -19s-50.667 -24.167 -78 -40.5s-55 -35 -83 -56l-83 -65l-79 -66.5l-69 -62c-18.667 -17.333 -36.334 -32.833 -53.001 -46.5l-39 -31.5c-19.333 -14 -34.666 -21 -45.999 -21c-15.333 0 -26 7.16699 -32 21.5s-9 32.166 -9 53.499
c0 20 1.66699 41.167 5 63.5s6.66602 42.5 9.99902 60.5l-34 -35.5c-12 -12.333 -24.167 -23.666 -36.5 -33.999s-24.333 -18.833 -36 -25.5s-22.167 -10 -31.5 -10c-15.333 0 -26.5 6.5 -33.5 19.5s-10.5 29.833 -10.5 50.5c0 24 4.33301 50.833 13 80.5
s20.834 57.667 36.501 84s34.5 48.5 56.5 66.5s46.667 27 74 27c9.33301 0 19.5 -2.83301 30.5 -8.5s17.167 -14.834 18.5 -27.501c0.666992 2.66699 1.33398 5 2.00098 7s1.66699 4.33301 3 7z" />
    <glyph glyph-name="b.001" unicode="&#xe001;" horiz-adv-x="375" 
d="M41 173l-9.49707 -44.5c-3 -14.333 -5.5 -28.833 -7.5 -43.5c14 7.33301 29.167 13.666 45.5 18.999s30.5 9.66602 42.5 12.999c19.333 26.667 35 56.5 47 89.5s21.667 65.5 29 97.5c1.33301 5.33301 2.16602 10.333 2.49902 15s0.5 8.33398 0.5 11.001
c0 10 -1.66699 15 -5 15c-6.66699 0 -14.667 -3.33301 -24 -10s-19.333 -15.167 -30 -25.5s-21.334 -22.166 -32.001 -35.499s-20.334 -26.333 -29.001 -39s-15.667 -24.5 -21 -35.5s-8.33301 -19.833 -9 -26.5zM-13.9971 32c0 10.667 2.33008 18.667 6.99707 24h-8
c-9.33301 0 -17.833 2 -25.5 6s-11.5 10.333 -11.5 19c15.333 95.333 35.333 186.333 60 273s57.667 170.334 99 251.001v-1c20 40 40.333 74 61 102s40.667 50.833 60 68.5s37.333 30.5 54 38.5s31.334 12 44.001 12c17.333 0 30.833 -5.16699 40.5 -15.5
s14.5 -24.833 14.5 -43.5c0 -16 -4.33301 -34.833 -13 -56.5s-23 -45.5 -43 -71.5s-46.333 -53.833 -79 -83.5s-73 -60.167 -121 -91.5c-12 -30 -22.833 -60.333 -32.5 -91s-18.5 -60.334 -26.5 -89.001c10 13.333 21.333 27 34 41s26 26.833 40 38.5s28 21.334 42 29.001
s27 11.5 39 11.5s22.667 -4.33301 32 -13s14 -25 14 -49c0 -18 -1.66699 -36.167 -5 -54.5s-7.83301 -36.166 -13.5 -53.499s-11.834 -33.833 -18.501 -49.5s-13.334 -29.5 -20.001 -41.5c20.667 9.33301 42.5 24.666 65.5 45.999l70.5 68l60.5 57
c20.333 19.333 40.833 36.5 61.5 51.5s41.334 27.333 62.001 37s41 14.5 61 14.5c7.33301 0 13 -2.16699 17 -6.5s6 -8.16602 6 -11.499c0 -4 -1.33301 -7.66699 -4 -11s-7.33398 -5 -14.001 -5c-17.333 0 -35.166 -4.16699 -53.499 -12.5s-37 -19.5 -56 -33.5
s-38.167 -29.667 -57.5 -47l-57 -53l-50.5 -46.5c-16.333 -15 -32.333 -28.667 -48 -41s-31 -22.833 -46 -31.5s-29.5 -14.334 -43.5 -17.001c-8 -10.667 -17.667 -21.834 -29 -33.501s-23.666 -22.5 -36.999 -32.5s-27.166 -18.333 -41.499 -25s-28.5 -10 -42.5 -10
c-13.333 0 -24.666 3 -33.999 9s-14 14 -14 24zM268 723c-26.667 -32 -49.998 -65.667 -69.998 -101s-37.667 -71 -53 -107c36 25.333 66.833 50.333 92.5 75s46.667 47.834 63 69.501s28.333 41.5 36 59.5s11.5 33.333 11.5 46c0 4.66699 -0.5 9.16699 -1.5 13.5
s-2.16699 6.5 -3.5 6.5c-4.66699 0 -10.834 -2.83301 -18.501 -8.5s-15.334 -12.167 -23.001 -19.5l-21.5 -21c-6.66699 -6.66699 -11 -11.334 -13 -14.001zM19.002 36c-1.33301 1.33301 -2.33301 1.99707 -3 1.99707c6 2 8.5 1.83301 7.5 -0.5
s-2.83301 -4.66602 -5.5 -6.99902s-4.5 -3.66602 -5.5 -3.99902s1.16699 2.83398 6.5 9.50098z" />
    <glyph glyph-name="c.001" unicode="&#xe002;" horiz-adv-x="232" 
d="M473 385c-30 -1.33301 -60.166 -10.498 -90.499 -27.498s-59.833 -38.167 -88.5 -63.5s-56.334 -53 -83.001 -83l-74 -85l-41 -49c-13.333 -15.333 -25.833 -28.666 -37.5 -39.999s-22.667 -20.333 -33 -27s-19.833 -10 -28.5 -10c-23.333 2 -39.5 11.167 -48.5 27.5
s-13.5 36.166 -13.5 59.499c0 18.667 2.16699 38.5 6.5 59.5s9.66602 41.333 15.999 61s12.833 37.834 19.5 54.501s12.334 30 17.001 40c7.33301 15.333 15 30.166 23 44.499s16.667 27 26 38s19.333 19.667 30 26s22.334 9.5 35.001 9.5
c13.333 0 25.833 -5.16699 37.5 -15.5s17.5 -24.833 17.5 -43.5c0 -5.33301 -1.16699 -12.166 -3.5 -20.499s-5.33301 -16.5 -9 -24.5s-7.66699 -14.833 -12 -20.5s-8.83301 -8.5 -13.5 -8.5c-5.33301 0 -9.5 2 -12.5 6s-4.5 8 -4.5 12c0 2 0.166992 4 0.5 6
s1.83301 4.33301 4.5 7c6 5.33301 10.5 11.833 13.5 19.5s4.5 15.167 4.5 22.5c0 3.33301 -0.666992 6.5 -2 9.5s-2.66602 4.5 -3.99902 4.5c-6 0 -13.167 -4.66699 -21.5 -14s-17 -21.666 -26 -36.999s-17.667 -32.833 -26 -52.5s-16 -39.667 -23 -60
s-12.5 -40.333 -16.5 -60s-6 -36.834 -6 -51.501c0 -10 1 -18.833 3 -26.5s5.66699 -11.5 11 -11.5c4.66699 0 11.167 3.16699 19.5 9.5s17.666 14.666 27.999 24.999s21.666 22.5 33.999 36.5l38.5 45l72 81.5c25.333 28.333 51.5 54.166 78.5 77.499
s54.333 42.666 82 57.999s55.167 23 82.5 23c7.33301 0 15 -1 23 -3s12 -7 12 -15c0 -9.33301 -5.66699 -14 -17 -14z" />
    <glyph glyph-name="d.001" unicode="&#xe003;" horiz-adv-x="365" 
d="M210 63c0 -7.33301 -0.666016 -12.3359 -1.99902 -15.0029c9.33301 7.33301 21.5 20.666 36.5 39.999l49.5 66l65.5 88c23.667 30.667 48 59 73 85s50.167 47.5 75.5 64.5s49.666 25.5 72.999 25.5c13.333 0 22.5 -1.83301 27.5 -5.5s7.5 -7.83398 7.5 -12.501
c0 -3.33301 -2 -6.83301 -6 -10.5s-8.33301 -5.83398 -13 -6.50098c-22.667 -3.33301 -46 -13.5 -70 -30.5s-48 -37.667 -72 -62s-47.333 -50.5 -70 -78.5l-63 -81l-53 -68.5c-16 -20.333 -29.667 -35.166 -41 -44.499c-7.33301 -6 -14.833 -10.833 -22.5 -14.5
s-15.167 -5.5 -22.5 -5.5c-14 0 -25.167 5.83301 -33.5 17.5s-12.5 29.834 -12.5 54.501c0 12.667 0.833008 26 2.5 40s3.5 27 5.5 39c-10.667 -12 -22.667 -24.667 -36 -38s-27.166 -25.833 -41.499 -37.5s-28.666 -21.167 -42.999 -28.5s-27.833 -11 -40.5 -11
c-18.667 0 -32.167 7.5 -40.5 22.5s-12.5 32.833 -12.5 53.5c0 15.333 2 32 6 50s9 35.833 15 53.5s12.833 34.5 20.5 50.5s15.5 29.667 23.5 41v-1c8.66699 13.333 18.5 26.5 29.5 39.5s22.833 24.833 35.5 35.5s26 19.167 40 25.5s28 9.5 42 9.5
c19.333 0 38 -6.66699 56 -20c26 84.667 54.167 156.334 84.5 215.001s60.166 106.334 89.499 143.001s56.833 63.167 82.5 79.5s47.5 24.5 65.5 24.5c17.333 0 30.666 -5.16699 39.999 -15.5s14 -24.5 14 -42.5c0 -16 -4.5 -34.833 -13.5 -56.5s-23.833 -45.5 -44.5 -71.5
s-47.667 -53.667 -81 -83s-74.333 -59.666 -123 -90.999c-13.333 -35.333 -26.833 -75.666 -40.5 -120.999s-26.167 -93 -37.5 -143c-1.33301 -5.33301 -3.33301 -15 -6 -29l-8.5 -46c-3 -16.667 -5.5 -33.5 -7.5 -50.5s-3 -31.167 -3 -42.5zM8.00098 101.997
c0 -15.333 1.33008 -23.001 3.99707 -23.001c7.33301 0 17.833 5.66699 31.5 17s27.834 24.333 42.501 39s28.334 29.167 41.001 43.5l28 31.5l3 3c0.666992 8 2.33398 18.333 5.00098 31l8.5 39.5c3 13.667 6.16699 27 9.5 40s6.33301 24.167 9 33.5
c-3.33301 1.33301 -7.33301 2.66602 -12 3.99902s-8.66699 2 -12 2c-13.333 0 -26.5 -5 -39.5 -15s-25.167 -22.833 -36.5 -38.5s-22 -33.167 -32 -52.5s-18.5 -38.666 -25.5 -57.999s-12.667 -37.666 -17 -54.999s-6.83301 -31.333 -7.5 -42zM307.998 529.996
l26.001 17.001c-2.66699 -4.66699 -4.83398 -9.33398 -6.50098 -14.001l-5.5 -15zM534.999 810.997c-11.333 0 -25 -6.50293 -41 -19.5029s-33 -31.167 -51 -54.5s-36.5 -51.166 -55.5 -83.499s-36.833 -67.833 -53.5 -106.5c38 26 70.167 51.333 96.5 76
s47.833 47.834 64.5 69.501s28.667 41.334 36 59.001s11 32.5 11 44.5c0 10 -2.33301 15 -7 15z" />
    <glyph glyph-name="e.001" unicode="&#xe004;" horiz-adv-x="256" 
d="M90 326c-4 -5.33301 -8.00098 -12.001 -12.001 -20.001l-12 15c15.333 4.66699 27.5 12 36.5 22s14.167 17.667 15.5 23c0 -2 2 -3 6 -3c-2.66699 -1.33301 -6.66699 -4.66602 -12 -9.99902s-12.666 -14.333 -21.999 -27zM156.999 374.999
c0 -10 -2.99805 -20 -8.99805 -30s-13.667 -19.333 -23 -28s-19.333 -15.834 -30 -21.501s-21 -9.16699 -31 -10.5c-6 -9.33301 -12.167 -21.166 -18.5 -35.499s-12.166 -29.666 -17.499 -45.999s-9.83301 -33 -13.5 -50s-5.5 -32.833 -5.5 -47.5
c0 -13.333 2.16699 -26.166 6.5 -38.499s11.166 -18.5 20.499 -18.5c6.66699 0 14.167 3.33301 22.5 10s17.666 15.667 27.999 27s21.333 24.5 33 39.5l36.5 48.5l64 83.5c22.667 29 46.167 55.167 70.5 78.5s49.666 42.666 75.999 57.999s53.5 23 81.5 23
c7.33301 0 15.5 -1 24.5 -3s13.5 -8.66699 13.5 -20c0 -6.66699 -1.16699 -10.5 -3.5 -11.5s-6.16602 -1.5 -11.499 -1.5c-28.667 0 -56 -7.16699 -82 -21.5s-51 -32.666 -75 -54.999s-47 -47.166 -69 -74.499l-63 -81l-44 -57c-14 -18 -27.833 -33.833 -41.5 -47.5
s-26.834 -24.5 -39.501 -32.5s-25 -12 -37 -12c-14 0 -26 3.16699 -36 9.5s-18 14.833 -24 25.5s-10.5 22.667 -13.5 36s-4.5 27 -4.5 41c0 18.667 2.33301 39.167 7 61.5s11 44.666 19 66.999s17.667 44.166 29 65.499s23.333 40.166 36 56.499s26.167 29.333 40.5 39
s28.5 14.5 42.5 14.5s24.333 -4.66699 31 -14s10 -18.333 10 -27z" />
    <glyph glyph-name="f.001" unicode="&#xe005;" horiz-adv-x="181" 
d="M17 61c2.66699 -8 5.33594 -17.4922 8.00293 -28.4922s5.16699 -22.667 7.5 -35s4.16602 -24.833 5.49902 -37.5s2 -25 2 -37c0 -24.667 -5 -46.167 -15 -64.5s-26.333 -27.5 -49 -27.5c-42 0 -63 34.333 -63 103c0 17.333 1.33301 37.166 4 59.499
s7.16699 48.166 13.5 77.499s14.5 63 24.5 101s22.667 81 38 129c28 90 56.667 165.667 86 227s57.666 110.833 84.999 148.5s52.666 64.5 75.999 80.5s42.666 24 57.999 24c14 0 26.167 -4.5 36.5 -13.5s15.5 -23.833 15.5 -44.5c0 -16 -4.16699 -35.333 -12.5 -58
s-21.833 -47.334 -40.5 -74.001s-43.334 -54.5 -74.001 -83.5s-68 -58.5 -112 -88.5c-18 -48 -35 -100 -51 -156c-2 -6.66699 -4.33301 -13.834 -7 -21.501s-5.66699 -15.5 -9 -23.5h1c-3.33301 -10.667 -6.5 -19.667 -9.5 -27s-5.5 -14.333 -7.5 -21
s-3.83301 -13.167 -5.5 -19.5s-3.16699 -13.5 -4.5 -21.5l28 32l74.5 81.5c27.667 29.667 56.167 57.5 85.5 83.5s58.5 47.667 87.5 65s56.167 26 81.5 26c12.667 0 21.667 -1.83301 27 -5.5s8 -7.83398 8 -12.501c0 -3.33301 -2.16699 -6.83301 -6.5 -10.5
s-8.83301 -5.83398 -13.5 -6.50098c-25.333 -3.33301 -52.166 -13.833 -80.499 -31.5s-56.666 -38.834 -84.999 -63.501s-56 -50.834 -83 -78.501l-73.5 -77.5l-30 -33l-24 -25zM221.002 641.008c-13.333 -20.667 -27.499 -45.001 -42.499 -73.001s-29.833 -59 -44.5 -93
c34.667 25.333 63.667 50.333 87 75s42.166 47.834 56.499 69.501s24.666 41.667 30.999 60s9.5 33.833 9.5 46.5c0 8.66699 -1.33301 13 -4 13c-5.33301 0 -12.5 -4 -21.5 -12s-18.167 -17.5 -27.5 -28.5l-26.5 -32.5c-8.33301 -10.667 -14.166 -18.667 -17.499 -24v-1z
M4.00293 52.0068l-8 -43c-3.33301 14.667 -7 28.667 -11 42zM8.00293 -76.9932c0 13.333 -1.16797 27.6689 -3.50098 43.002s-5.16602 29.666 -8.49902 42.999c-2.66699 -16 -4.5 -30.667 -5.5 -44s-1.5 -25 -1.5 -35c0 -18.667 1 -32.334 3 -41.001s4 -13 6 -13
c6.66699 0 10 15.667 10 47z" />
    <glyph glyph-name="g.001" unicode="&#xe006;" horiz-adv-x="380" 
d="M-3 -306c-31.333 -27.333 -59.6641 -41.0029 -84.9971 -41.0029c-20.667 0 -36 7.33301 -46 22s-15 33.667 -15 57c0 36 9.66699 70.667 29 104s43.166 64.5 71.499 93.5s58.333 55.167 90 78.5l83.5 61l10 26c3.33301 10.667 6.16602 19 8.49902 25l7 18
c2.33301 6 4.83301 13.333 7.5 22s6 21.334 10 38.001c-11.333 -10 -23.333 -19.5 -36 -28.5s-25.334 -17.167 -38.001 -24.5s-25.334 -13.166 -38.001 -17.499s-24.667 -6.5 -36 -6.5c-22 0 -37 6.66699 -45 20s-12 29 -12 47c0 26.667 5 53.5 15 80.5s23.333 51.333 40 73
s36 39.334 58 53.001s44.667 20.5 68 20.5c25.333 0 48.666 -10.333 69.999 -31l2 8c3.33301 5.33301 11.5 10.5 24.5 15.5s24.167 7.5 33.5 7.5c6 0 10.833 -1.16699 14.5 -3.5s5.5 -7.16602 5.5 -14.499c-6 -26.667 -11.833 -51.334 -17.5 -74.001l-17.5 -67l-18.5 -65.5
l-20.5 -69.5l29 20l77 51c29.333 19.333 59.5 37.5 90.5 54.5s61.667 31.333 92 43s57.5 17.5 81.5 17.5c12.667 0 25.667 -2.83301 39 -8.5s20 -12.167 20 -19.5c0 -6 -2.5 -10 -7.5 -12s-9.83301 -3 -14.5 -3c-4 0.666992 -8 1 -12 1h-11
c-26.667 0 -54.667 -4.83301 -84 -14.5s-58.5 -22 -87.5 -37s-57.333 -31.167 -85 -48.5l-76.5 -49c-25.333 -17.333 -47.666 -32 -66.999 -44c-35.333 -102.667 -71.166 -184.5 -107.499 -245.5s-69.5 -104.833 -99.5 -131.5v-1zM-59.998 -273.003
c24.667 24 50.6689 58.668 78.002 104.001s56.666 106.666 87.999 183.999c-25.333 -18 -51 -37.667 -77 -59s-49.833 -44.166 -71.5 -68.499s-39.334 -49.833 -53.001 -76.5s-20.5 -54 -20.5 -82c0 -11.333 1.33301 -19 4 -23s5.66699 -6 9 -6c5.33301 0 12 2.66699 20 8
s15.667 11.666 23 18.999zM200.004 328.998c0.666992 2.66699 1.33008 4.99805 1.99707 6.99805s1.33398 4.66699 2.00098 8c-8.66699 10 -16.834 17 -24.501 21s-15.5 6 -23.5 6c-12 0 -25.667 -6.66699 -41 -20s-29.833 -29.666 -43.5 -48.999s-25.167 -40 -34.5 -62
s-14 -42 -14 -60c0 -13.333 4 -20 12 -20c8.66699 0 19.834 3.83301 33.501 11.5s27.834 16.834 42.501 27.501s28.334 21.5 41.001 32.5l30 25.5z" />
    <glyph glyph-name="h.001" unicode="&#xe007;" horiz-adv-x="388" 
d="M194 303c2.66699 12.667 4.67285 23.165 6.00586 31.498s2 15.166 2 20.499v9c-8 -0.666992 -19.833 -11 -35.5 -31s-32.334 -44.667 -50.001 -74s-34.834 -60.5 -51.501 -93.5s-29.667 -62.833 -39 -89.5l-7 -55c-1.33301 -3.33301 -7.33301 -7.66602 -18 -12.999
s-20.667 -8 -30 -8c-8.66699 0 -15.667 1.83301 -21 5.5s-8 9.16699 -8 16.5v1l2 6l-1 -2c18.667 138 44.167 255 76.5 351s66.666 173.833 102.999 233.5s72.5 102.834 108.5 129.501s67 40 93 40c17.333 0 31 -5.33301 41 -16s15 -25.334 15 -44.001
c0 -15.333 -4.66699 -33.666 -14 -54.999s-24.5 -45 -45.5 -71s-49 -53.667 -84 -83s-77.833 -60 -128.5 -92c-10.667 -28.667 -20.834 -60 -30.501 -94s-18.834 -71 -27.501 -111c9.33301 17.333 18.5 32.666 27.5 45.999l28.5 43v-1c19.333 30 38.333 55.167 57 75.5
s37.334 30.5 56.001 30.5c10 0 18.5 -2.33301 25.5 -7s12.5 -10.667 16.5 -18s6.83301 -15.666 8.5 -24.999s2.5 -18.666 2.5 -27.999c0 -12 -2.16699 -27 -6.5 -45s-9.5 -37.333 -15.5 -58c-4.66699 -14.667 -8.83398 -29.5 -12.501 -44.5s-6.83398 -29.5 -9.50098 -43.5
c-7.33301 -33.333 -11 -59 -11 -77c0 -8 -0.333008 -12.667 -1 -14c9.33301 7.33301 21.5 20.5 36.5 39.5s31.167 40.833 48.5 65.5l66.5 88c23.667 30.667 48 59 73 85s50.167 47.5 75.5 64.5s49.666 25.5 72.999 25.5c12.667 0 21.667 -1.83301 27 -5.5
s8 -7.83398 8 -12.501c0 -3.33301 -2.16699 -6.83301 -6.5 -10.5s-8.5 -5.83398 -12.5 -6.50098c-22 -3.33301 -45 -13.5 -69 -30.5s-47.833 -37.333 -71.5 -61s-46.667 -49.5 -69 -77.5l-62.5 -80l-53.5 -68.5c-16.333 -20.333 -31.166 -36.166 -44.499 -47.499
c-6 -5.33301 -12.667 -9.33301 -20 -12s-14 -4 -20 -4c-19.333 0 -32 6.83301 -38 20.5s-9 30.834 -9 51.501c0 14.667 1.16699 30.667 3.5 48s5.33301 34.5 9 51.5s7.5 33.667 11.5 50s8 31.5 12 45.5v-1zM311.006 727.998c-13.333 -8 -27.668 -19.501 -43.001 -34.501
s-31.333 -33.167 -48 -54.5s-33 -46.166 -49 -74.499s-31 -60.5 -45 -96.5c40.667 26.667 75 52.667 103 78s50.833 48.833 68.5 70.5s30.334 41.5 38.001 59.5s11.5 33.333 11.5 46c0 11.333 -3 17 -9 17c-7.33301 0 -16.333 -3.66699 -27 -11z" />
    <glyph glyph-name="i.001" unicode="&#xe008;" horiz-adv-x="178" 
d="M29 50c9.33301 7.33301 21.168 19.5029 35.501 36.5029l47.5 57.5l76.5 90c27.667 32 55.834 61.5 84.501 88.5s57.167 49.5 85.5 67.5s54.833 27 79.5 27c12.667 0 21.5 -1.83301 26.5 -5.5s7.5 -7.83398 7.5 -12.501c0 -3.33301 -2 -6.83301 -6 -10.5
s-8.33301 -5.83398 -13 -6.50098c-23.333 -4 -48.666 -15.167 -75.999 -33.5s-55 -40.333 -83 -66s-55.5 -53.334 -82.5 -83.001l-74.5 -83.5l-50.5 -58c-15 -17.333 -28.167 -31 -39.5 -41c-8 -6 -15.833 -10.833 -23.5 -14.5s-15.167 -5.5 -22.5 -5.5
c-13.333 0 -24.333 5.5 -33 16.5s-13 29.167 -13 54.5c-0.666992 26 2.66602 59.167 9.99902 99.5s16.666 84.5 27.999 132.5l7 30v-1c1.33301 6 6 11 14 15s16.667 6 26 6s17.666 -2.16699 24.999 -6.5s11 -11.166 11 -20.499l-18 -70
c-1.33301 -5.33301 -3.5 -15.666 -6.5 -30.999s-6.16699 -32.833 -9.5 -52.5s-6.33301 -39.334 -9 -59.001s-4 -35.834 -4 -48.501v-12zM49.002 436.003c14.667 0 25.334 -4.5 32.001 -13.5s10 -19.167 10 -30.5s-3.33301 -21.666 -10 -30.999s-17.334 -14 -32.001 -14
s-25.667 4.5 -33 13.5s-11 19.167 -11 30.5s3.66699 21.666 11 30.999s18.333 14 33 14z" />
    <glyph glyph-name="j.001" unicode="&#xe009;" horiz-adv-x="185" 
d="M-144 -325c-14.667 -14.667 -28.834 -25.168 -42.501 -31.501s-26.167 -9.5 -37.5 -9.5c-14 0 -25.5 3 -34.5 9s-16.167 13.667 -21.5 23s-9 19.5 -11 30.5s-3 21.833 -3 32.5c0 33.333 6.33301 64.5 19 93.5s29 56.167 49 81.5s42.167 48.833 66.5 70.5l71.5 61.5l38 32
c8.66699 43.333 16.334 83.666 23.001 120.999l19 111l5 28c1.33301 7.33301 6 12.5 14 15.5s16.333 4.5 25 4.5c10 0 18.667 -2 26 -6s11 -10.667 11 -20l-15.5 -97.5c-5 -31 -10.167 -60.5 -15.5 -88.5l22 18l87.5 67.5c31.667 24.333 63.5 47 95.5 68
s63.333 38.333 94 52s58 20.5 82 20.5c12 0 23.667 -2.66699 35 -8s17 -10.666 17 -15.999c0 -6 -2.5 -10 -7.5 -12s-9.83301 -3 -14.5 -3h-8c-1.33301 0 -2.33301 0.166992 -3 0.5s-1.66699 0.5 -3 0.5c-23.333 0 -49.5 -6.5 -78.5 -19.5s-59.167 -29.167 -90.5 -48.5
s-62.5 -40.5 -93.5 -63.5l-86.5 -65.5l-30.5 -22l-30.5 -22c-12 -56.667 -25.167 -107.167 -39.5 -151.5s-29 -83.166 -44 -116.499s-30 -61.5 -45 -84.5s-29.833 -41.5 -44.5 -55.5zM-76 -3.00098l-65.5 -60.498c-21.667 -20.333 -41 -41.5 -58 -63.5
s-30.833 -45 -41.5 -69s-16 -49.667 -16 -77c0 -11.333 1.16699 -21.166 3.5 -29.499s6.83301 -12.5 13.5 -12.5c4 0 10 2 18 6s17 10.667 27 20s21.5 25.166 34.5 47.499s27.167 53.166 42.5 92.499s32.333 90.666 51 153.999zM41 436.001
c14 -0.666992 24.5 -5.33105 31.5 -13.998s10.5 -18.334 10.5 -29.001c0 -12 -3.66699 -22.667 -11 -32s-18.333 -14 -33 -14c-14 0 -24.5 4.66699 -31.5 14s-10.5 19.333 -10.5 30c0 11.333 3.66699 21.666 11 30.999s18.333 14 33 14z" />
    <glyph glyph-name="k.001" unicode="&#xe00a;" horiz-adv-x="321" 
d="M219 94c-20 -24 -39.6689 -44.6689 -59.002 -62.002s-37.666 -26 -54.999 -26c-9.33301 0 -17 2.33301 -23 7s-11 10.834 -15 18.501s-7.66699 16.5 -11 26.5s-6.33301 20.667 -9 32v1c-2 9.33301 -3.5 18.333 -4.5 27s-4.16699 16.667 -9.5 24l-10 -58.5l-10 -61.5
c-2.66699 -6.66699 -7.83398 -11.667 -15.501 -15s-15.834 -5 -24.501 -5c-9.33301 0 -17.5 1.83301 -24.5 5.5s-10.5 9.16699 -10.5 16.5c4 28 8.5 56.333 13.5 85s10.5 56.334 16.5 83.001l17.5 74.5c5.66699 23 10.834 42.833 15.501 59.5
c13.333 46.667 27.166 88.5 41.499 125.5s29.333 70 45 99s31.5 54.667 47.5 77s32.333 42.166 49 59.499l25.5 24.5c9.66699 9 20 17.333 31 25s22.5 14 34.5 19s24.333 7.5 37 7.5c18 0 32.667 -5 44 -15s17 -25 17 -45c0 -15.333 -4.66699 -33.666 -14 -54.999
s-24.666 -45 -45.999 -71s-49.166 -53.833 -83.499 -83.5s-76.833 -60.5 -127.5 -92.5c-5.33301 -15.333 -10.166 -30 -14.499 -44s-8.5 -28.667 -12.5 -44c15.333 17.333 30.333 29.166 45 35.499s28.334 9.5 41.001 9.5c14 0 25.333 -3.5 34 -10.5s13 -15.833 13 -26.5
c0 -14 -9.66699 -29.333 -29 -46s-53.333 -30.667 -102 -42c6.66699 -6.66699 12.167 -14.667 16.5 -24s8 -19.166 11 -29.499s5.5 -20.833 7.5 -31.5s3.66699 -20.667 5 -30c2 -15.333 4.16699 -28 6.5 -38s5.5 -15 9.5 -15c5.33301 0 13 4.83301 23 14.5
s21.667 22.5 35 38.5l78.5 93.5c29.667 34.333 60 66.666 91 96.999s62 56 93 77s59.5 31.5 85.5 31.5c12.667 0 21.667 -1.83301 27 -5.5s8 -7.83398 8 -12.501c0 -3.33301 -2.16699 -6.83301 -6.5 -10.5s-8.5 -5.83398 -12.5 -6.50098
c-26 -3.33301 -53.833 -15.166 -83.5 -35.499s-59.334 -44.666 -89.001 -72.999s-58.667 -58.666 -87 -90.999zM304.998 710.998c-27.333 -18 -57.5 -48.001 -90.5 -90.001s-64.167 -98.333 -93.5 -169c40.667 26.667 75 52.5 103 77.5s50.667 48.167 68 69.5
s29.833 40.833 37.5 58.5s11.5 32.834 11.5 45.501c0 11.333 -3.66699 17 -11 17c-3.33301 0 -7 -0.833008 -11 -2.5s-9 -4.16699 -15 -7.5zM50.998 256.997l27 8c-4.66699 -5.33301 -9.66699 -13 -15 -23zM171.998 322.997c-11.333 0 -25.666 -4.5 -42.999 -13.5
s-34.333 -23.833 -51 -44.5c37.333 13.333 63.666 25 78.999 35s23 17.667 23 23h-8z" />
    <glyph glyph-name="l.001" unicode="&#xe00b;" horiz-adv-x="240" 
d="M482 416c7.33301 -1.33301 12.668 -3.66211 16.001 -6.99512s5 -6.66602 5 -9.99902s-2.16699 -6.83301 -6.5 -10.5s-8.5 -5.83398 -12.5 -6.50098c-23.333 -4 -47.833 -14.333 -73.5 -31s-51.5 -36.834 -77.5 -60.501s-51.5 -49.167 -76.5 -76.5l-69.5 -79l-33.5 -40
l-31.5 -37c-14.667 -16 -29.334 -29.5 -44.001 -40.5s-29.667 -16.5 -45 -16.5c-12 0 -22.167 3.33301 -30.5 10s-15 15.5 -20 26.5s-8.5 23.667 -10.5 38s-3 29.5 -3 45.5c0 17.333 1 35.333 3 54s4.33301 36.334 7 53.001s5.33398 31.5 8.00098 44.5s5 22.5 7 28.5
c10.667 40.667 25 85.5 43 134.5s38.667 96.667 62 143s49 88.5 77 126.5s57.333 66.333 88 85c16.667 10.667 32.334 16 47.001 16c17.333 0 30 -5.83301 38 -17.5s12 -26.834 12 -45.501c0 -16.667 -4.33301 -36.334 -13 -59.001s-22.5 -47.334 -41.5 -74.001
s-43.5 -54.334 -73.5 -83.001s-66.333 -57.334 -109 -86.001c-11.333 -30 -21.833 -61 -31.5 -93s-18 -62.667 -25 -92s-12.5 -56.333 -16.5 -81s-6 -45 -6 -61c0 -20 1.33301 -34.167 4 -42.5s6.33398 -12.5 11.001 -12.5c4 0 9.16699 2.33301 15.5 7s13.5 11 21.5 19
c13.333 13.333 27.666 29.166 42.999 47.499l47 57.5l68 80.5c23.333 27 46.833 51.333 70.5 73s47.167 39.334 70.5 53.001s46.666 20.5 69.999 20.5c7.33301 0 12.666 -0.333008 15.999 -1zM234.002 662.004c-14 -20.667 -28.333 -44.6689 -43 -72.002
s-29.334 -58 -44.001 -92c62.667 46.667 108.334 91.167 137.001 133.5s43 77.5 43 105.5c0 4.66699 -0.333008 8.83398 -1 12.501s-1.66699 5.5 -3 5.5c-6 0 -13.5 -4.16699 -22.5 -12.5s-18 -17.666 -27 -27.999s-17.333 -20.5 -25 -30.5s-12.5 -17 -14.5 -21v-1z" />
    <glyph glyph-name="m.001" unicode="&#xe00c;" horiz-adv-x="513" 
d="M355 51c9.33301 7.33301 21.002 19.332 35.002 35.999l47 57l76.5 90c27.667 32 55.834 61.5 84.501 88.5s57.167 49.5 85.5 67.5s54.833 27 79.5 27c12.667 0 21.5 -1.83301 26.5 -5.5s7.5 -7.83398 7.5 -12.501c0 -3.33301 -2 -6.83301 -6 -10.5
s-8.33301 -5.83398 -13 -6.50098c-23.333 -4 -48.666 -15.167 -75.999 -33.5s-55 -40.333 -83 -66s-55.5 -53.334 -82.5 -83.001l-74.5 -83.5l-50.5 -58c-15 -17.333 -28.167 -31 -39.5 -41c-8 -6 -16.167 -11 -24.5 -15s-16.166 -6 -23.499 -6
c-14.667 0 -25.334 6.66699 -32.001 20s-10 30 -10 50c0 14.667 1.5 30.834 4.5 48.501s6.83301 35.834 11.5 54.501s9.66699 37 15 55l15 51l14.5 49.5c4.33301 15 6.5 25.167 6.5 30.5c0 0.666992 0.333008 1.33398 1 2.00098c-4 -1.33301 -10.5 -6.5 -19.5 -15.5
s-19.333 -20.667 -31 -35l-37.5 -47.5l-39 -51l-32.5 -42l-28.5 -35.5c-8.66699 -10.333 -16.5 -18.5 -23.5 -24.5s-12.5 -9 -16.5 -9c-8.66699 1.33301 -14.5 4.5 -17.5 9.5s-4.5 11.5 -4.5 19.5c0 8.66699 1.66699 18.667 5 30s7.66602 23.666 12.999 36.999l9 29
c18 60 27 96.667 27 110v1c-4 -2.66699 -10 -9 -18 -19s-17.167 -22.5 -27.5 -37.5l-34.5 -51l-39 -59.5c-14.667 -19.333 -27 -34.5 -37 -45.5s-18 -16.5 -24 -16.5c-7.33301 0.666992 -12.666 4.16699 -15.999 10.5s-5 14.166 -5 23.499c0 8 1 17.167 3 27.5
s4.5 21.166 7.5 32.499s6.5 22.833 10.5 34.5l11 32.5l12 36l-1 -1l4 21c2.66699 8 5.16699 16.333 7.5 25s3.5 15.667 3.5 21c0 4.66699 -0.333008 8.33398 -1 11.001c0 2.66699 0.666992 5.33398 2 8.00098c5.33301 6.66699 11.833 12.334 19.5 17.001s15.167 7 22.5 7
c11.333 0 18 -5 20 -15s3 -19.333 3 -28c0 -15.333 -2 -31.5 -6 -48.5s-8.66699 -34.5 -14 -52.5c8.66699 14 18.5 28.833 29.5 44.5s22.167 30 33.5 43s22.666 23.667 33.999 32s21.666 12.5 30.999 12.5c6.66699 0 12.5 -2 17.5 -6s9.16699 -9.16699 12.5 -15.5
s5.83301 -13 7.5 -20s2.5 -13.5 2.5 -19.5c0 -11.333 -2.33301 -25.5 -7 -42.5s-9.66699 -33.167 -15 -48.5c22 31.333 45.167 60.833 69.5 88.5s50.166 49.834 77.499 66.501c14 6 24.333 9 31 9c15.333 0 26.166 -6 32.499 -18s9.5 -25.667 9.5 -41c0 -12 -2 -25 -6 -39
l-5 -19h1l-16 -55c-6.66699 -22.667 -13 -46 -19 -70s-11.333 -46.667 -16 -68s-7 -37.333 -7 -48v-1z" />
    <glyph glyph-name="n.001" unicode="&#xe00d;" horiz-adv-x="363" 
d="M184 292c5.33301 16.667 9.5 30.165 12.5 40.498s4.5 18.166 4.5 23.499c-4.66699 -2 -11.167 -7.16699 -19.5 -15.5s-17.833 -18.833 -28.5 -31.5l-34.5 -42.5l-37.5 -46.5l-34.5 -43.5l-30.5 -36.5c-9.33301 -10.667 -17.666 -19.167 -24.999 -25.5s-13 -9.5 -17 -9.5
c-6.66699 0 -11.5 3.83301 -14.5 11.5s-4.5 15.167 -4.5 22.5c0 13.333 2.16699 28.833 6.5 46.5s9.83301 37.167 16.5 58.5c3.33301 9.33301 6.33301 18.666 9 27.999l8 28l2 12c1.33301 4 2.33301 8.16699 3 12.5s1.33398 8.16602 2.00098 11.499
c1.33301 8.66699 3 17.334 5 26.001s4.83301 16.5 8.5 23.5s8.66699 12.667 15 17s15.166 6.5 26.499 6.5c4 0 8.16699 -0.666992 12.5 -2s8.16602 -3.66602 11.499 -6.99902c2 -2 3 -4 3 -6c-0.666992 -24 -4.5 -49.167 -11.5 -75.5s-14.833 -53.166 -23.5 -80.499l66 80
l10 12c15.333 18.667 31.166 36 47.499 52s34.5 24 54.5 24c16 0 27.5 -6.5 34.5 -19.5s10.5 -27.5 10.5 -43.5c0 -19.333 -3.66699 -39.666 -11 -60.999s-14.333 -40.666 -21 -57.999c-1.33301 -5.33301 -2.83301 -9.66602 -4.5 -12.999s-3.5 -9.66602 -5.5 -18.999
c-11.333 -35.333 -19 -63.833 -23 -85.5s-6 -38.167 -6 -49.5c0 -3.33301 -0.333008 -5.66602 -1 -6.99902c9.33301 7.33301 21.166 19.5 35.499 36.5l47.5 57.5l77 90c28 32 56.333 61.5 85 88.5s57.167 49.5 85.5 67.5s54.5 27 78.5 27c12.667 0 21.667 -1.83301 27 -5.5
s8 -7.83398 8 -12.501c0 -3.33301 -2.16699 -6.83301 -6.5 -10.5s-8.83301 -5.83398 -13.5 -6.50098c-23.333 -4 -48.666 -15.167 -75.999 -33.5s-55 -40.333 -83 -66s-55.5 -53.334 -82.5 -83.001l-74.5 -83.5l-48.5 -56.5c-15 -17 -29.167 -31.167 -42.5 -42.5
s-27.666 -17 -42.999 -17s-27 6.16699 -35 18.5s-12 29.166 -12 50.499c0 14.667 1.83301 31.334 5.5 50.001s8.16699 37.5 13.5 56.5s11 37.5 17 55.5l17 49l-1 -1l4 12z" />
    <glyph glyph-name="o.001" unicode="&#xe00e;" horiz-adv-x="342" 
d="M121 322c0 15.333 2.66797 30 8.00098 44c-17.333 -11.333 -32 -27.166 -44 -47.499s-21.833 -42.166 -29.5 -65.499s-13.334 -46.666 -17.001 -69.999s-5.5 -43.333 -5.5 -60c0 -25.333 2.5 -44.833 7.5 -58.5s12.167 -20.5 21.5 -20.5c13.333 0 30.5 12.167 51.5 36.5
s41.167 61.166 60.5 110.499c-17.333 17.333 -30.5 37.666 -39.5 60.999s-13.5 46.666 -13.5 69.999zM124.001 415c4.66699 0 9.6709 -0.331055 15.0039 -0.998047s9.66602 -3.33398 12.999 -8.00098c5.33301 5.33301 11.166 9.5 17.499 12.5s13.166 4.5 20.499 4.5
c15.333 0 28.166 -6.66699 38.499 -20s15.5 -34 15.5 -62c0 -23.333 -3.66699 -47.833 -11 -73.5s-14 -47.167 -20 -64.5c4.66699 -2.66699 9.33398 -4 14.001 -4c14.667 0 30.5 8.16699 47.5 24.5s35.167 35.5 54.5 57.5l39.5 43c13.667 14.667 28.167 28.167 43.5 40.5
s31.5 23.166 48.5 32.499s35.167 15.666 54.5 18.999c6 0 11.5 -2 16.5 -6s7.5 -7.66699 7.5 -11c0 -8.66699 -4 -13.334 -12 -14.001c-12.667 -4 -25.834 -10.167 -39.501 -18.5s-27.5 -18 -41.5 -29s-27.5 -22.833 -40.5 -35.5l-37.5 -37l-36.5 -35
c-12.333 -12 -24.666 -22.833 -36.999 -32.5s-24.5 -17.667 -36.5 -24s-23 -9.5 -33 -9.5c-7.33301 0 -15.333 2 -24 6c-21.333 -51.333 -45.833 -92.666 -73.5 -123.999s-57.167 -47 -88.5 -47c-22.667 0 -41.667 9.83301 -57 29.5s-23 50.834 -23 93.501
c0 14 1.16699 31.167 3.5 51.5s6.16602 41.333 11.499 63s12.333 43.167 21 64.5s19 40.5 31 57.5s26.167 30.667 42.5 41s34.833 15.5 55.5 15.5zM181.005 214.002c0.666992 3.33301 2.33301 8.33301 5 15c2 -2 3.83301 -4 5.5 -6s3.5 -3.66699 5.5 -5zM157.004 322.002
c0 -16.667 2.66895 -33.335 8.00195 -50.002s12.333 -31 21 -43c5.33301 15.333 10.666 33 15.999 53s8 39.333 8 58c0 16.667 -2.16699 28.834 -6.5 36.501s-8.83301 11.5 -13.5 11.5c-8.66699 0 -16.334 -6.66699 -23.001 -20s-10 -28.666 -10 -45.999z" />
    <glyph glyph-name="p.001" unicode="&#xe00f;" horiz-adv-x="383" 
d="M70 323c13.333 15.333 29.167 29.166 47.5 41.499s36.833 18.5 55.5 18.5c14 0 26 -3 36 -9s18.167 -13.5 24.5 -22.5s11 -19.333 14 -31s4.5 -22.834 4.5 -33.501c0 -15.333 -1.66699 -31 -5 -47s-7.5 -31.667 -12.5 -47s-10.5 -29.666 -16.5 -42.999l-16 -35
c11.333 2.66699 23.333 8.33398 36 17.001s25.834 19 39.501 31s27.667 25.167 42 39.5l42.5 43.5l57.5 57c20.333 19.333 40.833 37 61.5 53s41.167 29.333 61.5 40s39.5 16.334 57.5 17.001c5.33301 0 10.666 -2 15.999 -6s8 -7.66699 8 -11
c0 -8.66699 -3.66699 -13 -11 -13c-18 -6 -36.667 -15 -56 -27s-38.666 -25.333 -57.999 -40s-38.166 -30.5 -56.499 -47.5l-51.5 -49.5l-53.5 -52.5c-17.667 -17 -35 -32 -52 -45s-33.833 -23.333 -50.5 -31s-33 -11.5 -49 -11.5h-4
c-21.333 -28.667 -44.5 -49.334 -69.5 -62.001s-46.5 -19 -64.5 -19c-11.333 0 -22.666 3.33301 -33.999 10c-9.33301 -40 -21 -83.333 -35 -130s-31.833 -90.334 -53.5 -131.001s-47.334 -74.5 -77.001 -101.5s-64.834 -40.5 -105.501 -40.5c-22 0 -40.5 3.16699 -55.5 9.5
s-27.333 15 -37 26s-16.667 23.667 -21 38s-6.5 29.5 -6.5 45.5c0 7.33301 0.5 14.666 1.5 21.999s2.16699 15.333 3.5 24l-13 -3c-26 -5.33301 -51.667 -11 -77 -17s-48.666 -13.5 -69.999 -22.5s-39.833 -20.167 -55.5 -33.5s-26.5 -30.333 -32.5 -51
c-2 -7.33301 -7.33301 -11 -16 -11c-7.33301 0 -12.666 4.66699 -15.999 14c0.666992 30.667 8.33398 55.334 23.001 74.001s33.667 33.5 57 44.5s49.833 19.5 79.5 25.5s59.5 11.333 89.5 16l42 6c6.66699 20.667 15.167 40 25.5 58s22 33.833 35 47.5s27 24.334 42 32.001
s30.5 11.5 46.5 11.5c20 0 34.833 -6 44.5 -18s14.5 -25.667 14.5 -41c0 -18.667 -5.5 -34.834 -16.5 -48.501s-25 -25.5 -42 -35.5s-36.333 -18.333 -58 -25s-42.834 -12.334 -63.501 -17.001c-1.33301 -6 -2.33301 -12.667 -3 -20s-1 -13.666 -1 -18.999
c0 -23.333 4.66699 -42.5 14 -57.5s24.666 -22.5 45.999 -22.5c29.333 0 56 13.667 80 41l-1 -1c34 40.667 62.167 88.834 84.5 144.501s40.666 113 54.999 172s25.666 117 33.999 174s15.166 107.5 20.499 151.5l6 44c0.666992 4 2.83398 8 6.50098 12
s8.33398 7.5 14.001 10.5s11.5 5.5 17.5 7.5s11.333 3 16 3c7.33301 0 13.166 -1.5 17.499 -4.5s6.83301 -8.16699 7.5 -15.5zM121.001 109l3 5h6zM29.001 83c13.333 9.33301 28.667 16.668 46 22.001s33.666 8.33301 48.999 9c14.667 27.333 27.334 56 38.001 86
s16 57.667 16 83c0 16.667 -2.66699 28.667 -8 36s-12 11 -20 11s-16.5 -2.33301 -25.5 -7s-17.833 -11.334 -26.5 -20.001s-16.834 -19.167 -24.501 -31.5s-14.167 -25.833 -19.5 -40.5l1 1l-6 -37.5l-6 -38.5c-1.33301 -8.66699 -2.66602 -15.667 -3.99902 -21
s-2.5 -10.5 -3.5 -15.5l-3 -15.5c-1 -5.33301 -2.16699 -12.333 -3.5 -21zM-198.998 -117.998l4.49707 13c1.66699 4.66699 2.5 9.33398 2.5 14.001c0 5.33301 -1.66699 10.166 -5 14.499s-9 6.5 -17 6.5c-11.333 0 -22.166 -3 -32.499 -9s-19.833 -14 -28.5 -24
s-16.667 -21.5 -24 -34.5s-13.666 -26.833 -18.999 -41.5c26.667 6 50.334 13.333 71.001 22s36.667 21.667 48 39zM85.999 67.002c2.66699 2 4.33398 3.16699 5.00098 3.5l1 0.5l1 1c0.666992 0.666992 2 2.66699 4 6c-20.667 -5.33301 -36.834 -12 -48.501 -20
s-17.5 -14.667 -17.5 -20c0 -1.33301 2 -2 6 -2c5.33301 0 12.5 3.16699 21.5 9.5s16.167 11.833 21.5 16.5l5 4z" />
    <glyph glyph-name="q.001" unicode="&#xe010;" horiz-adv-x="357" 
d="M285 392l-39 -92.498l-27.5 -66.5c-7.66699 -18.667 -14.167 -35.167 -19.5 -49.5l-15 -40.5c13.333 6.66699 29 18 47 34s37 34 57 54l65.5 63.5c23 21.667 47.167 41.5 72.5 59.5s51.666 32.833 78.999 44.5s55.666 17.5 84.999 17.5c10 0 18.833 -1 26.5 -3
s11.5 -7.66699 11.5 -17c0 -8 -2.33301 -12.667 -7 -14s-9.66699 -2 -15 -2c-26.667 0 -52.667 -5.16699 -78 -15.5s-50 -23.833 -74 -40.5s-47.167 -35 -69.5 -55l-63.5 -58c-28 -27.333 -54.667 -51.5 -80 -72.5s-48.666 -32.167 -69.999 -33.5
c0 -0.666992 -0.166992 -1.33398 -0.5 -2.00098s-0.5 -1.33398 -0.5 -2.00098l-3 -12c10.667 -34 18.334 -66.833 23.001 -98.5s7 -61.5 7 -89.5c0 -30 -2.33301 -57.5 -7 -82.5s-11.167 -46.667 -19.5 -65s-18.333 -32.5 -30 -42.5s-24.5 -15 -38.5 -15
c-12.667 0 -23.167 4.16699 -31.5 12.5s-15 19 -20 32s-8.5 27.5 -10.5 43.5s-3 31.333 -3 46c0 58.667 6.66699 112.334 20 161.001s27.666 93.667 42.999 135c-15.333 -11.333 -30.666 -20.5 -45.999 -27.5s-32 -10.5 -50 -10.5c-21.333 0 -36.666 6.33301 -45.999 19
s-14 29 -14 49c0 19.333 4.33301 41.166 13 65.499s19.667 48 33 71s28.5 43.667 45.5 62s33.5 30.5 49.5 36.5c7.33301 3.33301 14.666 5.5 21.999 6.5s14.333 1.5 21 1.5c26 0 49.333 -7.66699 70 -23c4 11.333 10 20.5 18 27.5s22.667 10.5 44 10.5
c7.33301 0 13.5 -1.33301 18.5 -4s7.5 -6.66699 7.5 -12v-2zM122 185.002c0 1.33301 0.333008 2.33301 1 3l1 1zM34 133.002c10.667 0 23.667 5.16895 39 15.502s32 23.5 50 39.5c7.33301 20 14 37.333 20 52l15.5 39c4.33301 11.333 8.33301 21.333 12 30l10.5 24
c0 2 0.5 3.66699 1.5 5s2.16699 3 3.5 5c-8.66699 6 -17.667 9 -27 9c-16.667 0 -33.5 -6.5 -50.5 -19.5s-32.5 -29 -46.5 -48s-25.333 -39.333 -34 -61s-13 -40.834 -13 -57.501c0 -8.66699 1.66699 -16.334 5 -23.001s8 -10 14 -10zM159 63.0039l-11 -35
c-1.33301 6 -2.83301 12 -4.5 18s-3.16699 11.667 -4.5 17h20zM163 -100.996c0 20 -1.16797 40.666 -3.50098 61.999s-6.16602 43.666 -11.499 66.999c-10.667 -38 -18.834 -73.667 -24.501 -107s-8.5 -69.666 -8.5 -108.999c0 -19.333 0.666992 -36.166 2 -50.499
s3.66602 -21.5 6.99902 -21.5c4 0 8.33301 4.16699 13 12.5s8.83398 19.833 12.501 34.5s6.83398 31.5 9.50098 50.5s4 39.5 4 61.5z" />
    <glyph glyph-name="r.001" unicode="&#xe011;" horiz-adv-x="238" 
d="M75 54c10 9.33301 21.668 21.832 35.001 37.499l44 52.5l78 90c28 32 56.5 61.5 85.5 88.5s57.667 49.5 86 67.5s54.5 27 78.5 27c12.667 0 21.667 -1.83301 27 -5.5s8 -7.83398 8 -12.501c0 -3.33301 -2.16699 -6.83301 -6.5 -10.5s-8.83301 -5.83398 -13.5 -6.50098
c-23.333 -4 -48.666 -15.167 -75.999 -33.5s-55 -40.333 -83 -66s-55.5 -53.334 -82.5 -83.001l-74.5 -83.5l-40.5 -47.5c-12.333 -14.333 -25.5 -28.166 -39.5 -41.499c-7.33301 -6.66699 -15.833 -13.167 -25.5 -19.5s-20.167 -9.5 -31.5 -9.5c-14 0 -25.167 6 -33.5 18
s-12.5 28.667 -12.5 50c0 11.333 1 24 3 38s4.5 28.167 7.5 42.5s6.5 28.5 10.5 42.5l11 39l5.5 19.5c1.66699 5.66699 3.16699 11.167 4.5 16.5c-21.333 8 -38.5 19.833 -51.5 35.5s-19.5 32.834 -19.5 51.501c0 17.333 4.5 32.5 13.5 45.5s18.833 19.5 29.5 19.5
s19.167 -5.66699 25.5 -17s9.5 -24 9.5 -38c0 -6 -0.333008 -12.167 -1 -18.5s-2.33398 -12.833 -5.00098 -19.5l14 -2c8 -1.33301 16 -3 24 -5s15.5 -4.5 22.5 -7.5s12.667 -6.83301 17 -11.5s6.5 -10.667 6.5 -18c0 -2 -0.333008 -4.16699 -1 -6.5
s-1.33398 -4.5 -2.00098 -6.5c-0.666992 -1.33301 -3.83398 -10.166 -9.50098 -26.499s-12 -35.666 -19 -57.999s-13.333 -45 -19 -68s-8.5 -41.5 -8.5 -55.5v-11c0.666992 0 1.83398 0.833008 3.50098 2.5s3.5 3.16699 5.5 4.5zM15.001 364.999
c0.666992 0 1.66797 0.333008 3.00098 1c-3.33301 -2 -5 -7 -5 -15c0 -3.33301 0.666992 -6.5 2 -9.5s3.66602 -5.83301 6.99902 -8.5l-15 -3c3.33301 8 5 16.333 5 25c0 6.66699 1 10 3 10z" />
    <glyph glyph-name="s.001" unicode="&#xe012;" horiz-adv-x="268" 
d="M-2 -24c-24 0 -44.1709 6.99902 -60.5039 20.999s-24.5 31.667 -24.5 53c0 18 4.66699 33.667 14 47s21 25 35 35s29 18.5 45 25.5s30.333 12.5 43 16.5c-3.33301 11.333 -8.16602 23.166 -14.499 35.499l-17.5 33.5c-9.33301 17.333 -17.666 34.833 -24.999 52.5
s-11 35.167 -11 52.5c0 16 2.66699 29.667 8 41s12.5 20.5 21.5 27.5s18.833 12.167 29.5 15.5s21.667 5 33 5c23.333 0 40.833 -6.83301 52.5 -20.5s17.5 -29.834 17.5 -48.501c0 -2.66699 -0.666992 -7.16699 -2 -13.5s-3 -12.666 -5 -18.999s-4.66699 -11.833 -8 -16.5
s-7 -7 -11 -7s-8.16699 1.83301 -12.5 5.5s-6.5 7.83398 -6.5 12.501c0 1.33301 0.5 3 1.5 5s2.16699 3.66699 3.5 5c5.33301 9.33301 8 19 8 29c0 9.33301 -2.66699 17.5 -8 24.5s-13.666 10.5 -24.999 10.5c-10.667 0 -18 -3.5 -22 -10.5s-6 -15.167 -6 -24.5
c0 -11.333 1.83301 -23.5 5.5 -36.5s8 -25.667 13 -38s10 -23.666 15 -33.999l11.5 -23.5c3.33301 -7.33301 6.5 -14.833 9.5 -22.5s5.83301 -15.5 8.5 -23.5l65 18l78 21c27.333 7.33301 55 14 83 20s55.667 11 83 15s53 6 77 6c12.667 0 26.167 -1.16699 40.5 -3.5
s27.5 -5.66602 39.5 -9.99902s22 -9.5 30 -15.5s12 -13 12 -21c0 -4.66699 -1.66699 -8.33398 -5 -11.001s-7 -4 -11 -4s-8.33301 1.33301 -13 4c-12 6 -27 10.667 -45 14s-35.667 5 -53 5c-23.333 0 -48.166 -1.83301 -74.499 -5.5s-53 -8.16699 -80 -13.5
s-53.833 -11.333 -80.5 -18l-76 -19l-63 -15c1.33301 -6 2 -12.333 2 -19v-20c0 -18.667 -2.16699 -36.667 -6.5 -54s-11.5 -32.5 -21.5 -45.5s-23 -23.5 -39 -31.5s-35.333 -12 -58 -12zM69.9961 143.999l-12 -4c0 2 -0.166992 4 -0.5 6s-0.5 4 -0.5 6zM58.9961 132.999
c0 2.66699 -0.333008 5 -1 7c-40.667 -12.667 -69.167 -27.834 -85.5 -45.501s-24.5 -33.167 -24.5 -46.5c0 -9.33301 3.16699 -17.166 9.5 -23.499s14.166 -9.5 23.499 -9.5c13.333 0 24.833 3.83301 34.5 11.5s17.834 17.5 24.501 29.5s11.5 24.833 14.5 38.5
s4.5 26.5 4.5 38.5z" />
    <glyph glyph-name="t.001" unicode="&#xe013;" horiz-adv-x="247" 
d="M-7 300c7.33301 30.667 14.8311 59.6699 22.498 87.0029s16.834 56 27.501 86c-3.33301 0.666992 -7 1.16699 -11 1.5s-7.66699 0.5 -11 0.5c-12.667 0 -25.167 -2.5 -37.5 -7.5s-23.166 -14.833 -32.499 -29.5c-3.33301 -1.33301 -5.33301 -2.16602 -6 -2.49902
s-1.66699 -0.5 -3 -0.5c-9.33301 0 -15 6.66699 -17 20c11.333 19.333 25.166 32.666 41.499 39.999s33.166 11 50.499 11c5.33301 0 11.166 -0.166992 17.499 -0.5s12.166 -1.16602 17.499 -2.49902c2 6 4.66699 13.167 8 21.5s8 19.166 14 32.499c4 6 11.833 11 23.5 15
s21.834 6 30.501 6c7.33301 0 13.333 -1.16699 18 -3.5s7 -7.83301 7 -16.5l-22 -61c11.333 1.33301 22 4.16602 32 8.49902s20.667 11.166 32 20.499c7.33301 0 12.833 -3 16.5 -9s5.5 -12.667 5.5 -20c0 -2.66699 -1 -5 -3 -7c-12 -11.333 -25 -19.166 -39 -23.499
s-28 -6.5 -42 -6.5c-3.33301 0 -5.83301 -0.166992 -7.5 -0.5s-4.16699 -0.166016 -7.5 0.500977c-4 -12.667 -8.83301 -29.167 -14.5 -49.5s-11.667 -43 -18 -68l-19.5 -78.5c-6.66699 -27.333 -12.667 -53.833 -18 -79.5s-9.66602 -49.5 -12.999 -71.5s-5 -40 -5 -54
c0 -6 -0.333008 -9.33301 -1 -10c9.33301 6.66699 21.333 18.5 36 35.5l49 59.5l76.5 90c27.667 32 55.834 61.5 84.501 88.5s57.167 49.5 85.5 67.5s54.5 27 78.5 27c13.333 0 22.5 -1.83301 27.5 -5.5s7.5 -7.83398 7.5 -12.501c0 -3.33301 -2 -6.83301 -6 -10.5
s-8.33301 -5.83398 -13 -6.50098c-23.333 -4 -48.833 -15.167 -76.5 -33.5s-55.5 -40.333 -83.5 -66s-55.333 -53.334 -82 -83.001l-74 -83.5l-50.5 -58c-15 -17.333 -28.167 -31 -39.5 -41c-8 -6 -15.833 -10.833 -23.5 -14.5s-15.167 -5.5 -22.5 -5.5
c-15.333 0 -27.166 7.16699 -35.499 21.5s-12.5 34.5 -12.5 60.5c0 14.667 1.16699 31 3.5 49s5.33301 36 9 54l11 52l9.5 44c0.666992 3.33301 1.5 6.83301 2.5 10.5s1.83301 7.16699 2.5 10.5v1z" />
    <glyph glyph-name="u.001" unicode="&#xe014;" horiz-adv-x="360" 
d="M214 154c-4.66699 -20.667 -7.83301 -38.8301 -9.5 -54.4971s-2.5 -28.5 -2.5 -38.5c0 -3.33301 -0.166992 -5.83301 -0.5 -7.5s-0.5 -3.16699 -0.5 -4.5c8.66699 7.33301 20.334 19.333 35.001 36s31 36.334 49 59.001l77 90c28 32 56.333 61.5 85 88.5
s57.167 49.5 85.5 67.5s54.5 27 78.5 27c12.667 0 21.667 -1.83301 27 -5.5s8 -7.83398 8 -12.501c0 -3.33301 -2.16699 -6.83301 -6.5 -10.5s-8.83301 -5.83398 -13.5 -6.50098c-23.333 -4 -48.666 -15.167 -75.999 -33.5s-55 -40.333 -83 -66s-55.5 -53.334 -82.5 -83.001
l-74.5 -83.5l-50 -58c-15.333 -17.333 -28.666 -31 -39.999 -41c-15.333 -12 -29 -18 -41 -18c-14 0 -25 6 -33 18s-12 30.667 -12 56c0 14.667 1.16699 31.334 3.5 50.001s6.16602 38.334 11.499 59.001c-10.667 -18.667 -21.834 -36.5 -33.501 -53.5
s-23.334 -31.833 -35.001 -44.5s-23.5 -22.667 -35.5 -30s-23.667 -11 -35 -11c-19.333 0 -32.666 7.16699 -39.999 21.5s-11 32.166 -11 53.499c0 25.333 3.33301 52.666 10 81.999s13 54.666 19 75.999l7 24c0 1.33301 0.333008 2.83301 1 4.5s1 2.83398 1 3.50098
c3.33301 13.333 7.33301 27.833 12 43.5s10 31.5 16 47.5c2 4.66699 6.66699 8.33398 14 11.001s15 4 23 4c8.66699 0 16.667 -1.66699 24 -5s11 -8.66602 11 -15.999c-5.33301 -14.667 -10.333 -30.167 -15 -46.5l-14 -49.5v2c-1.33301 -4 -2 -6.33301 -2 -7
c-2 -8 -5 -19 -9 -33s-7.83301 -28.833 -11.5 -44.5s-6.83398 -31.334 -9.50098 -47.001s-4 -29.167 -4 -40.5c0 -6.66699 0.333008 -12.167 1 -16.5s2.33398 -6.5 5.00098 -6.5c7.33301 0 15.666 4.66699 24.999 14s19.166 21.666 29.499 36.999s20.833 32.666 31.5 51.999
s20.834 39 30.501 59l27.5 58.5l23 49.5l11 26c3.33301 4 10 7.33301 20 10s19.333 4 28 4c7.33301 0 13.333 -1.16699 18 -3.5s7 -7.16602 7 -14.499l-41 -120c-14 -42.667 -25.333 -83.334 -34 -122.001z" />
    <glyph glyph-name="v.001" unicode="&#xe015;" horiz-adv-x="341" 
d="M500 390c-26.667 -11.333 -52.9961 -28.165 -78.9961 -50.498l-76 -68.5c-27.333 -24.667 -52.833 -46.667 -76.5 -66s-45.167 -29 -64.5 -29c-12.667 0 -24 5 -34 15c-17.333 -26.667 -34.833 -51.667 -52.5 -75s-34.834 -43.5 -51.501 -60.5
s-32.334 -30.5 -47.001 -40.5s-28 -15 -40 -15c-12.667 2 -22 8.33301 -28 19s-9 27.667 -9 51c0 22.667 2.66699 48 8 76s12 55.667 20 83s16.5 53 25.5 77s17.167 43.333 24.5 58c2 2 5.16699 4 9.5 6s9.16602 3.83301 14.499 5.5s10.833 3.16699 16.5 4.5s10.5 2 14.5 2
c14 0 21 -6.33301 21 -19c-5.33301 -10 -12.833 -27.333 -22.5 -52s-19.167 -51.5 -28.5 -80.5s-17.333 -57.5 -24 -85.5s-10 -50.667 -10 -68c0 -13.333 1.66699 -20 5 -20c7.33301 0 16.5 5 27.5 15s22.833 22.833 35.5 38.5s25.334 33 38.001 52l36 55.5
c-8.66699 20 -13 42.333 -13 67c0 12 1.5 25.5 4.5 40.5s7.5 29.167 13.5 42.5s13.667 24.666 23 33.999s20.666 14 33.999 14s22.833 -3.83301 28.5 -11.5s8.5 -17.834 8.5 -30.501c0 -10 -1.5 -20.667 -4.5 -32s-6.33301 -22.166 -10 -32.499
s-7.33398 -19.5 -11.001 -27.5s-6.16699 -13.333 -7.5 -16l-10 -14l1 1c-3.33301 -6.66699 -6.33301 -12.334 -9 -17.001s-6 -10 -10 -16c2 -2 4.33301 -4 7 -6s5 -3 7 -3c13.333 0 29.333 8.33301 48 25l61 57l41 38.5c14 13 28.167 25.167 42.5 36.5
s28.833 21.333 43.5 30s29 14.667 43 18l-1 -1l6 2c4.66699 0 9 -2.33301 13 -7s5.33301 -9.66699 4 -15l-3 -3zM165.004 239.001l11 19.999c0.666992 -7.33301 2.66699 -14.666 6 -21.999zM173.004 285c0 -9.33301 0.99707 -18 2.99707 -26l12 21v-1
c2 3.33301 4.66699 8.83301 8 16.5l10.5 25c3.66699 9 6.83398 18 9.50098 27s4 17.167 4 24.5c0 6 -1.66699 9.66699 -5 11c-8 -0.666992 -14.667 -4.5 -20 -11.5s-9.66602 -15.5 -12.999 -25.5s-5.66602 -20.667 -6.99902 -32s-2 -21 -2 -29z" />
    </font>
</defs>
</svg>
