<?xml version="1.0" standalone="no"?>
<!DOCTYPE svg PUBLIC "-//W3C//DTD SVG 1.1//EN" "http://www.w3.org/Graphics/SVG/1.1/DTD/svg11.dtd" >
<svg>
<metadata>
Created by FontForge 20090914 at Thu Feb  7 19:38:00 2019
 By www-data
Copyright (c) 2019 by Creative LAB. All rights reserved.
</metadata>
<defs>
<font id="GreatestScript" horiz-adv-x="334" >
  <font-face 
    font-family="Greatest Script"
    font-weight="400"
    font-stretch="normal"
    units-per-em="1000"
    panose-1="2 0 5 3 2 0 0 2 0 3"
    ascent="750"
    descent="-250"
    x-height="399.002"
    cap-height="715.001"
    bbox="-1743 -383.064 1582 812.996"
    underline-thickness="50"
    underline-position="-50"
    unicode-range="U+000D-U+E0B5"
  />
<missing-glyph horiz-adv-x="210" 
 />
    <glyph glyph-name=".notdef" horiz-adv-x="210" 
 />
    <glyph glyph-name="NULL" horiz-adv-x="0" 
 />
    <glyph glyph-name="NULL" horiz-adv-x="0" 
 />
    <glyph glyph-name="nonmarkingreturn" unicode="&#xd;" horiz-adv-x="210" 
 />
    <glyph glyph-name="space" unicode=" " horiz-adv-x="210" 
 />
    <glyph glyph-name="exclam" unicode="!" horiz-adv-x="177" 
d="M5 92l77.999 210l54.5 147.5l37 99.5l25.5 67c3.33301 12 11.333 21.5 24 28.5s25.334 10.5 38.001 10.5c11.333 0 20.5 -3 27.5 -9s9.16699 -15.333 6.5 -28l-84 -210l-58 -144.5l-40 -101.5l-30 -80c-1.33301 -6.66699 -8 -12.5 -20 -17.5s-24 -7.5 -36 -7.5
c-9.33301 0 -16.5 2 -21.5 6s-6.5 11.333 -4.5 22c0 2.66699 1 5 3 7zM-5.00098 -59c-14.667 0.666992 -24.334 6.00098 -29.001 16.001s-5.66699 20.667 -3 32s8.83398 22.166 18.501 32.499s21.834 15.5 36.501 15.5c13.333 0 23.666 -4.83301 30.999 -14.5
s9.33301 -21.167 6 -34.5c-2.66699 -12 -9.5 -22.833 -20.5 -32.5s-23.833 -14.5 -38.5 -14.5h-1z" />
    <glyph glyph-name="quotedbl" unicode="&#x22;" horiz-adv-x="354" 
d="M261 697c18 0 30.1699 -4.99805 36.5029 -14.998s8.16602 -22.333 5.49902 -37c-2.66699 -12 -8.5 -25.167 -17.5 -39.5s-19.833 -28 -32.5 -41s-26.334 -24.167 -41.001 -33.5s-28.667 -14.666 -42 -15.999c-7.33301 0 -13 2.16699 -17 6.5s-5 10.166 -3 17.499
c1.33301 7.33301 3.33301 12.166 6 14.499s6 4.5 10 6.5l-1 -1c6 2.66699 12.667 7.5 20 14.5s14 14.167 20 21.5c-8 5.33301 -12.667 11.666 -14 18.999s-1.33301 15.333 0 24c3.33301 14 11.166 27.333 23.499 40s27.833 19 46.5 19zM404.003 695.002
c18 0 30.1689 -4.99805 36.502 -14.998s7.83301 -22.333 4.5 -37c-2 -12 -7.5 -25.167 -16.5 -39.5s-19.833 -28 -32.5 -41s-26.5 -24.167 -41.5 -33.5s-29.5 -14.666 -43.5 -15.999c-7.33301 0 -12.833 2.16699 -16.5 6.5s-4.83398 10.166 -3.50098 17.499
c2 7.33301 4.5 12.166 7.5 14.499s6.5 4.5 10.5 6.5l-1 -1c6 3.33301 12.5 8.5 19.5 15.5s13.167 13.833 18.5 20.5c-7.33301 5.33301 -11.5 11.666 -12.5 18.999s-0.833008 15.333 0.5 24c3.33301 14.667 11.166 28.167 23.499 40.5s27.833 18.5 46.5 18.5z" />
    <glyph glyph-name="numbersign" unicode="#" horiz-adv-x="578" 
d="M340 534c4.66699 9.33301 10.6699 16.1689 18.0029 20.502s15 6.5 23 6.5c8.66699 0 16 -2.83301 22 -8.5s7.66699 -14.167 5 -25.5l-2 -7l-66 -155h84l71 169c4.66699 9.33301 10.5 16.166 17.5 20.499s14.167 6.5 21.5 6.5c8.66699 0 16 -2.83301 22 -8.5
s7.66699 -14.167 5 -25.5l-2 -7l-64 -155h71c11.333 0 19.166 -3.5 23.499 -10.5s5.5 -14.833 3.5 -23.5c-1.33301 -9.33301 -5.66602 -17.5 -12.999 -24.5s-16.666 -10.5 -27.999 -10.5h-86l-11 -27.5c-3.33301 -8.33301 -8 -19.166 -14 -32.499h70
c10.667 0 18.5 -3.5 23.5 -10.5s6.16699 -15.167 3.5 -24.5c-1.33301 -8.66699 -5.83301 -16.5 -13.5 -23.5s-16.834 -10.5 -27.501 -10.5h-84l-65 -158c-4 -9.33301 -9.5 -16 -16.5 -20s-14.5 -6 -22.5 -6c-8.66699 0 -15.834 2.66699 -21.501 8s-7.5 13.666 -5.5 24.999
l2 8l59 143h-83l-66 -158c-7.33301 -17.333 -20.333 -26 -39 -26c-8.66699 0 -15.834 2.66699 -21.501 8s-7.5 13.666 -5.5 24.999l2 8l60 143h-62c-12 0 -19.833 3.5 -23.5 10.5s-4.83398 14.833 -3.50098 23.5c2.66699 9.33301 7.16699 17.5 13.5 24.5
s15.5 10.5 27.5 10.5h76c4.66699 10.667 8.5 20 11.5 28l12.5 32h-96c-11.333 0 -19 3.5 -23 10.5s-5.33301 15.167 -4 24.5c2 8.66699 6.5 16.5 13.5 23.5s16.167 10.5 27.5 10.5h110zM312.003 296.003l-7 -14.5l-6 -13.5c-2 -4.66699 -4.33301 -9.5 -7 -14.5l-9 -17.5h88
l12 28l13 32h-84z" />
    <glyph glyph-name="dollar" unicode="$" horiz-adv-x="336" 
d="M366 392c-6.66699 -8.66699 -14.3311 -13.0039 -22.998 -13.0039c-6.66699 0 -12 2.33301 -16 7s-5.33301 10.667 -4 18c1.33301 9.33301 4.33301 17.833 9 25.5s7.66699 15.167 9 22.5c2.66699 14 2.66699 25.833 0 35.5s-6.66699 18.167 -12 25.5l-82 -218
c13.333 -30 22.666 -60.333 27.999 -91s5.33301 -59.667 0 -87c-7.33301 -30 -21.833 -55.667 -43.5 -77s-53.167 -34.333 -94.5 -39c-6.66699 -15.333 -12.5 -27.666 -17.5 -36.999s-13.833 -14 -26.5 -14c-7.33301 0 -13.5 2.33301 -18.5 7s-6.16699 13 -3.5 25l12 29
c-11.333 9.33301 -20.166 21 -26.499 35s-6.83301 31.333 -1.5 52c2 8.66699 4.66699 17.834 8 27.501s7.33301 18.167 12 25.5s9.83398 13.5 15.501 18.5s11.834 7.5 18.501 7.5c5.33301 0 10 -1.66699 14 -5s5.33301 -9.33301 4 -18c-2 -9.33301 -6.66699 -18.5 -14 -27.5
s-12 -18.167 -14 -27.5c-2.66699 -10 -1.33398 -21 3.99902 -33l67 176l-19 49c-6 16 -10.833 31.833 -14.5 47.5s-5.83398 31.5 -6.50098 47.5s0.666016 32.667 3.99902 50c4 19.333 11.333 38 22 56s23.5 34 38.5 48s31.667 25.333 50 34s37.166 13.334 56.499 14.001
l9 27c3.33301 7.33301 8 13 14 17s12.333 6 19 6c7.33301 0 13.166 -2.66699 17.499 -8s5.83301 -13 4.5 -23l-13 -34c20.667 -9.33301 33.5 -25.166 38.5 -47.499s4.83301 -45.5 -0.5 -69.5c-2 -11.333 -5.16699 -22.5 -9.5 -33.5s-9.16602 -21.167 -14.499 -30.5z
M275.003 520.996c-13.333 -10 -24.501 -23.168 -33.501 -39.501s-15.167 -32.166 -18.5 -47.499c-1.33301 -9.33301 -2.16602 -19 -2.49902 -29s-0.5 -19.333 -0.5 -28zM153.002 46.9951c25.333 10 41.667 30 49 60c4 21.333 4 48 0 80z" />
    <glyph glyph-name="percent" unicode="%" horiz-adv-x="432" 
d="M361 618c4.66699 10 10.499 17.332 17.499 21.999s14.167 7 21.5 7c9.33301 0 16.833 -3.16699 22.5 -9.5s7.16699 -16.166 4.5 -29.499l-239 -634c-4 -9.33301 -9.66699 -16.333 -17 -21s-14.666 -7 -21.999 -7c-8.66699 0 -16 3.16699 -22 9.5s-7.33301 16.5 -4 30.5z
M209.999 502.999c2 7.33301 3.16699 14.166 3.5 20.499s-0.5 11.5 -2.5 15.5c-5.33301 -5.33301 -10 -12 -14 -20s-7 -16.667 -9 -26c-3.33301 -16 -3.33301 -28.333 0 -37c5.33301 5.33301 10 12.333 14 21s6.66699 17.334 8 26.001zM165.999 401.999
c-11.333 0 -20.833 2.50098 -28.5 7.50098s-13.5 11.833 -17.5 20.5s-6.33301 18.334 -7 29.001s0.333008 21.667 3 33c2.66699 12 6.83398 24.167 12.501 36.5s12.667 23.166 21 32.499s17.666 17 27.999 23s21.833 9 34.5 9s22.5 -2.83301 29.5 -8.5s12 -13 15 -22
s4.33301 -18.833 4 -29.5s-1.5 -21 -3.5 -31c-2 -11.333 -5.66699 -22.833 -11 -34.5s-12 -22.334 -20 -32.001s-17 -17.667 -27 -24s-21 -9.5 -33 -9.5zM386.999 102c3.33301 16 3.99902 27.998 1.99902 35.998c-6.66699 -5.33301 -12.167 -12.166 -16.5 -20.499
s-7.16602 -17.166 -8.49902 -26.499c-2 -7.33301 -3 -14.333 -3 -21s1 -12 3 -16c5.33301 5.33301 10 12.333 14 21s7 17.667 9 27zM342.998 0.998047c-11.333 0 -20.834 2.49902 -28.501 7.49902s-13.667 11.833 -18 20.5s-6.83301 18.5 -7.5 29.5s0.333008 22.167 3 33.5
c2.66699 12 6.83398 24 12.501 36s12.5 22.833 20.5 32.5s17.333 17.334 28 23.001s22.334 8.5 35.001 8.5c12 0 21.667 -3 29 -9s12.666 -13.5 15.999 -22.5s4.83301 -18.833 4.5 -29.5s-1.5 -20.667 -3.5 -30c-2.66699 -11.333 -6.5 -23 -11.5 -35
s-11.333 -22.833 -19 -32.5s-16.5 -17.5 -26.5 -23.5s-21.333 -9 -34 -9z" />
    <glyph glyph-name="ampersand" unicode="&#x26;" horiz-adv-x="573" 
d="M465 273c0.666992 3.33301 4.16602 6.16602 10.499 8.49902s13.333 3.83301 21 4.5s15 -0.166016 22 -2.49902s11.167 -6.16602 12.5 -11.499c-11.333 -32 -27.333 -54.833 -48 -68.5s-44.667 -22.834 -72 -27.501c-10 -22.667 -23.167 -44.667 -39.5 -66
s-35 -40.166 -56 -56.499s-43.5 -29.333 -67.5 -39s-48.667 -14.5 -74 -14.5c-47.333 0 -82 13.333 -104 40s-28.667 61 -20 103c4.66699 24 12.834 46.333 24.501 67s26 39 43 55s36 29.667 57 41s43.5 19.666 67.5 24.999c-12.667 26.667 -17.834 55.5 -15.501 86.5
s10.666 59.667 24.999 86s34 48.333 59 66s53.5 26.5 85.5 26.5c24.667 0 43.667 -6.33301 57 -19s21.833 -27.667 25.5 -45s2.83398 -35.333 -2.49902 -54s-14.333 -34.334 -27 -47.001c-6.66699 -6.66699 -14.667 -9 -24 -7s-17.333 7 -24 15c4 4 8.5 11.5 13.5 22.5
s8.66699 22.333 11 34s2 21.834 -1 30.501s-10.5 13 -22.5 13c-7.33301 0 -15.166 -2.16699 -23.499 -6.5s-16.833 -11.5 -25.5 -21.5c-19.333 -24.667 -30.666 -49.834 -33.999 -75.501s0.666992 -51.167 12 -76.5c2 -4.66699 5.66699 -8.33398 11 -11.001l15.5 -8
c5 -2.66699 9.16699 -5.83398 12.5 -9.50098s4.33301 -9.16699 3 -16.5c-3.33301 -8.66699 -7.83301 -14.667 -13.5 -18s-11.167 -5 -16.5 -5h-4c-1.33301 0 -2.5 0.166992 -3.5 0.5s-2.5 0.5 -4.5 0.5c-19.333 0 -39 -3.33301 -59 -10s-39 -16.5 -57 -29.5
s-33.667 -28.667 -47 -47s-22.333 -39.166 -27 -62.499c-3.33301 -15.333 -3.66602 -28.666 -0.999023 -39.999s6.83398 -20.666 12.501 -27.999s12.667 -13 21 -17s16.833 -6 25.5 -6c16.667 0 34.667 4.83301 54 14.5s37.333 21.834 54 36.501
c13.333 12.667 24.166 24.667 32.499 36s15.166 22 20.499 32h-16.5c-5.66699 0 -11.167 0.333008 -16.5 1c-3.33301 2 -5.5 5 -6.5 9s-1 8.16699 0 12.5s3.16699 8.16602 6.5 11.499s7.66602 5.66602 12.999 6.99902c12.667 0 26 1.16699 40 3.5s27 5.83301 39 10.5
s22.167 10.834 30.5 18.501s13.5 17.167 15.5 28.5z" />
    <glyph glyph-name="quotesingle" unicode="'" horiz-adv-x="210" 
d="M247 697c18.667 0 31 -4.99805 37 -14.998s7.66699 -22.333 5 -37c-2.66699 -12 -8.5 -25.167 -17.5 -39.5s-19.833 -28 -32.5 -41s-26.167 -24.167 -40.5 -33.5s-28.166 -14.666 -41.499 -15.999c-7.33301 0 -13.166 2.16699 -17.499 6.5s-5.5 10.166 -3.5 17.499
c1.33301 7.33301 3.33301 12.166 6 14.499s6.33398 4.5 11.001 6.5l-1 -1c5.33301 2.66699 11.666 7.5 18.999 14.5s14 14.167 20 21.5c-7.33301 5.33301 -11.833 11.666 -13.5 18.999s-1.83398 15.333 -0.500977 24c3.33301 14.667 11.166 28.167 23.499 40.5
s27.833 18.5 46.5 18.5z" />
    <glyph glyph-name="parenleft" unicode="(" horiz-adv-x="227" 
d="M371 586c-19.333 -9.33301 -38.998 -25.999 -58.998 -49.999s-38.833 -52.833 -56.5 -86.5s-33.667 -70.834 -48 -111.501s-25.833 -81.667 -34.5 -123c-5.33301 -26 -9.33301 -51.333 -12 -76s-3.16699 -47.5 -1.5 -68.5s5.33398 -39.167 11.001 -54.5
s13.834 -26 24.501 -32c8 -4 11 -11.333 9 -22c-2.66699 -15.333 -13.334 -23 -32.001 -23c-24 2.66699 -43.167 12.334 -57.5 29.001s-24.5 38 -30.5 64s-8.33301 55.5 -7 88.5s5.66602 67.167 12.999 102.5c9.33301 46 23.666 93.167 42.999 141.5
s41.5 92.166 66.5 131.499s52.333 71.666 82 96.999s59.5 38 89.5 38c7.33301 0 12.666 -2.16699 15.999 -6.5s4.33301 -10.166 3 -17.499c-2 -9.33301 -8.33301 -16.333 -19 -21z" />
    <glyph glyph-name="parenright" unicode=")" horiz-adv-x="261" 
d="M-1 -15c19.333 8.66699 38.835 25.1719 58.502 49.5049s38.334 53.333 56.001 87s33.667 70.667 48 111s25.833 81.166 34.5 122.499c5.33301 26 9.33301 51.5 12 76.5s3.33398 48 2.00098 69s-4.83301 39.167 -10.5 54.5s-13.834 26 -24.501 32
c-5.33301 2.66699 -8.5 5.66699 -9.5 9s-0.833008 7.33301 0.5 12c1.33301 7.33301 4.66602 13.166 9.99902 17.499s12.666 6.5 21.999 6.5c24 -3.33301 43 -13.5 57 -30.5s24 -38.5 30 -64.5s8.33301 -55.333 7 -88s-5.66602 -66.334 -12.999 -101.001
c-6.66699 -30.667 -15.334 -62 -26.001 -94s-23 -63.167 -37 -93.5s-29.5 -58.833 -46.5 -85.5s-34.833 -50 -53.5 -70s-37.834 -35.833 -57.501 -47.5s-39.5 -17.5 -59.5 -17.5c-6.66699 0 -11.667 2.16699 -15 6.5s-4.33301 10.166 -3 17.499
c1.33301 3.33301 3.5 7.16602 6.5 11.499s6.83301 7.5 11.5 9.5z" />
    <glyph glyph-name="asterisk" unicode="*" horiz-adv-x="295" 
d="M301 567c10.667 7.33301 18.498 11.834 23.498 13.501s9.5 2.5 13.5 2.5c8 0 15 -3.5 21 -10.5s8 -15.167 6 -24.5c0 -2.66699 -1 -5.33398 -3 -8.00098s-5.16699 -6 -9.5 -10s-10.166 -8.66699 -17.499 -14s-17 -12 -29 -20l21 -18.5
c7.33301 -6.33301 9.66602 -14.833 6.99902 -25.5c-2 -9.33301 -7.16699 -17.333 -15.5 -24s-16.833 -10 -25.5 -10c-3.33301 0 -7.16602 1 -11.499 3s-10.166 6.66699 -17.499 14l-7.5 -23.5c-2.33301 -7.66699 -5.33301 -14.5 -9 -20.5s-8.5 -10.833 -14.5 -14.5
s-13.667 -5.5 -23 -5.5c-9.33301 1.33301 -15.833 5.66602 -19.5 12.999s-3.83398 19.666 -0.500977 36.999c1.33301 2 2 5 2 9c-8 -5.33301 -14.167 -8.66602 -18.5 -9.99902s-8.16602 -2 -11.499 -2c-8.66699 0 -16 3 -22 9s-7.66699 14 -5 24
c2 10.667 8.83301 20 20.5 28s21.834 14.333 30.501 19c-3.33301 3.33301 -7 6.5 -11 9.5s-7.66699 6.16699 -11 9.5s-5.83301 7 -7.5 11s-1.83398 9 -0.500977 15c2.66699 9.33301 8.16699 17.5 16.5 24.5s16.833 10.5 25.5 10.5c3.33301 0 7.16602 -1 11.499 -3
s11.5 -7.33301 21.5 -16l9 39c4.66699 10 10.834 17.5 18.501 22.5s15.167 7.5 22.5 7.5c8 0 15.167 -3.16699 21.5 -9.5s7.83301 -15.166 4.5 -26.499z" />
    <glyph glyph-name="plus" unicode="+" horiz-adv-x="443" 
d="M120 131c-11.333 0 -19.335 3.50195 -24.002 10.502s-6 14.833 -4 23.5c1.33301 8.66699 5.83301 16.5 13.5 23.5s17.167 10.5 28.5 10.5h91l28 87c2.66699 11.333 7.66699 19.166 15 23.499s15.333 6.5 24 6.5c9.33301 0 17 -3 23 -9s7.66699 -15 5 -27l-26 -81h86
c10.667 0 18.167 -3.5 22.5 -10.5s5.83301 -14.833 4.5 -23.5c-2 -8.66699 -6.66699 -16.5 -14 -23.5s-16.333 -10.5 -27 -10.5h-92c-3.33301 -12 -6.66602 -24.833 -9.99902 -38.5s-7.5 -26.5 -12.5 -38.5s-11 -22 -18 -30s-15.833 -12 -26.5 -12
c-9.33301 0 -16.666 3.16699 -21.999 9.5s-7 15.166 -5 26.499l25 83h-85z" />
    <glyph glyph-name="comma" unicode="," horiz-adv-x="238" 
d="M160 181c18.667 0 30.999 -4.99805 36.999 -14.998s7.33301 -22.333 4 -37c-2.66699 -12 -8.5 -25.167 -17.5 -39.5s-19.667 -28 -32 -41s-25.833 -24.167 -40.5 -33.5s-29 -14.666 -43 -15.999c-7.33301 0 -12.666 2.16699 -15.999 6.5s-4.33301 10.166 -3 17.499
s3.16602 12.166 5.49902 14.499s6.16602 4.5 11.499 6.5l-1 -1c5.33301 2.66699 11.5 7.5 18.5 14.5s13.167 14.167 18.5 21.5c-7.33301 5.33301 -11.666 11.666 -12.999 18.999s-1.33301 15.333 0 24c3.33301 14.667 11.333 28.167 24 40.5s28.334 18.5 47.001 18.5z" />
    <glyph glyph-name="hyphen" unicode="-" horiz-adv-x="421" 
d="M95 72c-11.333 0 -19.166 3.5 -23.499 10.5s-5.16602 14.833 -2.49902 23.5c1.33301 8.66699 5.66602 16.5 12.999 23.5s16.666 10.5 27.999 10.5h252c10.667 0 18.167 -3.5 22.5 -10.5s5.83301 -14.833 4.5 -23.5c-2.66699 -8.66699 -7.66699 -16.5 -15 -23.5
s-16.333 -10.5 -27 -10.5h-252z" />
    <glyph glyph-name="period" unicode="." horiz-adv-x="215" 
d="M131 113c16 0 27.833 -5.66797 35.5 -17.001s10.167 -23.666 7.5 -36.999c-3.33301 -15.333 -11.833 -28.833 -25.5 -40.5s-28.167 -17.5 -43.5 -17.5c-14.667 0 -26.5 4.83301 -35.5 14.5s-11.833 22.167 -8.5 37.5c3.33301 16 11.833 30 25.5 42s28.5 18 44.5 18z" />
    <glyph glyph-name="slash" unicode="/" horiz-adv-x="255" 
d="M278 633c4 9.33301 9.66895 16.332 17.002 20.999s14.666 7 21.999 7c8.66699 0 15.834 -3.16699 21.501 -9.5s7.16699 -16.166 4.5 -29.499l-238 -633c-10 -19.333 -23.333 -29 -40 -29c-8.66699 0 -15.834 3.33301 -21.501 10s-6.83398 16.667 -3.50098 30z" />
    <glyph glyph-name="zero" unicode="0" horiz-adv-x="412" 
d="M143 1c-25.333 3.33301 -46.1689 13.668 -62.502 31.001s-28.666 38.833 -36.999 64.5s-12.666 54.5 -12.999 86.5s2.66699 64.5 9 97.5s15.666 65 27.999 96s27.166 58.333 44.499 82s37 42.5 59 56.5s45.667 20.333 71 19c22.667 -0.666992 41.5 -9.33398 56.5 -26.001
s26.333 -38 34 -64s11.834 -55.5 12.501 -88.5s-1.66602 -66.5 -6.99902 -100.5s-13.666 -67 -24.999 -99s-25.333 -60 -42 -84s-35.834 -42.667 -57.501 -56s-45.167 -18.333 -70.5 -15zM145.997 35.002c16.667 -5.33301 32.666 2.33105 47.999 22.998
s28.833 48.167 40.5 82.5s21.167 72.166 28.5 113.499s11.5 80 12.5 116s-1.66699 66.167 -8 90.5s-17.166 36.5 -32.499 36.5s-30.5 -10.667 -45.5 -32s-29 -48.166 -42 -80.499s-23.667 -67.666 -32 -105.999s-13.333 -74.5 -15 -108.5s1 -63.667 8 -89
s19.5 -40.666 37.5 -45.999z" />
    <glyph glyph-name="one" unicode="1" horiz-adv-x="276" 
d="M95 0h-85l145 461h-42l12 30c6 13.333 11.333 22.833 16 28.5s9.5 9 14.5 10s10.667 0.666992 17 -1s13.5 -3 21.5 -4s17.5 -1 28.5 0s24.167 5.16699 39.5 12.5z" />
    <glyph glyph-name="two" unicode="2" horiz-adv-x="437" 
d="M361 143c4.66699 -36 3.16504 -62.9941 -4.50195 -80.9941s-19.667 -30.5 -36 -37.5s-35.666 -10.167 -57.999 -9.5s-45.5 1.66699 -69.5 3s-47.667 1.33301 -71 0s-44 -7.33301 -62 -18c-4.66699 29.333 -1.16699 56 10.5 80s27.5 46.833 47.5 68.5
s42.167 42.834 66.5 63.501s47.333 42.5 69 65.5s39.834 47.833 54.501 74.5s22 56.667 22 90c0 19.333 -5.16699 34.166 -15.5 44.499s-21.5 15.5 -33.5 15.5s-23.167 -4.83301 -33.5 -14.5s-15.5 -24.834 -15.5 -45.501c0 -7.33301 2 -16.5 6 -27.5s11.333 -17.5 22 -19.5
c-12 -10.667 -23.667 -17.334 -35 -20.001s-21.333 -1.83398 -30 2.49902s-15.667 11.5 -21 21.5s-8 22 -8 36c0 17.333 3.33301 32.5 10 45.5s15.667 23.667 27 32s24.5 14.666 39.5 18.999s31.167 6.16602 48.5 5.49902c34 -1.33301 62.833 -11.333 86.5 -30
s35.5 -46 35.5 -82c0 -27.333 -6.5 -52.833 -19.5 -76.5s-29.5 -46 -49.5 -67s-42.167 -41.167 -66.5 -60.5l-69.5 -57c-22 -18.667 -41.5 -37.167 -58.5 -55.5s-28.5 -37.5 -34.5 -57.5c31.333 0 59 0.5 83 1.5s45.5 4.33301 64.5 10s36.333 14.667 52 27
s31.167 30.166 46.5 53.499z" />
    <glyph glyph-name="three" unicode="3" horiz-adv-x="402" 
d="M148 29c15.333 -0.666992 30.334 2.99805 45.001 10.998s28 18.5 40 31.5s22 27.5 30 43.5s13.333 31.667 16 47c2.66699 14.667 1.16699 29.167 -4.5 43.5s-13.834 27.666 -24.501 39.999s-23.5 23.5 -38.5 33.5s-30.5 18.333 -46.5 25
c20.667 4.66699 38.834 11.834 54.501 21.501s29 20.834 40 33.501s19.333 25.834 25 39.501s8.83398 26.5 9.50098 38.5c1.33301 17.333 -2.16699 33.333 -10.5 48s-21.5 22.667 -39.5 24c-8.66699 0.666992 -16.5 -0.833008 -23.5 -4.5s-13.333 -8.5 -19 -14.5
s-10 -12.833 -13 -20.5s-4.83301 -15.834 -5.5 -24.501c-0.666992 -9.33301 1 -19.333 5 -30s10.667 -17.334 20 -20.001c-21.333 -6.66699 -38.666 -7.66699 -51.999 -3s-22.666 12.5 -27.999 23.5s-6.5 23.833 -3.5 38.5s10 28.5 21 41.5s26 23.5 45 31.5
s41.833 11.333 68.5 10c40.667 -3.33301 70 -15.166 88 -35.499s26.833 -43.5 26.5 -69.5s-8.83301 -51.667 -25.5 -77s-39.334 -45 -68.001 -59c32 -11.333 54.667 -28.166 68 -50.499s19.333 -46.5 18 -72.5c-1.33301 -22 -7.33301 -43.667 -18 -65
s-25.334 -40.166 -44.001 -56.499s-40.667 -29.333 -66 -39s-53.333 -13.834 -84 -12.501c-6.66699 0 -14.334 0.666992 -23.001 2s-17.667 3.66602 -27 6.99902s-18.333 7.83301 -27 13.5s-16.334 13.167 -23.001 22.5c-14.667 20 -21.667 41.5 -21 64.5
s6.66699 42.667 18 59s27 27.333 47 33s42 1.5 66 -12.5c-20 -2 -35.833 -11.167 -47.5 -27.5s-18.5 -34 -20.5 -53s1.16699 -36.667 9.5 -53s22.5 -25.166 42.5 -26.499z" />
    <glyph glyph-name="four" unicode="4" horiz-adv-x="415" 
d="M22 200c10 26.667 24.1699 52.832 42.5029 78.499s35.666 51.334 51.999 77.001s29 51.667 38 78s9.5 54.166 1.5 83.499c28 -4.66699 47 -12.667 57 -24s14.167 -25 12.5 -41s-7.83398 -33.167 -18.501 -51.5s-23 -36.666 -37 -54.999s-27.833 -35.5 -41.5 -51.5
s-24.834 -29.667 -33.501 -41h133l88 284h77l-160 -537h-84l62 200h-189z" />
    <glyph glyph-name="five" unicode="5" horiz-adv-x="381" 
d="M124 323c22 6.66699 44.834 9.66797 68.501 9.00098s45.5 -6 65.5 -16s36.5 -25.167 49.5 -45.5s19.5 -46.5 19.5 -78.5c0 -24.667 -5 -49.167 -15 -73.5s-23.667 -45.833 -41 -64.5s-37.833 -33.167 -61.5 -43.5s-49.5 -13.833 -77.5 -10.5c-24 2.66699 -44 11 -60 25
s-27.5 30.167 -34.5 48.5s-8.83301 37.333 -5.5 57s12 36.5 26 50.5c13.333 13.333 29.166 19.166 47.499 17.499s33.833 -11.5 46.5 -29.5c-24 -3.33301 -41.333 -12.666 -52 -27.999s-15.834 -31.666 -15.501 -48.999s5.83301 -32.833 16.5 -46.5
s25.334 -20.5 44.001 -20.5c14.667 0 28.667 5.16699 42 15.5s24.666 23.166 33.999 38.499s16.833 32.166 22.5 50.499s8.5 35.166 8.5 50.499c0 32.667 -7.16699 57 -21.5 73s-32.166 25.833 -53.499 29.5s-44.166 2 -68.499 -5s-46.166 -17.5 -65.499 -31.5l100 291
c23.333 -8.66699 44.666 -14.667 63.999 -18s37.5 -4.66602 54.5 -3.99902s33.167 3 48.5 7s30.666 9 45.999 15c-1.33301 -16.667 -7 -31 -17 -43s-23 -21.333 -39 -28s-34.5 -10.167 -55.5 -10.5s-43.167 2.5 -66.5 8.5z" />
    <glyph glyph-name="six" unicode="6" horiz-adv-x="420" 
d="M363 210c-2 -32 -8.83008 -61.167 -20.4971 -87.5s-26.667 -48.833 -45 -67.5s-39.333 -33 -63 -43s-48.5 -14 -74.5 -12c-30 2 -53.167 13.667 -69.5 35s-27.333 47.333 -33 78s-7 63.5 -4 98.5s9.16699 67.5 18.5 97.5c11.333 37.333 25.833 71.166 43.5 101.499
s37.167 56 58.5 77s44.5 36.667 69.5 47s50.833 14.5 77.5 12.5c27.333 -2 47.5 -9.83301 60.5 -23.5s18.833 -28.167 17.5 -43.5c-1.33301 -12.667 -7.33301 -23.5 -18 -32.5s-27.334 -12.833 -50.001 -11.5c8.66699 7.33301 13.334 15.666 14.001 24.999
c0.666992 10 -2.33301 19.5 -9 28.5s-15 14.167 -25 15.5c-4 0 -12.333 -1.83301 -25 -5.5s-27.334 -12.667 -44.001 -27s-33.834 -35.333 -51.501 -63s-33.834 -65.5 -48.501 -113.5c24.667 11.333 50.5 19.5 77.5 24.5s51.5 4.83301 73.5 -0.5s39.667 -16.666 53 -33.999
s19 -42.666 17 -75.999zM135.003 242c-3.33301 -11.333 -6.33496 -27.1699 -9.00195 -47.5029s-3.16699 -40.666 -1.5 -60.999s6.33398 -38.666 14.001 -54.999s20.167 -26.5 37.5 -30.5c13.333 -3.33301 26.333 0.333984 39 11.001s24.334 24.667 35.001 42
s19.334 36.333 26.001 57s10.667 40 12 58c2 24.667 -2.83301 41.667 -14.5 51s-25.834 13.833 -42.501 13.5s-34 -4.5 -52 -12.5s-32.667 -16.667 -44 -26z" />
    <glyph glyph-name="seven" unicode="7" horiz-adv-x="353" 
d="M135 26c-25.333 0 -42.998 7.99902 -52.998 23.999s-14.167 37 -12.5 63s8.5 55.5 20.5 88.5s27.167 66.5 45.5 100.5s39 66.833 62 98.5s46.5 59.167 70.5 82.5c-18.667 2 -38.834 4 -60.501 6s-43.167 1.83301 -64.5 -0.5s-41.833 -8.16602 -61.5 -17.499
s-36.834 -24.666 -51.501 -45.999c0 20 1.16699 37.167 3.5 51.5s6.83301 26 13.5 35s16.334 15.667 29.001 20s29.334 6.5 50.001 6.5h267l-98.5 -133c-33 -44.667 -62.333 -88.834 -88 -132.501s-45.334 -86.167 -59.001 -127.5s-17.834 -81 -12.501 -119z" />
    <glyph glyph-name="eight" unicode="8" horiz-adv-x="361" 
d="M119 304c-21.333 18.667 -34.998 41.5 -40.998 68.5s-4.83301 52.667 3.5 77s23.5 45.333 45.5 63s50.333 27.167 85 28.5c28 0.666992 51.167 -3.33301 69.5 -12s32.166 -20 41.499 -34s14.666 -29.833 15.999 -47.5s-1.16699 -35.167 -7.5 -52.5
s-16.166 -33.833 -29.499 -49.5s-29.666 -28.5 -48.999 -38.5c17.333 -12 30.5 -27.833 39.5 -47.5s14 -40.667 15 -63s-1.83301 -44.833 -8.5 -67.5s-16.834 -43.334 -30.501 -62.001s-30.667 -34.167 -51 -46.5s-43.833 -18.833 -70.5 -19.5
c-27.333 -0.666992 -49.833 5.16602 -67.5 17.499s-31 28 -40 47s-14 40.333 -15 64s2 46.834 9 69.501s17.667 43.334 32 62.001s32.166 33 53.499 43zM182.002 282c-14 -4 -26.665 -12.667 -37.998 -26s-20.833 -29.166 -28.5 -47.499s-13 -37.5 -16 -57.5
s-3.33301 -38.333 -1 -55s7.66602 -30.334 15.999 -41.001s20.166 -15.667 35.499 -15c14.667 0 27.5 5 38.5 15s19.833 22.667 26.5 38s11.334 32.333 14.001 51s2.66699 37 0 55s-7.83398 34.333 -15.501 49s-18.167 26 -31.5 34zM223.004 515
c-24 -0.666992 -42 -8.33301 -54 -23s-18.833 -32 -20.5 -52s1.16602 -40.167 8.49902 -60.5s18 -36.166 32 -47.499c10.667 2 20.667 8.16699 30 18.5s17.5 22.333 24.5 36s12.333 28.167 16 43.5s5 29.333 4 42s-4.66699 23.167 -11 31.5s-16.166 12.166 -29.499 11.499z
" />
    <glyph glyph-name="nine" unicode="9" horiz-adv-x="433" 
d="M67 337c0 30.667 4.16406 59.167 12.4971 85.5s20.333 49.166 36 68.499s34.334 34.5 56.001 45.5s45.5 16.5 71.5 16.5c34.667 0 61.667 -9.66699 81 -29s32.833 -44.166 40.5 -74.499s10.5 -63.833 8.5 -100.5s-6.83301 -72.667 -14.5 -108s-17.5 -67.5 -29.5 -96.5
s-23.667 -50.833 -35 -65.5c-20.667 -26 -43.5 -45.667 -68.5 -59s-54.167 -20 -87.5 -20c-23.333 -0 -42.166 6.33301 -56.499 19s-23 26.667 -26 42s0 29.333 9 42s25.167 19 48.5 19c-6 -6 -9.33301 -13.167 -10 -21.5s0.5 -16.5 3.5 -24.5s7.5 -15 13.5 -21
s13 -9.66699 21 -11c6 -1.33301 14.833 -0.166016 26.5 3.50098s24.334 12.5 38.001 26.5s27.334 35 41.001 63s25.167 66 34.5 114c-20 -20 -42.333 -32.5 -67 -37.5s-47.834 -3.66699 -69.501 4s-40 21.667 -55 42s-22.5 46.166 -22.5 77.499zM230.997 505
c-12 0 -23.668 -4.66602 -35.001 -13.999s-21.333 -21.5 -30 -36.5s-15.5 -32 -20.5 -51s-7.5 -38.167 -7.5 -57.5c0 -27.333 5.33301 -46.666 16 -57.999s23.834 -16.833 39.501 -16.5s32.334 5.16602 50.001 14.499s33.167 21.333 46.5 36c0 -0.666992 0.166992 -1 0.5 -1
s0.5 -0.333008 0.5 -1c2 14.667 4.16699 32.667 6.5 54s2.16602 41.666 -0.500977 60.999s-9 35.833 -19 49.5s-25.667 20.5 -47 20.5z" />
    <glyph glyph-name="colon" unicode=":" horiz-adv-x="207" 
d="M133 159c16 0 27.834 -5.50098 35.501 -16.501s9.83398 -23.5 6.50098 -37.5c-3.33301 -14.667 -12 -28 -26 -40s-28.333 -18 -43 -18s-26.334 4.83301 -35.001 14.5s-11.334 22.167 -8.00098 37.5c3.33301 16.667 11.833 30.834 25.5 42.501s28.5 17.5 44.5 17.5z
M179.001 298.999c16 0 27.6689 -5.5 35.002 -16.5s9.66602 -23.167 6.99902 -36.5c-3.33301 -14.667 -11.833 -28 -25.5 -40s-28.5 -18 -44.5 -18c-14 0 -25.333 4.83301 -34 14.5s-11.334 22.5 -8.00098 38.5s11.833 29.667 25.5 41s28.5 17 44.5 17z" />
    <glyph glyph-name="semicolon" unicode=";" horiz-adv-x="226" 
d="M152 145c18.667 0 31.1689 -4.99805 37.502 -14.998s8.16602 -22.333 5.49902 -37c-2.66699 -12 -8.66699 -25.167 -18 -39.5s-20.166 -28 -32.499 -41s-25.833 -24.167 -40.5 -33.5s-29 -14.666 -43 -15.999c-7.33301 0 -12.833 2.16699 -16.5 6.5
s-4.83398 10.166 -3.50098 17.499c2 7.33301 4.33301 12.166 7 14.499s6 4.5 10 6.5l-1 -1c6 2.66699 12.5 7.5 19.5 14.5s13.167 14.167 18.5 21.5c-7.33301 5.33301 -11.5 11.666 -12.5 18.999s-0.833008 15.333 0.5 24c3.33301 14.667 11.166 28.167 23.499 40.5
s27.5 18.5 45.5 18.5zM190.002 300.002c16 0 27.6689 -5.5 35.002 -16.5s9.66602 -23.167 6.99902 -36.5c-3.33301 -14.667 -11.833 -28 -25.5 -40s-28.5 -18 -44.5 -18c-14 0 -25.333 4.83301 -34 14.5s-11.334 22.167 -8.00098 37.5c3.33301 16.667 11.833 30.667 25.5 42
s28.5 17 44.5 17z" />
    <glyph glyph-name="less" unicode="&#x3c;" horiz-adv-x="319" 
d="M68 138c-4.66699 1.33301 -7.83398 4.16699 -9.50098 8.5s-2.16699 8.83301 -1.5 13.5c2.66699 10.667 8.33398 18 17.001 22l240 131c8.66699 5.33301 15.667 8 21 8c6.66699 0 11.5 -2.5 14.5 -7.5s3.83301 -10.833 2.5 -17.5c-0.666992 -4 -2.66699 -8 -6 -12
s-8.33301 -7.33301 -15 -10l-164 -113l118 -112c2.66699 -2.66699 4.5 -6.16699 5.5 -10.5s1.16699 -8.5 0.5 -12.5c-1.33301 -5.33301 -4.16602 -10.333 -8.49902 -15s-9.83301 -7 -16.5 -7c-4.66699 0 -10.334 1.66699 -17.001 5z" />
    <glyph glyph-name="equal" unicode="=" horiz-adv-x="379" 
d="M98 181c-12 0 -19.832 3.5 -23.499 10.5s-4.83398 14.833 -3.50098 23.5c2 8.66699 6.33301 16.5 13 23.5s16 10.5 28 10.5h252c10.667 0 18.334 -3.5 23.001 -10.5s6 -14.833 4 -23.5c-1.33301 -8.66699 -5.83301 -16.5 -13.5 -23.5s-16.834 -10.5 -27.501 -10.5h-252z
M75.001 72c-12 0 -20 3.5 -24 10.5s-4.66699 14.833 -2 23.5c1.33301 8.66699 5.5 16.5 12.5 23.5s16.5 10.5 28.5 10.5h252c10.667 0 18.167 -3.5 22.5 -10.5s5.83301 -14.833 4.5 -23.5c-2.66699 -8.66699 -7.66699 -16.5 -15 -23.5s-16.333 -10.5 -27 -10.5h-252z" />
    <glyph glyph-name="greater" unicode="&#x3e;" horiz-adv-x="328" 
d="M73 11c-11.333 -6 -20 -9 -26 -9c-6.66699 0 -11.334 2 -14.001 6s-3.66699 8.66699 -3 14c2 10.667 9 19 21 25l163 113l-117 113c-5.33301 2.66699 -8.83301 6 -10.5 10s-2.16699 8 -1.5 12c1.33301 6 4.83301 11.5 10.5 16.5s12.167 7.5 19.5 7.5
c6.66699 0 13 -2.66699 19 -8l91.5 -65.5l92.5 -65.5c4.66699 -8 6 -15.333 4 -22c-1.33301 -8.66699 -6.66602 -15 -15.999 -19z" />
    <glyph glyph-name="question" unicode="?" horiz-adv-x="370" 
d="M60 120c0.666992 4.66699 1 8.99609 1 12.9961s0.666992 8.33301 2 13c6.66699 30 17.834 57.667 33.501 83s33.5 49.166 53.5 71.499s41 43.666 63 63.999l62.5 60c19.667 19.667 36.667 40 51 61s24.166 43.167 29.499 66.5c4 20.667 1.83301 38.667 -6.5 54
s-21.166 23 -38.499 23c-10 0 -20.333 -2.66699 -31 -8s-20.834 -13 -30.501 -23s-18.5 -22.333 -26.5 -37s-14 -31 -18 -49c-1.33301 -5.33301 -1.83301 -10.166 -1.5 -14.499s-0.166992 -8.83301 -1.5 -13.5c-1.33301 -7.33301 -4.66602 -13.166 -9.99902 -17.499
s-11.666 -6.5 -18.999 -6.5c-6 0 -10.333 1.83301 -13 5.5s-4.33398 8.16699 -5.00098 13.5s-0.5 11 0.5 17s1.83301 11.667 2.5 17c6.66699 28.667 16.5 53.667 29.5 75s27.833 38.833 44.5 52.5s34.334 23.834 53.001 30.501s37 10 55 10
c16.667 0 32.334 -2.83301 47.001 -8.5s27.167 -14.167 37.5 -25.5s17.5 -25.166 21.5 -41.499s4 -34.833 0 -55.5c-5.33301 -23.333 -15.5 -46.166 -30.5 -68.499s-32.667 -44.5 -53 -66.5s-42.333 -44.167 -66 -66.5s-46.334 -45.666 -68.001 -69.999
s-41.334 -49.5 -59.001 -75.5s-30.834 -54 -39.501 -84c-2 -7.33301 -7.16699 -13 -15.5 -17s-16.833 -6 -25.5 -6s-16 2 -22 6s-8.33301 10 -7 18zM81 67.9961c16.667 0 28.6689 -5.50098 36.002 -16.501s9.33301 -23.167 6 -36.5c-3.33301 -15.333 -12 -29 -26 -41
s-28.333 -18 -43 -18s-26.334 4.83301 -35.001 14.5s-11.334 22.167 -8.00098 37.5c4 16.667 12.833 30.834 26.5 42.501s28.167 17.5 43.5 17.5z" />
    <glyph glyph-name="at" unicode="@" horiz-adv-x="567" 
d="M384 376c-0.666992 2.66699 -2.33691 3.99902 -5.00391 3.99902c-4 0 -9.16699 -2.83301 -15.5 -8.5s-12.666 -12.5 -18.999 -20.5s-12 -16 -17 -24s-7.83301 -14 -8.5 -18c-1.33301 -4 -0.666016 -6 2.00098 -6c4.66699 0 10.334 3.33301 17.001 10
s13.334 14.167 20.001 22.5s12.5 16.333 17.5 24s7.83301 12.834 8.5 15.501v1zM564.997 181.999c6.66699 6.66699 13.665 10 20.998 10c6.66699 0 12.167 -2.16699 16.5 -6.5s5.83301 -9.83301 4.5 -16.5c0 -2.66699 -1.66699 -6.33398 -5 -11.001
c-46.667 -53.333 -97.334 -93 -152.001 -119s-106.334 -39 -155.001 -39c-31.333 0 -60.833 5.5 -88.5 16.5s-50.667 27.5 -69 49.5s-31 49.5 -38 82.5s-5.83301 71.833 3.5 116.5c11.333 55.333 29.833 104.333 55.5 147s54.667 78.5 87 107.5s66 50.833 101 65.5
s67.5 22 97.5 22c27.333 0 52.333 -5.83301 75 -17.5s41.5 -28 56.5 -49s25.333 -46.167 31 -75.5s4.83398 -61.333 -2.49902 -96c-6 -28 -16.333 -56.5 -31 -85.5s-31.5 -55.167 -50.5 -78.5s-39.167 -42.333 -60.5 -57s-41.666 -22 -60.999 -22
c-28 0 -48.667 11.667 -62 35s-16 56 -8 98c-11.333 -9.33301 -22.166 -16 -32.499 -20s-19.5 -6 -27.5 -6c-14.667 0 -25.167 5.33301 -31.5 16s-7.5 26 -3.5 46c2.66699 14 9 30.5 19 49.5s22.333 37.333 37 55s30.667 32.5 48 44.5s35 18 53 18
c15.333 0 27.5 -5.33301 36.5 -16s12.833 -24.334 11.5 -41.001c2 0.666992 5.33301 1 10 1c7.33301 0 12.166 -2.5 14.499 -7.5s2.83301 -11.167 1.5 -18.5c-7.33301 -13.333 -15.166 -30.833 -23.499 -52.5s-14.833 -43.834 -19.5 -66.501
c-2 -9.33301 -3.5 -18.666 -4.5 -27.999s-1.16699 -17.666 -0.5 -24.999s2.16699 -13.5 4.5 -18.5s6.16602 -7.5 11.499 -7.5c9.33301 0 20.166 6 32.499 18s24.333 27 36 45s22.5 37.833 32.5 59.5s17 42.5 21 62.5c5.33301 25.333 6.33301 49.5 3 72.5
s-10 43.167 -20 60.5s-22.667 31 -38 41s-32 15 -50 15c-28 0 -55.833 -8.5 -83.5 -25.5s-53.334 -39.167 -77.001 -66.5s-44.167 -58.166 -61.5 -92.499s-29.666 -68.833 -36.999 -103.5c-6 -30 -7.33301 -58.333 -4 -85s11 -49.834 23 -69.501s28 -35.167 48 -46.5
s43.333 -17 70 -17c20.667 0 41.834 3.83301 63.501 11.5s42.834 17.667 63.501 30s40.334 26.333 59.001 42s35 31.834 49 48.501z" />
    <glyph glyph-name="A" unicode="A" horiz-adv-x="764" 
d="M361 303c-28 -2 -53.835 -10.1641 -77.502 -24.4971s-44.167 -31.833 -61.5 -52.5s-31 -42.667 -41 -66s-15.667 -45 -17 -65s2 -36.5 10 -49.5s22 -19.5 42 -19.5c21.333 0 42 10 62 30s39.833 46.333 59.5 79s39.167 69.667 58.5 111l59.5 126.5
c20.333 43 41.5 84.833 63.5 125.5s45 76.5 69 107.5s49.333 55.5 76 73.5s55 25.667 85 23c16 -1.33301 26.833 -8.83301 32.5 -22.5s8.66699 -29.334 9 -47.001s-1 -35.5 -4 -53.5s-5.83301 -32.333 -8.5 -43c-7.33301 -31.333 -16.166 -64.5 -26.499 -99.5l-31 -104.5
c-10.333 -34.667 -19.833 -68.334 -28.5 -101.001s-15.167 -62 -19.5 -88s-5.5 -47.5 -3.5 -64.5s8.33301 -27.833 19 -32.5c7.33301 -3.33301 17.666 1.16699 30.999 13.5s28.333 30.833 45 55.5c6.66699 6 12.667 6.66699 18 2s6.33301 -10.667 3 -18l-35 -43.5
c-12 -14.333 -24.667 -26.5 -38 -36.5c-16.667 -12.667 -33.667 -19 -51 -19c-20 0 -34.667 6.83301 -44 20.5s-14.666 32.167 -15.999 55.5s0.333984 50.333 5.00098 81s11 62.667 19 96c-8 0 -19.167 0.166992 -33.5 0.5s-28.666 0.5 -42.999 0.5
s-27.333 0.166992 -39 0.5s-18.834 0.5 -21.501 0.5l-53.5 -98c-17.667 -32 -37.334 -60.667 -59.001 -86s-46.167 -45.833 -73.5 -61.5s-59.666 -23.5 -96.999 -23.5c-29.333 0 -53.5 9.33301 -72.5 28s-32 41.667 -39 69s-7.5 56.166 -1.5 86.499s19.667 57.333 41 81
s50.833 41.167 88.5 52.5s84.167 11.333 139.5 0zM636.998 301.003l30.502 108.501c10.333 35.667 19.333 68.167 27 97.5s12.667 54 15 74s0.5 32.667 -5.5 38c-10.667 -10.667 -22.334 -24.834 -35.001 -42.501s-25.667 -37.167 -39 -58.5s-26.333 -43.333 -39 -66
l-35 -64l-27.5 -53c-7.66699 -15.333 -12.834 -26.333 -15.501 -33z" />
    <glyph glyph-name="B" unicode="B" horiz-adv-x="758" 
d="M353 421c-34 6.66699 -57.499 21.167 -70.499 43.5s-16.833 46.166 -11.5 71.499c4.66699 21.333 12.667 42 24 62s25.5 37.833 42.5 53.5s36.5 28.167 58.5 37.5s46 14 72 14c16.667 0 30 -3.33301 40 -10s18 -15.334 24 -26.001c18 9.33301 37.833 17.5 59.5 24.5
s43 10.833 64 11.5s40.5 -2.83301 58.5 -10.5s32.333 -21.5 43 -41.5c11.333 -22 16.666 -47.667 15.999 -77s-6.66699 -58 -18 -86s-27.5 -53.167 -48.5 -75.5s-45.833 -37.166 -74.5 -44.499c36 -15.333 61.333 -35.666 76 -60.999s21.5 -52.5 20.5 -81.5
s-8.66699 -58 -23 -87s-32.833 -54.667 -55.5 -77s-48 -39.5 -76 -51.5s-56.333 -15.667 -85 -11c-28 4.66699 -50.833 14 -68.5 28s-31.167 30 -40.5 48l-31 -24c-20 -20 -42.333 -35.833 -67 -47.5s-53.334 -17.5 -86.001 -17.5c-29.333 0 -53.5 9.33301 -72.5 28
s-32 41.667 -39 69s-7.5 56.166 -1.5 86.499s19.667 57.333 41 81s50.833 41.167 88.5 52.5s84.167 11.333 139.5 0c-28 -2 -53.833 -10.167 -77.5 -24.5s-44.167 -31.833 -61.5 -52.5s-31 -42.667 -41 -66s-15.667 -45 -17 -65s2 -36.5 10 -49.5s22 -19.5 42 -19.5
c16 0 31.667 5.66699 47 17s30.5 27 45.5 47s29.667 43.333 44 70s28.833 55.334 43.5 86.001c12 29.333 22.833 59.666 32.5 90.999s17.834 62.333 24.501 93s11.834 60.334 15.501 89.001s4.83398 54 3.50098 76c-2 16 -6 28.667 -12 38s-14.667 14 -26 14
c-10 0 -20.667 -3 -32 -9s-22 -14 -32 -24s-18.833 -21.833 -26.5 -35.5s-13.167 -28.167 -16.5 -43.5c-4.66699 -20.667 -4.33398 -41 0.999023 -61s16.666 -37.667 33.999 -53zM483.001 66c23.333 0 46.3301 6.99902 68.9971 20.999s42.334 31.5 59.001 52.5
s28.834 43.5 36.501 67.5s8.33398 46.333 2.00098 67s-21 37.5 -44 50.5s-57.167 18.833 -102.5 17.5c-10.667 -34.667 -23.5 -72.167 -38.5 -112.5s-33.5 -78.166 -55.5 -113.499c7.33301 -12.667 17 -24.167 29 -34.5s27 -15.5 45 -15.5zM547.998 625.999
c4.66699 -40 3.16797 -78.999 -4.49902 -116.999s-15.834 -74.667 -24.501 -110c29.333 -4 55.666 1.33301 78.999 16s42.5 33.5 57.5 56.5s25.333 47.333 31 73s5.5 48.167 -0.5 67.5c-5.33301 15.333 -13.666 25.833 -24.999 31.5s-23.833 8.16699 -37.5 7.5
s-27.5 -3.33398 -41.5 -8.00098s-26 -10 -36 -16c0 -0.666992 0.166992 -1 0.5 -1s0.5 -0.333008 0.5 -1z" />
    <glyph glyph-name="C" unicode="C" horiz-adv-x="454" 
d="M342 397c11.333 11.333 21.8359 24.9951 31.5029 40.9951s18 32.5 25 49.5s12.667 33.833 17 50.5s6.66602 31.5 6.99902 44.5s-1.33398 23.5 -5.00098 31.5s-9.83398 12 -18.501 12c-16.667 0 -33.334 -8.5 -50.001 -25.5s-33 -39.333 -49 -67s-31 -59.334 -45 -95.001
s-26.333 -72 -37 -109s-19.5 -73.167 -26.5 -108.5s-11 -66.833 -12 -94.5s1 -50 6 -67s13.833 -25.5 26.5 -25.5c14 0 31.5 5.66699 52.5 17s42.833 26.333 65.5 45s45 39.834 67 63.501s41 47.834 57 72.501c4.66699 4 9.66699 4.16699 15 0.5s7 -8.5 5 -14.5
c-12.667 -19.333 -29.5 -41.666 -50.5 -66.999s-44.5 -49.166 -70.5 -71.499s-53.667 -41.166 -83 -56.499s-58.666 -23 -87.999 -23c-26 0 -46 10 -60 30s-22.833 46.333 -26.5 79s-2.66699 70 3 112s15 84.667 28 128s29 86 48 128s40.167 79.333 63.5 112
s48.333 59 75 79s53.667 30 81 30c28.667 0 50.334 -5.66699 65.001 -17s23.5 -26.166 26.5 -44.499s1.33301 -38.833 -5 -61.5s-16.333 -45.167 -30 -67.5s-29.834 -43.333 -48.501 -63s-38.667 -35.5 -60 -47.5z" />
    <glyph glyph-name="D" unicode="D" horiz-adv-x="755" 
d="M544 599c34 35.333 64.5049 60.833 91.5049 76.5s51.167 23.5 72.5 23.5c17.333 0 32 -5 44 -15s21.333 -24.167 28 -42.5s10.167 -40.333 10.5 -66s-2.83398 -54.167 -9.50098 -85.5c-8.66699 -40.667 -20.834 -84 -36.501 -130s-34.5 -90.5 -56.5 -133.5
s-46.333 -82.333 -73 -118s-54.834 -63 -84.501 -82s-60.334 -27.5 -92.001 -25.5s-63.5 18.667 -95.5 50c-20 -20 -42.333 -35.833 -67 -47.5s-53.334 -17.5 -86.001 -17.5c-29.333 0 -53.5 9.33301 -72.5 28s-32 41.667 -39 69s-7.5 56.166 -1.5 86.499
s19.667 57.333 41 81s50.833 41.167 88.5 52.5s84.167 11.333 139.5 0c-28 -2 -53.833 -10.167 -77.5 -24.5s-44.167 -31.833 -61.5 -52.5s-31 -42.667 -41 -66s-15.667 -45 -17 -65s2.16699 -36.5 10.5 -49.5s22.166 -19.5 41.499 -19.5c16 0 31.667 5.66699 47 17
s30.5 27 45.5 47s29.667 43.333 44 70s28.833 55.334 43.5 86.001c12 29.333 22.833 59.666 32.5 90.999s17.834 62.333 24.501 93s11.834 60.334 15.501 89.001s4.83398 54 3.50098 76c-2 16 -6 28.667 -12 38s-14.667 14 -26 14c-10 0 -20.667 -3 -32 -9s-22 -14 -32 -24
s-18.833 -21.833 -26.5 -35.5s-13.167 -28.167 -16.5 -43.5c-4.66699 -20.667 -4.33398 -41 0.999023 -61s16.666 -37.667 33.999 -53c-34 6.66699 -57.5 21.167 -70.5 43.5s-16.833 46.166 -11.5 71.499c4.66699 21.333 12.667 42 24 62s25.5 37.833 42.5 53.5
s36.5 28.167 58.5 37.5s46 14 72 14c14 0 26.167 -3.33301 36.5 -10s18.833 -15 25.5 -25s11.667 -21.167 15 -33.5s5 -24.166 5 -35.499zM667.005 630c-14 0 -31.668 -8.50293 -53.001 -25.5029s-46 -43.5 -74 -79.5c-3.33301 -22 -7.5 -43.5 -12.5 -64.5l-14.5 -61.5
l-16 -57c-10.667 -34.667 -23.5 -72.167 -38.5 -112.5s-33.5 -78.166 -55.5 -113.499l-25 -36c22.667 -18 45.5 -23.833 68.5 -17.5s45.5 20.833 67.5 43.5s42.833 51.334 62.5 86.001s37.334 71.334 53.001 110.001s29 77.5 40 116.5s18.5 74.167 22.5 105.5
s4.16699 56.833 0.5 76.5s-12.167 29.5 -25.5 29.5z" />
    <glyph glyph-name="E" unicode="E" horiz-adv-x="512" 
d="M509 468c14 15.333 25.499 33.3311 34.499 53.998s14.833 40.167 17.5 58.5s2 33.833 -2 46.5s-12 19 -24 19c-21.333 0 -39.5 -8.5 -54.5 -25.5s-26.333 -37.167 -34 -60.5s-11.334 -47 -11.001 -71s5.16602 -43.333 14.499 -58c4.66699 -7.33301 10.5 -13.5 17.5 -18.5
l20 -14c6.33301 -4.33301 11.666 -8.66602 15.999 -12.999s5.83301 -9.5 4.5 -15.5c-1.33301 -5.33301 -4.5 -10.333 -9.5 -15s-11.167 -7 -18.5 -7c-4 0 -6.83301 0.166992 -8.5 0.5s-3.16699 0.5 -4.5 0.5c-19.333 0 -40.166 -3.33301 -62.499 -10
s-43.666 -16.834 -63.999 -30.501s-38.333 -31 -54 -52s-26.5 -45.5 -32.5 -73.5c-3.33301 -16 -4.5 -32.5 -3.5 -49.5s4.5 -32.5 10.5 -46.5s15 -25.667 27 -35s27.667 -14 47 -14c32.667 0 63 6 91 18s56.667 31.667 86 59c4 4.66699 7.83301 7 11.5 7
s6.83398 -1 9.50098 -3s4.5 -4.33301 5.5 -7s0.833008 -5 -0.5 -7c-36 -34 -72.333 -60 -109 -78s-77.667 -27 -123 -27c-31.333 0 -57.166 5.16699 -77.499 15.5s-36.333 23.833 -48 40.5s-18.834 35.834 -21.501 57.501s-1.33398 43.834 3.99902 66.501
c4.66699 24 13.167 47.667 25.5 71s27.5 44.5 45.5 63.5s38.833 35.167 62.5 48.5s49.167 21.666 76.5 24.999c-21.333 28.667 -31.666 61.167 -30.999 97.5s9.16699 70.5 25.5 102.5s38.666 58.833 66.999 80.5s59.833 32.5 94.5 32.5c26 0 46 -5.33301 60 -16
s22.833 -24.167 26.5 -40.5s3.33398 -34.166 -0.999023 -53.499s-11.666 -37.5 -21.999 -54.5s-22.833 -32 -37.5 -45s-30 -20.833 -46 -23.5z" />
    <glyph glyph-name="F" unicode="F" horiz-adv-x="561" 
d="M202 -14c-29.333 0 -53.4971 9.3291 -72.4971 27.9961s-32 41.667 -39 69s-7.5 56.166 -1.5 86.499s19.667 57.333 41 81s50.833 41.167 88.5 52.5s84.167 11.333 139.5 0c-28 -2 -53.833 -10.167 -77.5 -24.5s-44.167 -31.833 -61.5 -52.5s-31 -42.667 -41 -66
s-15.667 -45 -17 -65s2 -36.5 10 -49.5s22 -19.5 42 -19.5c16 0 31.833 5.66699 47.5 17s31 27 46 47s29.667 43.333 44 70s28.5 55.334 42.5 86.001c12.667 28.667 23.667 58.834 33 90.501s17.333 62.834 24 93.501s11.834 60.334 15.501 89.001s4.83398 54 3.50098 76
c-2 16 -6 28.667 -12 38s-14.667 14 -26 14c-10 0 -20.667 -3 -32 -9s-22 -14 -32 -24s-18.833 -21.833 -26.5 -35.5s-13.167 -28.167 -16.5 -43.5c-4.66699 -20.667 -4.33398 -41 0.999023 -61s16.666 -37.667 33.999 -53c-34 6.66699 -57.5 21.167 -70.5 43.5
s-16.833 46.166 -11.5 71.499c4.66699 21.333 12.667 42 24 62s25.5 37.833 42.5 53.5s36.5 28.167 58.5 37.5s46 14 72 14c12 0 22.667 -2.5 32 -7.5s17.5 -11.5 24.5 -19.5s12.833 -17 17.5 -27s8 -20 10 -30c20 -2 39.5 -3.16699 58.5 -3.5s36.833 1.83398 53.5 6.50098
s32 11.834 46 21.501s26 23.5 36 41.5c6.66699 8.66699 14.667 13 24 13c15.333 0 21 -9.33301 17 -28c-5.33301 -23.333 -16.166 -42.166 -32.499 -56.499s-35.5 -25.166 -57.5 -32.499s-45.667 -11.666 -71 -12.999s-49.666 -0.666016 -72.999 2.00098
c-0.666992 -17.333 -2.33398 -34.333 -5.00098 -51s-5.66699 -33.334 -9 -50.001c17.333 -1.33301 34.666 -1.5 51.999 -0.5s31.666 9.16699 42.999 24.5c5.33301 4 11.166 6.16699 17.499 6.5s12.333 -0.833984 18 -3.50098s10 -6.83398 13 -12.501
s3.83301 -12.5 2.5 -20.5c-10 -12 -21.167 -21.167 -33.5 -27.5s-25.333 -10.833 -39 -13.5s-27.834 -3.83398 -42.501 -3.50098s-29 1.16602 -43 2.49902l-15.5 -53c-5.66699 -19.333 -12.167 -39.666 -19.5 -60.999c-12 -38 -27.667 -76 -47 -114
s-41.666 -72.333 -66.999 -103s-53.333 -55.667 -84 -75s-63.334 -29 -98.001 -29z" />
    <glyph glyph-name="G" unicode="G" horiz-adv-x="545" 
d="M156 -236c-28 0.666992 -49.8291 7.33398 -65.4961 20.001s-26 28.5 -31 47.5s-5 39.667 0 62s14 43.333 27 63s29.667 36.834 50 51.501s43.5 23.667 69.5 27c19.333 2.66699 39.833 4 61.5 4s42.834 -2.33301 63.501 -7l39.5 113.5
c14.333 40.333 29.166 85.833 44.499 136.5c-11.333 -15.333 -23.166 -29.666 -35.499 -42.999s-25.5 -25.333 -39.5 -36s-28.667 -19 -44 -25s-31.333 -9 -48 -9c-22 0 -39 5.83301 -51 17.5s-20.167 26.5 -24.5 44.5s-5.83301 38 -4.5 60s4.33301 43 9 63
c4.66699 20.667 11.667 43.167 21 67.5s20.666 49 33.999 74s28.333 49.167 45 72.5s34.834 43.833 54.501 61.5s40.334 32 62.001 43s44.5 16.5 68.5 16.5c26.667 0 48.167 -6.83301 64.5 -20.5s27.166 -30 32.499 -49s5 -38.667 -1 -59s-17.333 -36.833 -34 -49.5
s-39 -19.5 -67 -20.5s-61.667 8.16699 -101 27.5c10.667 -6 21.667 -7 33 -3s22.166 10.333 32.499 19s19.666 19 27.999 31s14.666 23.333 18.999 34s6.33301 19.667 6 27s-3.83301 11 -10.5 11c-17.333 0 -35.833 -10 -55.5 -30s-38.5 -44.833 -56.5 -74.5
s-34.333 -62 -49 -97s-25.5 -67.333 -32.5 -97s-9.33301 -54.5 -7 -74.5s11.166 -30 26.499 -30c11.333 0 24.666 7.16699 39.999 21.5s31.333 32.333 48 54s32.834 45.5 48.501 71.5s29.5 51 41.5 75c2.66699 6 9.5 12 20.5 18s22.333 10.5 34 13.5s21.667 3.66699 30 2
s11.5 -7.83398 9.5 -18.501c-4 -17.333 -10 -39.833 -18 -67.5s-17 -57.167 -27 -88.5l-31 -96l-30.5 -91l-25 -72.5c-7 -20.333 -11.833 -33.833 -14.5 -40.5c30 -4.66699 58.167 -5.33398 84.5 -2.00098s47.5 14.666 63.5 33.999
c-7.33301 -17.333 -17.333 -31.5 -30 -42.5s-26.5 -19.667 -41.5 -26s-30.833 -10.5 -47.5 -12.5s-33 -2.33301 -49 -1c-12 -26 -26.333 -51.167 -43 -75.5s-35.167 -45.833 -55.5 -64.5s-42.333 -33.5 -66 -44.5s-48.834 -16.5 -75.501 -16.5zM167.004 -181
c14 0 28.001 4.83496 42.001 14.502s27.167 22.334 39.5 38.001s24 33.167 35 52.5s20.5 38.666 28.5 57.999c-20 5.33301 -39 10.666 -57 15.999s-34.667 9 -50 11c-23.333 -14.667 -44.166 -32.834 -62.499 -54.501s-30.833 -42.5 -37.5 -62.5
s-5.83398 -37.167 2.49902 -51.5s28.166 -21.5 59.499 -21.5z" />
    <glyph glyph-name="H" unicode="H" horiz-adv-x="751" 
d="M415 116c-21.333 -30 -41.3291 -53.665 -59.9961 -70.998s-36.667 -30.333 -54 -39s-34.166 -14.167 -50.499 -16.5s-32.5 -3.5 -48.5 -3.5c-29.333 0 -53.5 9.33301 -72.5 28s-32 41.667 -39 69s-7.5 56.166 -1.5 86.499s19.667 57.333 41 81s50.833 41.167 88.5 52.5
s84.167 11.333 139.5 0c-28 -2 -53.833 -10.167 -77.5 -24.5s-44.167 -31.833 -61.5 -52.5s-31 -42.667 -41 -66s-15.667 -45 -17 -65s2 -36.5 10 -49.5s22 -19.5 42 -19.5c26 0 50.333 11.5 73 34.5s43.5 52.667 62.5 89s35.833 76.5 50.5 120.5s27.167 87.167 37.5 129.5
s18.333 81 24 116s8.5 61.5 8.5 79.5c0 16 -3.5 28.667 -10.5 38s-16.167 14 -27.5 14c-10 0 -20.667 -3 -32 -9s-22 -14 -32 -24s-18.833 -21.833 -26.5 -35.5s-13.167 -28.167 -16.5 -43.5c-4.66699 -20.667 -4.33398 -41 0.999023 -61s16.666 -37.667 33.999 -53
c-34 6.66699 -57.5 21.167 -70.5 43.5s-16.833 46.166 -11.5 71.499c4.66699 21.333 12.667 42 24 62s25.5 37.833 42.5 53.5s36.5 28.167 58.5 37.5s46 14 72 14c20 0 35.5 -5.66699 46.5 -17s18.833 -26 23.5 -44s6.83398 -38.333 6.50098 -61
s-1.83301 -45.334 -4.5 -68.001s-6 -44.334 -10 -65.001l-10 -52c21.333 0 41.166 -0.166992 59.499 -0.5s38.5 -0.5 60.5 -0.5l29.5 93l27.5 86c8.66699 26.667 16.167 51 22.5 73s10.5 40.333 12.5 55c25.333 6.66699 42.333 2.83398 51 -11.499
s11.834 -35.5 9.50098 -63.5s-8.66602 -61 -18.999 -99s-22.333 -77.833 -36 -119.5l-41 -124c-13.667 -41 -24.834 -78.333 -33.501 -112s-13.334 -62 -14.001 -85s5 -36.833 17 -41.5c7.33301 -3.33301 17.666 1.16699 30.999 13.5s28.333 30.833 45 55.5
c6.66699 6 12.667 6.66699 18 2s6.33301 -10.667 3 -18l-35 -43.5c-12 -14.333 -24.667 -26.5 -38 -36.5c-16.667 -12.667 -33.667 -19 -51 -19c-24.667 0 -41.667 9.83301 -51 29.5s-13.333 45.667 -12 78s6.66602 69.5 15.999 111.5s20.666 85.333 33.999 130h-121l-1 -1
l-1 -6c-10.667 -34.667 -23.5 -72.167 -38.5 -112.5s-33.5 -78.166 -55.5 -113.499z" />
    <glyph glyph-name="I" unicode="I" horiz-adv-x="494" 
d="M364 532c-11.333 -6 -21.5039 -8.33203 -30.5039 -6.99902s-16.5 5.33301 -22.5 12s-10.5 15 -13.5 25s-3.83301 20.667 -2.5 32c1.33301 14 4.66602 28 9.99902 42s12.333 26.5 21 37.5s18.834 20.167 30.501 27.5s24.834 12 39.501 14
c26.667 2.66699 48.334 -2.33301 65.001 -15s29.5 -31 38.5 -55s14.5 -52.5 16.5 -85.5s1.33301 -68.167 -2 -105.5c-4.66699 -51.333 -14.334 -104.333 -29.001 -159s-34.167 -104.834 -58.5 -150.501s-53.166 -84.167 -86.499 -115.5s-70.333 -49.333 -111 -54
c-30.667 -3.33301 -56.167 -0.166016 -76.5 9.50098s-36.333 23.5 -48 41.5s-19 38.667 -22 62s-2.5 47 1.5 71s11.5 47 22.5 69s24.833 40.167 41.5 54.5s35.834 23.833 57.501 28.5s45.167 1.66699 70.5 -9c-14 -2 -28.333 -10.5 -43 -25.5s-27.667 -33 -39 -54
s-20.333 -43.333 -27 -67s-9.33398 -45.167 -8.00098 -64.5s8 -35 20 -47s30.667 -16.333 56 -13c16.667 2 32.334 9.5 47.001 22.5s28.334 30 41.001 51s24.167 45 34.5 72s19.333 55.5 27 85.5s14.167 60.667 19.5 92s9.33301 61.666 12 90.999
c2.66699 30 4 58.167 4 84.5s-1.83301 49.333 -5.5 69s-8.83398 34.834 -15.501 45.501s-15 15.667 -25 15c-8 -1.33301 -15.167 -8 -21.5 -20s-10.166 -25.667 -11.499 -41c-0.666992 -12.667 1 -24.834 5 -36.501s10 -21.5 18 -29.5z" />
    <glyph glyph-name="J" unicode="J" horiz-adv-x="515" 
d="M300 299c-18 -2 -36.001 -9.83496 -54.001 -23.502s-34.333 -30 -49 -49s-26.667 -39.333 -36 -61s-14 -41.834 -14 -60.501s5.5 -34 16.5 -46s29.5 -18 55.5 -18c18 0 35.333 7 52 21s32.5 32.667 47.5 56s29 49.833 42 79.5s24.833 59.834 35.5 90.501
s20 60.834 28 90.501s14.333 55.834 19 78.501c8 36.667 13 67 15 91s1.5 43 -1.5 57s-8.16699 23.667 -15.5 29s-16.666 8 -27.999 8c-16 0 -32 -4.33301 -48 -13s-30.667 -19.834 -44 -33.501s-24.833 -29 -34.5 -46s-16.167 -33.5 -19.5 -49.5
c-4.66699 -19.333 -4.33398 -38.666 0.999023 -57.999c-17.333 -4.66699 -30.5 -0.5 -39.5 12.5s-11.833 28.5 -8.5 46.5c5.33301 24.667 15 48.667 29 72s31.5 44.333 52.5 63s44.833 33.667 71.5 45s55 17 85 17c26.667 0 47 -7.33301 61 -22s23.333 -33.334 28 -56.001
s5.83398 -48 3.50098 -76s-6.16602 -55 -11.499 -81c-5.33301 -25.333 -12.5 -54.666 -21.5 -87.999s-20.333 -67.666 -34 -102.999s-29.5 -70 -47.5 -104s-38.333 -64.5 -61 -91.5s-48 -48.667 -76 -65s-58.667 -24.833 -92 -25.5c-35.333 -0.666992 -63.333 8 -84 26
s-34.667 40 -42 66s-7.83301 53.833 -1.5 83.5s18.666 56 36.999 79s43 40.667 74 53s67.5 14.166 109.5 5.49902z" />
    <glyph glyph-name="K" unicode="K" horiz-adv-x="746" 
d="M190 -14c-29.333 0 -53.502 9.33496 -72.502 28.002s-32 41.667 -39 69s-7.5 56.166 -1.5 86.499s19.667 57.333 41 81s50.833 41.167 88.5 52.5s84.167 11.333 139.5 0c-28 -2 -53.833 -10.167 -77.5 -24.5s-44.167 -31.833 -61.5 -52.5s-31 -42.667 -41 -66
s-15.667 -45 -17 -65s2.16699 -36.5 10.5 -49.5s22.166 -19.5 41.499 -19.5c20.667 0 40.334 7.5 59.001 22.5s35.834 34.5 51.501 58.5s30.167 50.833 43.5 80.5s25.166 59 35.499 88s19.333 56.167 27 81.5s13.5 45.666 17.5 60.999l3 12
c6.66699 30.667 11.834 60.334 15.501 89.001s4.83398 54 3.50098 76c-2 16 -6 28.667 -12 38s-14.667 14 -26 14c-10 0 -20.667 -3 -32 -9s-22 -14 -32 -24s-18.833 -21.833 -26.5 -35.5s-13.167 -28.167 -16.5 -43.5c-4.66699 -20.667 -4.33398 -41 0.999023 -61
s16.666 -37.667 33.999 -53c-34 6.66699 -57.5 21.167 -70.5 43.5s-16.833 46.166 -11.5 71.499c4.66699 21.333 12.667 42 24 62s25.5 37.833 42.5 53.5s36.5 28.167 58.5 37.5s46 14 72 14c26.667 0 47.334 -7.5 62.001 -22.5s25 -33.667 31 -56s8 -47 6 -74
s-6.33301 -52.5 -13 -76.5c32 30 65.167 53.5 99.5 70.5s68.5 27.833 102.5 32.5c9.33301 -1.33301 16 -5.33301 20 -12s5.66699 -13.667 5 -21s-3.16699 -14.166 -7.5 -20.499s-10.166 -9.83301 -17.499 -10.5c-16 2 -33.833 1 -53.5 -3s-39.667 -11.333 -60 -22
s-40.333 -24.5 -60 -41.5s-36.834 -37.167 -51.501 -60.5c18 -8.66699 33 -23 45 -43s22.167 -42.333 30.5 -67s15.333 -50.5 21 -77.5s11.5 -51.5 17.5 -73.5s12.5 -40.167 19.5 -54.5s15.833 -21.5 26.5 -21.5c9.33301 0 19 6.66699 29 20s20.667 28.666 32 45.999
c6.66699 6 12.667 6.66699 18 2s6.33301 -10.667 3 -18l-35 -43.5c-12 -14.333 -24.667 -26.5 -38 -36.5c-11.333 -8.66699 -23.666 -14.667 -36.999 -18s-26 -2.33301 -38 3c-21.333 7.33301 -37.333 22.833 -48 46.5s-19.667 50.667 -27 81l-21.5 93
c-7 31.667 -17.5 59.167 -31.5 82.5c-13.333 -37.333 -28.333 -74.833 -45 -112.5s-36.667 -71.667 -60 -102s-51 -55.5 -83 -75.5s-69.667 -30.333 -113 -31z" />
    <glyph glyph-name="L" unicode="L" horiz-adv-x="532" 
d="M342 465c-36 3.33301 -65.4961 11.998 -88.4961 25.998s-39.667 30.5 -50 49.5s-14.833 39 -13.5 60s8.5 40.167 21.5 57.5s31.667 31.833 56 43.5s53.833 17.5 88.5 17.5c34 0 60.5 -8.5 79.5 -25.5s32.333 -39.667 40 -68s10.5 -60.833 8.5 -97.5
s-7 -74.334 -15 -113.001c-6.66699 -32 -14.834 -63.667 -24.501 -95s-20.167 -61 -31.5 -89s-23 -53.667 -35 -77s-23.333 -42.666 -34 -57.999c36 -12 70.5 -17.167 103.5 -15.5s61.167 13.167 84.5 34.5c4 4 8.66699 4 14 0s6.66602 -9 3.99902 -15
c-34.667 -34 -72.667 -54.167 -114 -60.5s-83 -1.16602 -125 15.501c-16.667 -17.333 -34.334 -31.166 -53.001 -41.499s-38.667 -15.5 -60 -15.5c-17.333 0 -31 3.33301 -41 10s-16.5 15 -19.5 25s-3.33301 21 -1 33s7.33301 23 15 33s17.167 18.333 28.5 25
s24.333 10 39 10c8.66699 0 17.5 -1.5 26.5 -4.5l27.5 -9.5c4.66699 2 12.334 12.833 23.001 32.5s22 44.834 34 75.501s23.833 64.667 35.5 102s21.5 74.333 29.5 111c6 29.333 10.167 57.5 12.5 84.5s2 50.667 -1 71s-9.33301 36.666 -19 48.999
s-23.834 18.5 -42.501 18.5c-20.667 0 -37 -4.83301 -49 -14.5s-20.667 -21.667 -26 -36s-7.5 -29.833 -6.5 -46.5s4.83301 -32.334 11.5 -47.001s15.667 -27.167 27 -37.5s24.666 -16.166 39.999 -17.499zM197.004 45.998c9.33301 0 17.8311 3 25.498 9
s14.834 13.667 21.501 23l-20.5 5.5c-6.33301 1.66699 -12.166 2.5 -17.499 2.5c-6 0 -11 -2.16699 -15 -6.5s-6.5 -9 -7.5 -14s-0.5 -9.5 1.5 -13.5s6 -6 12 -6z" />
    <glyph glyph-name="M" unicode="M" horiz-adv-x="939" 
d="M438 430c6.66699 30.667 11.835 60.3369 15.502 89.0039s4.83398 54 3.50098 76c-2 16 -6 28.667 -12 38s-14.667 14 -26 14c-10 0 -20.667 -3 -32 -9s-22 -14 -32 -24s-18.833 -21.833 -26.5 -35.5s-13.167 -28.167 -16.5 -43.5
c-4.66699 -20.667 -4.33398 -41 0.999023 -61s16.666 -37.667 33.999 -53c-34 6.66699 -57.5 21.167 -70.5 43.5s-16.833 46.166 -11.5 71.499c4.66699 21.333 12.667 42 24 62s25.5 37.833 42.5 53.5s36.5 28.167 58.5 37.5s46 14 72 14c28.667 0 50.5 -8.66699 65.5 -26
s25 -38.666 30 -63.999s5.5 -52.666 1.5 -81.999s-10.333 -56 -19 -80l32.5 47.5c12.333 17.667 25.5 34 39.5 49s28.5 27.667 43.5 38s30.167 15.5 45.5 15.5c21.333 0 35.666 -9.33301 42.999 -28s6.66602 -49 -2.00098 -91l-10 -38c19.333 30.667 39.333 60.667 60 90
s41.167 55.5 61.5 78.5s39.666 41.333 57.999 55s35.166 20.5 50.499 20.5c14.667 0 26 -3.16699 34 -9.5s13.667 -14.5 17 -24.5s4.66602 -21.333 3.99902 -34s-2.33398 -25.334 -5.00098 -38.001c-1.33301 -8 -5.16602 -20.833 -11.499 -38.5l-22.5 -63l-29 -79.5
l-32 -87.5l-30.5 -88c-9.66699 -29 -17.834 -55.5 -24.501 -79.5c-6 -21.333 -10.333 -40.333 -13 -57s-2.66699 -28.667 0 -36s9 -9.16602 19 -5.49902s25 15.5 45 35.5c6 6 11.333 12.333 16 19s8 11 10 13c6.66699 6 12.167 6.66699 16.5 2s4.83301 -10.667 1.5 -18
c-8 -12 -17.333 -23.667 -28 -35s-22.167 -21.5 -34.5 -30.5s-25 -16.167 -38 -21.5s-25.833 -8 -38.5 -8c-8.66699 0 -17 2.5 -25 7.5s-14.5 13.5 -19.5 25.5s-7.5 27.667 -7.5 47s3.66699 43.333 11 72c9.33301 37.333 21.166 78.166 35.499 122.499l42 127.5l36.5 108.5
c10.667 31.667 17.334 53.834 20.001 66.501c1.33301 5.33301 1 8 -1 8c-3.33301 0 -10.666 -6.66699 -21.999 -20s-24.666 -30.5 -39.999 -51.5l-49.5 -71l-52 -78.5l-47 -73c-14.333 -22.667 -25.5 -41 -33.5 -55c-2.66699 -6 -7.16699 -11.833 -13.5 -17.5
s-13.166 -10.667 -20.499 -15s-15 -7.83301 -23 -10.5s-15.333 -4 -22 -4c-7.33301 0 -13.166 2.16699 -17.499 6.5s-5.16602 11.166 -2.49902 20.499l20.5 56.5l23.5 67.5c8 23.333 15.333 46.833 22 70.5s12 45.5 16 65.5c3.33301 16 4.83301 27.5 4.5 34.5
s-2.16602 10.5 -5.49902 10.5c-6 0 -15.667 -8.66699 -29 -26s-28.5 -40 -45.5 -68l-54 -93.5c-19 -34.333 -36.833 -68.5 -53.5 -102.5l2 2c-13.333 -30.667 -27.5 -61.167 -42.5 -91.5s-33.167 -57.333 -54.5 -81s-46.666 -42.834 -75.999 -57.501
s-64.333 -21.667 -105 -21c-29.333 0 -53.5 9.5 -72.5 28.5s-32 42.167 -39 69.5s-7.5 56.166 -1.5 86.499s19.667 57.166 41 80.499s50.833 40.666 88.5 51.999s84.167 11.333 139.5 0c-28 -2 -53.833 -10.167 -77.5 -24.5s-44.167 -31.833 -61.5 -52.5
s-31 -42.667 -41 -66s-15.667 -45 -17 -65s2.16699 -36.5 10.5 -49.5s22.166 -19.5 41.499 -19.5c21.333 0 41 6.5 59 19.5s34.833 30.167 50.5 51.5s30 46 43 74s24.667 57 35 87s19.666 59.833 27.999 89.5s15.5 57.167 21.5 82.5z" />
    <glyph glyph-name="N" unicode="N" horiz-adv-x="711" 
d="M183 -14c-29.333 0 -53.501 9.33691 -72.501 28.0039s-32 41.667 -39 69s-7.5 56.166 -1.5 86.499s19.667 57.333 41 81s50.833 41.167 88.5 52.5s84.167 11.333 139.5 0c-28 -2 -53.833 -10.167 -77.5 -24.5s-44.167 -31.833 -61.5 -52.5s-31 -42.667 -41 -66
s-15.667 -45 -17 -65s2 -36.5 10 -49.5s22 -19.5 42 -19.5c16 0 31.667 5.66699 47 17s30.5 27 45.5 47s29.667 43.333 44 70s28.833 55.334 43.5 86.001c13.333 35.333 25.333 69.666 36 102.999c8 26.667 15 53.667 21 81c6.66699 30.667 11.834 60.334 15.501 89.001
s4.83398 54 3.50098 76c-2 16 -6 28.667 -12 38s-14.667 14 -26 14c-10 0 -20.667 -3 -32 -9s-22 -14 -32 -24s-18.833 -21.833 -26.5 -35.5s-13.167 -28.167 -16.5 -43.5c-4.66699 -20.667 -4.33398 -41 0.999023 -61s16.666 -37.667 33.999 -53
c-34 6.66699 -57.5 21.167 -70.5 43.5s-16.833 46.166 -11.5 71.499c4.66699 21.333 12.667 42 24 62s25.5 37.833 42.5 53.5s36.5 28.167 58.5 37.5s46 14 72 14c24.667 0 44.334 -6.5 59.001 -19.5s25.167 -29.667 31.5 -50s9.16602 -43 8.49902 -68
s-3.66699 -49.167 -9 -72.5c16.667 26.667 33.667 52 51 76s34.5 45.333 51.5 64s33.5 33.5 49.5 44.5s30.667 16.5 44 16.5c22.667 0 36 -12 40 -36s1.66699 -55.333 -7 -94c-9.33301 -41.333 -20.666 -81.5 -33.999 -120.5l-40.5 -116l-40 -114.5
c-13 -38 -24.167 -76.333 -33.5 -115c-2.66699 -13.333 -4 -24.333 -4 -33s2.16699 -13.834 6.5 -15.501s11 0.333008 20 6s21.5 16.5 37.5 32.5c6 6 11.167 11.5 15.5 16.5s7.5 8.5 9.5 10.5c6.66699 6 12.667 6.66699 18 2s6.33301 -10.667 3 -18
c-8 -12 -17.333 -23.833 -28 -35.5s-22.167 -22.334 -34.5 -32.001s-25.166 -17.334 -38.499 -23.001s-26.333 -8.5 -39 -8.5c-22 0 -38.333 9.66699 -49 29s-10.334 50.666 0.999023 93.999c8 30.667 18.667 65.834 32 105.501l41 121l39.5 119.5
c12.333 38.667 21.5 72.667 27.5 102c2 9.33301 1.33301 14 -2 14c-4 0 -10.333 -5 -19 -15s-19 -23 -31 -39s-24.833 -34.333 -38.5 -55l-41.5 -64l-40 -65l-33 -57c-13.333 -35.333 -28.833 -71 -46.5 -107s-38.167 -68.5 -61.5 -97.5s-50.5 -52.833 -81.5 -71.5
s-66.5 -28 -106.5 -28z" />
    <glyph glyph-name="O" unicode="O" horiz-adv-x="533" 
d="M90 214c5.33301 27.333 13.5029 56.166 24.5029 86.499s24.167 60.333 39.5 90s32.666 58 51.999 85s40 51 62 72s45.333 37.833 70 50.5s50 19.334 76 20.001c14 23.333 31.167 43.333 51.5 60s44.5 25 72.5 25c20.667 -1.33301 36.667 -7 48 -17s19.333 -22.667 24 -38
s6.66699 -32.5 6 -51.5s-3 -38.5 -7 -58.5c-7.33301 -34 -18.833 -71 -34.5 -111s-34.334 -80 -56.001 -120s-46 -78.5 -73 -115.5s-55.333 -69.833 -85 -98.5s-60.167 -51.5 -91.5 -68.5s-62.333 -25.5 -93 -25.5c-22.667 0 -41.167 5.16699 -55.5 15.5
s-24.833 24.833 -31.5 43.5s-9.83398 41.167 -9.50098 67.5s3.83301 55.833 10.5 88.5zM394.003 253c-10.667 12 -19.1709 26.833 -25.5039 44.5s-10.666 36.834 -12.999 57.501s-2.66602 42.334 -0.999023 65.001s4.83398 45.334 9.50098 68.001
c3.33301 13.333 6 25.166 8 35.499s5.66699 21.833 11 34.5c-32 -22.667 -61.167 -51.667 -87.5 -87s-49 -72.333 -68 -111s-34.167 -77.334 -45.5 -116.001s-18 -72.834 -20 -102.501s0.666992 -52.667 8 -69s20.333 -22 39 -17s43.334 22.833 74.001 53.5
s67.667 78.667 111 144zM453.999 601c-10.667 -17.333 -19.6689 -36.332 -27.002 -56.999s-12.666 -39.334 -15.999 -56.001c-7.33301 -35.333 -10.166 -69.833 -8.49902 -103.5s8.5 -61.167 20.5 -82.5c20 35.333 39 73.166 57 113.499s30.667 78.833 38 115.5
s9.33301 65.334 6 86.001s-10 31 -20 31c-13.333 0 -30 -15.667 -50 -47z" />
    <glyph glyph-name="P" unicode="P" horiz-adv-x="569" 
d="M190 -14c-29.333 0 -53.499 9.33105 -72.499 27.998s-32 41.667 -39 69s-7.5 56.166 -1.5 86.499s19.667 57.333 41 81s50.833 41.167 88.5 52.5s84.167 11.333 139.5 0c-28 -2 -53.833 -10.167 -77.5 -24.5s-44.167 -31.833 -61.5 -52.5s-31 -42.667 -41 -66
s-15.667 -45 -17 -65s2.16699 -36.5 10.5 -49.5s22.166 -19.5 41.499 -19.5c13.333 0 26.333 4 39 12s25.334 19.167 38.001 33.5s25.167 31.333 37.5 51s24.5 41.167 36.5 64.5c19.333 44.667 36.5 91.334 51.5 140.001s27.167 94 36.5 136
c8.66699 39.333 13.334 74.833 14.001 106.5s-3.33301 54.167 -12 67.5c-6.66699 6.66699 -14.334 10 -23.001 10c-10 0 -20.667 -3 -32 -9s-22 -14 -32 -24s-18.833 -21.833 -26.5 -35.5s-13.167 -28.167 -16.5 -43.5c-4.66699 -20.667 -4.33398 -41 0.999023 -61
s16.666 -37.667 33.999 -53c-34 6.66699 -57.5 21.167 -70.5 43.5s-16.833 46.166 -11.5 71.499c4.66699 21.333 12.667 42 24 62s25.5 37.833 42.5 53.5s36.5 28.167 58.5 37.5s46 14 72 14c15.333 0 28.833 -2.66699 40.5 -8s21.167 -12.666 28.5 -21.999
c38.667 19.333 75.667 29 111 29c20.667 0 39.667 -3.5 57 -10.5s31.833 -17 43.5 -30s19.667 -29.167 24 -48.5s3.83301 -41.333 -1.5 -66c-5.33301 -22.667 -14.5 -45.5 -27.5 -68.5s-30.333 -43.667 -52 -62s-47.667 -33.666 -78 -45.999s-64.833 -19.5 -103.5 -21.5
l-31 -80.5c-10.667 -27.667 -22.167 -55 -34.5 -82s-26.166 -52.667 -41.499 -77s-32.833 -45.666 -52.5 -63.999s-42.167 -32.833 -67.5 -43.5s-54.333 -16 -87 -16zM521.001 403.998c18 4.66699 35.499 11.333 52.499 20s32.333 19 46 31s25.334 25.667 35.001 41
s16.5 32 20.5 50c6 29.333 2.33301 54.333 -11 75s-32.666 31 -57.999 31c-8 0 -16.833 -1.16699 -26.5 -3.5s-19.167 -6.5 -28.5 -12.5c1.33301 -36 -0.833984 -75.167 -6.50098 -117.5s-13.5 -80.5 -23.5 -114.5z" />
    <glyph glyph-name="Q" unicode="Q" horiz-adv-x="532" 
d="M384 -52c18.667 14 32.9941 31.3359 42.9941 52.0029s15.833 40.5 17.5 59.5s-0.5 35.333 -6.5 49s-15 20.5 -27 20.5h-7.5c-2.33301 0 -5.16602 -0.333008 -8.49902 -1c-14 -15.333 -30 -30.666 -48 -45.999s-36.833 -29.166 -56.5 -41.499s-39.5 -22.333 -59.5 -30
s-39 -11.5 -57 -11.5c-23.333 0 -42.166 5.66699 -56.499 17s-24.833 26.666 -31.5 45.999s-9.66699 42.166 -9 68.499s4 54.166 10 83.499c6 30 14.833 60.833 26.5 92.5s25.334 62.5 41.001 92.5s32.834 58.333 51.501 85s38.334 50 59.001 70s41.834 35.833 63.501 47.5
s43.167 17.5 64.5 17.5c3.33301 0 6.16602 -0.166992 8.49902 -0.5s5.16602 -0.833008 8.49902 -1.5c15.333 23.333 33.166 43.5 53.499 60.5s44.5 25.5 72.5 25.5c20.667 0 36.667 -5.5 48 -16.5s19.333 -24.833 24 -41.5s6.33398 -35.167 5.00098 -55.5
s-4 -39.833 -8 -58.5c-6.66699 -30 -16.334 -61.333 -29.001 -94s-27 -64.834 -43 -96.501s-33 -62.167 -51 -91.5s-36 -55.666 -54 -78.999c30.667 -4 50.834 -14.667 60.501 -32s11.834 -37 6.50098 -59c-2.66699 -13.333 -7.66699 -27.333 -15 -42
s-16.166 -28.334 -26.499 -41.001s-21.5 -23.334 -33.5 -32.001s-24 -14 -36 -16zM391.994 253.003c-10.667 12 -18.999 26.832 -24.999 44.499s-10.167 37 -12.5 58s-2.83301 42.833 -1.5 65.5s4.33301 45 9 67l10 41.5c3.33301 13.667 7.66602 26.834 12.999 39.501
c-32 -23.333 -61.167 -52.333 -87.5 -87s-49 -71 -68 -109s-34 -75.667 -45 -113s-17.5 -70.5 -19.5 -99.5s0.833008 -51.833 8.5 -68.5s20.667 -23.167 39 -19.5s42.333 19.667 72 48s65.5 72.5 107.5 132.5zM422.995 307.002c20.667 36 39.499 73.334 56.499 112.001
s29.167 76.334 36.5 113.001c2.66699 14 4.66699 27.833 6 41.5s1.33301 26.167 0 37.5s-3.66602 20.5 -6.99902 27.5s-8 10.5 -14 10.5c-11.333 -1.33301 -22.5 -9.5 -33.5 -24.5s-20.833 -33.833 -29.5 -56.5s-16.167 -47.334 -22.5 -74.001s-10.333 -52.334 -12 -77.001
s-1.16699 -47 1.5 -67s8.66699 -34.333 18 -43z" />
    <glyph glyph-name="R" unicode="R" horiz-adv-x="747" 
d="M401 298c15.333 44.667 27.6699 88.667 37.0029 132c6.66699 30.667 11.834 60.334 15.501 89.001s4.83398 54 3.50098 76c-2 16 -6 28.667 -12 38s-14.667 14 -26 14c-10 0 -20.667 -3 -32 -9s-22 -14 -32 -24s-18.833 -21.833 -26.5 -35.5s-13.167 -28.167 -16.5 -43.5
c-4.66699 -20.667 -4.33398 -41 0.999023 -61s16.666 -37.667 33.999 -53c-34 6.66699 -57.5 21.167 -70.5 43.5s-16.833 46.166 -11.5 71.499c4.66699 21.333 12.667 42 24 62s25.5 37.833 42.5 53.5s36.5 28.167 58.5 37.5s46 14 72 14c29.333 0 52 -9.66699 68 -29l7 -6
c38 20.667 77 31 117 31c24 0 44.333 -4.33301 61 -13s29.834 -20.167 39.501 -34.5s15.834 -30.833 18.501 -49.5s2 -38 -2 -58c-4 -19.333 -12.667 -38.5 -26 -57.5s-30 -36.667 -50 -53s-42.833 -31 -68.5 -44s-52.834 -22.833 -81.501 -29.5
c12 -6 21.667 -18.333 29 -37s13.833 -40.167 19.5 -64.5s11 -49.5 16 -75.5s11 -49.5 18 -70.5s15.667 -37.333 26 -49s23.5 -15.167 39.5 -10.5c6 2 11.667 5.33301 17 10s10.333 10.167 15 16.5s8.83398 12.666 12.501 18.999l9.5 16.5c2 4 4.5 6.16699 7.5 6.5
s5.66699 -0.5 8 -2.5s3.83301 -4.83301 4.5 -8.5s-0.333008 -7.5 -3 -11.5c-14 -26.667 -31.5 -49 -52.5 -67s-42.833 -26.333 -65.5 -25c-16 0.666992 -30.5 7 -43.5 19s-24.5 27.167 -34.5 45.5s-18.833 38.833 -26.5 61.5s-14.334 45 -20.001 67
s-10.334 42.667 -14.001 62s-6.83398 35 -9.50098 47c-14 -36.667 -29.5 -74.5 -46.5 -113.5s-37.333 -74.667 -61 -107s-51.834 -58.833 -84.501 -79.5s-71.334 -31 -116.001 -31c-29.333 0 -53.5 9.5 -72.5 28.5s-32 42.5 -39 70.5s-7.5 57.5 -1.5 88.5
s19.667 58.667 41 83s50.833 42.333 88.5 54s84.167 11.834 139.5 0.500977c-28 -2 -53.833 -10.167 -77.5 -24.5s-44.167 -31.833 -61.5 -52.5s-31 -42.667 -41 -66s-15.667 -45 -17 -65s2.16699 -36.5 10.5 -49.5s22.166 -19.5 41.499 -19.5
c14.667 0 29.334 5.16699 44.001 15.5s29 24.333 43 42s27.833 38.667 41.5 63s27.5 50.5 41.5 78.5zM527.004 401c38.667 9.33301 72.168 26.5 100.501 51.5s46.166 54.833 53.499 89.5c6.66699 32 3.33398 57.5 -9.99902 76.5s-32 28.5 -56 28.5
c-18.667 0 -38.334 -5.66699 -59.001 -17c1.33301 -6.66699 2.33301 -13.5 3 -20.5l2 -21.5c1.33301 -20 0.5 -40.5 -2.5 -61.5s-7.5 -41.167 -13.5 -60.5c-6.66699 -25.333 -12.667 -47 -18 -65z" />
    <glyph glyph-name="S" unicode="S" horiz-adv-x="486" 
d="M289 311c-16.667 -4 -32.9961 -13.3389 -48.9961 -28.0059s-30.167 -32 -42.5 -52s-22 -41.167 -29 -63.5s-9.83301 -42.833 -8.5 -61.5s7.33301 -34.167 18 -46.5s27.667 -18.5 51 -18.5c36 0 64.333 8.5 85 25.5s33.667 38.167 39 63.5c6 29.333 6.33301 57 1 83
s-13 51.333 -23 76s-20.667 49.167 -32 73.5s-20 49.333 -26 75s-7.33301 52.667 -4 81s14.666 58.833 33.999 91.5c10 16.667 22.167 31.5 36.5 44.5s30.166 24 47.499 33s35.5 16 54.5 21s38.167 7.5 57.5 7.5c34 0 58.333 -10.833 73 -32.5s21.5 -47.167 20.5 -76.5
s-8.5 -58.666 -22.5 -87.999s-32 -52 -54 -68c-17.333 -12.667 -34 -16 -50 -10s-28.667 15.667 -38 29c10 7.33301 19.833 17.333 29.5 30s18.5 25.834 26.5 39.501s14.833 27.167 20.5 40.5s9.5 24.333 11.5 33c2 10.667 1.33301 19.334 -2 26.001s-9.66602 10 -18.999 10
c-17.333 0 -33.833 -8.66699 -49.5 -26s-29.5 -37.666 -41.5 -60.999c-14.667 -29.333 -23 -56.333 -25 -81s-0.333008 -47.834 5 -69.501s12.666 -42.5 21.999 -62.5s18.166 -40.333 26.499 -61s14.5 -42.167 18.5 -64.5s3.33301 -46.5 -2 -72.5
c-4.66699 -22.667 -13.834 -43.167 -27.501 -61.5s-30.5 -34 -50.5 -47s-42.833 -23.167 -68.5 -30.5s-52.834 -11 -81.501 -11s-53 5.66699 -73 17s-35.667 26 -47 44s-18.666 38.333 -21.999 61s-3 45 1 67s11.667 42.833 23 62.5s25.833 35.834 43.5 48.501
s38.5 20.334 62.5 23.001s50.667 -1.66602 80 -12.999z" />
    <glyph glyph-name="T" unicode="T" horiz-adv-x="526" 
d="M276 320c-42.667 -36 -71.501 -70.832 -86.501 -104.499s-21.333 -63.667 -19 -90s10.666 -47.333 24.999 -63s29.833 -22.834 46.5 -21.501c13.333 1.33301 27.333 7.66602 42 18.999s28.667 30 42 56c12.667 23.333 25 50.833 37 82.5s23.5 65 34.5 100
s21.5 70.333 31.5 106l28 102l23.5 88c7 26.333 13.167 47.5 18.5 63.5c-6 -0.666992 -13.667 -1.66699 -23 -3l-30.5 -4.5c-11 -1.66699 -22.667 -3.16699 -35 -4.5s-23.833 -2 -34.5 -2c-9.33301 0 -17.666 2.5 -24.999 7.5s-13.333 11 -18 18s-8 14.667 -10 23
s-2.33301 16.166 -1 23.499c-0.666992 0.666992 7.83301 1.5 25.5 2.5s41 1.83301 70 2.5s62 1 99 1s74.167 -0.833008 111.5 -2.5s73.166 -4.16699 107.499 -7.5s63.666 -7.83301 87.999 -13.5s41.833 -12.667 52.5 -21s10.667 -18.5 0 -30.5c-6 2.66699 -16.167 5 -30.5 7
s-31.166 3.83301 -50.499 5.5s-39.666 2.83398 -60.999 3.50098s-41.666 1.33398 -60.999 2.00098s-36.333 1 -51 1h-31c-3.33301 -12 -8 -29.833 -14 -53.5s-13.333 -51.167 -22 -82.5l-29 -102c-10.667 -36.667 -22.667 -73.334 -36 -110.001s-27.833 -72.5 -43.5 -107.5
s-32.5 -66.833 -50.5 -95.5c-21.333 -34 -44.5 -61.333 -69.5 -82s-51.833 -31.667 -80.5 -33c-28 -1.33301 -53.667 3.33398 -77 14.001s-42.5 25.167 -57.5 43.5s-24.5 39.333 -28.5 63s-0.166992 47.5 11.5 71.5s32 47.333 61 70s69.167 42 120.5 58z" />
    <glyph glyph-name="U" unicode="U" horiz-adv-x="791" 
d="M378 402c-35.333 9.33301 -62.5098 23.665 -81.5098 42.998s-31.667 40.5 -38 63.5s-7 46.5 -2 70.5s13.833 45.833 26.5 65.5s28.834 35.834 48.501 48.501s40.834 19 63.501 19c35.333 0 63.5 -5.33301 84.5 -16s36.167 -25.834 45.5 -45.501s14 -42.834 14 -69.501
s-3.33301 -56 -10 -88c-6.66699 -30.667 -15.167 -62.167 -25.5 -94.5s-20.833 -63.5 -31.5 -93.5l-30 -84.5c-9.33301 -26.333 -16 -49.166 -20 -68.499c-7.33301 -34.667 -10.666 -59.334 -9.99902 -74.001s4.33398 -22 11.001 -22c14 0 32.667 11.667 56 35
s48.333 54.166 75 92.499s53.334 81.833 80.001 130.5s50.667 98 72 148v-1l48 129c6.66699 17.333 17.667 30.833 33 40.5s29.666 14.5 42.999 14.5c8 0 14.5 -2.16699 19.5 -6.5s6.83301 -11.166 5.5 -20.499l-18.5 -52.5l-25.5 -72.5l-29.5 -85l-30 -89.5
c-9.66699 -29.667 -18.667 -58.667 -27 -87s-15.5 -54.166 -21.5 -77.499c-6 -22 -9.83301 -41.667 -11.5 -59s-0.5 -30 3.5 -38s11.667 -10 23 -6s27.333 16.333 48 37c6 6 11.167 11.5 15.5 16.5s7.5 8.5 9.5 10.5c6.66699 6 12.667 6.66699 18 2s6.33301 -10.667 3 -18
c-8 -12 -17.5 -24.167 -28.5 -36.5s-22.833 -23.166 -35.5 -32.499s-26.167 -16.833 -40.5 -22.5s-28.833 -7.83398 -43.5 -6.50098c-12.667 0.666992 -23.167 4.5 -31.5 11.5s-14.666 15.833 -18.999 26.5s-7.16602 22.667 -8.49902 36s-1.33301 27 0 41
c2 18.667 5 36.834 9 54.501s8 33.167 12 46.5c-20 -31.333 -40.167 -60.333 -60.5 -87s-40.5 -49.667 -60.5 -69s-39.333 -34.333 -58 -45s-36 -16 -52 -16c-18 0 -32.333 3.66699 -43 11s-18.167 17.833 -22.5 31.5s-6.16602 29.834 -5.49902 48.501
s3.33398 39 8.00098 61c4 19.333 10.333 42.5 19 69.5l28 86.5l29.5 94.5c9.66699 32.333 17.5 63.5 23.5 93.5c4.66699 21.333 8 42.5 10 63.5s2.16699 40 0.5 57s-5.83398 30.667 -12.501 41s-16.334 15.5 -29.001 15.5c-13.333 0 -24.666 -5 -33.999 -15
s-16.666 -23.167 -21.999 -39.5s-8.66602 -34.5 -9.99902 -54.5s-0.666016 -40 2.00098 -60s7.5 -39 14.5 -57s15.833 -33 26.5 -45z" />
    <glyph glyph-name="V" unicode="V" horiz-adv-x="692" 
d="M421 122c-3.33301 -16.667 -4.50684 -30.3301 -3.50684 -40.9971s5.5 -16 13.5 -16c16.667 0 35 9.16699 55 27.5s40.333 43 61 74s41.167 67 61.5 108s39.5 84.333 57.5 130s34 92.167 48 139.5s25 92.666 33 135.999c0.666992 3.33301 4.33398 7.16602 11.001 11.499
s14 8.5 22 12.5s16 7.33301 24 10s13.667 4 17 4c2.66699 0 2.33398 -10.333 -0.999023 -31s-9.5 -47.834 -18.5 -81.501s-20.5 -72 -34.5 -115s-30.333 -87 -49 -132s-39.667 -89 -63 -132s-48.666 -81.333 -75.999 -115s-56.5 -60.667 -87.5 -81
s-63.833 -30.5 -98.5 -30.5c-18.667 0 -33.167 4.16699 -43.5 12.5s-17.666 19.5 -21.999 33.5s-5.83301 30.167 -4.5 48.5s4 37.5 8 57.5c5.33301 25.333 11.166 48.833 17.499 70.5l19 62c6.33301 19.667 12.833 38.834 19.5 57.501l20 58c5.33301 16 10 32.167 14 48.5
s7.66699 32.166 11 47.499c4.66699 21.333 8 42.5 10 63.5s2.16699 40 0.5 57s-5.83398 30.667 -12.501 41s-16.334 15.5 -29.001 15.5c-13.333 0 -24.666 -5 -33.999 -15s-16.666 -23.167 -21.999 -39.5s-8.66602 -34.5 -9.99902 -54.5s-0.666016 -40 2.00098 -60
s7.5 -39 14.5 -57s15.833 -33 26.5 -45c-35.333 9.33301 -62.5 23.666 -81.5 42.999s-31.667 40.5 -38 63.5s-7 46.5 -2 70.5s13.833 45.833 26.5 65.5s28.834 35.834 48.501 48.501s40.834 19 63.501 19c35.333 0 64 -5.33301 86 -16s38.5 -25.834 49.5 -45.501
s17 -42.834 18 -69.501s-1.83301 -56 -8.5 -88c-4.66699 -20.667 -10 -41.667 -16 -63s-12.667 -42.666 -20 -63.999h-1l-15 -48c-2 -7.33301 -6 -18.666 -12 -33.999l-19.5 -50.5c-7 -18.333 -13.833 -37.5 -20.5 -57.5s-11.667 -38 -15 -54z" />
    <glyph glyph-name="W" unicode="W" horiz-adv-x="968" 
d="M422 149c-7.33301 -33.333 -9.99805 -56.832 -7.99805 -70.499s6.33301 -20.5 13 -20.5c12.667 0 28.5 8.5 47.5 25.5s39 39.667 60 68s42.167 61.5 63.5 99.5s41.333 78 60 120v-2c1.33301 3.33301 5.16602 7.16602 11.499 11.499s13.5 8.5 21.5 12.5s16 7.33301 24 10
s14 4 18 4c15.333 0 21.333 -8.33301 18 -25c-10.667 -32.667 -20.667 -65.334 -30 -98.001s-17 -63.667 -23 -93c-9.33301 -46.667 -13.833 -79.667 -13.5 -99s4.16602 -29 11.499 -29c24 6 48.167 22 72.5 48s47.666 57.5 69.999 94.5s43.333 77.833 63 122.5
s37 88.834 52 132.501s27.167 84.667 36.5 123s15 70.166 17 95.499c0.666992 4 3.66699 8.16699 9 12.5s11.333 8.33301 18 12s13.167 6.66699 19.5 9s10.5 3.5 12.5 3.5c6 0 8.33301 -10.333 7 -31s-5.83301 -48 -13.5 -82s-18.167 -72.667 -31.5 -116
s-29.5 -87.5 -48.5 -132.5s-40.167 -89 -63.5 -132s-48.833 -81.167 -76.5 -114.5s-57 -60 -88 -80s-63.167 -29.333 -96.5 -28c-17.333 0 -30.666 4.66699 -39.999 14s-15.666 22.166 -18.999 38.499s-4 35.5 -2 57.5s5.66699 45.667 11 71c-16 -26 -33 -49 -51 -69
l-31 -34.5c-12 -13 -25 -25.333 -39 -37s-28.833 -21.334 -44.5 -29.001s-31.5 -11.5 -47.5 -11.5c-19.333 0 -34.5 4.33301 -45.5 13s-18.667 20.834 -23 36.501s-5.83301 34 -4.5 55s4.66602 44.167 9.99902 69.5c8 39.333 19.333 81.333 34 126l43 132
c3.33301 10.667 6.33301 21.334 9 32.001s5 21.334 7 32.001c4.66699 21.333 8 42.5 10 63.5s2.16699 40 0.5 57s-5.83398 30.667 -12.501 41s-16.334 15.5 -29.001 15.5c-13.333 0 -24.666 -5 -33.999 -15s-16.666 -23.167 -21.999 -39.5s-8.66602 -34.5 -9.99902 -54.5
s-0.666016 -40 2.00098 -60s7.5 -39 14.5 -57s15.833 -33 26.5 -45c-35.333 9.33301 -62.5 23.666 -81.5 42.999s-31.667 40.5 -38 63.5s-7 46.5 -2 70.5s13.833 45.833 26.5 65.5s28.834 35.834 48.501 48.501s40.834 19 63.501 19c35.333 0 64.166 -5.5 86.499 -16.5
s39.166 -26.167 50.499 -45.5s17.666 -42.5 18.999 -69.5s-1.33398 -56.5 -8.00098 -88.5c-7.33301 -31.333 -16 -61.5 -26 -90.5s-20.333 -57.5 -31 -85.5l-30.5 -83c-9.66699 -27.333 -17.5 -55.333 -23.5 -84z" />
    <glyph glyph-name="X" unicode="X" horiz-adv-x="817" 
d="M224 222c-14.667 -17.333 -26.5078 -35.1631 -35.5078 -53.4961s-15.167 -35.833 -18.5 -52.5c-5.33301 -21.333 -5 -39.5 1 -54.5s18 -22.5 36 -22.5c21.333 0 44.833 10.167 70.5 30.5s51 44.5 76 72.5s48.5 56.5 70.5 85.5l54 70.5l12 16l-22 129
c-7.33301 42 -15.666 79.333 -24.999 112s-20.166 59 -32.499 79s-26.833 30 -43.5 30c-4 0 -9.16699 -0.833008 -15.5 -2.5s-13.166 -3.66699 -20.499 -6s-14.333 -5.33301 -21 -9s-12 -7.5 -16 -11.5c6.66699 18 14.834 32.833 24.501 44.5s19.667 21 30 28
s20.333 11.833 30 14.5s18.167 4 25.5 4c26 0 48 -8.83301 66 -26.5s33.167 -41 45.5 -70s22.5 -61.833 30.5 -98.5s15.333 -74.334 22 -113.001l75.5 95.5c27.667 35 56.834 67.5 87.501 97.5s62.334 55.167 95.001 75.5s65 30.5 97 30.5c10.667 0 21.334 -1 32.001 -3
s20 -4.83301 28 -8.5s14.167 -8.33398 18.5 -14.001s5.5 -12.167 3.5 -19.5c-1.33301 -5.33301 -4.33301 -10.333 -9 -15s-11 -7 -19 -7c-7.33301 0 -13.5 1.5 -18.5 4.5s-10.167 4.5 -15.5 4.5c-17.333 0 -36.5 -7 -57.5 -21s-42.833 -32.167 -65.5 -54.5
s-45.334 -47.166 -68.001 -74.499l-65 -81l-56.5 -74.5l-41.5 -54.5l9.5 -45c3.66699 -17.333 8.33398 -35.5 14.001 -54.5s12 -37.5 19 -55.5s14.833 -34.167 23.5 -48.5s18.5 -25.833 29.5 -34.5s22.833 -12.667 35.5 -12c10.667 0.666992 23.667 5.66699 39 15
s34.666 26.333 57.999 51c6 5.33301 12 6 18 2s8 -9 6 -15c-66 -68 -121.333 -102 -166 -102c-23.333 0 -43.666 6.33301 -60.999 19s-32.5 29 -45.5 49s-24 42.167 -33 66.5s-16.167 48.166 -21.5 71.499l-61.5 -70c-23 -25.333 -47.5 -49 -73.5 -71
s-52.833 -40.5 -80.5 -55.5s-55.167 -22.833 -82.5 -23.5c-27.333 0 -50.333 5.5 -69 16.5s-33.167 25.667 -43.5 44s-16.666 39.166 -18.999 62.499s-0.833008 47.333 4.5 72c2 10 6 21.5 12 34.5s14.333 23.167 25 30.5s24 10.166 40 8.49902s35.333 -12.5 58 -32.5z" />
    <glyph glyph-name="Y" unicode="Y" horiz-adv-x="801" 
d="M687 15c30 -4.66699 58.1729 -5.33301 84.5059 -2s47.5 14.666 63.5 33.999c-21.333 -36 -46.833 -59.333 -76.5 -70s-60.167 -14.667 -91.5 -12c-12 -26 -26.333 -51.167 -43 -75.5s-35.167 -45.833 -55.5 -64.5s-42.333 -33.5 -66 -44.5s-48.834 -16.5 -75.501 -16.5
c-30.667 0.666992 -53.834 8.83398 -69.501 24.501s-24.834 34.667 -27.501 57s0.5 46.333 9.5 72s22.5 48.834 40.5 69.501s39.833 36.667 65.5 48s54.167 14.333 85.5 9c11.333 -1.33301 22.833 -3 34.5 -5s23.834 -4.33301 36.501 -7
c11.333 28.667 23.5 67.834 36.5 117.501s26.833 116.834 41.5 201.501l-38.5 -56.5c-16.333 -23.667 -35 -47 -56 -70s-43.833 -42.833 -68.5 -59.5s-49.334 -25 -74.001 -25c-18.667 0 -33.334 3.16699 -44.001 9.5s-18.334 15.166 -23.001 26.499
s-6.83398 24.833 -6.50098 40.5s2.5 32.5 6.5 50.5c9.33301 40.667 20.333 79.5 33 116.5s23 74.5 31 112.5c4.66699 21.333 8 42.5 10 63.5s2.16699 40 0.5 57s-5.83398 30.667 -12.501 41s-16.334 15.5 -29.001 15.5c-13.333 0 -24.666 -5 -33.999 -15
s-16.666 -23.167 -21.999 -39.5s-8.66602 -34.5 -9.99902 -54.5s-0.666016 -40 2.00098 -60s7.5 -39 14.5 -57s15.833 -33 26.5 -45c-35.333 9.33301 -62.5 23.666 -81.5 42.999s-31.667 40.5 -38 63.5s-7 46.5 -2 70.5s13.833 45.833 26.5 65.5
s28.834 35.834 48.501 48.501s40.834 19 63.501 19c35.333 0 64.166 -5.33301 86.499 -16s39.333 -25.834 51 -45.501s18.167 -42.834 19.5 -69.501s-1.33398 -56 -8.00098 -88c-2 -10.667 -6.83301 -26.667 -14.5 -48l-24 -68l-24 -69.5
c-7.66699 -22.333 -12.5 -39.5 -14.5 -51.5c-2.66699 -12 -2.83398 -21.5 -0.500977 -28.5s8.5 -10.5 18.5 -10.5c14.667 0 30.5 7 47.5 21s34.833 33.333 53.5 58s37.667 54.167 57 88.5s39 71.833 59 112.5c3.33301 6 8.16602 11.5 14.499 16.5s13 9.33301 20 13
s14 6.66699 21 9s13.5 3.5 19.5 3.5c14.667 0 21 -6.33301 19 -19l-11.5 -84.5c-5 -36.333 -12.167 -77.166 -21.5 -122.499c-6 -28.667 -12.167 -55.334 -18.5 -80.001l-19 -72c-6.33301 -23.333 -13.333 -46.833 -21 -70.5zM438.006 -180.999
c14 0 28.001 4.83496 42.001 14.502s27.167 22.334 39.5 38.001s24 33.167 35 52.5s20.5 38.666 28.5 57.999c-20 5.33301 -39 10.666 -57 15.999s-34.667 9 -50 11c-23.333 -14.667 -44.166 -32.834 -62.499 -54.501s-30.833 -42.5 -37.5 -62.5
s-5.83398 -37.167 2.49902 -51.5s28.166 -21.5 59.499 -21.5z" />
    <glyph glyph-name="Z" unicode="Z" horiz-adv-x="545" 
d="M312 695c26.667 0 53.1689 -5.49805 79.502 -16.498s51.166 -23.167 74.499 -36.5c14.667 18 31.5 32.833 50.5 44.5s40.5 17.5 64.5 17.5c32 0 54.167 -8.16699 66.5 -24.5s17 -34.333 14 -54s-12.833 -37.667 -29.5 -54s-38.334 -24.5 -65.001 -24.5
c-16.667 0 -34.667 2.66699 -54 8c-16.667 -33.333 -31.667 -67.666 -45 -102.999l-40 -106.5c-13.333 -35.667 -27.5 -71.5 -42.5 -107.5s-32.5 -71.333 -52.5 -106l15 -7c52.667 -23.333 96.167 -36.166 130.5 -38.499s66.166 7.16699 95.499 28.5
c1.33301 0.666992 0.833008 -2.16602 -1.5 -8.49902s-7.16602 -14 -14.499 -23s-17.833 -17.667 -31.5 -26s-30.834 -13.833 -51.501 -16.5s-45.5 -1.33398 -74.5 3.99902s-62.833 17.666 -101.5 36.999c-20.667 -24.667 -44.334 -45 -71.001 -61s-55.334 -24 -86.001 -24
c-22.667 0 -40.667 4.5 -54 13.5s-22.166 20.167 -26.499 33.5s-4.66602 28 -0.999023 44s11 30.667 22 44s25.333 24.5 43 33.5s38.167 13.5 61.5 13.5c9.33301 0 19.833 -1 31.5 -3s22.834 -4.66699 33.501 -8c18 32 34 65.833 48 101.5l41.5 108l41.5 109
c14 36.333 30 70.833 48 103.5l-54.5 7.5c-17.667 2.33301 -34.5 3.16602 -50.5 2.49902s-31.333 -2.83398 -46 -6.50098s-28.334 -10.167 -41.001 -19.5c-1.33301 -1.33301 -2.66602 -2 -3.99902 -2c-17.333 16.667 -27.166 32.5 -29.499 47.5s0.666992 28.167 9 39.5
s21.166 20.166 38.499 26.499s37 9.5 59 9.5zM144.002 56.002c13.333 0 26.167 5.33301 38.5 16s24.833 24.667 37.5 42c-19.333 6 -34 9 -44 9c-15.333 0 -28.333 -3.5 -39 -10.5s-17.667 -14.667 -21 -23s-3 -16 1 -23s13 -10.5 27 -10.5zM591.003 640.002
c-6 0 -13.002 -2.33301 -21.002 -7s-16.667 -13 -26 -25c12 -3.33301 23.333 -5 34 -5c6.66699 0 12.334 2 17.001 6s7.83398 8.16699 9.50098 12.5s1.5 8.5 -0.5 12.5s-6.33301 6 -13 6z" />
    <glyph glyph-name="bracketleft" unicode="[" horiz-adv-x="215" 
d="M168 618c1.33301 7.33301 5.33203 14.498 11.999 21.498s16 10.5 28 10.5h74c10.667 0 18.5 -3.16699 23.5 -9.5s6.83301 -13.5 5.5 -21.5c-2 -7.33301 -6.66699 -14.166 -14 -20.499s-16.333 -9.5 -27 -9.5h-22l-122 -578h22c10.667 0 18.334 -3.16699 23.001 -9.5
s6.33398 -13.166 5.00098 -20.499s-5.83301 -14.166 -13.5 -20.499s-16.834 -9.5 -27.501 -9.5h-74c-10.667 0 -18.167 2.66699 -22.5 8s-5.83301 11.666 -4.5 18.999z" />
    <glyph glyph-name="backslash" unicode="\" horiz-adv-x="243" 
d="M273 628c3.33301 10 8.83301 17.165 16.5 21.498s15.167 6.5 22.5 6.5c8 0 15.167 -3.16699 21.5 -9.5s7.83301 -16.166 4.5 -29.499l-238 -632c-3.33301 -9.33301 -8.66602 -16.666 -15.999 -21.999s-15 -8 -23 -8c-8.66699 0 -15.834 3.16699 -21.501 9.5
s-7.5 14.5 -5.5 24.5l1 6z" />
    <glyph glyph-name="bracketright" unicode="]" horiz-adv-x="207" 
d="M134 -22c-3.33301 -7.33301 -8.33203 -13.6641 -14.999 -18.9971s-15.334 -8 -26.001 -8h-74c-11.333 0 -18.666 3.16699 -21.999 9.5s-4.33301 13.166 -3 20.499s5.16602 14.166 11.499 20.499s15.166 9.5 26.499 9.5h22l122 578h-22
c-11.333 0 -19.166 3.16699 -23.499 9.5s-5.5 13.166 -3.5 20.499c1.33301 8 5.33301 15.167 12 21.5s15.667 9.5 27 9.5h74c12 0 20 -3.5 24 -10.5s5.33301 -14.167 4 -21.5z" />
    <glyph glyph-name="asciicircum" unicode="^" horiz-adv-x="388" 
d="M445 476c2.66699 -4.66699 3.33203 -10 1.99902 -16c-1.33301 -6.66699 -4.83301 -12 -10.5 -16s-11.5 -6 -17.5 -6c-4.66699 0 -9 1.16699 -13 3.5s-7 6.5 -9 12.5l-83 140l-141 -141c-8 -10.667 -16.667 -16 -26 -16c-6.66699 0 -12 2.33301 -16 7s-5.33301 10 -4 16
c0.666992 5.33301 5 12 13 20l88 106l87 106c3.33301 2.66699 6.83301 5.16699 10.5 7.5s7.83398 3.5 12.501 3.5c5.33301 0 9 -1.16699 11 -3.5s4 -4.83301 6 -7.5z" />
    <glyph glyph-name="underscore" unicode="_" horiz-adv-x="532" 
d="M68 -31c-11.333 0 -19.166 3.5 -23.499 10.5s-5.5 14.833 -3.5 23.5c1.33301 8.66699 5.66602 16.5 12.999 23.5s16.666 10.5 27.999 10.5h372c10.667 0 18.334 -3.5 23.001 -10.5s6.33398 -14.833 5.00098 -23.5c-2 -8.66699 -6.83301 -16.5 -14.5 -23.5
s-16.834 -10.5 -27.501 -10.5h-372z" />
    <glyph glyph-name="grave" unicode="`" horiz-adv-x="259" 
d="M150 568c16 13.333 32.5 22.667 49.5 28s32.833 8 47.5 8c22 0 39.667 -5.16699 53 -15.5s18.333 -23.833 15 -40.5c-1.33301 -7.33301 -4.66602 -14.833 -9.99902 -22.5s-13 -15.5 -23 -23.5c-15.333 6 -30.5 13.667 -45.5 23s-31.833 14 -50.5 14
c-4.66699 0 -9.66699 -0.666992 -15 -2s-10.333 -2 -15 -2c-5.33301 0 -9.33301 2 -12 6s-3.33398 8.66699 -2.00098 14c0 2 0.833008 4.16699 2.5 6.5s3.5 4.5 5.5 6.5z" />
    <glyph glyph-name="a" unicode="a" horiz-adv-x="327" 
d="M329 295c-2.66699 18.667 -9.66504 32.832 -20.998 42.499s-24.833 15 -40.5 16s-32.334 -2.5 -50.001 -10.5s-33.834 -20 -48.501 -36c-8.66699 -9.33301 -17.667 -22 -27 -38s-18 -33.167 -26 -51.5s-15.333 -37 -22 -56s-11.834 -36 -15.501 -51
s-5.5 -27.333 -5.5 -37s2.33301 -14.5 7 -14.5s12.667 5.66699 24 17s24.333 26.5 39 45.5s29.667 41.167 45 66.5s29.333 51.666 42 78.999c1.33301 2.66699 4.66602 5.83398 9.99902 9.50098s11.5 7 18.5 10s14.333 5.66699 22 8s14.834 3.5 21.501 3.5
c7.33301 0 13.333 -1.66699 18 -5s5.33398 -9.33301 2.00098 -18c-7.33301 -20 -16.666 -42.833 -27.999 -68.5l-31 -73c-9.33301 -23 -16.166 -42.667 -20.499 -59s-2.5 -25.833 5.5 -28.5c7.33301 -2.66699 18.166 2 32.499 14s29.833 30.333 46.5 55
c6.66699 6 12.667 6.66699 18 2s6.33301 -10.667 3 -18c-11.333 -14.667 -23.5 -29.167 -36.5 -43.5s-26.167 -26.5 -39.5 -36.5c-10 -8 -20.667 -13.5 -32 -16.5s-22 -3.33301 -32 -1s-18.833 7.33301 -26.5 15s-12.834 18.167 -15.501 31.5
c-2 11.333 -2.16699 22.833 -0.5 34.5s3.83398 21.5 6.50098 29.5c-32 -37.333 -58 -63.666 -78 -78.999s-39 -21.666 -57 -18.999c-16 2 -27 12.333 -33 31s-7.33301 42 -4 70c2.66699 24.667 8.66699 51.167 18 79.5s21.666 55.5 36.999 81.5s33.5 49.5 54.5 70.5
s44.167 36.167 69.5 45.5c14 5.33301 32.167 8.66602 54.5 9.99902s42.833 -1 61.5 -7s32.5 -17 41.5 -33s6.5 -38.333 -7.5 -67z" />
    <glyph glyph-name="b" unicode="b" 
d="M178 666c32 -7.33301 50.3301 -27.1709 54.9971 -59.5039s-1 -71.166 -17 -116.499l-15 -41l-15 -40.5l-18.5 -48.5l-25.5 -65c22 30 44.833 55.333 68.5 76s48.167 31 73.5 31c19.333 0 32.833 -6.33301 40.5 -19s10.834 -29.334 9.50098 -50.001
s-6.5 -44.167 -15.5 -70.5s-20.333 -52.666 -34 -78.999s-29.334 -51.666 -47.001 -75.999s-35.5 -45.166 -53.5 -62.499c4.66699 -0.666992 12.834 -0.333984 24.501 0.999023s24.5 4.5 38.5 9.5s28.667 12.333 44 22s29.666 22.167 42.999 37.5
c6.66699 6 12.667 6.66699 18 2s6.33301 -10.667 3 -18c-6 -10 -18 -21.5 -36 -34.5s-38 -24.667 -60 -35s-44.5 -17.833 -67.5 -22.5s-42.5 -4 -58.5 2c-6 -3.33301 -12 -5.33301 -18 -6c-15.333 -3.33301 -31 -3.33301 -47 0s-30 7.5 -42 12.5s-20.667 9.5 -26 13.5
s-5 5 1 3c17.333 -4.66699 33.833 -4.16699 49.5 1.5s31.167 15.167 46.5 28.5v1c16.667 14.667 32.5 33 47.5 55s28.667 44.833 41 68.5s22.833 46.5 31.5 68.5s15.667 41 21 57c6 18 8.33301 29.833 7 35.5s-4.83301 7.33398 -10.5 5.00098s-12.667 -7.5 -21 -15.5
s-16.666 -16.667 -24.999 -26s-15.666 -18.166 -21.999 -26.499s-10.5 -14.166 -12.5 -17.499c-14.667 -24.667 -27.667 -50.667 -39 -78s-22.666 -52.333 -33.999 -75s-23.333 -41.334 -36 -56.001s-27.334 -22 -44.001 -22c-12.667 0 -17.667 8.66699 -15 26l14 53
l39 135.5c14.667 49.667 31.334 100.5 50.001 152.5z" />
    <glyph glyph-name="c" unicode="c" horiz-adv-x="250" 
d="M250 115c6.66699 6 12.6699 6.66211 18.0029 1.99512s6.33301 -10.667 3 -18c-18 -32.667 -41.333 -57.334 -70 -74.001s-57 -24.834 -85 -24.501s-53.167 9.83301 -75.5 28.5s-35.833 47.334 -40.5 86.001c-4 28.667 -1.83301 59.834 6.5 93.501
s21.166 64.834 38.499 93.501s39 52.834 65 72.501s54.667 29.834 86 30.501c22.667 0 39.334 -3.83301 50.001 -11.5s17.167 -17.167 19.5 -28.5s1.5 -23.5 -2.5 -36.5s-9.66699 -25.167 -17 -36.5s-15.333 -20.833 -24 -28.5s-16.334 -11.5 -23.001 -11.5
c-9.33301 0 -17.5 3.66699 -24.5 11s-9.83301 16.333 -8.5 27c8.66699 2 17 7.33301 25 16s14 17.5 18 26.5s5.16699 16.833 3.5 23.5s-7.16699 9.33398 -16.5 8.00098c-20 -7.33301 -38.167 -22.5 -54.5 -45.5s-29.333 -48.833 -39 -77.5s-15.834 -57.667 -18.501 -87
s-0.666992 -53.333 6 -72s17 -31.167 31 -37.5s29.167 -7.66602 45.5 -3.99902s32.166 12 47.499 25s27.333 29.5 36 49.5z" />
    <glyph glyph-name="d" unicode="d" horiz-adv-x="336" 
d="M373 512l-51.001 -179.997l-33 -114.5c-8.66699 -29 -15.334 -50.667 -20.001 -65l-9.5 -29.5c-1.66699 -5.33301 -2.66699 -8 -3 -8s-0.5 -0.333008 -0.5 -1c-3.33301 -14 -5.16602 -26 -5.49902 -36s1.5 -16.833 5.5 -20.5s10.333 -3.33398 19 0.999023
s20.667 14.166 36 29.499c6 6 11.167 11.5 15.5 16.5s7.5 8.5 9.5 10.5c6.66699 6 12.667 6.66699 18 2s6.33301 -10.667 3 -18c-8 -12 -17.167 -23.667 -27.5 -35s-21 -21.5 -32 -30.5s-21.667 -16.167 -32 -21.5s-19.5 -8 -27.5 -8c-19.333 0 -34.333 6.33301 -45 19
s-16 35 -16 67c-21.333 -31.333 -43.166 -52.833 -65.499 -64.5s-41.833 -16.5 -58.5 -14.5c-19.333 2 -33.333 12.667 -42 32s-12.334 43.333 -11.001 72c0.666992 22 4 45.5 10 70.5s14.167 49.167 24.5 72.5s22.833 45.166 37.5 65.499s31.334 37.166 50.001 50.499
s39.167 22 61.5 26s45.833 1.66699 70.5 -7l1 1l79 267c8 -5.33301 16 -11.166 24 -17.499s14.333 -15 19 -26s7 -24.833 7 -41.5s-3.66699 -38 -11 -64zM234.999 355.003c-18.667 0 -36.6699 -7.66895 -54.0029 -23.002s-33.333 -34.666 -48 -57.999
s-27.167 -48.333 -37.5 -75s-17.666 -51.167 -21.999 -73.5s-4.83301 -40.666 -1.5 -54.999s11 -20.5 23 -18.5c20.667 3.33301 39 17.333 55 42s31.667 54 47 88l21.5 81.5l24.5 90.5c-1.33301 0 -2.66602 0.166992 -3.99902 0.5s-2.66602 0.5 -3.99902 0.5z" />
    <glyph glyph-name="e" unicode="e" horiz-adv-x="271" 
d="M271 115c7.33301 4.66699 12.8359 4.16992 16.5029 -1.49707s3.5 -11.834 -0.5 -18.501c-24.667 -34.667 -52.667 -59.667 -84 -75s-61.333 -21.833 -90 -19.5s-53.667 13.166 -75 32.499s-34 46.666 -38 81.999c-4 30.667 -0.166992 63.667 11.5 99
s28.5 67.666 50.5 96.999s48.167 52.833 78.5 70.5s62.166 24.5 95.499 20.5c18.667 -3.33301 30.5 -12.5 35.5 -27.5s5.33301 -32.333 1 -52s-12.833 -39.5 -25.5 -59.5s-27.334 -36 -44.001 -48c-22.667 -16 -43.667 -26.5 -63 -31.5s-36 -7.16699 -50 -6.5
c-7.33301 -28.667 -9.33301 -54 -6 -76c3.33301 -25.333 12.666 -42.666 27.999 -51.999s32.666 -12.5 51.999 -9.5s38.833 11.167 58.5 24.5s35.834 30.333 48.501 51zM202.003 356.003c-21.333 -12.667 -40.6689 -31.8359 -58.002 -57.5029s-31.333 -53.5 -42 -83.5
c17.333 -1.33301 33.833 2.33398 49.5 11.001s29.5 19.334 41.5 32.001s21.833 26.167 29.5 40.5s12.334 26.833 14.001 37.5s-0.166016 18.334 -5.49902 23.001s-15 3.66699 -29 -3z" />
    <glyph glyph-name="f" unicode="f" horiz-adv-x="220" 
d="M135 301c-5.33301 -16.667 -11.5 -37.165 -18.5 -61.498l-21.5 -78.5h60v-40h-71c-8 -29.333 -16.5 -58.5 -25.5 -87.5l-25.5 -80.5l-21.5 -64.5l-13.5 -39.5c-5.33301 -14 -9.83301 -26.333 -13.5 -37s-7.5 -20 -11.5 -28c-10 -19.333 -21 -31.333 -33 -36
s-29.667 -5 -53 -1l55 174l58 194l27.5 95l26.5 97c6.66699 24 14.667 42.5 24 55.5s19.333 22.5 30 28.5s21.334 9.5 32.001 10.5s20.667 1.5 30 1.5c14.667 0 26 -3.5 34 -10.5s13.5 -15.833 16.5 -26.5s4.33301 -21.834 4 -33.501s-1.83301 -22.167 -4.5 -31.5l-23 1
c1.33301 13.333 1.5 25.666 0.5 36.999s-6.16699 17 -15.5 17c-2.66699 0 -5.83398 -0.333008 -9.50098 -1s-7.5 -2.83398 -11.5 -6.50098s-8.33301 -9.16699 -13 -16.5s-9 -17.666 -13 -30.999z" />
    <glyph glyph-name="g" unicode="g" horiz-adv-x="326" 
d="M-43 -115c5.33301 14.667 13.666 26.501 24.999 35.501s24.666 15.5 39.999 19.5s32.333 6.16699 51 6.5s38 -0.5 58 -2.5c7.33301 13.333 13 27 17 41s7.33301 28.167 10 42.5s5 28.666 7 42.999s4.33301 28.5 7 42.5c-32 -37.333 -58 -63.666 -78 -78.999
s-39 -21.666 -57 -18.999c-16 2 -27 12.333 -33 31s-7.33301 42 -4 70c2.66699 24.667 8.66699 51.167 18 79.5s21.666 55.5 36.999 81.5s33.5 49.5 54.5 70.5s44.167 36.167 69.5 45.5c12.667 4.66699 27.5 7.5 44.5 8.5s32.5 -0.666992 46.5 -5s24.5 -11.5 31.5 -21.5
s7.16699 -23.333 0.5 -40c-3.33301 -7.33301 -8.5 -13.5 -15.5 -18.5s-14.167 -8.5 -21.5 -10.5s-13.666 -3 -18.999 -3s-7.66602 1.33301 -6.99902 4c1.33301 4.66699 3.16602 10.5 5.49902 17.5s3.5 13.667 3.5 20s-1.5 11.666 -4.5 15.999s-8.83301 6.5 -17.5 6.5
c-10.667 0 -22.667 -7.5 -36 -22.5s-26.666 -34 -39.999 -57s-25.666 -47.667 -36.999 -74s-20.666 -51 -27.999 -74s-11.833 -42 -13.5 -57s1.16602 -22.5 8.49902 -22.5c4.66699 0 12.667 5.66699 24 17s24.333 26.5 39 45.5s29.667 41.167 45 66.5
s29.333 51.666 42 78.999c1.33301 2.66699 4.66602 5.83398 9.99902 9.50098s11.5 7 18.5 10s14.333 5.66699 22 8s14.834 3.5 21.501 3.5c7.33301 0 12.666 -1.66699 15.999 -5s3.33301 -9.33301 0 -18c-0.666992 -1.33301 -2.33398 -6.5 -5.00098 -15.5l-10 -35.5l-14 -50
c-5.33301 -18.667 -10.666 -38.334 -15.999 -59.001c-9.33301 -32 -17.833 -63.5 -25.5 -94.5s-18.167 -60.5 -31.5 -88.5l58 -7.5c18.667 -2.33301 35.834 -3.66602 51.501 -3.99902s29.167 1 40.5 4s19.666 8.16699 24.999 15.5c-10 -19.333 -22.5 -34.166 -37.5 -44.499
s-31.833 -17.666 -50.5 -21.999s-38.5 -6.33301 -59.5 -6s-42.5 2.16602 -64.5 5.49902c-18 -22.667 -37.667 -40.334 -59 -53.001s-42.166 -19 -62.499 -19s-39.5 6.5 -57.5 19.5s-32.333 34.167 -43 63.5c22.667 -16.667 45.5 -24.334 68.5 -23.001s44.167 10.333 63.5 27
c-28.667 4.66699 -54.5 7.5 -77.5 8.5s-41.167 -3.16699 -54.5 -12.5z" />
    <glyph glyph-name="h" unicode="h" horiz-adv-x="317" 
d="M129 537l38.999 122.997c2 -0.666992 7.33301 -3.66699 16 -9s17 -13.333 25 -24s14 -23.5 18 -38.5s3 -32.167 -3 -51.5c-9.33301 -23.333 -17.666 -45.166 -24.999 -65.499l-21.5 -60.5l-20.5 -60.5l-21 -65.5c12 16 24.167 31 36.5 45s24.666 26.5 36.999 37.5
s24.333 19.667 36 26s22.834 9.5 33.501 9.5c17.333 0 28.333 -5.83301 33 -17.5s5.33398 -26.667 2.00098 -45s-9.5 -39.333 -18.5 -63l-28 -71.5c-9.66699 -24 -18.5 -47.333 -26.5 -70s-12.667 -42 -14 -58c-1.33301 -18 2 -27 10 -27s17.333 4.16699 28 12.5
s21.167 18 31.5 29s17.166 18.5 20.499 22.5c6.66699 6 12.667 6.66699 18 2s6.33301 -10.667 3 -18c-3.33301 -6 -8 -12.667 -14 -20s-12.833 -15 -20.5 -23s-15.834 -15.667 -24.501 -23s-17.334 -13.666 -26.001 -18.999c-12 -7.33301 -24.167 -11.5 -36.5 -12.5
s-23.666 0.5 -33.999 4.5s-19.166 10.667 -26.499 20s-11.666 21 -12.999 35c-2 15.333 -1 32 3 50s9.16699 36.167 15.5 54.5s13.333 36 21 53s14.167 32.167 19.5 45.5c11.333 27.333 16.333 44.166 15 50.499s-6 6.5 -14 0.5s-17.5 -15.5 -28.5 -28.5
s-20.5 -25.167 -28.5 -36.5c-14 -19.333 -26 -40.166 -36 -62.499s-19 -44.5 -27 -66.5s-15 -43.5 -21 -64.5s-11.667 -39.833 -17 -56.5h-83c7.33301 19.333 14 38.5 20 57.5l18 57.5c22 71.333 42.667 141.833 62 211.5s41.666 139.834 66.999 210.501z" />
    <glyph glyph-name="i" unicode="i" horiz-adv-x="169" 
d="M82 101c-5.33301 -16 -8.49902 -29.5 -9.49902 -40.5s1.5 -17.833 7.5 -20.5c3.33301 -1.33301 7.66602 -1.66602 12.999 -0.999023s11.833 3.5 19.5 8.5s16.167 12.833 25.5 23.5s19.666 25.334 30.999 44.001c6.66699 6 12.667 6.66699 18 2s6.33301 -10.667 3 -18
l-18.5 -31c-7 -11.333 -15.5 -22 -25.5 -32s-22 -18.333 -36 -25s-30.333 -10 -49 -10c-17.333 0 -30.666 3.66699 -39.999 11s-16.166 16.666 -20.499 27.999s-6.33301 23.666 -6 36.999s2.16602 26 5.49902 38c10 40 21.167 78.667 33.5 116l39.5 114
c3.33301 9.33301 11.666 17 24.999 23s26 9 38 9c9.33301 0 17.333 -2 24 -6s8.33398 -10 5.00098 -18c-17.333 -44 -32.5 -87 -45.5 -129zM153.001 489c14.667 0 25.502 -5.16699 32.502 -15.5s9.16699 -21.5 6.5 -33.5c-2.66699 -13.333 -10 -24.833 -22 -34.5
s-24.333 -14.5 -37 -14.5s-23.167 4.5 -31.5 13.5s-10.833 20.833 -7.5 35.5c3.33301 13.333 10.666 24.833 21.999 34.5s23.666 14.5 36.999 14.5z" />
    <glyph glyph-name="j" unicode="j" horiz-adv-x="133" 
d="M40 -28l-7.49805 -19.5c-2.33301 -6.33301 -5.16602 -12.833 -8.49902 -19.5l58 -7.5c18.667 -2.33301 35.834 -3.66602 51.501 -3.99902s29.167 1 40.5 4s19.666 8.16699 24.999 15.5c-10 -19.333 -22.5 -34.166 -37.5 -44.499s-31.833 -17.666 -50.5 -21.999
s-38.5 -6.33301 -59.5 -6s-42.5 2.16602 -64.5 5.49902c-18 -22.667 -37.667 -40.334 -59 -53.001s-42.166 -19 -62.499 -19s-39.5 6.5 -57.5 19.5s-32.333 34.167 -43 63.5c22.667 -16.667 45.5 -24.334 68.5 -23.001s44.167 10.333 63.5 27
c-28.667 4.66699 -54.5 7.5 -77.5 8.5s-41.167 -3.16699 -54.5 -12.5c5.33301 14.667 13.666 26.5 24.999 35.5s24.666 15.5 39.999 19.5s32.333 6.16699 51 6.5s38 -0.5 58 -2.5c13.333 25.333 25 53.5 35 84.5s18.667 59.833 26 86.5c11.333 40 21 78.167 29 114.5
s16.333 71.833 25 106.5c2 8.66699 8.16699 15.667 18.5 21s21.166 8.83301 32.499 10.5s21.166 1.33398 29.499 -0.999023s11.833 -6.83301 10.5 -13.5l-21 -92c-7.33301 -32.667 -15.333 -65.5 -24 -98.5s-18 -65.833 -28 -98.5s-20.667 -63.334 -32 -92.001zM116.002 489
c14.667 0 25.502 -5.16699 32.502 -15.5s9.16699 -21.5 6.5 -33.5c-2.66699 -13.333 -10 -24.833 -22 -34.5s-24.333 -14.5 -37 -14.5s-23.167 4.5 -31.5 13.5s-10.833 20.833 -7.5 35.5c3.33301 13.333 10.666 24.833 21.999 34.5s23.666 14.5 36.999 14.5z" />
    <glyph glyph-name="k" unicode="k" horiz-adv-x="321" 
d="M133 537l39.0039 123.001c2 -0.666992 7.33301 -3.66699 16 -9s17.167 -13.333 25.5 -24s14.666 -23.5 18.999 -38.5s3.5 -32.167 -2.5 -51.5l-25.5 -65.5l-22 -60.5l-21 -60.5l-21.5 -65.5c7.33301 20 18.833 38.333 34.5 55s32.5 29.834 50.5 39.501
s35.667 15.167 53 16.5s31 -3.66699 41 -15c8 -9.33301 12.333 -18.5 13 -27.5s-1.5 -16.833 -6.5 -23.5s-11.667 -11.834 -20 -15.501s-17.5 -4.5 -27.5 -2.5c-19.333 4.66699 -36 5 -50 1s-26.667 -10.333 -38 -19c20 -1.33301 33.667 -10 41 -26s11.333 -35.333 12 -58
s-0.833008 -46 -4.5 -70s-6.16699 -44.667 -7.5 -62c-1.33301 -18 1.83398 -27.5 9.50098 -28.5s17 2.33301 28 10s21.667 17.334 32 29.001s17.166 20.5 20.499 26.5c6.66699 6 12.667 6.66699 18 2s6.33301 -10.667 3 -18c-3.33301 -6 -8 -12.667 -14 -20
s-12.833 -15 -20.5 -23s-15.834 -15.667 -24.501 -23s-17.334 -13.666 -26.001 -18.999c-12 -7.33301 -23.833 -11.5 -35.5 -12.5s-22.334 0.5 -32.001 4.5s-17.667 10.667 -24 20s-10.166 21 -11.499 35c-1.33301 9.33301 -1.33301 21.666 0 36.999
s3.16602 31.5 5.49902 48.5l7 50c2.33301 16.333 3.83301 30.166 4.5 41.499s0 19.333 -2 24s-6 3.66699 -12 -3c-2 -2 -4.33301 -5 -7 -9c-12.667 -17.333 -24 -37 -34 -59s-19 -44.333 -27 -67s-15.333 -44.834 -22 -66.501l-18 -57.5h-83l34 115l64.5 212.5
c21.667 71 44.5 140.833 68.5 209.5z" />
    <glyph glyph-name="l" unicode="l" horiz-adv-x="165" 
d="M196 537c-8 -31.333 -17.666 -64.501 -28.999 -99.501l-34 -105l-31.5 -101.5c-9.66699 -32.667 -17.167 -62 -22.5 -88s-7.5 -47.667 -6.5 -65s6.5 -28 16.5 -32c7.33301 -3.33301 17.666 1.16699 30.999 13.5s28.333 30.833 45 55.5c6.66699 6 12.667 6.66699 18 2
s6.33301 -10.667 3 -18l-35 -43.5c-12 -14.333 -24.667 -26.5 -38 -36.5c-16.667 -12.667 -33.667 -19 -51 -19c-25.333 0 -42.5 10.5 -51.5 31.5s-12.5 48.833 -10.5 83.5c3.33301 56.667 18.166 129.167 44.499 217.5l102.5 327.5c2 -0.666992 6.66699 -3.66699 14 -9
s14.5 -13.166 21.5 -23.499s12.333 -23 16 -38s2.83398 -32.5 -2.49902 -52.5z" />
    <glyph glyph-name="m" unicode="m" horiz-adv-x="482" 
d="M43 349c12 12 24.1582 21.667 36.4912 29s23.5 11.833 33.5 13.5s18.167 0 24.5 -5s9.83301 -14.167 10.5 -27.5c0.666992 -10 -0.5 -22.167 -3.5 -36.5s-7 -30 -12 -47s-10.833 -34.833 -17.5 -53.5l-20 -56c8.66699 22 18.334 44.833 29.001 68.5s21.834 46 33.501 67
s23.334 39.5 35.001 55.5s23.167 27 34.5 33c10.667 6 20.667 8.33301 30 7s17 -5.83301 23 -13.5s9.66699 -18.5 11 -32.5s-0.333984 -30.667 -5.00098 -50c-3.33301 -12 -7.16602 -24.667 -11.499 -38s-9 -26.833 -14 -40.5s-9.66699 -27.167 -14 -40.5s-7.5 -26 -9.5 -38
c10 25.333 22.667 53 38 83s32.166 58 50.499 84s38 47.667 59 65s41.833 26 62.5 26c16.667 0 27.334 -5.66699 32.001 -17s5.5 -26.333 2.5 -45s-8.66699 -39.667 -17 -63l-26 -71c-9 -24 -17.333 -47.333 -25 -70s-12.167 -42 -13.5 -58c-1.33301 -18 1.5 -27 8.5 -27
s15.5 4.16699 25.5 12.5s19.667 18 29 29l19 22.5c6.66699 6 12.667 6.66699 18 2s6.33301 -10.667 3 -18c-3.33301 -6 -7.66602 -12.667 -12.999 -20l-17.5 -23c-6.33301 -8 -13.5 -15.667 -21.5 -23s-16.333 -13.666 -25 -18.999c-12 -7.33301 -24.167 -11.5 -36.5 -12.5
s-23.666 0.5 -33.999 4.5s-19.166 10.667 -26.499 20s-11.666 21 -12.999 35c-2 15.333 -1.66699 32 1 50s6.5 36.167 11.5 54.5s10.667 36 17 53l17.5 45.5c6.66699 16 8.83398 25.667 6.50098 29s-7.5 1.66602 -15.5 -5.00098s-18 -17.5 -30 -32.5s-24 -32.5 -36 -52.5
s-23.333 -42 -34 -66s-19 -48.333 -25 -73c-1.33301 -6 -2.5 -13 -3.5 -21s-2.16699 -21.667 -3.5 -41c-19.333 -3.33301 -34.666 0.333984 -45.999 11.001s-18.333 26.667 -21 48c-2 15.333 -1.5 32.166 1.5 50.499s6.83301 36.833 11.5 55.5s9.83398 36.667 15.501 54
s10.167 33 13.5 47c3.33301 14.667 3.16602 22 -0.500977 22s-9.66699 -5 -18 -15s-18 -23.833 -29 -41.5s-22.167 -37 -33.5 -58s-21.833 -42.5 -31.5 -64.5s-16.834 -42 -21.501 -60c-1.33301 -9.33301 -2.16602 -18.333 -2.49902 -27s0.166992 -16.667 1.5 -24
c-19.333 1.33301 -34.166 5.33301 -44.499 12s-17.5 15.167 -21.5 25.5s-5.33301 22 -4 35s4 27.167 8 42.5c6 20.667 13.333 42.167 22 64.5s16.167 44 22.5 65s10.166 40.667 11.499 59s-3 33.5 -13 45.5z" />
    <glyph glyph-name="n" unicode="n" horiz-adv-x="325" 
d="M43 349c12 12 24.165 21.665 36.498 28.998s23.5 11.833 33.5 13.5s18.167 0 24.5 -5s9.83301 -14.167 10.5 -27.5c1.33301 -12 -0.166992 -26.667 -4.5 -44s-10.166 -36.333 -17.499 -57c10.667 18.667 22.334 36.667 35.001 54s25.667 32.666 39 45.999
s26.833 24 40.5 32s27.5 12 41.5 12c16.667 0 27.334 -5.66699 32.001 -17s5.5 -26.333 2.5 -45s-8.66699 -39.667 -17 -63l-26 -71c-9 -24 -17.333 -47.333 -25 -70s-12.167 -42 -13.5 -58c-1.33301 -18 2 -27 10 -27s17.333 4.16699 28 12.5s21.167 18 31.5 29
s17.166 18.5 20.499 22.5c6.66699 6 12.667 6.66699 18 2s6.33301 -10.667 3 -18c-3.33301 -6 -8 -12.667 -14 -20s-12.833 -15 -20.5 -23s-15.834 -15.667 -24.501 -23s-17.334 -13.666 -26.001 -18.999c-12 -7.33301 -24.167 -11.5 -36.5 -12.5s-23.666 0.5 -33.999 4.5
s-19.166 10.667 -26.499 20s-11.666 21 -12.999 35c-2 15.333 -1.66699 32 1 50s6.5 36.167 11.5 54.5s10.667 36 17 53l17.5 45.5c8.66699 22 9.5 32.333 2.5 31s-17.833 -10.666 -32.5 -27.999s-30.834 -40.666 -48.501 -69.999s-32.5 -60.333 -44.5 -93
c-5.33301 -20 -9.5 -39 -12.5 -57s-3.16699 -33.667 -0.5 -47c-19.333 1.33301 -34.166 5.33301 -44.499 12s-17.5 15.167 -21.5 25.5s-5.33301 22 -4 35s4 27.167 8 42.5c6 20.667 13.333 42.167 22 64.5s16.167 44 22.5 65s10.166 40.667 11.499 59s-3 33.5 -13 45.5z" />
    <glyph glyph-name="o" unicode="o" horiz-adv-x="296" 
d="M170 332c-6.66699 -2 -14.333 -10.167 -23 -24.5s-17 -31.5 -25 -51.5s-15.167 -41.333 -21.5 -64s-10.833 -43.667 -13.5 -63s-3 -35.333 -1 -48s7.66699 -19 17 -19c10.667 2 21.834 8.83301 33.501 20.5s23.167 26.167 34.5 43.5s21.833 36.5 31.5 57.5
s17.667 41.5 24 61.5s10.666 38.5 12.999 55.5s1.5 30.167 -2.5 39.5s-11.333 13.833 -22 13.5s-25.667 -7.5 -45 -21.5zM66.001 0c-15.333 0 -27.6699 3.16992 -37.0029 9.50293s-16.333 14.833 -21 25.5s-7.5 23 -8.5 37s-0.833008 28.333 0.5 43
c2 20 5.33301 39.667 10 59s9.33398 34 14.001 44c6.66699 16.667 14.834 33.167 24.501 49.5s20.334 31.166 32.001 44.499s24.667 24.666 39 33.999s29.5 15.333 45.5 18c15.333 17.333 31.833 28.833 49.5 34.5s33.5 5.83398 47.5 0.500977s24.667 -16.333 32 -33
s8.33301 -39 3 -67c-5.33301 -26 -14.833 -56 -28.5 -90s-30.667 -66.333 -51 -97s-43.5 -56.834 -69.5 -78.501s-53.333 -32.834 -82 -33.501z" />
    <glyph glyph-name="p" unicode="p" horiz-adv-x="317" 
d="M72 16h-3.99902c-9.33301 -43.333 -17.833 -85 -25.5 -125s-14.167 -76 -19.5 -108h-90l33.5 167.5l33.5 164.5l30.5 143.5l32.5 143.5h88c-2 -7.33301 -3.83301 -15.166 -5.5 -23.499l-5.5 -26.5c14.667 16 32.167 28.5 52.5 37.5s41.166 12.833 62.499 11.5
c25.333 -2 42.666 -13.5 51.999 -34.5s12.333 -46.5 9 -76.5s-12.166 -62.167 -26.499 -96.5s-32.5 -65.333 -54.5 -93s-47 -49.834 -75 -66.501s-57.333 -22.667 -88 -18zM77.001 59c19.333 5.33301 38.001 17.001 56.001 35.001s34.333 38.667 49 62
s27.167 47.5 37.5 72.5s17.833 47.5 22.5 67.5c6 27.333 5 45.333 -3 54s-18.667 11.167 -32 7.5s-27.833 -11.334 -43.5 -23.001s-27.834 -24.5 -36.501 -38.5z" />
    <glyph glyph-name="q" unicode="q" horiz-adv-x="309" 
d="M203 266c1.33301 2.66699 4.66602 5.83496 9.99902 9.50195s11.5 7.16699 18.5 10.5s14.5 6.16602 22.5 8.49902s15.333 3.5 22 3.5c7.33301 0 11.5 -1.66699 12.5 -5s-0.166992 -9.33301 -3.5 -18l-27.5 -107.5l-27 -101.5l-26.5 -101l-26 -106
c-4.66699 -20 -12.167 -35.5 -22.5 -46.5s-21 -18.833 -32 -23.5s-20.833 -7.16699 -29.5 -7.5s-14 0.166992 -16 1.5l16.5 84.5l14.5 73l13.5 66.5c4.33301 21.333 9.16602 43 14.499 65c-22 -23.333 -40.667 -39.5 -56 -48.5s-30 -12.167 -44 -9.5
c-16 2 -27 12.333 -33 31s-7.33301 42 -4 70c2.66699 24.667 8.66699 51.167 18 79.5s21.666 55.5 36.999 81.5s33.5 49.5 54.5 70.5s44.167 36.167 69.5 45.5c12.667 4.66699 27.5 7.5 44.5 8.5s32.5 -0.666992 46.5 -5s24.5 -11.5 31.5 -21.5s7.16699 -23.333 0.5 -40
c-3.33301 -7.33301 -8.5 -13.5 -15.5 -18.5s-14.167 -8.5 -21.5 -10.5s-13.666 -3 -18.999 -3s-7.66602 1.33301 -6.99902 4c1.33301 4.66699 3.16602 10.5 5.49902 17.5s3.5 13.667 3.5 20s-1.5 11.666 -4.5 15.999s-8.83301 6.5 -17.5 6.5
c-10.667 0 -22.667 -7.5 -36 -22.5s-26.666 -34 -39.999 -57s-25.666 -47.667 -36.999 -74s-20.666 -51 -27.999 -74s-11.833 -42 -13.5 -57s1.16602 -22.5 8.49902 -22.5c5.33301 0 15.666 8 30.999 24s32 37.333 50 64l19 61c6.66699 20.667 14.334 40 23.001 58z" />
    <glyph glyph-name="r" unicode="r" horiz-adv-x="171" 
d="M43 460c6.66699 2.66699 13.167 2.66992 19.5 0.00292969s11.166 -7.33398 14.499 -14.001s4.66602 -14.5 3.99902 -23.5s-4.33398 -18.167 -11.001 -27.5c6.66699 -2.66699 15.5 -2.16699 26.5 1.5s20.833 5.5 29.5 5.5c22.667 0 36.167 -8.33301 40.5 -25
s3.33301 -37.834 -3 -63.501s-15.833 -53.667 -28.5 -84l-35.5 -85.5c-11 -26.667 -19.167 -49.667 -24.5 -69s-3.66602 -31 5.00098 -35c3.33301 -1.33301 7.83301 -1.66602 13.5 -0.999023s12.334 3.5 20.001 8.5s16.334 12.833 26.001 23.5s20.167 25.334 31.5 44.001
c6.66699 6 12.667 6.66699 18 2s6.33301 -10.667 3 -18l-18.5 -31c-7 -11.333 -15.833 -22 -26.5 -32s-23 -18.333 -37 -25s-30.333 -10 -49 -10c-17.333 0 -30.833 3.66699 -40.5 11s-16.667 16.666 -21 27.999s-6.33301 23.666 -6 36.999s2.5 26 6.5 38
c4.66699 16 11.5 36.5 20.5 61.5l28 75l27 69l17.5 44.5c-20 -3.33301 -34.667 -4.83301 -44 -4.5s-15.333 2.16602 -18 5.49902s-2.83398 7.83301 -0.500977 13.5s5 12.667 8 21s5.33301 17.5 7 27.5s0.833984 20.667 -2.49902 32z" />
    <glyph glyph-name="s" unicode="s" horiz-adv-x="238" 
d="M86 211c-8.66699 22 -15.8369 44.1719 -21.5039 66.5049s-7.16699 43.166 -4.5 62.499c2.66699 20 11.334 36.833 26.001 50.5s31.334 23.167 50.001 28.5s37.334 6 56.001 2s33.667 -13.333 45 -28c8 -10.667 14 -22.334 18 -35.001s5.5 -25.334 4.5 -38.001
s-4.5 -24.334 -10.5 -35.001s-15 -19 -27 -25c-3.33301 -2 -8 -2.16699 -14 -0.5s-11.833 4.16699 -17.5 7.5s-10.334 7 -14.001 11s-4.16699 7.66699 -1.5 11c5.33301 6.66699 9.5 15.5 12.5 26.5s4.16699 22 3.5 33s-3.33398 20.667 -8.00098 29s-12 12.5 -22 12.5
c-10.667 0 -18 -4.5 -22 -13.5s-5.66699 -21.167 -5 -36.5s3.33398 -32.5 8.00098 -51.5s10.334 -38.5 17.001 -58.5c4 -12.667 8.5 -25 13.5 -37s9.33301 -24 13 -36s6.33398 -24 8.00098 -36s1.5 -24 -0.5 -36c-4 -20 -12.833 -37.333 -26.5 -52s-29.167 -25 -46.5 -31
s-35 -7 -53 -3s-33.333 14.667 -46 32c-9.33301 12 -15.833 25.5 -19.5 40.5s-4.16699 29.5 -1.5 43.5c4 22 16 38.333 36 49c2.66699 2 7.16699 2.16699 13.5 0.5s12.333 -4.16699 18 -7.5s10.167 -7 13.5 -11s3.66602 -7.66699 0.999023 -11
c-5.33301 -6.66699 -9.5 -15.5 -12.5 -26.5s-4.16699 -22 -3.5 -33s3.33398 -20.667 8.00098 -29s12 -12.5 22 -12.5c11.333 -0.666992 19.5 4.33301 24.5 15s6.83301 23.667 5.5 39c-1.33301 22 -6.5 43.167 -15.5 63.5s-17.167 40.166 -24.5 59.499z" />
    <glyph glyph-name="t" unicode="t" horiz-adv-x="150" 
d="M59 452l32 -0.00390625l13.5 44c4.33301 14 8.83301 27.667 13.5 41h86l-14 -41l-14 -44h36l-17 -50h-35l-31 -106l-27 -97c-8 -29.333 -14.667 -54.666 -20 -75.999s-8.66602 -35.666 -9.99902 -42.999c-1.33301 -6 -0.5 -10.333 2.5 -13s7.83301 -3 14.5 -1
s15.167 6.83301 25.5 14.5s22.166 19.167 35.499 34.5c4.66699 5.33301 10.167 6.33301 16.5 3s7.83301 -9.66602 4.5 -18.999c-6.66699 -7.33301 -15.5 -16.166 -26.5 -26.499s-23 -20.166 -36 -29.499s-26.333 -17.333 -40 -24s-26 -10.167 -37 -10.5
s-20 3.16699 -27 10.5s-10.5 20.666 -10.5 39.999c0 8 0.666992 16.833 2 26.5l4 29.5c2 10 5.33301 25 10 45s10.5 43 17.5 69l23 83.5l25.5 89.5h-34z" />
    <glyph glyph-name="u" unicode="u" horiz-adv-x="306" 
d="M233 395c28 0.666992 47.3301 -4.33105 57.9971 -14.998s16 -24.834 16 -42.501s-4 -37.667 -12 -60s-16.833 -45 -26.5 -68s-18.5 -45.167 -26.5 -66.5s-12.333 -40 -13 -56c0 -8.66699 2.5 -15.334 7.5 -20.001s11.5 -6.33398 19.5 -5.00098s16.5 6.16602 25.5 14.499
s17.167 21.166 24.5 38.499c6.66699 6 12.667 6.66699 18 2s6.33301 -10.667 3 -18c-5.33301 -9.33301 -12.333 -19.5 -21 -30.5s-18.167 -21.5 -28.5 -31.5s-21.333 -18.167 -33 -24.5s-23.5 -9.16602 -35.5 -8.49902c-28 2 -45.5 11.833 -52.5 29.5
s-8.16699 39.834 -3.5 66.501c-18 -26 -37.667 -47.667 -59 -65s-42.666 -26 -63.999 -26c-12 0 -21.167 2.66699 -27.5 8s-10.333 12.833 -12 22.5s-1.5 20.834 0.5 33.501s5 26.667 9 42c6 23.333 13.667 48 23 74s17.166 51.167 23.499 75.5s10 46.5 11 66.5
s-3.5 35.667 -13.5 47c12 7.33301 24.333 13.333 37 18s24.167 7 34.5 7s18.833 -2.83301 25.5 -8.5s10 -15.5 10 -29.5c0 -15.333 -2.33301 -33.5 -7 -54.5s-10.167 -42.333 -16.5 -64s-13.166 -42.667 -20.499 -63s-13.666 -36.833 -18.999 -49.5
c-7.33301 -17.333 -8.83301 -27.333 -4.5 -30s11.833 0 22.5 8s23.334 20.5 38.001 37.5s29 36.5 43 58.5l20 54c6.66699 18 12.5 35.167 17.5 51.5s8.33301 31.5 10 45.5s1.16699 26 -1.5 36z" />
    <glyph glyph-name="v" unicode="v" horiz-adv-x="310" 
d="M40 359c12 12 24.165 21.665 36.498 28.998s23.5 11.833 33.5 13.5s18.167 0 24.5 -5s9.83301 -14.167 10.5 -27.5c0.666992 -19.333 -1.5 -39.5 -6.5 -60.5s-11.333 -42.333 -19 -64l-23.5 -64.5c-8 -21.333 -14 -41.666 -18 -60.999c-4 -18 -6.33301 -32.167 -7 -42.5
s-0.333984 -15.5 0.999023 -15.5c9.33301 0.666992 21.333 9.16699 36 25.5s30.334 36.833 47.001 61.5s33.334 51.167 50.001 79.5l45.5 79c13.667 24.333 24.5 44.5 32.5 60.5s11.667 23.667 11 23c2.66699 4 8.5 7 17.5 9s18.333 3 28 3s18.334 -1 26.001 -3
s11.167 -5 10.5 -9l-22.5 -51c-10.333 -23.333 -22.833 -49.5 -37.5 -78.5s-31.667 -58.833 -51 -89.5s-40.333 -58.667 -63 -84s-47 -46.166 -73 -62.499s-53 -24.5 -81 -24.5c-25.333 0 -41.5 11.167 -48.5 33.5s-6.83301 49.5 0.5 81.5c6 24 13.167 49.333 21.5 76
s15.5 51.5 21.5 74.5s9.5 43 10.5 60s-3.5 28.167 -13.5 33.5z" />
    <glyph glyph-name="w" unicode="w" horiz-adv-x="464" 
d="M37 2c-13.333 -0.666992 -23.334 1.8252 -30.001 7.49219s-11.167 13.5 -13.5 23.5s-2.66602 22.167 -0.999023 36.5s4.16699 29.5 7.5 45.5c4.66699 22.667 10.667 46.834 18 72.501s13.166 49.834 17.499 72.501s6 43 5 61s-6.83301 31 -17.5 39
c25.333 22 45.833 35.333 61.5 40s27.5 3.16699 35.5 -4.5s13 -19.667 15 -36s1.83301 -34.666 -0.5 -54.999s-6.33301 -41.166 -12 -62.499s-11.834 -40.333 -18.501 -57c-7.33301 -18 -12.5 -32.167 -15.5 -42.5s-4.83301 -18.5 -5.5 -24.5s-0.5 -10 0.5 -12
s1.83301 -3.33301 2.5 -4c3.33301 -2.66699 9.5 0.333008 18.5 9s19.167 20.834 30.5 36.501s23 34 35 55s23 42.833 33 65.5s17.667 45 23 67s7.33301 42 6 60c19.333 3.33301 34.666 -0.333984 45.999 -11.001s18.333 -26.667 21 -48c2 -15.333 1.83301 -32.333 -0.5 -51
s-5.5 -37.5 -9.5 -56.5s-8.33301 -37.5 -13 -55.5l-12 -48c-4 -16 -4 -25.167 0 -27.5s10.833 0.666992 20.5 9s21 21.5 34 39.5s26.667 39.5 41 64.5s28.333 52.833 42 83.5s25.5 63 35.5 97c4 4.66699 10.167 7.83398 18.5 9.50098s16.5 2.16699 24.5 1.5s15 -2 21 -4
s8.66699 -4.33301 8 -7c-6 -22 -14.5 -47 -25.5 -75s-23.5 -56.333 -37.5 -85s-29.667 -57 -47 -85s-35.333 -52.667 -54 -74s-38.167 -38.666 -58.5 -51.999s-40.5 -20 -60.5 -20c-13.333 0 -23.666 3.83301 -30.999 11.5s-12.5 17.334 -15.5 29.001
s-4.16699 24.334 -3.5 38.001s2.33398 26.167 5.00098 37.5s6.33398 23.333 11.001 36l13.5 37l12 34.5c3.66699 11 6.5 20.833 8.5 29.5c-8.66699 -22 -19.667 -47.333 -33 -76s-28.333 -55.667 -45 -81s-34.5 -47 -53.5 -65s-38.167 -27.667 -57.5 -29z" />
    <glyph glyph-name="x" unicode="x" horiz-adv-x="339" 
d="M50 358c14.667 14.667 30.498 25.998 47.498 33.998s35.5 11.333 55.5 10c15.333 -1.33301 27.166 -5.83301 35.499 -13.5s14.5 -18.5 18.5 -32.5s7 -31 9 -51s4 -42.333 6 -67c10 10 21.5 22.5 34.5 37.5s25.333 30.5 37 46.5s21.834 31.167 30.501 45.5
s14 25.833 16 34.5h41c-2.66699 -12.667 -9 -27.834 -19 -45.501s-22.167 -36 -36.5 -55s-30 -38 -47 -57s-33.833 -36.5 -50.5 -52.5c4.66699 -56 14.5 -93.5 29.5 -112.5s36.167 -21.5 63.5 -7.5c-11.333 -26.667 -26.166 -46 -44.499 -58s-36.5 -16 -54.5 -12
s-34.167 16.333 -48.5 37s-23.5 50.334 -27.5 89.001l-146 -128h-50l190 171c-3.33301 50 -8.16602 87.833 -14.499 113.5s-13.5 43.834 -21.5 54.501s-16.667 16.334 -26 17.001z" />
    <glyph glyph-name="y" unicode="y" 
d="M391 -59c-10 -19.333 -22.4912 -34.167 -37.4912 -44.5s-31.833 -17.666 -50.5 -21.999s-38.5 -6.33301 -59.5 -6s-42.5 2.16602 -64.5 5.49902c-18 -22.667 -37.667 -40.334 -59 -53.001s-42.166 -19 -62.499 -19s-39.5 6.5 -57.5 19.5s-32.333 34.167 -43 63.5
c22.667 -16.667 45.5 -24.334 68.5 -23.001s44.167 10.333 63.5 27c-28.667 4.66699 -54.5 7.5 -77.5 8.5s-41.167 -3.16699 -54.5 -12.5c5.33301 14.667 13.666 26.5 24.999 35.5s24.666 15.5 39.999 19.5s32.333 6.16699 51 6.5s38 -0.5 58 -2.5
c6 12.667 12 27.834 18 45.501s11.667 35.834 17 54.501s10 36.667 14 54l10 44c-8 -12 -18.833 -25.167 -32.5 -39.5s-27.834 -28 -42.501 -41s-29.334 -23.833 -44.001 -32.5s-27 -13 -37 -13c-12 0 -21.167 2.5 -27.5 7.5s-10.5 11.833 -12.5 20.5
s-2.33301 19.167 -1 31.5s3.66602 25.5 6.99902 39.5c5.33301 22.667 12.333 47 21 73s16 51.167 22 75.5s9.33301 46.666 10 66.999s-4 36.166 -14 47.499c12 7.33301 24.333 13.333 37 18s24.167 7 34.5 7s18.833 -2.83301 25.5 -8.5s10 -15.5 10 -29.5
c0 -15.333 -2.33301 -33.5 -7 -54.5s-10.167 -42.333 -16.5 -64s-13.166 -42.667 -20.499 -63s-13.666 -36.833 -18.999 -49.5c-7.33301 -18.667 -8.33301 -29 -3 -31s14.166 2.33301 26.499 13s26.666 26.167 42.999 46.5s31.5 43.166 45.5 68.499
c8.66699 16.667 15.667 30.834 21 42.501s9.66602 21.5 12.999 29.5s5.83301 14.833 7.5 20.5s3.16699 11.167 4.5 16.5c0.666992 2.66699 3.16699 6.16699 7.5 10.5s9.66602 8.5 15.999 12.5s13.166 7.33301 20.499 10s14.333 4 21 4c7.33301 0 13.5 -2.66699 18.5 -8
s6.83301 -12.333 5.5 -21c-8 -38.667 -15.333 -76.5 -22 -113.5s-14.167 -73 -22.5 -108s-18 -68.667 -29 -101s-24.167 -63.166 -39.5 -92.499l58 -7.5c18.667 -2.33301 35.667 -3.66602 51 -3.99902s28.666 1 39.999 4s19.666 8.16699 24.999 15.5z" />
    <glyph glyph-name="z" unicode="z" horiz-adv-x="300" 
d="M81 325c-2 18.667 1.16699 33.1641 9.5 43.4971s18.666 17.833 30.999 22.5s25 7.5 38 8.5s23.167 1.5 30.5 1.5h132l-193 -340c18 0 35.333 -0.166992 52 -0.5s31.834 -0.166016 45.501 0.500977s25.167 2 34.5 4s16 5 20 9c-1.33301 -7.33301 -3 -15.166 -5 -23.499
s-5.5 -16.333 -10.5 -24s-12 -14 -21 -19s-21.167 -7.5 -36.5 -7.5h-199l62 115l131 242c-2.66699 0 -8 0.5 -16 1.5s-16.333 0.833008 -25 -0.5s-16.167 -4.5 -22.5 -9.5s-9.16602 -12.833 -8.49902 -23.5c-1.33301 -4.66699 -4.33301 -8.5 -9 -11.5
s-9.83398 -4.66699 -15.501 -5s-11 0.833984 -16 3.50098s-7.83301 7 -8.5 13z" />
    <glyph glyph-name="braceleft" unicode="{" horiz-adv-x="231" 
d="M409 627c-1.33301 -5.33301 -4.5 -10.333 -9.5 -15s-10.5 -7.33398 -16.5 -8.00098c-14 -4 -25.667 -12.333 -35 -25s-17.666 -28 -24.999 -46s-14.333 -37.667 -21 -59s-14.334 -42.666 -23.001 -63.999s-18.834 -42 -30.501 -62s-25.834 -37.667 -42.501 -53
c9.33301 -18 13.833 -38 13.5 -60s-3.16602 -44.667 -8.49902 -68c-3.33301 -15.333 -7 -31.166 -11 -47.499s-7.66699 -32.5 -11 -48.5c-4.66699 -22.667 -6.5 -41.5 -5.5 -56.5s8.16699 -24.5 21.5 -28.5c6.66699 -2 10.834 -5.33301 12.501 -10s1.83398 -9 0.500977 -13
c-2.66699 -12.667 -8.5 -20 -17.5 -22s-17.167 -3 -24.5 -3c-22 0 -38.5 4 -49.5 12s-18.333 18.833 -22 32.5s-4.5 29.5 -2.5 47.5s5 37 9 57c1.33301 5.33301 2.5 10.833 3.5 16.5s2.16699 11.5 3.5 17.5l9.5 47.5c3 15.667 4.5 30.5 4.5 44.5s-1.66699 26.667 -5 38
s-9.33301 20.666 -18 27.999c-5.33301 3.33301 -7.33301 8.33301 -6 15s5.66602 12.334 12.999 17.001c22 14 39.833 32 53.5 54s25.334 45.667 35.001 71s18.667 50.666 27 75.999s18.666 48.333 30.999 69s27.833 37.5 46.5 50.5s43 19.5 73 19.5
c7.33301 0 14.333 -1 21 -3s8.66699 -9 6 -21z" />
    <glyph glyph-name="bar" unicode="|" horiz-adv-x="155" 
d="M166 615c2.66699 11.333 8.00098 19.833 16.001 25.5s16.333 8.5 25 8.5s16 -2.83301 22 -8.5s7.66699 -14.167 5 -25.5l-132 -630c-2.66699 -12 -8.16699 -20.667 -16.5 -26s-16.833 -8 -25.5 -8s-15.834 2.66699 -21.501 8s-7.16699 14 -4.5 26z" />
    <glyph glyph-name="braceright" unicode="}" horiz-adv-x="272" 
d="M3 -60c-6 0 -10.5 2.16602 -13.5 6.49902s-3.83301 10.166 -2.5 17.499c2 10 8.66699 17.333 20 22c14.667 3.33301 26.834 11.333 36.501 24s18.5 28 26.5 46s15.333 38 22 60s14.334 44 23.001 66s18.5 43 29.5 63s24.833 37.333 41.5 52
c-9.33301 17.333 -13.5 36.833 -12.5 58.5s4.16699 44.167 9.5 67.5c3.33301 15.333 7.16602 31 11.499 47s8.16602 31.667 11.499 47c5.33301 22.667 7.16602 42.167 5.49902 58.5s-10.167 26.5 -25.5 30.5c-4.66699 2.66699 -7.5 6 -8.5 10s-1.16699 8 -0.5 12
c3.33301 12 9.16602 19 17.499 21s17.166 3 26.499 3c28 0 47 -6.83301 57 -20.5s14.833 -31.167 14.5 -52.5s-3.66602 -45.166 -9.99902 -71.499s-11.666 -52.166 -15.999 -77.499s-5.83301 -48.5 -4.5 -69.5s9.66602 -37.167 24.999 -48.5c2 -2 3.66699 -4.5 5 -7.5
s1.33301 -6.16699 0 -9.5c-0.666992 -2.66699 -2 -5.33398 -4 -8.00098s-4.33301 -5 -7 -7c-22.667 -14 -41 -32.167 -55 -54.5s-26 -46.166 -36 -71.499s-19.333 -50.833 -28 -76.5s-19.167 -48.667 -31.5 -69s-27.5 -37 -45.5 -50s-41.667 -19.5 -71 -19.5h-6
c-1.33301 0 -2.16602 0.166992 -2.49902 0.5s-1.16602 0.5 -2.49902 0.5z" />
    <glyph glyph-name="asciitilde" unicode="~" horiz-adv-x="428" 
d="M395 200c0.666992 0 1.33301 0.167969 2 0.500977s1.33398 0.5 2.00098 0.5c5.33301 0 8.83301 -2.33301 10.5 -7s1.83398 -9.66699 0.500977 -15c-1.33301 -8 -6.66602 -14.5 -15.999 -19.5s-19.666 -9 -30.999 -12s-22.333 -5 -33 -6s-18.334 -1.5 -23.001 -1.5
c-14 0 -27.5 1.33301 -40.5 4s-26 5.5 -39 8.5s-26.333 5.83301 -40 8.5s-27.834 4 -42.501 4c-7.33301 0 -14.833 -0.833008 -22.5 -2.5s-15.167 -2.5 -22.5 -2.5c-5.33301 0 -9.33301 2.16699 -12 6.5s-3.33398 9.16602 -2.00098 14.499
c1.33301 6.66699 6.16602 12.5 14.499 17.5s17.833 9 28.5 12s21.167 5.16699 31.5 6.5s18.166 2 23.499 2c14 0 27.667 -1.33301 41 -4l40.5 -8.5c13.667 -3 27.334 -5.83301 41.001 -8.5s27.834 -4 42.501 -4c15.333 0 30.666 2 45.999 6z" />
    <glyph glyph-name="a.001" unicode="&#xe000;" horiz-adv-x="327" 
d="M-1416 -299c24 49.333 57.1572 88.6738 99.4902 118.007s91.5 51.166 147.5 65.499s117.167 22.666 183.5 24.999s135.333 1.66602 207 -2.00098s144.834 -9.16699 219.501 -16.5s147.834 -13.333 219.501 -18s140.834 -6.83398 207.501 -6.50098
s127.834 6.16602 183.501 17.499s104.834 29.5 147.501 54.5s76 59.833 100 104.5c-9.33301 -9.33301 -18.333 -17.333 -27 -24c-10 -8 -20.667 -13.5 -32 -16.5s-22 -3.33301 -32 -1s-18.833 7.33301 -26.5 15s-12.834 18.167 -15.501 31.5
c-2 11.333 -2.16699 22.833 -0.5 34.5s3.83398 21.5 6.50098 29.5c-32 -37.333 -58 -63.666 -78 -78.999s-39 -21.666 -57 -18.999c-16 2 -27 12.333 -33 31s-7.33301 42 -4 70c2.66699 24.667 8.66699 51.167 18 79.5s21.666 55.5 36.999 81.5s33.5 49.5 54.5 70.5
s44.167 36.167 69.5 45.5c12.667 4.66699 27.5 7.5 44.5 8.5s32.5 -0.666992 46.5 -5s24.5 -11.5 31.5 -21.5s7.16699 -23.333 0.5 -40c-3.33301 -7.33301 -8.5 -13.5 -15.5 -18.5s-14.167 -8.5 -21.5 -10.5s-13.666 -3 -18.999 -3s-7.66602 1.33301 -6.99902 4
c1.33301 4.66699 3.16602 10.5 5.49902 17.5s3.5 13.667 3.5 20s-1.5 11.666 -4.5 15.999s-8.83301 6.5 -17.5 6.5c-10.667 0 -22.667 -7.5 -36 -22.5s-26.666 -34 -39.999 -57s-25.666 -47.667 -36.999 -74s-20.666 -51 -27.999 -74s-11.833 -42 -13.5 -57
s1.16602 -22.5 8.49902 -22.5c4.66699 0 12.667 5.66699 24 17s24.333 26.5 39 45.5s29.667 41.167 45 66.5s29.333 51.666 42 78.999c1.33301 2.66699 4.66602 5.83398 9.99902 9.50098s11.5 7 18.5 10s14.333 5.66699 22 8s14.834 3.5 21.501 3.5
c7.33301 0 13.333 -1.66699 18 -5s5.33398 -9.33301 2.00098 -18c-7.33301 -20 -16.666 -42.833 -27.999 -68.5l-31 -73c-9.33301 -23 -16.166 -42.667 -20.499 -59s-2.5 -25.833 5.5 -28.5c7.33301 -2.66699 18.166 2 32.499 14s29.833 30.333 46.5 55
c6.66699 6 12.667 6.66699 18 2s6.33301 -10.667 3 -18c-15.333 -58.667 -41.666 -106.834 -78.999 -144.501s-82.833 -67.667 -136.5 -90s-113.667 -38.333 -180 -48s-136.333 -15.334 -210 -17.001s-149.5 -0.833984 -227.5 2.49902l-231.5 10
c-76.333 3.33301 -150.333 5.5 -222 6.5s-138 -2 -199 -9s-115.333 -19.167 -163 -36.5s-85.5 -42.333 -113.5 -75z" />
    <glyph glyph-name="b.001" unicode="&#xe001;" 
d="M-1409 -299c24 50 57.6602 89.666 100.993 118.999s93.5 51 150.5 65s119.333 22.167 187 24.5s137.834 1.5 210.501 -2.5s146.667 -9.66699 222 -17s149.333 -13.333 222 -18s142.334 -6.33398 209.001 -5.00098s127.667 8.33301 183 21s103.5 32.667 144.5 60
s72.5 65 94.5 113c-12.667 -9.33301 -27.167 -18 -43.5 -26s-32.666 -14.667 -48.999 -20s-32.333 -8.83301 -48 -10.5s-29.5 -0.166992 -41.5 4.5c-6 -3.33301 -12 -5.33301 -18 -6c-15.333 -3.33301 -31 -3.33301 -47 0s-30 7.5 -42 12.5s-20.667 9.5 -26 13.5s-5 5 1 3
c17.333 -4.66699 33.833 -4.16699 49.5 1.5s31.167 15.167 46.5 28.5v1c16.667 14.667 32.5 33 47.5 55s28.667 44.833 41 68.5s22.833 46.5 31.5 68.5s15.667 41 21 57c6 18 8.33301 29.833 7 35.5s-4.83301 7.33398 -10.5 5.00098s-12.667 -7.5 -21 -15.5
s-16.666 -16.667 -24.999 -26s-15.666 -18.166 -21.999 -26.499s-10.5 -14.166 -12.5 -17.499c-14.667 -24.667 -27.667 -50.667 -39 -78s-22.666 -52.333 -33.999 -75s-23.333 -41.334 -36 -56.001s-27.334 -22 -44.001 -22c-12.667 0 -17.667 8.66699 -15 26l14 53
l39 135.5c14.667 49.667 31.334 100.5 50.001 152.5l89 263c32 -7.33301 50.333 -27.166 55 -59.499s-1 -71.166 -17 -116.499l-15 -41l-15 -40.5l-18.5 -48.5l-25.5 -65c22 30 44.833 55.333 68.5 76s48.167 31 73.5 31c19.333 0 32.833 -6.33301 40.5 -19
s10.834 -29.334 9.50098 -50.001s-6.5 -44.167 -15.5 -70.5s-20.333 -52.666 -34 -78.999s-29.334 -51.666 -47.001 -75.999s-35.5 -45.166 -53.5 -62.499c4.66699 -0.666992 12.834 -0.333984 24.501 0.999023s24.5 4.5 38.5 9.5s28.667 12.333 44 22
s29.666 22.167 42.999 37.5c6.66699 6 12.667 6.66699 18 2s6.33301 -10.667 3 -18c-15.333 -58.667 -41.666 -106.834 -78.999 -144.501s-82.833 -67.667 -136.5 -90s-113.667 -38.333 -180 -48s-136.333 -15.334 -210 -17.001s-149.5 -0.833984 -227.5 2.49902l-231.5 10
c-76.333 3.33301 -150.333 5.5 -222 6.5s-138 -2 -199 -9s-115.333 -19.167 -163 -36.5s-85.5 -42.333 -113.5 -75z" />
    <glyph glyph-name="c.001" unicode="&#xe002;" horiz-adv-x="250" 
d="M-1493 -299c24 49.333 57.1729 88.4971 99.5059 117.497s91.166 50.667 146.499 65s116.166 22.833 182.499 25.5s135.166 2.16699 206.499 -1.5s144.166 -9 218.499 -16s147.333 -13 219 -18s140.667 -7.33301 207 -7s127.5 5.83301 183.5 16.5
s105.5 28.334 148.5 53.001s76.833 58.667 101.5 102c-21.333 -16.667 -44 -27.834 -68 -33.501s-46.5 -5.5 -67.5 0.5s-39.333 18 -55 36s-25.5 42.667 -29.5 74c-4 28.667 -1.83301 59.834 6.5 93.501s21.166 64.834 38.499 93.501s39 52.834 65 72.501
s54.667 29.834 86 30.501c22.667 0 39.334 -3.83301 50.001 -11.5s17.167 -17.167 19.5 -28.5s1.5 -23.5 -2.5 -36.5s-9.66699 -25.167 -17 -36.5s-15.333 -20.833 -24 -28.5s-16.334 -11.5 -23.001 -11.5c-9.33301 0 -17.5 3.66699 -24.5 11s-9.83301 16.333 -8.5 27
c8.66699 2 17 7.33301 25 16s14 17.5 18 26.5s5.16699 16.833 3.5 23.5s-7.16699 9.33398 -16.5 8.00098c-20 -7.33301 -38.167 -22.5 -54.5 -45.5s-29.333 -48.833 -39 -77.5s-15.834 -57.667 -18.501 -87s-0.666992 -53.333 6 -72s17 -31.167 31 -37.5
s29.167 -7.66602 45.5 -3.99902s32.166 12 47.499 25s27.333 29.5 36 49.5c6.66699 6 12.667 6.66699 18 2s6.33301 -10.667 3 -18c-15.333 -58.667 -41.666 -106.834 -78.999 -144.501s-82.833 -67.667 -136.5 -90s-113.667 -38.333 -180 -48
s-136.333 -15.334 -210 -17.001s-149.5 -0.833984 -227.5 2.49902l-231.5 10c-76.333 3.33301 -150.333 5.5 -222 6.5s-138 -2 -199 -9s-115.333 -19.167 -163 -36.5s-85.5 -42.333 -113.5 -75z" />
    <glyph glyph-name="d.001" unicode="&#xe003;" horiz-adv-x="336" 
d="M-1407 -299c24 49.333 57.165 88.6768 99.498 118.01s91.5 51.166 147.5 65.499s117.167 22.666 183.5 24.999s135.333 1.66602 207 -2.00098s144.667 -9.16699 219 -16.5s147.5 -13.333 219.5 -18s141.167 -6.83398 207.5 -6.50098s127.5 6.16602 183.5 17.499
s105.333 29.5 148 54.5s76 59.833 100 104.5c-13.333 -11.333 -26 -20.666 -38 -27.999s-22.667 -11 -32 -11c-19.333 0 -34.333 6.33301 -45 19s-16 35 -16 67c-21.333 -31.333 -43.166 -52.833 -65.499 -64.5s-41.833 -16.5 -58.5 -14.5c-19.333 2 -33.333 12.667 -42 32
s-12.334 43.333 -11.001 72c0.666992 22 4 45.5 10 70.5s14.167 49.167 24.5 72.5s22.833 45.166 37.5 65.499s31.334 37.166 50.001 50.499s39.167 22 61.5 26s45.833 1.66699 70.5 -7l1 1l79 267c8 -5.33301 16 -11.166 24 -17.499s14.333 -15 19 -26s7 -24.833 7 -41.5
s-3.66699 -38 -11 -64l-51 -180l-33 -114.5c-8.66699 -29 -15.334 -50.667 -20.001 -65l-9.5 -29.5c-1.66699 -5.33301 -2.66699 -8 -3 -8s-0.5 -0.333008 -0.5 -1c-3.33301 -14 -5.16602 -26 -5.49902 -36s1.5 -16.833 5.5 -20.5s10.333 -3.33398 19 0.999023
s20.667 14.166 36 29.499c6 6 11.167 11.5 15.5 16.5s7.5 8.5 9.5 10.5c6.66699 6 12.667 6.66699 18 2s6.33301 -10.667 3 -18c-15.333 -58.667 -41.666 -106.834 -78.999 -144.501s-82.833 -67.667 -136.5 -90s-113.667 -38.333 -180 -48s-136.333 -15.334 -210 -17.001
s-149.5 -0.833984 -227.5 2.49902l-231.5 10c-76.333 3.33301 -150.333 5.5 -222 6.5s-138 -2 -199 -9s-115.333 -19.167 -163 -36.5s-85.5 -42.333 -113.5 -75zM234.998 355.011c-18.667 0 -36.6699 -7.66895 -54.0029 -23.002s-33.333 -34.666 -48 -57.999
s-27.167 -48.333 -37.5 -75s-17.666 -51.167 -21.999 -73.5s-4.83301 -40.666 -1.5 -54.999s11 -20.5 23 -18.5c20.667 3.33301 39 17.333 55 42s31.667 54 47 88l21.5 81.5l24.5 90.5c-1.33301 0 -2.66602 0.166992 -3.99902 0.5s-2.66602 0.5 -3.99902 0.5z" />
    <glyph glyph-name="e.001" unicode="&#xe004;" horiz-adv-x="271" 
d="M-1472 -299c24 50 57.332 89.4951 99.999 118.495s92.167 50.667 148.5 65s118 22.666 185 24.999s136.5 1.5 208.5 -2.5s145.5 -9.5 220.5 -16.5s148.5 -12.833 220.5 -17.5s141.167 -6.66699 207.5 -6s127.333 6.83398 183 18.501s104.5 30.5 146.5 56.5
s74.667 62 98 108c-24.667 -21.333 -50.667 -35.666 -78 -42.999s-52.833 -8.16602 -76.5 -2.49902s-43.834 17.834 -60.501 36.501s-27 43.334 -31 74.001s-0.166992 63.667 11.5 99s28.5 67.666 50.5 96.999s48.167 52.833 78.5 70.5s62.166 24.5 95.499 20.5
c18.667 -3.33301 30.5 -12.5 35.5 -27.5s5.33301 -32.333 1 -52s-12.833 -39.5 -25.5 -59.5s-27.334 -36 -44.001 -48c-22.667 -16 -43.667 -26.5 -63 -31.5s-36 -7.16699 -50 -6.5c-7.33301 -28.667 -9.33301 -54 -6 -76c3.33301 -25.333 12.666 -42.666 27.999 -51.999
s32.666 -12.5 51.999 -9.5s38.833 11.167 58.5 24.5s35.834 30.333 48.501 51c7.33301 4.66699 12.833 4.16699 16.5 -1.5s3.5 -11.834 -0.5 -18.501c-15.333 -58.667 -41.666 -106.834 -78.999 -144.501s-82.666 -67.667 -135.999 -90s-113.166 -38.166 -179.499 -47.499
s-136.166 -14.666 -209.499 -15.999s-148.833 -0.166016 -226.5 3.50098l-231 10.5c-76.333 3.33301 -150.166 5.5 -221.499 6.5s-137.5 -1.83301 -198.5 -8.5s-115.167 -18.667 -162.5 -36s-85 -42.333 -113 -75zM201.999 355.995
c-21.333 -12.667 -40.6689 -31.8359 -58.002 -57.5029s-31.333 -53.5 -42 -83.5c17.333 -1.33301 33.833 2.33398 49.5 11.001s29.5 19.334 41.5 32.001s21.833 26.167 29.5 40.5s12.334 26.833 14.001 37.5s-0.166016 18.334 -5.49902 23.001s-15 3.66699 -29 -3z" />
    <glyph glyph-name="f.001" unicode="&#xe005;" horiz-adv-x="220" 
d="M-1546 -112c25.333 52.667 60.9971 93.665 106.997 122.998s99.167 50.833 159.5 64.5s126.333 21 198 22s145.834 -1 222.501 -6s154.167 -11.333 232.5 -19s154.666 -13.167 228.999 -16.5s144.833 -3 211.5 1s126.334 15 179.001 33c1.33301 4 2.5 8.16699 3.5 12.5
s2.16699 8.5 3.5 12.5l27.5 95l26.5 97c6.66699 24 14.667 42.5 24 55.5s19.333 22.5 30 28.5s21.334 9.5 32.001 10.5s20.667 1.5 30 1.5c14.667 0 26 -3.5 34 -10.5s13.5 -15.833 16.5 -26.5s4.33301 -21.834 4 -33.501s-1.83301 -22.167 -4.5 -31.5
c-10 -46 -27.333 -85.333 -52 -118s-55 -60.667 -91 -84l-24.5 -81l-23.5 -74l-19 -59c-5.33301 -16.667 -9.33301 -28.667 -12 -36c-5.33301 -14 -9.83301 -26.333 -13.5 -37s-7.5 -20 -11.5 -28c-10 -19.333 -21 -31.333 -33 -36s-29.667 -5 -53 -1l46 145.5l49 159.5
c-54 -19.333 -114.333 -33.166 -181 -41.499s-136.5 -13.166 -209.5 -14.499s-148 -0.666016 -225 2.00098l-228 8c-75 2.66699 -147.667 3.83398 -218 3.50098s-135.333 -4.33301 -195 -12s-112.667 -20.334 -159 -38.001s-83.166 -42.5 -110.499 -74.5zM196.997 301.998
c1.33301 13.333 1.50195 25.666 0.501953 36.999s-6.16699 17 -15.5 17c-2.66699 0 -5.83398 -0.333008 -9.50098 -1s-7.5 -2.83398 -11.5 -6.50098s-8.33301 -9.16699 -13 -16.5s-9 -17.666 -13 -30.999c-5.33301 -16.667 -11.5 -37.167 -18.5 -61.5l-21.5 -78.5l-6 -23
c26 19.333 48.167 42.333 66.5 69s32.166 58.334 41.499 95.001z" />
    <glyph glyph-name="g.001" unicode="&#xe006;" horiz-adv-x="326" 
d="M-1408 -299c24.667 52 58.4961 90.1709 101.496 114.504s92 39.166 147 44.499s114.833 3.66602 179.5 -5.00098s131.334 -20 200.001 -34l208.5 -44c70.333 -15.333 138.833 -26.5 205.5 -33.5s130 -7.83301 190 -2.5s114.167 21.166 162.5 47.499
s89.333 65.666 123 117.999s57.167 121.833 70.5 208.5c-32 -36.667 -59.5 -63.167 -82.5 -79.5s-43.167 -23.166 -60.5 -20.499c-16 2 -27 12.333 -33 31s-7.33301 42 -4 70c2.66699 24.667 8.66699 51.167 18 79.5s21.666 55.5 36.999 81.5s33.5 49.5 54.5 70.5
s44.167 36.167 69.5 45.5c12.667 4.66699 27.5 7.5 44.5 8.5s32.5 -0.666992 46.5 -5s24.5 -11.5 31.5 -21.5s7.16699 -23.333 0.5 -40c-3.33301 -7.33301 -8.5 -13.5 -15.5 -18.5s-14.167 -8.5 -21.5 -10.5s-13.666 -3 -18.999 -3s-7.66602 1.33301 -6.99902 4
c1.33301 4.66699 3.16602 10.5 5.49902 17.5s3.5 13.667 3.5 20s-1.5 11.666 -4.5 15.999s-8.83301 6.5 -17.5 6.5c-10.667 0 -22.667 -7.5 -36 -22.5s-26.666 -34 -39.999 -57s-25.666 -47.667 -36.999 -74s-20.666 -51 -27.999 -74s-11.833 -42 -13.5 -57
s1.16602 -22.5 8.49902 -22.5c4.66699 0 12.667 5.66699 24 17s24.333 26.5 39 45.5s29.667 41.167 45 66.5s29.333 51.666 42 78.999c1.33301 2.66699 4.66602 5.83398 9.99902 9.50098s11.5 7 18.5 10s14.333 5.66699 22 8s14.834 3.5 21.501 3.5
c15.333 0 20.666 -7.66699 15.999 -23l-34.5 -136.5c-11.667 -47.667 -25.167 -94.167 -40.5 -139.5c-26.667 -78 -61.167 -141 -103.5 -189s-90.5 -84.833 -144.5 -110.5s-112.333 -42 -175 -49s-127.667 -8 -195 -3s-135.666 14 -204.999 27s-137.666 26.5 -204.999 40.5
s-132.5 26.833 -195.5 38.5s-121.5 18.5 -175.5 20.5s-102.333 -2.5 -145 -13.5s-77.667 -32.167 -105 -63.5z" />
    <glyph glyph-name="h.001" unicode="&#xe007;" horiz-adv-x="317" 
d="M-1426 -299c24 49.333 57.1611 88.6729 99.4941 118.006s91.333 51.166 147 65.499s116.5 22.666 182.5 24.999s134.833 1.66602 206.5 -2.00098s144.667 -9.16699 219 -16.5s147.333 -13.333 219 -18s140.834 -6.83398 207.501 -6.50098s128 6 184 17
s105.333 28.833 148 53.5s76.334 59 101.001 103c-11.333 -10.667 -23 -19.334 -35 -26.001c-12 -7.33301 -24.167 -11.5 -36.5 -12.5s-23.666 0.5 -33.999 4.5s-19.166 10.667 -26.499 20s-11.666 21 -12.999 35c-2 15.333 -1 32 3 50s9.16699 36.167 15.5 54.5
s13.333 36 21 53s14.167 32.167 19.5 45.5c11.333 27.333 16.333 44.166 15 50.499s-6 6.5 -14 0.5s-17.5 -15.5 -28.5 -28.5s-20.5 -25.167 -28.5 -36.5c-14 -19.333 -26 -40.166 -36 -62.499s-19 -44.5 -27 -66.5s-15 -43.5 -21 -64.5s-11.667 -39.833 -17 -56.5h-83
c7.33301 19.333 14 38.5 20 57.5l18 57.5c22 71.333 42.667 141.833 62 211.5s41.666 139.834 66.999 210.501l39 123c2 -0.666992 7.33301 -3.66699 16 -9s17 -13.333 25 -24s14 -23.5 18 -38.5s3 -32.167 -3 -51.5c-9.33301 -23.333 -17.666 -45.166 -24.999 -65.499
l-21.5 -60.5l-20.5 -60.5l-21 -65.5c12 16 24.167 31 36.5 45s24.666 26.5 36.999 37.5s24.333 19.667 36 26s22.834 9.5 33.501 9.5c17.333 0 28.333 -5.83301 33 -17.5s5.33398 -26.667 2.00098 -45s-9.5 -39.333 -18.5 -63l-28 -71.5
c-9.66699 -24 -18.5 -47.333 -26.5 -70s-12.667 -42 -14 -58c-1.33301 -18 2 -27 10 -27s17.333 4.16699 28 12.5s21.167 18 31.5 29s17.166 18.5 20.499 22.5c6.66699 6 12.667 6.66699 18 2s6.33301 -10.667 3 -18c-15.333 -58.667 -41.666 -106.834 -78.999 -144.501
s-82.833 -67.667 -136.5 -90s-113.667 -38.333 -180 -48s-136.333 -15.334 -210 -17.001s-149.5 -0.833984 -227.5 2.49902l-231.5 10c-76.333 3.33301 -150.333 5.5 -222 6.5s-138 -2 -199 -9s-115.333 -19.167 -163 -36.5s-85.5 -42.333 -113.5 -75z" />
    <glyph glyph-name="i.001" unicode="&#xe008;" horiz-adv-x="169" 
d="M-1574 -299c23.333 48.667 55.835 87.5029 97.502 116.503s89.667 50.667 144 65s114 23 179 26s132.667 2.83301 203 -0.5s142 -8.5 215 -15.5s145 -13 216 -18s139.667 -7.83301 206 -8.5s127.666 3.83301 183.999 13.5s106.666 25.667 150.999 48
s79.833 53.5 106.5 93.5c-9.33301 -6 -19.5 -10.833 -30.5 -14.5s-23.167 -5.5 -36.5 -5.5c-17.333 0 -30.666 3.66699 -39.999 11s-16.166 16.666 -20.499 27.999s-6.33301 23.666 -6 36.999s2.16602 26 5.49902 38c10 40 21.167 78.667 33.5 116l39.5 114
c3.33301 9.33301 11.666 17 24.999 23s26 9 38 9c9.33301 0 17.333 -2 24 -6s8.33398 -10 5.00098 -18c-17.333 -44 -32.5 -87 -45.5 -129l-37.5 -123c-5.33301 -16 -8.5 -29.5 -9.5 -40.5s1.5 -17.833 7.5 -20.5c3.33301 -1.33301 7.66602 -1.66602 12.999 -0.999023
s11.833 3.5 19.5 8.5s16.167 12.833 25.5 23.5s19.666 25.334 30.999 44.001c6.66699 6 12.667 6.66699 18 2s6.33301 -10.667 3 -18c-15.333 -58.667 -41.666 -106.834 -78.999 -144.501s-82.833 -67.667 -136.5 -90s-113.667 -38.333 -180 -48
s-136.333 -15.334 -210 -17.001s-149.5 -0.833984 -227.5 2.49902l-231.5 10c-76.333 3.33301 -150.333 5.5 -222 6.5s-138 -2 -199 -9s-115.333 -19.167 -163 -36.5s-85.5 -42.333 -113.5 -75zM153.002 489.003c14.667 0 25.502 -5.16699 32.502 -15.5
s9.16699 -21.5 6.5 -33.5c-2.66699 -13.333 -10 -24.833 -22 -34.5s-24.333 -14.5 -37 -14.5s-23.167 4.5 -31.5 13.5s-10.833 20.833 -7.5 35.5c3.33301 13.333 10.666 24.833 21.999 34.5s23.666 14.5 36.999 14.5z" />
    <glyph glyph-name="j.001" unicode="&#xe009;" horiz-adv-x="133" 
d="M-1593 -291c24.667 52 57.6719 89.334 99.0049 112.001s88.166 35.5 140.499 38.5s109.333 -1.33301 171 -13s125.5 -26 191.5 -43l201 -52c68 -17.667 134.833 -30.834 200.5 -39.501s129.167 -10.334 190.5 -5.00098s117.666 22.333 168.999 51s97 71.667 137 129
s72 133.333 96 228c10 40 18.833 78.167 26.5 114.5s15.834 71.833 24.501 106.5c2 8.66699 8.16699 15.667 18.5 21s21.166 8.83301 32.499 10.5s21.166 1.33398 29.499 -0.999023s11.833 -6.83301 10.5 -13.5l-26 -116.5l-29 -125.5
c-24.667 -102.667 -57.667 -186.667 -99 -252s-89 -116.5 -143 -153.5s-112.833 -61.667 -176.5 -74s-129.834 -16.833 -198.501 -13.5s-138.834 12.333 -210.501 27s-142.167 30.667 -211.5 48l-201.5 50c-65 16 -125.5 26.667 -181.5 32s-106.167 3.33301 -150.5 -6
s-80.5 -30.333 -108.5 -63zM116.005 489.001c14.667 0 25.502 -5.16699 32.502 -15.5s9.16699 -21.5 6.5 -33.5c-2.66699 -13.333 -10 -24.833 -22 -34.5s-24.333 -14.5 -37 -14.5s-23.167 4.5 -31.5 13.5s-10.833 20.833 -7.5 35.5
c3.33301 13.333 10.666 24.833 21.999 34.5s23.666 14.5 36.999 14.5z" />
    <glyph glyph-name="k.001" unicode="&#xe00a;" horiz-adv-x="321" 
d="M-1422 -299c24 49.333 57.166 88.6768 99.499 118.01s91.333 51.166 147 65.499s116.5 22.666 182.5 24.999s134.833 1.66602 206.5 -2.00098s144.667 -9.16699 219 -16.5s147.333 -13.333 219 -18s140.834 -6.83398 207.501 -6.50098s128 6 184 17
s105.333 28.833 148 53.5s76.334 59 101.001 103c-11.333 -10.667 -23 -19.334 -35 -26.001c-12 -7.33301 -23.833 -11.5 -35.5 -12.5s-22.334 0.5 -32.001 4.5s-17.667 10.667 -24 20s-10.166 21 -11.499 35c-1.33301 9.33301 -1.33301 21.666 0 36.999
s3.16602 31.5 5.49902 48.5l7 50c2.33301 16.333 3.83301 30.166 4.5 41.499s0 19.333 -2 24s-6 3.66699 -12 -3c-2 -2 -4.33301 -5 -7 -9c-12.667 -17.333 -24 -37 -34 -59s-19 -44.333 -27 -67s-15.333 -44.834 -22 -66.501l-18 -57.5h-83l34 115l64.5 212.5
c21.667 71 44.5 140.833 68.5 209.5l39 123c2 -0.666992 7.33301 -3.66699 16 -9s17.167 -13.333 25.5 -24s14.666 -23.5 18.999 -38.5s3.5 -32.167 -2.5 -51.5l-25.5 -65.5l-22 -60.5l-21 -60.5l-21.5 -65.5c7.33301 20 18.833 38.333 34.5 55s32.5 29.834 50.5 39.501
s35.667 15.167 53 16.5s31 -3.66699 41 -15c8 -9.33301 12.333 -18.5 13 -27.5s-1.5 -16.833 -6.5 -23.5s-11.667 -11.834 -20 -15.501s-17.5 -4.5 -27.5 -2.5c-19.333 4.66699 -36 5 -50 1s-26.667 -10.333 -38 -19c20 -1.33301 33.667 -10 41 -26s11.333 -35.333 12 -58
s-0.833008 -46 -4.5 -70s-6.16699 -44.667 -7.5 -62c-1.33301 -18 1.83398 -27.5 9.50098 -28.5s17 2.33301 28 10s21.667 17.334 32 29.001s17.166 20.5 20.499 26.5c6.66699 6 12.667 6.66699 18 2s6.33301 -10.667 3 -18
c-15.333 -58.667 -41.666 -106.834 -78.999 -144.501s-82.833 -67.667 -136.5 -90s-113.667 -38.333 -180 -48s-136.333 -15.334 -210 -17.001s-149.5 -0.833984 -227.5 2.49902l-231.5 10c-76.333 3.33301 -150.333 5.5 -222 6.5s-138 -2 -199 -9
s-115.333 -19.167 -163 -36.5s-85.5 -42.333 -113.5 -75z" />
    <glyph glyph-name="l.001" unicode="&#xe00b;" horiz-adv-x="165" 
d="M-1578 -299c24 49.333 57.1709 88.501 99.5039 117.501s91.166 50.667 146.499 65s116.166 22.833 182.499 25.5s135.166 2.16699 206.499 -1.5s144.166 -9 218.499 -16s147.333 -13 219 -18s140.667 -7.33301 207 -7s127.5 5.83301 183.5 16.5
s105.5 28.334 148.5 53.001s76.833 58.667 101.5 102c-8 -8 -15.333 -14.333 -22 -19c-16.667 -12.667 -33.667 -19 -51 -19c-25.333 0 -42.5 10.5 -51.5 31.5s-12.5 48.833 -10.5 83.5c3.33301 56.667 18.166 129.167 44.499 217.5l102.5 327.5
c2 -0.666992 6.66699 -3.66699 14 -9s14.5 -13.166 21.5 -23.499s12.333 -23 16 -38s2.83398 -32.5 -2.49902 -52.5c-8 -31.333 -17.667 -64.5 -29 -99.5l-34 -105l-31.5 -101.5c-9.66699 -32.667 -17.167 -62 -22.5 -88s-7.5 -47.667 -6.5 -65s6.5 -28 16.5 -32
c7.33301 -3.33301 17.666 1.16699 30.999 13.5s28.333 30.833 45 55.5c6.66699 6 12.667 6.66699 18 2s6.33301 -10.667 3 -18c-15.333 -58.667 -41.666 -106.834 -78.999 -144.501s-82.833 -67.667 -136.5 -90s-113.667 -38.333 -180 -48s-136.333 -15.334 -210 -17.001
s-149.5 -0.833984 -227.5 2.49902l-231.5 10c-76.333 3.33301 -150.333 5.5 -222 6.5s-138 -2 -199 -9s-115.333 -19.167 -163 -36.5s-85.5 -42.333 -113.5 -75z" />
    <glyph glyph-name="m.001" unicode="&#xe00c;" horiz-adv-x="482" 
d="M-1261 -299c23.333 48.667 55.9922 87.5029 97.9922 116.503s90.333 50.833 145 65.5s114.667 23.334 180 26.001s133.333 2.33398 204 -0.999023s142.834 -8.5 216.501 -15.5s146.167 -13 217.5 -18s140.166 -7.66699 206.499 -8s127.666 4.5 183.999 14.5
s106.333 26.667 150 50s78.5 55.666 104.5 96.999l-19 -14c-12 -7.33301 -24.167 -11.5 -36.5 -12.5s-23.666 0.5 -33.999 4.5s-19.166 10.667 -26.499 20s-11.666 21 -12.999 35c-2 15.333 -1.66699 32 1 50s6.5 36.167 11.5 54.5s10.667 36 17 53l17.5 45.5
c6.66699 16 8.83398 25.667 6.50098 29s-7.5 1.66602 -15.5 -5.00098s-18 -17.5 -30 -32.5s-24 -32.5 -36 -52.5s-23.333 -42 -34 -66s-19 -48.333 -25 -73c-1.33301 -6 -2.5 -13 -3.5 -21s-2.16699 -21.667 -3.5 -41c-19.333 -3.33301 -34.666 0.333984 -45.999 11.001
s-18.333 26.667 -21 48c-2 15.333 -1.5 32.166 1.5 50.499s6.83301 36.833 11.5 55.5s9.83398 36.667 15.501 54s10.167 33 13.5 47c3.33301 14.667 3.16602 22 -0.500977 22s-9.66699 -5 -18 -15s-18 -23.833 -29 -41.5s-22.167 -37 -33.5 -58s-21.833 -42.5 -31.5 -64.5
s-16.834 -42 -21.501 -60c-1.33301 -9.33301 -2.16602 -18.333 -2.49902 -27s0.166992 -16.667 1.5 -24c-19.333 1.33301 -34.166 5.33301 -44.499 12s-17.5 15.167 -21.5 25.5s-5.33301 22 -4 35s4 27.167 8 42.5c6 20.667 13.333 42.167 22 64.5s16.167 44 22.5 65
s10.166 40.667 11.499 59s-3 33.5 -13 45.5c12 12 24.167 21.667 36.5 29s23.5 11.833 33.5 13.5s18.167 0 24.5 -5s9.83301 -14.167 10.5 -27.5c0.666992 -10 -0.5 -22.167 -3.5 -36.5s-7 -30 -12 -47s-10.833 -34.833 -17.5 -53.5l-20 -56
c8.66699 22 18.334 44.833 29.001 68.5s21.834 46 33.501 67s23.334 39.5 35.001 55.5s23.167 27 34.5 33c10.667 6 20.667 8.33301 30 7s17 -5.83301 23 -13.5s9.66699 -18.5 11 -32.5s-0.333984 -30.667 -5.00098 -50c-3.33301 -12 -7.16602 -24.667 -11.499 -38
s-9 -26.833 -14 -40.5s-9.66699 -27.167 -14 -40.5s-7.5 -26 -9.5 -38c10 25.333 22.667 53 38 83s32.166 58 50.499 84s38 47.667 59 65s41.833 26 62.5 26c16.667 0 27.334 -5.66699 32.001 -17s5.5 -26.333 2.5 -45s-8.66699 -39.667 -17 -63l-26 -71
c-9 -24 -17.333 -47.333 -25 -70s-12.167 -42 -13.5 -58c-1.33301 -18 1.5 -27 8.5 -27s15.5 4.16699 25.5 12.5s19.667 18 29 29l19 22.5c6.66699 6 12.667 6.66699 18 2s6.33301 -10.667 3 -18c-15.333 -58.667 -41.666 -106.834 -78.999 -144.501
s-82.833 -67.667 -136.5 -90s-113.667 -38.333 -180 -48s-136.333 -15.334 -210 -17.001s-149.5 -0.833984 -227.5 2.49902l-231.5 10c-76.333 3.33301 -150.333 5.5 -222 6.5s-138 -2 -199 -9s-115.333 -19.167 -163 -36.5s-85.5 -42.333 -113.5 -75z" />
    <glyph glyph-name="n.001" unicode="&#xe00d;" horiz-adv-x="325" 
d="M-1418 -299c24 49.333 57.1602 88.6738 99.4932 118.007s91.333 51.166 147 65.499s116.5 22.666 182.5 24.999s134.833 1.66602 206.5 -2.00098s144.667 -9.16699 219 -16.5s147.333 -13.333 219 -18s140.834 -6.83398 207.501 -6.50098s128 6 184 17
s105.333 28.833 148 53.5s76.334 59 101.001 103c-11.333 -10.667 -23 -19.334 -35 -26.001c-12 -7.33301 -24.167 -11.5 -36.5 -12.5s-23.666 0.5 -33.999 4.5s-19.166 10.667 -26.499 20s-11.666 21 -12.999 35c-2 15.333 -1.66699 32 1 50s6.5 36.167 11.5 54.5
s10.667 36 17 53l17.5 45.5c8.66699 22 9.5 32.333 2.5 31s-17.833 -10.666 -32.5 -27.999s-30.834 -40.666 -48.501 -69.999s-32.5 -60.333 -44.5 -93c-5.33301 -20 -9.5 -39 -12.5 -57s-3.16699 -33.667 -0.5 -47c-19.333 1.33301 -34.166 5.33301 -44.499 12
s-17.5 15.167 -21.5 25.5s-5.33301 22 -4 35s4 27.167 8 42.5c6 20.667 13.333 42.167 22 64.5s16.167 44 22.5 65s10.166 40.667 11.499 59s-3 33.5 -13 45.5c12 12 24.167 21.667 36.5 29s23.5 11.833 33.5 13.5s18.167 0 24.5 -5s9.83301 -14.167 10.5 -27.5
c1.33301 -12 -0.166992 -26.667 -4.5 -44s-10.166 -36.333 -17.499 -57c10.667 18.667 22.334 36.667 35.001 54s25.667 32.666 39 45.999s26.833 24 40.5 32s27.5 12 41.5 12c16.667 0 27.334 -5.66699 32.001 -17s5.5 -26.333 2.5 -45s-8.66699 -39.667 -17 -63l-26 -71
c-9 -24 -17.333 -47.333 -25 -70s-12.167 -42 -13.5 -58c-1.33301 -18 2 -27 10 -27s17.333 4.16699 28 12.5s21.167 18 31.5 29s17.166 18.5 20.499 22.5c6.66699 6 12.667 6.66699 18 2s6.33301 -10.667 3 -18c-15.333 -58.667 -41.666 -106.834 -78.999 -144.501
s-82.833 -67.667 -136.5 -90s-113.667 -38.333 -180 -48s-136.333 -15.334 -210 -17.001s-149.5 -0.833984 -227.5 2.49902l-231.5 10c-76.333 3.33301 -150.333 5.5 -222 6.5s-138 -2 -199 -9s-115.333 -19.167 -163 -36.5s-85.5 -42.333 -113.5 -75z" />
    <glyph glyph-name="o.001" unicode="&#xe00e;" horiz-adv-x="296" 
d="M-1559 -299c24 49.333 57.165 88.5059 99.498 117.506s91.166 50.833 146.499 65.5s116 23.167 182 25.5s134.667 1.66602 206 -2.00098s144.166 -9 218.499 -16s147.333 -13 219 -18s140.667 -7.33301 207 -7s127.5 5.83301 183.5 16.5s105.5 28.167 148.5 52.5
s76.833 58.166 101.5 101.499c-13.333 -11.333 -27.333 -20.166 -42 -26.499s-29.667 -9.83301 -45 -10.5c-15.333 0 -27.666 3.16699 -36.999 9.5s-16.333 14.833 -21 25.5s-7.5 23 -8.5 37s-0.833008 28.333 0.5 43c2 20 5.33301 39.667 10 59s9.33398 34 14.001 44
c6.66699 16.667 14.834 33.167 24.501 49.5s20.334 31.166 32.001 44.499s24.667 24.666 39 33.999s29.5 15.333 45.5 18c15.333 17.333 31.833 28.833 49.5 34.5s33.5 5.83398 47.5 0.500977s24.667 -16.333 32 -33s8.33301 -39 3 -67
c-2.66699 -14.667 -6.83398 -30.834 -12.501 -48.501s-12.5 -35.834 -20.5 -54.501s-17.333 -37.167 -28 -55.5s-22 -35.5 -34 -51.5c-16.667 -56.667 -44 -103.334 -82 -140.001s-83.833 -65.834 -137.5 -87.501s-113.834 -37 -180.501 -46s-136.667 -14.333 -210 -16
s-148.833 -0.666992 -226.5 3l-230 10.5c-75.667 3.33301 -149.167 5.33301 -220.5 6s-137.166 -2.5 -197.499 -9.5s-114.166 -19.167 -161.499 -36.5s-85 -42.333 -113 -75zM169.998 332.006c-6.66699 -2 -14.333 -10.167 -23 -24.5s-17 -31.5 -25 -51.5
s-15.167 -41.333 -21.5 -64s-10.833 -43.667 -13.5 -63s-3 -35.333 -1 -48s7.66699 -19 17 -19c10.667 2 21.834 8.83301 33.501 20.5s23.167 26.167 34.5 43.5s21.833 36.5 31.5 57.5s17.667 41.5 24 61.5s10.666 38.5 12.999 55.5s1.5 30.167 -2.5 39.5
s-11.333 13.833 -22 13.5s-25.667 -7.5 -45 -21.5z" />
    <glyph glyph-name="p.001" unicode="&#xe00f;" horiz-adv-x="317" 
d="M68 16c-9.33301 -43.333 -17.835 -85 -25.502 -125s-14.167 -76 -19.5 -108h-90l6 28c2 9.33301 3.66699 18.666 5 27.999c-56 -15.333 -117.167 -25.833 -183.5 -31.5s-135.166 -8.5 -206.499 -8.5s-143.833 1.83301 -217.5 5.5s-146.167 7 -217.5 10
s-140.333 4.33301 -207 4s-128.167 -4.16602 -184.5 -11.499s-106.5 -19.666 -150.5 -36.999s-79.333 -41.333 -106 -72l-2 3c24 50 57.667 89.667 101 119s93.5 51 150.5 65s119.333 22.167 187 24.5s137.834 1.5 210.501 -2.5s146.834 -9.66699 222.501 -17
s149.667 -13.333 222 -18s141.833 -6.33398 208.5 -5.00098s127.667 8.33301 183 21l22.5 113.5l23.5 113.5l30.5 143.5l32.5 143.5h88c-2 -7.33301 -3.83301 -15.166 -5.5 -23.499l-5.5 -26.5c14.667 16 32.167 28.5 52.5 37.5s41.166 12.833 62.499 11.5
c25.333 -2 42.666 -13.5 51.999 -34.5s12.333 -46.5 9 -76.5s-12.166 -62.167 -26.499 -96.5s-32.5 -65.333 -54.5 -93s-47 -49.834 -75 -66.501s-57.333 -22.667 -88 -18h-4zM76.998 59c19.333 5.33301 38.001 17.001 56.001 35.001s34.333 38.667 49 62
s27.167 47.5 37.5 72.5s17.833 47.5 22.5 67.5c6 27.333 5 45.333 -3 54s-18.667 11.167 -32 7.5s-27.833 -11.334 -43.5 -23.001s-27.834 -24.5 -36.501 -38.5z" />
    <glyph glyph-name="q.001" unicode="&#xe010;" horiz-adv-x="309" 
d="M203 266c1.33301 2.66699 4.66406 5.83203 9.99707 9.49902s11.5 7.16699 18.5 10.5s14.5 6.16602 22.5 8.49902s15.333 3.5 22 3.5c7.33301 0 11.5 -1.66699 12.5 -5s-0.166992 -9.33301 -3.5 -18l-27.5 -107.5l-27 -101.5l-26.5 -101l-26 -106
c-4.66699 -20 -12.167 -35.5 -22.5 -46.5s-21 -18.833 -32 -23.5s-20.833 -7.16699 -29.5 -7.5s-14 0.166992 -16 1.5l12 63c-55.333 -17.333 -116.166 -29.333 -182.499 -36s-135.5 -10.167 -207.5 -10.5s-145.5 1.33398 -220.5 5.00098s-149 7 -222 10
s-143.5 4.5 -211.5 4.5s-130.833 -3.66699 -188.5 -11s-109.167 -19.666 -154.5 -36.999s-81.333 -41.666 -108 -72.999l-2 3c24.667 51.333 59.167 91.666 103.5 120.999s95.5 51 153.5 65s121.667 21.833 191 23.5s141.166 0.333984 215.499 -3.99902
s149.833 -10.333 226.5 -18s151.5 -13.5 224.5 -17.5s142.833 -4.83301 209.5 -2.5s127.334 10.833 182.001 25.5l18.5 92c5.66699 28 12.167 56.667 19.5 86c-22 -23.333 -40.667 -39.5 -56 -48.5s-30 -12.167 -44 -9.5c-16 2 -27 12.333 -33 31s-7.33301 42 -4 70
c2.66699 24.667 8.66699 51.167 18 79.5s21.666 55.5 36.999 81.5s33.5 49.5 54.5 70.5s44.167 36.167 69.5 45.5c12.667 4.66699 27.5 7.5 44.5 8.5s32.5 -0.666992 46.5 -5s24.5 -11.5 31.5 -21.5s7.16699 -23.333 0.5 -40c-3.33301 -7.33301 -8.5 -13.5 -15.5 -18.5
s-14.167 -8.5 -21.5 -10.5s-13.666 -3 -18.999 -3s-7.66602 1.33301 -6.99902 4c1.33301 4.66699 3.16602 10.5 5.49902 17.5s3.5 13.667 3.5 20s-1.5 11.666 -4.5 15.999s-8.83301 6.5 -17.5 6.5c-10.667 0 -22.667 -7.5 -36 -22.5s-26.666 -34 -39.999 -57
s-25.666 -47.667 -36.999 -74s-20.666 -51 -27.999 -74s-11.833 -42 -13.5 -57s1.16602 -22.5 8.49902 -22.5c5.33301 0 15.666 8 30.999 24s32 37.333 50 64l19 61c6.66699 20.667 14.334 40 23.001 58z" />
    <glyph glyph-name="r.001" unicode="&#xe011;" horiz-adv-x="171" 
d="M-1572 -299c23.333 48.667 55.8262 87.5 97.4932 116.5s89.834 50.833 144.501 65.5s114.5 23.334 179.5 26.001s132.667 2.33398 203 -0.999023s142 -8.5 215 -15.5s145 -13 216 -18s139.667 -7.66699 206 -8s127.833 4.33398 184.5 14.001s107 25.667 151 48
s79.333 53.833 106 94.5c-9.33301 -6.66699 -19.833 -12 -31.5 -16s-24.5 -6 -38.5 -6c-17.333 0 -30.833 3.66699 -40.5 11s-16.667 16.666 -21 27.999s-6.33301 23.666 -6 36.999s2.5 26 6.5 38c4.66699 16 11.5 36.5 20.5 61.5l28 75l27 69l17.5 44.5
c-18.667 1.33301 -33.5 2.83301 -44.5 4.5s-22.833 2.5 -35.5 2.5c8.66699 14.667 15.167 27.5 19.5 38.5s7.33301 21.333 9 31s2.33398 19.667 2.00098 30s-1.16602 22.166 -2.49902 35.499c10 0 18.833 -3.66699 26.5 -11s13.167 -16.166 16.5 -26.499
s4.5 -21.166 3.5 -32.499s-4.83301 -21.333 -11.5 -30c6.66699 -2.66699 14.5 -4.16699 23.5 -4.5s17.833 -0.5 26.5 -0.5c22.667 0 36.167 -8.33301 40.5 -25s3.33301 -37.834 -3 -63.501s-15.833 -53.667 -28.5 -84l-35.5 -85.5c-11 -26.667 -19.167 -49.667 -24.5 -69
s-3.66602 -31 5.00098 -35c3.33301 -1.33301 7.83301 -1.66602 13.5 -0.999023s12.334 3.5 20.001 8.5s16.334 12.833 26.001 23.5s20.167 25.334 31.5 44.001c6.66699 6 12.667 6.66699 18 2s6.33301 -10.667 3 -18c-15.333 -58.667 -41.666 -106.834 -78.999 -144.501
s-82.833 -67.667 -136.5 -90s-113.667 -38.333 -180 -48s-136.333 -15.334 -210 -17.001s-149.5 -0.833984 -227.5 2.49902l-231.5 10c-76.333 3.33301 -150.333 5.5 -222 6.5s-138 -2 -199 -9s-115.333 -19.167 -163 -36.5s-85.5 -42.333 -113.5 -75z" />
    <glyph glyph-name="s.001" unicode="&#xe012;" horiz-adv-x="238" 
d="M-1743 -299c24.667 52 59.8281 92.8428 105.495 122.51s98.334 51.334 158.001 65.001s125 21 196 22s144.333 -0.833008 220 -5.5s152.667 -10.834 231 -18.501s154.333 -13.334 228 -17.001s143.834 -3.83398 210.501 -0.500977s126.834 13.666 180.501 30.999
s99 43 136 77s62.833 80 77.5 138c4 22 16 38.333 36 49c2.66699 2 7.16699 2.16699 13.5 0.5s12.333 -4.16699 18 -7.5s10.167 -7 13.5 -11s3.66602 -7.66699 0.999023 -11c-5.33301 -6.66699 -9.5 -15.5 -12.5 -26.5s-4.16699 -22 -3.5 -33s3.33398 -20.667 8.00098 -29
s12 -12.5 22 -12.5c11.333 -0.666992 19.5 4.33301 24.5 15s6.83301 23.667 5.5 39c-1.33301 22 -6.5 43.167 -15.5 63.5s-17.167 40.166 -24.5 59.499c-8.66699 22 -15.834 44.167 -21.501 66.5s-7.16699 43.166 -4.5 62.499c2.66699 20 11.334 36.833 26.001 50.5
s31.334 23.167 50.001 28.5s37.334 6 56.001 2s33.667 -13.333 45 -28c8 -10.667 14 -22.334 18 -35.001s5.5 -25.334 4.5 -38.001s-4.5 -24.334 -10.5 -35.001s-15 -19 -27 -25c-3.33301 -2 -8 -2.16699 -14 -0.5s-11.833 4.16699 -17.5 7.5s-10.334 7 -14.001 11
s-4.16699 7.66699 -1.5 11c5.33301 6.66699 9.5 15.5 12.5 26.5s4.16699 22 3.5 33s-3.33398 20.667 -8.00098 29s-12 12.5 -22 12.5c-10.667 0 -18 -4.5 -22 -13.5s-5.66699 -21.167 -5 -36.5s3.33398 -32.5 8.00098 -51.5s10.334 -38.5 17.001 -58.5
c4 -12.667 8.5 -25 13.5 -37s9.33301 -24 13 -36s6.33398 -24 8.00098 -36s1.5 -24 -0.5 -36c-4 -20 -12.833 -37.333 -26.5 -52s-29.167 -25 -46.5 -31s-35 -7 -53 -3s-33.333 14.667 -46 32c-6 6.66699 -10.667 14.667 -14 24
c-20.667 -51.333 -51.334 -93.5 -92.001 -126.5s-88.5 -59 -143.5 -78s-115.667 -32.167 -182 -39.5s-135.833 -11.333 -208.5 -12s-147 0.666016 -223 3.99902l-225 10c-74 3.33301 -145.667 5.16602 -215 5.49902s-133.333 -3.16699 -192 -10.5s-111 -19.5 -157 -36.5
s-82.667 -41.5 -110 -73.5z" />
    <glyph glyph-name="t.001" unicode="&#xe013;" horiz-adv-x="150" 
d="M-329 412c2.66699 38.667 16.1699 68.6641 40.5029 89.9971s56.833 36.666 97.5 45.999s88.167 13.833 142.5 13.5s113.166 -2.83301 176.499 -7.5l23 63l80 -1l-14.5 -37l-11.5 -31c65.333 -5.33301 137.166 -10.666 215.499 -15.999s158.333 -7.83301 240 -7.5
s162.667 4.5 243 12.5s155.333 22.667 225 44s131.834 50.666 186.501 87.999s96.667 85.333 126 144c5.33301 -53.333 -2 -99.166 -22 -137.499s-49.5 -70.833 -88.5 -97.5s-86 -48 -141 -64s-115 -28.167 -180 -36.5s-133.167 -13.333 -204.5 -15s-143 -1.5 -215 0.5
s-142.667 5.16699 -212 9.5l-195 12.5l-25 -83c-11.333 -35.333 -21.833 -70.5 -31.5 -105.5l-26 -97c-7.66699 -29.667 -14 -55.167 -19 -76.5s-8.16699 -35.666 -9.5 -42.999c-1.33301 -6 -0.5 -10.333 2.5 -13s7.83301 -3 14.5 -1s15.167 6.83301 25.5 14.5
s22.166 19.167 35.499 34.5c4.66699 5.33301 10.167 6.33301 16.5 3s7.83301 -9.66602 4.5 -18.999c-6.66699 -7.33301 -15.5 -16.166 -26.5 -26.499s-23 -20.166 -36 -29.499s-26.333 -17.333 -40 -24s-26 -10.167 -37 -10.5s-20 3.16699 -27 10.5
s-10.5 20.666 -10.5 39.999c0 8 0.666992 16.833 2 26.5l4 29.5c2 10 5.5 25 10.5 45l18 69l23.5 83.5l26 89.5l11 37.5c4 13.667 9.66699 30.5 17 50.5c-60 3.33301 -115.833 5.33301 -167.5 6s-96.834 -1.5 -135.501 -6.5s-69.667 -13.5 -93 -25.5
s-36.333 -29.333 -39 -52z" />
    <glyph glyph-name="u.001" unicode="&#xe014;" horiz-adv-x="306" 
d="M-1437 -299c24 49.333 56.998 88.5059 98.998 117.506s90.5 50.667 145.5 65s115.333 22.833 181 25.5s134 2.16699 205 -1.5s143.333 -9 217 -16s146.167 -12.833 217.5 -17.5s140.166 -7.16699 206.499 -7.5s127.5 4.66699 183.5 15s105.833 27.333 149.5 51
s78.167 56.5 103.5 98.5c-9.33301 -8.66699 -19.333 -15.667 -30 -21s-21.334 -7.33301 -32.001 -6c-28 2 -45.5 11.833 -52.5 29.5s-8.16699 39.834 -3.5 66.501c-18 -26 -37.667 -47.667 -59 -65s-42.666 -26 -63.999 -26c-12 0 -21.167 2.66699 -27.5 8
s-10.333 12.833 -12 22.5s-1.5 20.834 0.5 33.501s5 26.667 9 42c6 23.333 13.667 48 23 74s17.166 51.167 23.499 75.5s10 46.5 11 66.5s-3.5 35.667 -13.5 47c12 7.33301 24.333 13.333 37 18s24.167 7 34.5 7s18.833 -2.83301 25.5 -8.5s10 -15.5 10 -29.5
c0 -15.333 -2.33301 -33.5 -7 -54.5s-10.167 -42.333 -16.5 -64s-13.166 -42.667 -20.499 -63s-13.666 -36.833 -18.999 -49.5c-7.33301 -17.333 -8.83301 -27.333 -4.5 -30s11.833 0 22.5 8s23.334 20.5 38.001 37.5s29 36.5 43 58.5l20 54
c6.66699 18 12.5 35.167 17.5 51.5s8.33301 31.5 10 45.5s1.16699 26 -1.5 36c28 0.666992 47.333 -4.33301 58 -15s16 -24.834 16 -42.501s-4 -37.667 -12 -60s-16.833 -45 -26.5 -68s-18.5 -45.167 -26.5 -66.5s-12.333 -40 -13 -56c0 -8.66699 2.5 -15.334 7.5 -20.001
s11.5 -6.33398 19.5 -5.00098s16.5 6.16602 25.5 14.499s17.167 21.166 24.5 38.499c6.66699 6 12.667 6.66699 18 2s6.33301 -10.667 3 -18c-15.333 -58.667 -41.666 -106.834 -78.999 -144.501s-82.833 -67.667 -136.5 -90s-113.667 -38.333 -180 -48
s-136.333 -15.334 -210 -17.001s-149.5 -0.833984 -227.5 2.49902l-231.5 10c-76.333 3.33301 -150.333 5.5 -222 6.5s-138 -2 -199 -9s-115.333 -19.167 -163 -36.5s-85.5 -42.333 -113.5 -75z" />
    <glyph glyph-name="v.001" unicode="&#xe015;" horiz-adv-x="310" 
d="M-1551 -299c24 50 57.4941 89.6689 100.494 119.002s92.833 51 149.5 65s118.5 22.167 185.5 24.5s136.833 1.5 209.5 -2.5s146.5 -9.5 221.5 -16.5s148.667 -12.833 221 -17.5s141.666 -6.66699 207.999 -6s127.333 7.16699 183 19.5s104.334 31.833 146.001 58.5
s73.834 63.334 96.501 110.001c-19.333 -17.333 -39.166 -30.833 -59.499 -40.5s-41.166 -14.5 -62.499 -14.5c-25.333 0 -41.5 11.167 -48.5 33.5s-6.83301 49.5 0.5 81.5c6 24 13.167 49.333 21.5 76s15.5 51.5 21.5 74.5s9.5 43 10.5 60s-3.5 28.167 -13.5 33.5
c12 12 24.167 21.667 36.5 29s23.5 11.833 33.5 13.5s18.167 0 24.5 -5s9.83301 -14.167 10.5 -27.5c0.666992 -19.333 -1.5 -39.5 -6.5 -60.5s-11.333 -42.333 -19 -64l-23.5 -64.5c-8 -21.333 -14 -41.666 -18 -60.999c-4 -18 -6.33301 -32.167 -7 -42.5
s-0.333984 -15.5 0.999023 -15.5c9.33301 0.666992 21.333 9.16699 36 25.5s30.334 36.833 47.001 61.5s33.334 51.167 50.001 79.5l45.5 79c13.667 24.333 24.5 44.5 32.5 60.5s11.667 23.667 11 23c2.66699 4 8.5 7 17.5 9s18.333 3 28 3s18.334 -1 26.001 -3
s11.167 -5 10.5 -9l-21.5 -48c-9.66699 -22 -21.5 -46.833 -35.5 -74.5s-30 -56.334 -48 -86.001s-37.667 -57.167 -59 -82.5h1c-15.333 -58.667 -41.666 -106.834 -78.999 -144.501s-82.833 -67.667 -136.5 -90s-113.667 -38.333 -180 -48s-136.333 -15.334 -210 -17.001
s-149.5 -0.833984 -227.5 2.49902l-231.5 10c-76.333 3.33301 -150.333 5.5 -222 6.5s-138 -2 -199 -9s-115.333 -19.167 -163 -36.5s-85.5 -42.333 -113.5 -75z" />
    <glyph glyph-name="w.001" unicode="&#xe016;" horiz-adv-x="464" 
d="M-1397 -299c24 50 57.3271 89.499 99.9941 118.499s91.834 50.667 147.501 65s116.834 22.666 183.501 24.999s136 1.66602 208 -2.00098s145.333 -9.16699 220 -16.5s147.834 -13.333 219.501 -18s140.834 -6.83398 207.501 -6.50098s127.834 6.33301 183.501 18
s104.667 30.167 147 55.5s75.5 60.333 99.5 105c-15.333 -14 -30.833 -25 -46.5 -33s-31.167 -12 -46.5 -12c-13.333 0 -23.666 3.83301 -30.999 11.5s-12.5 17.334 -15.5 29.001s-4.16699 24.334 -3.5 38.001s2.33398 26.167 5.00098 37.5s6.33398 23.333 11.001 36
l13.5 37l12 34.5c3.66699 11 6.5 20.833 8.5 29.5c-8.66699 -22 -19.667 -47.333 -33 -76s-28.333 -55.667 -45 -81s-34.5 -47 -53.5 -65s-38.167 -27.667 -57.5 -29c-13.333 -0.666992 -23.333 1.83301 -30 7.5s-11.167 13.5 -13.5 23.5s-2.66602 22.167 -0.999023 36.5
s4.16699 29.5 7.5 45.5c4.66699 22.667 10.667 46.834 18 72.501s13.166 49.834 17.499 72.501s6 43 5 61s-6.83301 31 -17.5 39c25.333 22 45.833 35.333 61.5 40s27.5 3.16699 35.5 -4.5s13 -19.667 15 -36s1.83301 -34.666 -0.5 -54.999s-6.33301 -41.166 -12 -62.499
s-11.834 -40.333 -18.501 -57c-7.33301 -18 -12.5 -32.167 -15.5 -42.5s-4.83301 -18.5 -5.5 -24.5s-0.5 -10 0.5 -12s1.83301 -3.33301 2.5 -4c3.33301 -2.66699 9.5 0.333008 18.5 9s19.167 20.834 30.5 36.501s23 34 35 55s23 42.833 33 65.5s17.833 45 23.5 67
s7.5 42 5.5 60c19.333 3.33301 34.666 -0.333984 45.999 -11.001s18.333 -26.667 21 -48c2 -15.333 1.83301 -32.333 -0.5 -51s-5.5 -37.5 -9.5 -56.5s-8.33301 -37.5 -13 -55.5l-12 -48c-4 -16 -4 -25.167 0 -27.5s10.833 0.666992 20.5 9s21 21.5 34 39.5
s26.667 39.5 41 64.5s28.333 52.833 42 83.5s25.5 63 35.5 97c4 4.66699 10.167 7.83398 18.5 9.50098s16.5 2.16699 24.5 1.5s15 -2 21 -4s8.66699 -4.33301 8 -7c-6 -20 -13.667 -42.333 -23 -67s-20 -50 -32 -76s-25.333 -51.833 -40 -77.5s-30.334 -49.5 -47.001 -71.5
c-15.333 -58.667 -41.666 -106.834 -78.999 -144.501s-82.833 -67.667 -136.5 -90s-113.667 -38.333 -180 -48s-136.333 -15.334 -210 -17.001s-149.5 -0.833984 -227.5 2.49902l-231.5 10c-76.333 3.33301 -150.333 5.5 -222 6.5s-138 -2 -199 -9
s-115.333 -19.167 -163 -36.5s-85.5 -42.333 -113.5 -75z" />
    <glyph glyph-name="x.001" unicode="&#xe017;" horiz-adv-x="339" 
d="M319 67c-19.333 -53.333 -48.8262 -97.1689 -88.4932 -131.502s-86.834 -61.333 -141.501 -81s-115.334 -33.5 -182.001 -41.5s-136.334 -12.5 -209.001 -13.5s-147.334 0.166992 -224.001 3.5l-227 10c-74.667 3.33301 -146.834 5.33301 -216.501 6
s-134.334 -2.66602 -194.001 -9.99902s-112.667 -19.666 -159 -36.999s-83.166 -42 -110.499 -74l-2 3c23.333 48 55.166 86.333 95.499 115s87.166 50.5 140.499 65.5s111.833 24 175.5 27s130 3 199 0s139.5 -7.83301 211.5 -14.5s143 -12.667 213 -18s138 -8.5 204 -9.5
s127.5 2.5 184.5 10.5s108.167 21.833 153.5 41.5s82.666 47.834 111.999 84.501c-12 -3.33301 -24 -3.33301 -36 0s-23 10 -33 20s-18.5 23.667 -25.5 41s-11.5 38.666 -13.5 63.999l-146 -128h-50l190 171c-3.33301 50 -8.16602 87.833 -14.499 113.5
s-13.5 43.834 -21.5 54.501s-16.667 16.334 -26 17.001l-28 2c14.667 14.667 30.5 26 47.5 34s35.5 11.333 55.5 10c15.333 -1.33301 27.166 -5.83301 35.499 -13.5s14.5 -18.5 18.5 -32.5s7 -31 9 -51s4 -42.333 6 -67c10 10 21.5 22.5 34.5 37.5s25.333 30.5 37 46.5
s21.834 31.167 30.501 45.5s14 25.833 16 34.5h41c-2.66699 -12.667 -9 -27.834 -19 -45.501s-22.167 -36 -36.5 -55s-30 -38 -47 -57s-33.833 -36.5 -50.5 -52.5c4.66699 -56 14.5 -93.5 29.5 -112.5s36.167 -21.5 63.5 -7.5c-1.33301 -2.66699 -2 -4.33398 -2 -5.00098z
" />
    <glyph glyph-name="y.001" unicode="&#xe018;" 
d="M-1405 -299c24.667 52 57.8418 89.8359 99.5088 113.503s89.167 38 142.5 43s111.166 2.66699 173.499 -7s126.833 -21.834 193.5 -36.501l203.5 -45.5c69 -15.667 136.5 -27 202.5 -34s129.333 -7.5 190 -1.5s116.167 23 166.5 51s94.5 69.667 132.5 125
s67.333 128.333 88 219l3 14c-8 -12 -18.833 -25.167 -32.5 -39.5s-27.834 -28 -42.501 -41s-29.334 -23.833 -44.001 -32.5s-27 -13 -37 -13c-12 0 -21.167 2.5 -27.5 7.5s-10.5 11.833 -12.5 20.5s-2.33301 19.167 -1 31.5s3.66602 25.5 6.99902 39.5
c5.33301 22.667 12.333 47 21 73s16 51.167 22 75.5s9.33301 46.666 10 66.999s-4 36.166 -14 47.499c12 7.33301 24.333 13.333 37 18s24.167 7 34.5 7s18.833 -2.83301 25.5 -8.5s10 -15.5 10 -29.5c0 -15.333 -2.33301 -33.5 -7 -54.5s-10.167 -42.333 -16.5 -64
s-13.166 -42.667 -20.499 -63s-13.666 -36.833 -18.999 -49.5c-7.33301 -18.667 -8.33301 -29 -3 -31s14.166 2.33301 26.499 13s26.666 26.167 42.999 46.5s31.5 43.166 45.5 68.499c8.66699 16.667 15.667 30.834 21 42.501s9.66602 21.5 12.999 29.5
s5.83301 14.833 7.5 20.5s3.16699 11.167 4.5 16.5c0.666992 2.66699 3.16699 6.16699 7.5 10.5s9.66602 8.5 15.999 12.5s13.166 7.33301 20.499 10s14.333 4 21 4c7.33301 0 13.5 -2.66699 18.5 -8s6.83301 -12.333 5.5 -21c-8.66699 -42.667 -18 -83.167 -28 -121.5
s-19 -75.5 -27 -111.5c-22 -96.667 -53 -175.834 -93 -237.501s-86.5 -110 -139.5 -145s-111.167 -58.667 -174.5 -71s-129.5 -17.5 -198.5 -15.5s-139.5 9.33301 -211.5 22s-143 26.334 -213 41.001l-203.5 41.5c-65.667 13 -126.834 21.167 -183.501 24.5
s-107.334 -0.5 -152.001 -11.5s-81 -32.833 -109 -65.5z" />
    <glyph glyph-name="z.001" unicode="&#xe019;" horiz-adv-x="300" 
d="M81 325c-2 18.667 1.16309 33.1631 9.49609 43.4961s18.666 17.833 30.999 22.5s25 7.5 38 8.5s23.167 1.5 30.5 1.5h132l-193 -340c18 0 35.333 -0.166992 52 -0.5s31.834 -0.166016 45.501 0.500977s25.167 2 34.5 4s16 5 20 9
c-1.33301 -9.33301 -3.66602 -19.666 -6.99902 -30.999s-9.66602 -21 -18.999 -29c-26 -44.667 -60.667 -81 -104 -109s-93 -49.833 -149 -65.5s-117.167 -26.334 -183.5 -32.001s-135.166 -8.5 -206.499 -8.5s-143.833 1.83301 -217.5 5.5s-146.334 7 -218.001 10
s-140.667 4.33301 -207 4s-127.833 -4.16602 -184.5 -11.499s-107 -19.5 -151 -36.5s-79.333 -41.167 -106 -72.5l-2 3c22.667 48 54.334 86.333 95.001 115s87.5 50.334 140.5 65.001s111 23.667 174 27s128.833 3.66602 197.5 0.999023s138.834 -7.33398 210.501 -14.001
s142.5 -12.667 212.5 -18s138 -8.66602 204 -9.99902s127.5 1.83398 184.5 9.50098s108.333 21.167 154 40.5s83.5 47 113.5 83h-4h-199l62 115l131 242c-2.66699 0 -8 0.5 -16 1.5s-16.333 0.833008 -25 -0.5s-16.167 -4.5 -22.5 -9.5s-9.16602 -12.833 -8.49902 -23.5
c-1.33301 -4.66699 -4.33301 -8.5 -9 -11.5s-9.83398 -4.66699 -15.501 -5s-11 0.833984 -16 3.50098s-7.83301 7 -8.5 13z" />
    <glyph glyph-name="a.002" unicode="&#xe01a;" horiz-adv-x="327" 
d="M-586 -299c30 62.667 63.4951 109.167 100.495 139.5s76 50.666 117 60.999s83.167 13.166 126.5 8.49902s86.5 -11.167 129.5 -19.5s85.167 -15.333 126.5 -21s80.166 -4.66699 116.499 3s69.5 25 99.5 52s55.667 69.167 77 126.5
c-5.33301 -6 -11.166 -11.667 -17.499 -17l-17.5 -15c-10 -8 -20.667 -13.5 -32 -16.5s-22 -3.33301 -32 -1s-18.833 7.33301 -26.5 15s-12.834 18.167 -15.501 31.5c-2 11.333 -2.16699 22.833 -0.5 34.5s3.83398 21.5 6.50098 29.5c-32 -37.333 -58 -63.666 -78 -78.999
s-39 -21.666 -57 -18.999c-16 2 -27 12.333 -33 31s-7.33301 42 -4 70c2.66699 24.667 8.66699 51.167 18 79.5s21.666 55.5 36.999 81.5s33.5 49.5 54.5 70.5s44.167 36.167 69.5 45.5c12.667 4.66699 27.5 7.5 44.5 8.5s32.5 -0.666992 46.5 -5s24.5 -11.5 31.5 -21.5
s7.16699 -23.333 0.5 -40c-3.33301 -7.33301 -8.5 -13.5 -15.5 -18.5s-14.167 -8.5 -21.5 -10.5s-13.666 -3 -18.999 -3s-7.66602 1.33301 -6.99902 4c1.33301 4.66699 3.16602 10.5 5.49902 17.5s3.5 13.667 3.5 20s-1.5 11.666 -4.5 15.999s-8.83301 6.5 -17.5 6.5
c-10.667 0 -22.667 -7.5 -36 -22.5s-26.666 -34 -39.999 -57s-25.666 -47.667 -36.999 -74s-20.666 -51 -27.999 -74s-11.833 -42 -13.5 -57s1.16602 -22.5 8.49902 -22.5c4.66699 0 12.667 5.66699 24 17s24.333 26.5 39 45.5s29.667 41.167 45 66.5
s29.333 51.666 42 78.999c1.33301 2.66699 4.66602 5.83398 9.99902 9.50098s11.5 7 18.5 10s14.333 5.66699 22 8s14.834 3.5 21.501 3.5c7.33301 0 13.333 -1.66699 18 -5s5.33398 -9.33301 2.00098 -18c-7.33301 -20 -16.666 -42.833 -27.999 -68.5l-31 -73
c-9.33301 -23 -16.166 -42.667 -20.499 -59s-2.5 -25.833 5.5 -28.5c7.33301 -2.66699 18.166 2 32.499 14s29.833 30.333 46.5 55c6.66699 6 12.667 6.66699 18 2s6.33301 -10.667 3 -18c-19.333 -73.333 -43.666 -130.666 -72.999 -171.999s-62.166 -71.833 -98.499 -91.5
s-75.333 -31 -117 -34s-84.834 -2.83301 -129.501 0.5s-90 7.5 -136 12.5s-91.167 5.66699 -135.5 2s-87 -14.167 -128 -31.5s-79.167 -46.333 -114.5 -87z" />
    <glyph glyph-name="b.002" unicode="&#xe01b;" 
d="M-579 -299c24 50 50.498 89.6641 79.498 118.997s59.333 51.166 91 65.499s64.667 22.5 99 24.5s69 1 104 -3s70 -9.66699 105 -17s69.167 -13.333 102.5 -18s65.5 -6.33398 96.5 -5.00098s60.167 8.5 87.5 21.5s52.166 33.333 74.499 61s41.833 65.834 58.5 114.501
c-12.667 -9.33301 -27.334 -18.333 -44.001 -27s-33.5 -15.834 -50.5 -21.501s-33.5 -9.33398 -49.5 -11.001s-30 -0.166992 -42 4.5c-6 -3.33301 -12 -5.33301 -18 -6c-15.333 -3.33301 -31 -3.33301 -47 0s-30 7.5 -42 12.5s-20.667 9.5 -26 13.5s-5 5 1 3
c17.333 -4.66699 33.833 -4.16699 49.5 1.5s31.167 15.167 46.5 28.5v1c16.667 14.667 32.5 33 47.5 55s28.667 44.833 41 68.5s22.833 46.5 31.5 68.5s15.667 41 21 57c6 18 8.33301 29.833 7 35.5s-4.83301 7.33398 -10.5 5.00098s-12.667 -7.5 -21 -15.5
s-16.666 -16.667 -24.999 -26s-15.666 -18.166 -21.999 -26.499s-10.5 -14.166 -12.5 -17.499c-14.667 -24.667 -27.667 -50.667 -39 -78s-22.666 -52.333 -33.999 -75s-23.333 -41.334 -36 -56.001s-27.334 -22 -44.001 -22c-12.667 0 -17.667 8.66699 -15 26l14 53
l39 135.5c14.667 49.667 31.334 100.5 50.001 152.5l89 263c32 -7.33301 50.333 -27.166 55 -59.499s-1 -71.166 -17 -116.499l-15 -41l-15 -40.5l-18.5 -48.5l-25.5 -65c22 30 44.833 55.333 68.5 76s48.167 31 73.5 31c19.333 0 32.833 -6.33301 40.5 -19
s10.834 -29.334 9.50098 -50.001s-6.5 -44.167 -15.5 -70.5s-20.333 -52.666 -34 -78.999s-29.334 -51.666 -47.001 -75.999s-35.5 -45.166 -53.5 -62.499c4.66699 -0.666992 12.834 -0.333984 24.501 0.999023s24.5 4.5 38.5 9.5s28.667 12.333 44 22
s29.666 22.167 42.999 37.5c6.66699 6 12.667 6.66699 18 2s6.33301 -10.667 3 -18c-19.333 -73.333 -43.666 -130.666 -72.999 -171.999s-62.166 -71.833 -98.499 -91.5s-75.333 -31 -117 -34s-84.834 -2.83301 -129.501 0.5s-90 7.5 -136 12.5s-91.167 5.66699 -135.5 2
s-87 -14.167 -128 -31.5s-79.167 -46.333 -114.5 -87z" />
    <glyph glyph-name="c.002" unicode="&#xe01c;" horiz-adv-x="250" 
d="M-663 -299c24 50 50.1689 89.4971 78.502 118.497s58.166 50.667 89.499 65s63.833 22.666 97.5 24.999s67.834 1.66602 102.501 -2.00098s69.167 -9.16699 103.5 -16.5s68 -13.333 101 -18s65 -6.83398 96 -6.50098s60.167 6.33301 87.5 18s52.5 30.167 75.5 55.5
s42.833 60.333 59.5 105c-21.333 -18.667 -44.333 -31.5 -69 -38.5s-48 -7.83301 -70 -2.5s-41.333 17.166 -58 35.499s-27 43.5 -31 75.5c-4 28.667 -1.83301 59.834 6.5 93.501s21.166 64.834 38.499 93.501s39 52.834 65 72.501s54.667 29.834 86 30.501
c22.667 0 39.334 -3.83301 50.001 -11.5s17.167 -17.167 19.5 -28.5s1.5 -23.5 -2.5 -36.5s-9.66699 -25.167 -17 -36.5s-15.333 -20.833 -24 -28.5s-16.334 -11.5 -23.001 -11.5c-9.33301 0 -17.5 3.66699 -24.5 11s-9.83301 16.333 -8.5 27c8.66699 2 17 7.33301 25 16
s14 17.5 18 26.5s5.16699 16.833 3.5 23.5s-7.16699 9.33398 -16.5 8.00098c-20 -7.33301 -38.167 -22.5 -54.5 -45.5s-29.333 -48.833 -39 -77.5s-15.834 -57.667 -18.501 -87s-0.666992 -53.333 6 -72s17 -31.167 31 -37.5s29.167 -7.66602 45.5 -3.99902
s32.166 12 47.499 25s27.333 29.5 36 49.5c6.66699 6 12.667 6.66699 18 2s6.33301 -10.667 3 -18c-19.333 -73.333 -43.666 -130.666 -72.999 -171.999s-62.166 -71.833 -98.499 -91.5s-75.333 -31 -117 -34s-84.834 -2.83301 -129.501 0.5s-90 7.5 -136 12.5
s-91.167 5.66699 -135.5 2s-87 -14.167 -128 -31.5s-79.167 -46.333 -114.5 -87z" />
    <glyph glyph-name="d.002" unicode="&#xe01d;" horiz-adv-x="336" 
d="M-577 -299c30 62 63.499 108.333 100.499 139s76 51 117 61s83.167 12.833 126.5 8.5s86.5 -10.666 129.5 -18.999s85.167 -15.333 126.5 -21s80.166 -4.66699 116.499 3s69.5 24.834 99.5 51.501s55.667 68.667 77 126c-14 -13.333 -28 -24.333 -42 -33s-26 -13 -36 -13
c-19.333 0 -34.333 6.33301 -45 19s-16 35 -16 67c-21.333 -31.333 -43.166 -52.833 -65.499 -64.5s-41.833 -16.5 -58.5 -14.5c-19.333 2 -33.333 12.667 -42 32s-12.334 43.333 -11.001 72c0.666992 22 4 45.5 10 70.5s14.167 49.167 24.5 72.5s22.833 45.166 37.5 65.499
s31.334 37.166 50.001 50.499s39.167 22 61.5 26s45.833 1.66699 70.5 -7l1 1l79 267c8 -5.33301 16 -11.166 24 -17.499s14.333 -15 19 -26s7 -24.833 7 -41.5s-3.66699 -38 -11 -64l-51 -180l-33 -114.5c-8.66699 -29 -15.334 -50.667 -20.001 -65l-9.5 -29.5
c-1.66699 -5.33301 -2.66699 -8 -3 -8s-0.5 -0.333008 -0.5 -1c-3.33301 -14 -5.16602 -26 -5.49902 -36s1.5 -16.833 5.5 -20.5s10.333 -3.33398 19 0.999023s20.667 14.166 36 29.499c6 6 11.167 11.5 15.5 16.5s7.5 8.5 9.5 10.5c6.66699 6 12.667 6.66699 18 2
s6.33301 -10.667 3 -18c-19.333 -73.333 -43.666 -130.666 -72.999 -171.999s-62.166 -71.833 -98.499 -91.5s-75.333 -31 -117 -34s-84.834 -2.83301 -129.501 0.5s-90 7.5 -136 12.5s-91.167 5.66699 -135.5 2s-87 -14.167 -128 -31.5s-79.167 -46.333 -114.5 -87z
M234.999 355c-18.667 0 -36.6699 -7.66895 -54.0029 -23.002s-33.333 -34.666 -48 -57.999s-27.167 -48.333 -37.5 -75s-17.666 -51.167 -21.999 -73.5s-4.83301 -40.666 -1.5 -54.999s11 -20.5 23 -18.5c20.667 3.33301 39 17.333 55 42s31.667 54 47 88l21.5 81.5
l24.5 90.5c-1.33301 0 -2.66602 0.166992 -3.99902 0.5s-2.66602 0.5 -3.99902 0.5z" />
    <glyph glyph-name="e.002" unicode="&#xe01e;" horiz-adv-x="271" 
d="M-642 -299c30 62.667 63.5068 109.167 100.507 139.5s76.167 50.666 117.5 60.999s83.666 13 126.999 8s86.666 -11.5 129.999 -19.5s85.666 -14.833 126.999 -20.5s80.166 -4.5 116.499 3.5s69.666 25.833 99.999 53.5s55.833 70.834 76.5 129.501
c-25.333 -23.333 -52 -39.166 -80 -47.499s-54.167 -9.83301 -78.5 -4.5s-45.166 17.333 -62.499 36s-28 43.667 -32 75c-4 30.667 -0.166992 63.667 11.5 99s28.5 67.666 50.5 96.999s48.167 52.833 78.5 70.5s62.166 24.5 95.499 20.5
c18.667 -3.33301 30.5 -12.5 35.5 -27.5s5.33301 -32.333 1 -52s-12.833 -39.5 -25.5 -59.5s-27.334 -36 -44.001 -48c-22.667 -16 -43.667 -26.5 -63 -31.5s-36 -7.16699 -50 -6.5c-7.33301 -28.667 -9.33301 -54 -6 -76c3.33301 -25.333 12.666 -42.666 27.999 -51.999
s32.666 -12.5 51.999 -9.5s38.833 11.167 58.5 24.5s35.834 30.333 48.501 51c7.33301 4.66699 12.833 4.16699 16.5 -1.5s3.5 -11.834 -0.5 -18.501c-19.333 -73.333 -43.5 -130.5 -72.5 -171.5s-61.5 -71.333 -97.5 -91s-74.833 -30.834 -116.5 -33.501
s-84.667 -2.16699 -129 1.5s-89.333 8 -135 13s-90.5 5.83301 -134.5 2.5s-86.5 -13.666 -127.5 -30.999s-79.167 -46.333 -114.5 -87zM202.007 356c-21.333 -12.667 -40.6689 -31.8359 -58.002 -57.5029s-31.333 -53.5 -42 -83.5
c17.333 -1.33301 33.833 2.33398 49.5 11.001s29.5 19.334 41.5 32.001s21.833 26.167 29.5 40.5s12.334 26.833 14.001 37.5s-0.166016 18.334 -5.49902 23.001s-15 3.66699 -29 -3z" />
    <glyph glyph-name="f.002" unicode="&#xe01f;" horiz-adv-x="220" 
d="M-858 -299c25.333 52.667 53.1719 93.8271 83.5049 123.494s62.333 51.334 96 65.001s68.667 20.834 105 21.501s72.833 -1.66602 109.5 -6.99902s73.167 -11.666 109.5 -18.999s71.666 -12.666 105.999 -15.999s67.333 -2.66602 99 2.00098s60.834 16.667 87.501 36
l62 208l27.5 95l26.5 97c6.66699 24 14.667 42.5 24 55.5s19.333 22.5 30 28.5s21.334 9.5 32.001 10.5s20.667 1.5 30 1.5c14.667 0 26 -3.5 34 -10.5s13.5 -15.833 16.5 -26.5s4.33301 -21.834 4 -33.501s-1.83301 -22.167 -4.5 -31.5l-23 1
c1.33301 13.333 1.5 25.666 0.5 36.999s-6.16699 17 -15.5 17c-2.66699 0 -5.83398 -0.333008 -9.50098 -1s-7.5 -2.83398 -11.5 -6.50098s-8.33301 -9.16699 -13 -16.5s-9 -17.666 -13 -30.999c-5.33301 -16.667 -11.5 -37.167 -18.5 -61.5l-21.5 -78.5h60v-40h-71
c-8 -29.333 -16.5 -58.5 -25.5 -87.5l-25.5 -80.5l-21.5 -64.5l-13.5 -39.5c-5.33301 -14 -9.83301 -26.333 -13.5 -37s-7.5 -20 -11.5 -28c-10 -19.333 -21 -31.333 -33 -36s-29.667 -5 -53 -1l31 96c-27.333 -16.667 -56.333 -28.167 -87 -34.5s-62.5 -9.5 -95.5 -9.5
s-66.833 1.83301 -101.5 5.5s-69.334 7 -104.001 10s-69.334 4.5 -104.001 4.5s-68.334 -3.66699 -101.001 -11s-64.334 -19.666 -95.001 -36.999s-59.334 -41.666 -86.001 -72.999z" />
    <glyph glyph-name="g.002" unicode="&#xe020;" horiz-adv-x="326" 
d="M172 113c-32 -37.333 -58.001 -63.668 -78.001 -79.001s-39 -21.666 -57 -18.999c-16 2 -27 12.333 -33 31s-7.33301 42 -4 70c2.66699 24.667 8.66699 51.167 18 79.5s21.666 55.5 36.999 81.5s33.5 49.5 54.5 70.5s44.167 36.167 69.5 45.5
c12.667 4.66699 27.5 7.5 44.5 8.5s32.5 -0.666992 46.5 -5s24.5 -11.5 31.5 -21.5s7.16699 -23.333 0.5 -40c-3.33301 -7.33301 -8.5 -13.5 -15.5 -18.5s-14.167 -8.5 -21.5 -10.5s-13.666 -3 -18.999 -3s-7.66602 1.33301 -6.99902 4
c1.33301 4.66699 3.16602 10.5 5.49902 17.5s3.5 13.667 3.5 20s-1.5 11.666 -4.5 15.999s-8.83301 6.5 -17.5 6.5c-10.667 0 -22.667 -7.5 -36 -22.5s-26.666 -34 -39.999 -57s-25.666 -47.667 -36.999 -74s-20.666 -51 -27.999 -74s-11.833 -42 -13.5 -57
s1.16602 -22.5 8.49902 -22.5c4.66699 0 12.667 5.66699 24 17s24.333 26.5 39 45.5s29.667 41.167 45 66.5s29.333 51.666 42 78.999c1.33301 2.66699 4.66602 5.83398 9.99902 9.50098s11.5 7 18.5 10s14.333 5.66699 22 8s14.834 3.5 21.501 3.5
c7.33301 0 12.666 -1.66699 15.999 -5s3.33301 -9.33301 0 -18c-0.666992 -1.33301 -2.33398 -6.5 -5.00098 -15.5l-10 -35.5l-14 -50c-5.33301 -18.667 -10.666 -38.334 -15.999 -59.001c-10 -40 -19.667 -73.667 -29 -101s-18.5 -50.5 -27.5 -69.5
s-17.833 -34.667 -26.5 -47s-17.667 -23.5 -27 -33.5c-19.333 -20 -41.333 -35.667 -66 -47s-50 -17.5 -76 -18.5s-51.667 3.33301 -77 13s-48.333 25.5 -69 47.5c-12.667 13.333 -20 26 -22 38s-1 22.833 3 32.5s9.5 17.334 16.5 23.001s12.833 9.16699 17.5 10.5
c22 -30.667 47.167 -51.834 75.5 -63.501s56 -12.167 83 -1.5s51.833 33.334 74.5 68.001s39 83.334 49 146.001z" />
    <glyph glyph-name="h.002" unicode="&#xe021;" horiz-adv-x="317" 
d="M-596 -299c30 62 63.4961 108.33 100.496 138.997s75.833 51.167 116.5 61.5s82.667 13.166 126 8.49902s86.5 -11 129.5 -19s85 -15 126 -21s79.833 -5.33301 116.5 2s70 24.333 100 51s55.667 68.334 77 125.001c-14 -14 -28.333 -25.333 -43 -34
c-12 -7.33301 -24.167 -11.5 -36.5 -12.5s-23.666 0.5 -33.999 4.5s-19.166 10.667 -26.499 20s-11.666 21 -12.999 35c-2 15.333 -1 32 3 50s9.16699 36.167 15.5 54.5s13.333 36 21 53s14.167 32.167 19.5 45.5c11.333 27.333 16.333 44.166 15 50.499s-6 6.5 -14 0.5
s-17.5 -15.5 -28.5 -28.5s-20.5 -25.167 -28.5 -36.5c-14 -19.333 -26 -40.166 -36 -62.499s-19 -44.5 -27 -66.5s-15 -43.5 -21 -64.5s-11.667 -39.833 -17 -56.5h-83c7.33301 19.333 14 38.5 20 57.5l18 57.5c22 71.333 42.667 141.833 62 211.5
s41.666 139.834 66.999 210.501l39 123c2 -0.666992 7.33301 -3.66699 16 -9s17 -13.333 25 -24s14 -23.5 18 -38.5s3 -32.167 -3 -51.5c-9.33301 -23.333 -17.666 -45.166 -24.999 -65.499l-21.5 -60.5l-20.5 -60.5l-21 -65.5c12 16 24.167 31 36.5 45
s24.666 26.5 36.999 37.5s24.333 19.667 36 26s22.834 9.5 33.501 9.5c17.333 0 28.333 -5.83301 33 -17.5s5.33398 -26.667 2.00098 -45s-9.5 -39.333 -18.5 -63l-28 -71.5c-9.66699 -24 -18.5 -47.333 -26.5 -70s-12.667 -42 -14 -58c-1.33301 -18 2 -27 10 -27
s17.333 4.16699 28 12.5s21.167 18 31.5 29s17.166 18.5 20.499 22.5c6.66699 6 12.667 6.66699 18 2s6.33301 -10.667 3 -18c-19.333 -73.333 -43.666 -130.666 -72.999 -171.999s-62.166 -71.833 -98.499 -91.5s-75.333 -31 -117 -34s-84.834 -2.83301 -129.501 0.5
s-90 7.5 -136 12.5s-91.167 5.66699 -135.5 2s-87 -14.167 -128 -31.5s-79.167 -46.333 -114.5 -87z" />
    <glyph glyph-name="i.002" unicode="&#xe022;" horiz-adv-x="169" 
d="M-744 -299c29.333 61.333 62.3301 107.334 98.9971 138.001s75.167 51.167 115.5 61.5s81.833 13.5 124.5 9.5s85.334 -10 128.001 -18s84.334 -15.167 125.001 -21.5s79.167 -6.33301 115.5 0s69.833 21.666 100.5 45.999s56.667 63.166 78 116.499
c-10 -9.33301 -21.667 -17 -35 -23s-28.666 -9 -45.999 -9s-30.666 3.66699 -39.999 11s-16.166 16.666 -20.499 27.999s-6.33301 23.666 -6 36.999s2.16602 26 5.49902 38c10 40 21.167 78.667 33.5 116l39.5 114c3.33301 9.33301 11.666 17 24.999 23s26 9 38 9
c9.33301 0 17.333 -2 24 -6s8.33398 -10 5.00098 -18c-17.333 -44 -32.5 -87 -45.5 -129l-37.5 -123c-5.33301 -16 -8.5 -29.5 -9.5 -40.5s1.5 -17.833 7.5 -20.5c3.33301 -1.33301 7.66602 -1.66602 12.999 -0.999023s11.833 3.5 19.5 8.5s16.167 12.833 25.5 23.5
s19.666 25.334 30.999 44.001c6.66699 6 12.667 6.66699 18 2s6.33301 -10.667 3 -18c-19.333 -73.333 -43.666 -130.666 -72.999 -171.999s-62.166 -71.833 -98.499 -91.5s-75.333 -31 -117 -34s-84.834 -2.83301 -129.501 0.5s-90 7.5 -136 12.5s-91.167 5.66699 -135.5 2
s-87 -14.167 -128 -31.5s-79.167 -46.333 -114.5 -87zM152.997 489.001c14.667 0 25.502 -5.16699 32.502 -15.5s9.16699 -21.5 6.5 -33.5c-2.66699 -13.333 -10 -24.833 -22 -34.5s-24.333 -14.5 -37 -14.5s-23.167 4.5 -31.5 13.5s-10.833 20.833 -7.5 35.5
c3.33301 13.333 10.666 24.833 21.999 34.5s23.666 14.5 36.999 14.5z" />
    <glyph glyph-name="j.002" unicode="&#xe023;" horiz-adv-x="133" 
d="M-23 -135c-19.333 -20 -41.3291 -35.6689 -65.9961 -47.002s-50 -17.5 -76 -18.5s-51.667 3.33301 -77 13s-48.333 25.5 -69 47.5c-12.667 13.333 -20 26 -22 38s-1 22.833 3 32.5s9.5 17.334 16.5 23.001s12.833 9.16699 17.5 10.5c24 -34 50 -56 78 -66
s55.333 -8.5 82 4.5s52 37.333 76 73s44 82.167 60 139.5c11.333 40 21 78.167 29 114.5s16.333 71.833 25 106.5c2 8.66699 8.16699 15.667 18.5 21s21.166 8.83301 32.499 10.5s21.166 1.33398 29.499 -0.999023s11.833 -6.83301 10.5 -13.5l-16 -74
c-6 -28 -12.833 -57.5 -20.5 -88.5s-16.167 -62.5 -25.5 -94.5s-19.333 -62.667 -30 -92s-22.334 -56 -35.001 -80s-26.334 -43.667 -41.001 -59zM116.004 488.998c14.667 0 25.502 -5.16699 32.502 -15.5s9.16699 -21.5 6.5 -33.5c-2.66699 -13.333 -10 -24.833 -22 -34.5
s-24.333 -14.5 -37 -14.5s-23.167 4.5 -31.5 13.5s-10.833 20.833 -7.5 35.5c3.33301 13.333 10.666 24.833 21.999 34.5s23.666 14.5 36.999 14.5z" />
    <glyph glyph-name="k.002" unicode="&#xe024;" horiz-adv-x="321" 
d="M-592 -299c30 62 63.501 108.334 100.501 139.001s75.833 51.167 116.5 61.5s82.667 13.166 126 8.49902s86.5 -11 129.5 -19s85 -15 126 -21s79.833 -5.33301 116.5 2s70 24.333 100 51s55.667 68.334 77 125.001c-14 -14 -28.333 -25.333 -43 -34
c-12 -7.33301 -23.833 -11.5 -35.5 -12.5s-22.334 0.5 -32.001 4.5s-17.667 10.667 -24 20s-10.166 21 -11.499 35c-1.33301 9.33301 -1.33301 21.666 0 36.999s3.16602 31.5 5.49902 48.5l7 50c2.33301 16.333 3.83301 30.166 4.5 41.499s0 19.333 -2 24s-6 3.66699 -12 -3
c-2 -2 -4.33301 -5 -7 -9c-12.667 -17.333 -24 -37 -34 -59s-19 -44.333 -27 -67s-15.333 -44.834 -22 -66.501l-18 -57.5h-83l34 115l64.5 212.5c21.667 71 44.5 140.833 68.5 209.5l39 123c2 -0.666992 7.33301 -3.66699 16 -9s17.167 -13.333 25.5 -24
s14.666 -23.5 18.999 -38.5s3.5 -32.167 -2.5 -51.5l-25.5 -65.5l-22 -60.5l-21 -60.5l-21.5 -65.5c7.33301 20 18.833 38.333 34.5 55s32.5 29.834 50.5 39.501s35.667 15.167 53 16.5s31 -3.66699 41 -15c8 -9.33301 12.333 -18.5 13 -27.5s-1.5 -16.833 -6.5 -23.5
s-11.667 -11.834 -20 -15.501s-17.5 -4.5 -27.5 -2.5c-19.333 4.66699 -36 5 -50 1s-26.667 -10.333 -38 -19c20 -1.33301 33.667 -10 41 -26s11.333 -35.333 12 -58s-0.833008 -46 -4.5 -70s-6.16699 -44.667 -7.5 -62c-1.33301 -18 1.83398 -27.5 9.50098 -28.5
s17 2.33301 28 10s21.667 17.334 32 29.001s17.166 20.5 20.499 26.5c6.66699 6 12.667 6.66699 18 2s6.33301 -10.667 3 -18c-19.333 -73.333 -43.666 -130.666 -72.999 -171.999s-62.166 -71.833 -98.499 -91.5s-75.333 -31 -117 -34s-84.834 -2.83301 -129.501 0.5
s-90 7.5 -136 12.5s-91.167 5.66699 -135.5 2s-87 -14.167 -128 -31.5s-79.167 -46.333 -114.5 -87z" />
    <glyph glyph-name="l.002" unicode="&#xe025;" horiz-adv-x="165" 
d="M-748 -299c30 62 63.5 108.331 100.5 138.998s75.833 51.167 116.5 61.5s82.667 13.166 126 8.49902s86.5 -11 129.5 -19s85.167 -15 126.5 -21s80.166 -5.33301 116.499 2s69.5 24.333 99.5 51s55.667 68.334 77 125.001c-9.33301 -10 -19.666 -19.667 -30.999 -29
c-16.667 -12.667 -33.667 -19 -51 -19c-25.333 0 -42.5 10.5 -51.5 31.5s-12.5 48.833 -10.5 83.5c3.33301 56.667 18.166 129.167 44.499 217.5l102.5 327.5c2 -0.666992 6.66699 -3.66699 14 -9s14.5 -13.166 21.5 -23.499s12.333 -23 16 -38
s2.83398 -32.5 -2.49902 -52.5c-8 -31.333 -17.667 -64.5 -29 -99.5l-34 -105l-31.5 -101.5c-9.66699 -32.667 -17.167 -62 -22.5 -88s-7.5 -47.667 -6.5 -65s6.5 -28 16.5 -32c7.33301 -3.33301 17.666 1.16699 30.999 13.5s28.333 30.833 45 55.5
c6.66699 6 12.667 6.66699 18 2s6.33301 -10.667 3 -18c-19.333 -73.333 -43.666 -130.666 -72.999 -171.999s-62.166 -71.833 -98.499 -91.5s-75.333 -31 -117 -34s-84.834 -2.83301 -129.501 0.5s-90 7.5 -136 12.5s-91.167 5.66699 -135.5 2s-87 -14.167 -128 -31.5
s-79.167 -46.333 -114.5 -87z" />
    <glyph glyph-name="m.002" unicode="&#xe026;" horiz-adv-x="482" 
d="M-431 -299c30 62 63.1602 108.334 99.4932 139.001s74.833 51.167 115.5 61.5s82.5 13.166 125.5 8.49902s86 -11 129 -19s85 -15 126 -21s79.667 -5.5 116 1.5s69.666 23.167 99.999 48.5s56.166 65.333 77.499 120c-9.33301 -10 -20 -18.667 -32 -26
s-24.167 -11.5 -36.5 -12.5s-23.666 0.5 -33.999 4.5s-19.166 10.667 -26.499 20s-11.666 21 -12.999 35c-2 15.333 -1.66699 32 1 50s6.5 36.167 11.5 54.5s10.667 36 17 53l17.5 45.5c6.66699 16 8.83398 25.667 6.50098 29s-7.5 1.66602 -15.5 -5.00098
s-18 -17.5 -30 -32.5s-24 -32.5 -36 -52.5s-23.333 -42 -34 -66s-19 -48.333 -25 -73c-1.33301 -6 -2.5 -13 -3.5 -21s-2.16699 -21.667 -3.5 -41c-19.333 -3.33301 -34.666 0.333984 -45.999 11.001s-18.333 26.667 -21 48c-2 15.333 -1.5 32.166 1.5 50.499
s6.83301 36.833 11.5 55.5s9.83398 36.667 15.501 54s10.167 33 13.5 47c3.33301 14.667 3.16602 22 -0.500977 22s-9.66699 -5 -18 -15s-18 -23.833 -29 -41.5s-22.167 -37 -33.5 -58s-21.833 -42.5 -31.5 -64.5s-16.834 -42 -21.501 -60
c-1.33301 -9.33301 -2.16602 -18.333 -2.49902 -27s0.166992 -16.667 1.5 -24c-19.333 1.33301 -34.166 5.33301 -44.499 12s-17.5 15.167 -21.5 25.5s-5.33301 22 -4 35s4 27.167 8 42.5c6 20.667 13.333 42.167 22 64.5s16.167 44 22.5 65s10.166 40.667 11.499 59
s-3 33.5 -13 45.5c12 12 24.167 21.667 36.5 29s23.5 11.833 33.5 13.5s18.167 0 24.5 -5s9.83301 -14.167 10.5 -27.5c0.666992 -10 -0.5 -22.167 -3.5 -36.5s-7 -30 -12 -47s-10.833 -34.833 -17.5 -53.5l-20 -56c8.66699 22 18.334 44.833 29.001 68.5
s21.834 46 33.501 67s23.334 39.5 35.001 55.5s23.167 27 34.5 33c10.667 6 20.667 8.33301 30 7s17 -5.83301 23 -13.5s9.66699 -18.5 11 -32.5s-0.333984 -30.667 -5.00098 -50c-3.33301 -12 -7.16602 -24.667 -11.499 -38s-9 -26.833 -14 -40.5
s-9.66699 -27.167 -14 -40.5s-7.5 -26 -9.5 -38c10 25.333 22.667 53 38 83s32.166 58 50.499 84s38 47.667 59 65s41.833 26 62.5 26c16.667 0 27.334 -5.66699 32.001 -17s5.5 -26.333 2.5 -45s-8.66699 -39.667 -17 -63l-26 -71c-9 -24 -17.333 -47.333 -25 -70
s-12.167 -42 -13.5 -58c-1.33301 -18 1.5 -27 8.5 -27s15.5 4.16699 25.5 12.5s19.667 18 29 29l19 22.5c6.66699 6 12.667 6.66699 18 2s6.33301 -10.667 3 -18c-19.333 -73.333 -43.666 -130.666 -72.999 -171.999s-62.166 -71.833 -98.499 -91.5s-75.333 -31 -117 -34
s-84.834 -2.83301 -129.501 0.5s-90 7.5 -136 12.5s-91.167 5.66699 -135.5 2s-87 -14.167 -128 -31.5s-79.167 -46.333 -114.5 -87z" />
    <glyph glyph-name="n.002" unicode="&#xe027;" horiz-adv-x="325" 
d="M-588 -299c30 62 63.4951 108.331 100.495 138.998s75.833 51.167 116.5 61.5s82.667 13.166 126 8.49902s86.5 -11 129.5 -19s85 -15 126 -21s79.833 -5.33301 116.5 2s70 24.333 100 51s55.667 68.334 77 125.001c-14 -14 -28.333 -25.333 -43 -34
c-12 -7.33301 -24.167 -11.5 -36.5 -12.5s-23.666 0.5 -33.999 4.5s-19.166 10.667 -26.499 20s-11.666 21 -12.999 35c-2 15.333 -1.66699 32 1 50s6.5 36.167 11.5 54.5s10.667 36 17 53l17.5 45.5c8.66699 22 9.5 32.333 2.5 31s-17.833 -10.666 -32.5 -27.999
s-30.834 -40.666 -48.501 -69.999s-32.5 -60.333 -44.5 -93c-5.33301 -20 -9.5 -39 -12.5 -57s-3.16699 -33.667 -0.5 -47c-19.333 1.33301 -34.166 5.33301 -44.499 12s-17.5 15.167 -21.5 25.5s-5.33301 22 -4 35s4 27.167 8 42.5c6 20.667 13.333 42.167 22 64.5
s16.167 44 22.5 65s10.166 40.667 11.499 59s-3 33.5 -13 45.5c12 12 24.167 21.667 36.5 29s23.5 11.833 33.5 13.5s18.167 0 24.5 -5s9.83301 -14.167 10.5 -27.5c1.33301 -12 -0.166992 -26.667 -4.5 -44s-10.166 -36.333 -17.499 -57
c10.667 18.667 22.334 36.667 35.001 54s25.667 32.666 39 45.999s26.833 24 40.5 32s27.5 12 41.5 12c16.667 0 27.334 -5.66699 32.001 -17s5.5 -26.333 2.5 -45s-8.66699 -39.667 -17 -63l-26 -71c-9 -24 -17.333 -47.333 -25 -70s-12.167 -42 -13.5 -58
c-1.33301 -18 2 -27 10 -27s17.333 4.16699 28 12.5s21.167 18 31.5 29s17.166 18.5 20.499 22.5c6.66699 6 12.667 6.66699 18 2s6.33301 -10.667 3 -18c-19.333 -73.333 -43.666 -130.666 -72.999 -171.999s-62.166 -71.833 -98.499 -91.5s-75.333 -31 -117 -34
s-84.834 -2.83301 -129.501 0.5s-90 7.5 -136 12.5s-91.167 5.66699 -135.5 2s-87 -14.167 -128 -31.5s-79.167 -46.333 -114.5 -87z" />
    <glyph glyph-name="o.002" unicode="&#xe028;" horiz-adv-x="296" 
d="M-725 -299c30 62.667 63.4941 109.17 100.494 139.503s76 50.666 117 60.999s83.167 13.166 126.5 8.49902s86.5 -11.167 129.5 -19.5s85.167 -15.333 126.5 -21s80.166 -4.66699 116.499 3s69.5 25 99.5 52s55.667 69.167 77 126.5
c-15.333 -15.333 -31.666 -27.5 -48.999 -36.5s-35 -13.833 -53 -14.5c-15.333 0 -27.666 3.16699 -36.999 9.5s-16.333 14.833 -21 25.5s-7.5 23 -8.5 37s-0.833008 28.333 0.5 43c2 20 5.33301 39.667 10 59s9.33398 34 14.001 44
c6.66699 16.667 14.834 33.167 24.501 49.5s20.334 31.166 32.001 44.499s24.667 24.666 39 33.999s29.5 15.333 45.5 18c15.333 17.333 31.833 28.833 49.5 34.5s33.5 5.83398 47.5 0.500977s24.667 -16.333 32 -33s8.33301 -39 3 -67
c-2.66699 -14 -6.66699 -29.333 -12 -46s-11.833 -33.834 -19.5 -51.501s-16.167 -35.167 -25.5 -52.5s-19.666 -34 -30.999 -50c-19.333 -73.333 -43.666 -130.666 -72.999 -171.999s-62.166 -71.833 -98.499 -91.5s-75.333 -31 -117 -34s-84.834 -2.83301 -129.501 0.5
s-90 7.5 -136 12.5s-91.167 5.66699 -135.5 2s-87 -14.167 -128 -31.5s-79.167 -46.333 -114.5 -87zM169.994 332.003c-6.66699 -2 -14.333 -10.167 -23 -24.5s-17 -31.5 -25 -51.5s-15.167 -41.333 -21.5 -64s-10.833 -43.667 -13.5 -63s-3 -35.333 -1 -48
s7.66699 -19 17 -19c10.667 2 21.834 8.83301 33.501 20.5s23.167 26.167 34.5 43.5s21.833 36.5 31.5 57.5s17.667 41.5 24 61.5s10.666 38.5 12.999 55.5s1.5 30.167 -2.5 39.5s-11.333 13.833 -22 13.5s-25.667 -7.5 -45 -21.5z" />
    <glyph glyph-name="p.002" unicode="&#xe029;" horiz-adv-x="317" 
d="M68 16c-9.33301 -43.333 -17.8301 -84.998 -25.4971 -124.998s-14.167 -76 -19.5 -108h-90l4 19c-34.667 -3.33301 -70.334 -3.33301 -107.001 0l-111 10.5c-37.333 3.66699 -74.666 6 -111.999 7s-73.833 -1.83301 -109.5 -8.5s-70.167 -18.667 -103.5 -36
s-64.333 -43 -93 -77l-2 3c27.333 56 57.333 99.167 90 129.5s67.167 51.666 103.5 63.999s74 18 113 17s78.167 -4.83301 117.5 -11.5s78.166 -13.834 116.499 -21.501s75.166 -11.5 110.499 -11.5l24.5 124.5l25.5 123.5l30.5 143.5l32.5 143.5h88
c-2 -7.33301 -3.83301 -15.166 -5.5 -23.499l-5.5 -26.5c14.667 16 32.167 28.5 52.5 37.5s41.166 12.833 62.499 11.5c25.333 -2 42.666 -13.5 51.999 -34.5s12.333 -46.5 9 -76.5s-12.166 -62.167 -26.499 -96.5s-32.5 -65.333 -54.5 -93s-47 -49.834 -75 -66.501
s-57.333 -22.667 -88 -18h-4zM77.0029 59.002c19.333 5.33301 38.001 17.001 56.001 35.001s34.333 38.667 49 62s27.167 47.5 37.5 72.5s17.833 47.5 22.5 67.5c6 27.333 5 45.333 -3 54s-18.667 11.167 -32 7.5s-27.833 -11.334 -43.5 -23.001
s-27.834 -24.5 -36.501 -38.5z" />
    <glyph glyph-name="q.002" unicode="&#xe02a;" horiz-adv-x="309" 
d="M203 266c1.33301 2.66699 4.66504 5.83691 9.99805 9.50391s11.5 7.16699 18.5 10.5s14.5 6.16602 22.5 8.49902s15.333 3.5 22 3.5c7.33301 0 11.5 -1.66699 12.5 -5s-0.166992 -9.33301 -3.5 -18l-27.5 -107.5l-27 -101.5l-26.5 -101l-26 -106
c-4.66699 -20 -12.167 -35.5 -22.5 -46.5s-21 -18.833 -32 -23.5s-20.833 -7.16699 -29.5 -7.5s-14 0.166992 -16 1.5l4 22c-35.333 -6 -72 -7.83301 -110 -5.5s-76.667 5.5 -116 9.5s-78.5 7.16699 -117.5 9.5s-77.333 0.5 -115 -5.5s-74 -17.833 -109 -35.5
s-67.833 -44.167 -98.5 -79.5l-2 3c28 58.667 59.333 103.167 94 133.5s71.167 51.166 109.5 62.499s78 15.666 119 12.999s82 -7.66699 123 -15l121 -21.5c39.667 -7 77.5 -9.16699 113.5 -6.5l22 107.5l21 97.5c-22 -23.333 -40.667 -39.5 -56 -48.5s-30 -12.167 -44 -9.5
c-16 2 -27 12.333 -33 31s-7.33301 42 -4 70c2.66699 24.667 8.66699 51.167 18 79.5s21.666 55.5 36.999 81.5s33.5 49.5 54.5 70.5s44.167 36.167 69.5 45.5c12.667 4.66699 27.5 7.5 44.5 8.5s32.5 -0.666992 46.5 -5s24.5 -11.5 31.5 -21.5s7.16699 -23.333 0.5 -40
c-3.33301 -7.33301 -8.5 -13.5 -15.5 -18.5s-14.167 -8.5 -21.5 -10.5s-13.666 -3 -18.999 -3s-7.66602 1.33301 -6.99902 4c1.33301 4.66699 3.16602 10.5 5.49902 17.5s3.5 13.667 3.5 20s-1.5 11.666 -4.5 15.999s-8.83301 6.5 -17.5 6.5
c-10.667 0 -22.667 -7.5 -36 -22.5s-26.666 -34 -39.999 -57s-25.666 -47.667 -36.999 -74s-20.666 -51 -27.999 -74s-11.833 -42 -13.5 -57s1.16602 -22.5 8.49902 -22.5c5.33301 0 15.666 8 30.999 24s32 37.333 50 64l19 61c6.66699 20.667 14.334 40 23.001 58z" />
    <glyph glyph-name="r.002" unicode="&#xe02b;" horiz-adv-x="171" 
d="M-742 -299c24 49.333 49.9961 88.501 77.9961 117.501s57.5 50.667 88.5 65s63.167 22.833 96.5 25.5s67.166 2.16699 101.499 -1.5s68.666 -9 102.999 -16s68 -13 101 -18s64.833 -7.33301 95.5 -7s59.667 5.66602 87 15.999s52.5 27.666 75.5 51.999
s43.167 57.833 60.5 100.5c-10 -10 -22 -18.167 -36 -24.5s-30 -9.5 -48 -9.5c-17.333 0 -30.833 3.66699 -40.5 11s-16.667 16.666 -21 27.999s-6.33301 23.666 -6 36.999s2.5 26 6.5 38c4.66699 16 11.5 36.5 20.5 61.5l28 75l27 69l17.5 44.5
c-18.667 1.33301 -33.5 2.83301 -44.5 4.5s-22.833 2.5 -35.5 2.5c8.66699 14.667 15.167 27.5 19.5 38.5s7.33301 21.333 9 31s2.33398 19.667 2.00098 30s-1.16602 22.166 -2.49902 35.499c10 0 18.833 -3.66699 26.5 -11s13.167 -16.166 16.5 -26.499
s4.5 -21.166 3.5 -32.499s-4.83301 -21.333 -11.5 -30c6.66699 -2.66699 14.5 -4.16699 23.5 -4.5s17.833 -0.5 26.5 -0.5c22.667 0 36.167 -8.33301 40.5 -25s3.33301 -37.834 -3 -63.501s-15.833 -53.667 -28.5 -84l-35.5 -85.5c-11 -26.667 -19.167 -49.667 -24.5 -69
s-3.66602 -31 5.00098 -35c3.33301 -1.33301 7.83301 -1.66602 13.5 -0.999023s12.334 3.5 20.001 8.5s16.334 12.833 26.001 23.5s20.167 25.334 31.5 44.001c6.66699 6 12.667 6.66699 18 2s6.33301 -10.667 3 -18c-19.333 -73.333 -43.666 -130.666 -72.999 -171.999
s-62.166 -71.833 -98.499 -91.5s-75.333 -31 -117 -34s-84.834 -2.83301 -129.501 0.5s-90 7.5 -136 12.5s-91.167 5.66699 -135.5 2s-87 -14.167 -128 -31.5s-79.167 -46.333 -114.5 -87z" />
    <glyph glyph-name="s.002" unicode="&#xe02c;" horiz-adv-x="238" 
d="M-912 -299c24.667 52 51.9971 92.6748 81.9971 122.008s61.5 50.833 94.5 64.5s67.167 21.167 102.5 22.5s71 -0.333984 107 -5.00098s71.833 -10.834 107.5 -18.501s70.5 -13.334 104.5 -17.001s66.667 -4 98 -1s60.5 12.833 87.5 29.5s51.333 41.667 73 75
s39.834 78 54.501 134c0 1.33301 0.166992 2.66602 0.5 3.99902s0.5 2.66602 0.5 3.99902c4 22 16 38.333 36 49c2.66699 2 7.16699 2.16699 13.5 0.5s12.333 -4.16699 18 -7.5s10.167 -7 13.5 -11s3.66602 -7.66699 0.999023 -11c-5.33301 -6.66699 -9.5 -15.5 -12.5 -26.5
s-4.16699 -22 -3.5 -33s3.33398 -20.667 8.00098 -29s12 -12.5 22 -12.5c11.333 -0.666992 19.5 4.33301 24.5 15s6.83301 23.667 5.5 39c-1.33301 22 -6.5 43.167 -15.5 63.5s-17.167 40.166 -24.5 59.499c-8.66699 22 -15.834 44.167 -21.501 66.5
s-7.16699 43.166 -4.5 62.499c2.66699 20 11.334 36.833 26.001 50.5s31.334 23.167 50.001 28.5s37.334 6 56.001 2s33.667 -13.333 45 -28c8 -10.667 14 -22.334 18 -35.001s5.5 -25.334 4.5 -38.001s-4.5 -24.334 -10.5 -35.001s-15 -19 -27 -25
c-3.33301 -2 -8 -2.16699 -14 -0.5s-11.833 4.16699 -17.5 7.5s-10.334 7 -14.001 11s-4.16699 7.66699 -1.5 11c5.33301 6.66699 9.5 15.5 12.5 26.5s4.16699 22 3.5 33s-3.33398 20.667 -8.00098 29s-12 12.5 -22 12.5c-10.667 0 -18 -4.5 -22 -13.5
s-5.66699 -21.167 -5 -36.5s3.33398 -32.5 8.00098 -51.5s10.334 -38.5 17.001 -58.5c4 -12.667 8.5 -25 13.5 -37s9.33301 -24 13 -36s6.33398 -24 8.00098 -36s1.5 -24 -0.5 -36c-4 -20 -12.833 -37.333 -26.5 -52s-29.167 -25 -46.5 -31s-35 -7 -53 -3
s-33.333 14.667 -46 32c-2.66699 3.33301 -5 6.83301 -7 10.5l-6 10.5c-20.667 -64 -46 -113.5 -76 -148.5s-63.167 -60.667 -99.5 -77s-75.166 -25.166 -116.499 -26.499s-83.833 -0.166016 -127.5 3.50098s-87.834 7.66699 -132.501 12s-88.334 4.5 -131.001 0.5
s-84 -14.667 -124 -32s-77 -46 -111 -86z" />
    <glyph glyph-name="t.002" unicode="&#xe02d;" horiz-adv-x="150" 
d="M-763 -299c30 62.667 63.6621 109.322 100.995 139.989s76.833 51 118.5 61s84.334 12.5 128.001 7.5s87.334 -11.667 131.001 -20s86.167 -15.166 127.5 -20.499s80.333 -3.66602 117 5.00098s69.834 27.334 99.501 56.001s54.834 73.334 75.501 134.001
c-14 -12 -29.167 -23.167 -45.5 -33.5s-31.5 -17.166 -45.5 -20.499s-25.833 -1.66602 -35.5 5.00098s-14.5 21.334 -14.5 44.001c0 8 0.666992 16.833 2 26.5l4 29.5c2 10 5.33301 25 10 45s10.5 43 17.5 69l23 83.5l25.5 89.5h-34l17 50h32l13.5 44
c4.33301 14 8.83301 27.667 13.5 41h86l-14 -41l-14 -44h36l-17 -50h-35l-31 -106l-27 -97c-8 -29.333 -14.667 -54.666 -20 -75.999s-8.66602 -35.666 -9.99902 -42.999c-1.33301 -6 -0.5 -10.333 2.5 -13s7.83301 -3 14.5 -1s15.167 6.83301 25.5 14.5
s22.166 19.167 35.499 34.5c4.66699 5.33301 10.167 6.33301 16.5 3s7.83301 -9.66602 4.5 -18.999c-19.333 -73.333 -43.666 -130.666 -72.999 -171.999s-62.166 -71.833 -98.499 -91.5s-75.333 -31 -117 -34s-84.834 -2.83301 -129.501 0.5s-90 7.5 -136 12.5
s-91.167 5.66699 -135.5 2s-87 -14.167 -128 -31.5s-79.167 -46.333 -114.5 -87z" />
    <glyph glyph-name="u.002" unicode="&#xe02e;" horiz-adv-x="306" 
d="M-607 -299c30 62 63.3281 108.336 99.9951 139.003s75.334 51.167 116.001 61.5s82.667 13.166 126 8.49902s86.333 -11 129 -19s84.5 -15 125.5 -21s79.667 -5.5 116 1.5s69.666 23.5 99.999 49.5s56.166 66.667 77.499 122c-11.333 -11.333 -23.166 -21 -35.499 -29
s-25.166 -11.333 -38.499 -10c-28 2 -45.5 11.833 -52.5 29.5s-8.16699 39.834 -3.5 66.501c-18 -26 -37.667 -47.667 -59 -65s-42.666 -26 -63.999 -26c-12 0 -21.167 2.66699 -27.5 8s-10.333 12.833 -12 22.5s-1.5 20.834 0.5 33.501s5 26.667 9 42
c6 23.333 13.667 48 23 74s17.166 51.167 23.499 75.5s10 46.5 11 66.5s-3.5 35.667 -13.5 47c12 7.33301 24.333 13.333 37 18s24.167 7 34.5 7s18.833 -2.83301 25.5 -8.5s10 -15.5 10 -29.5c0 -15.333 -2.33301 -33.5 -7 -54.5s-10.167 -42.333 -16.5 -64
s-13.166 -42.667 -20.499 -63s-13.666 -36.833 -18.999 -49.5c-7.33301 -17.333 -8.83301 -27.333 -4.5 -30s11.833 0 22.5 8s23.334 20.5 38.001 37.5s29 36.5 43 58.5l20 54c6.66699 18 12.5 35.167 17.5 51.5s8.33301 31.5 10 45.5s1.16699 26 -1.5 36
c28 0.666992 47.333 -4.33301 58 -15s16 -24.834 16 -42.501s-4 -37.667 -12 -60s-16.833 -45 -26.5 -68s-18.5 -45.167 -26.5 -66.5s-12.333 -40 -13 -56c0 -8.66699 2.5 -15.334 7.5 -20.001s11.5 -6.33398 19.5 -5.00098s16.5 6.16602 25.5 14.499
s17.167 21.166 24.5 38.499c6.66699 6 12.667 6.66699 18 2s6.33301 -10.667 3 -18c-19.333 -73.333 -43.666 -130.666 -72.999 -171.999s-62.166 -71.833 -98.499 -91.5s-75.333 -31 -117 -34s-84.834 -2.83301 -129.501 0.5s-90 7.5 -136 12.5s-91.167 5.66699 -135.5 2
s-87 -14.167 -128 -31.5s-79.167 -46.333 -114.5 -87z" />
    <glyph glyph-name="v.002" unicode="&#xe02f;" horiz-adv-x="310" 
d="M-722 -299c24 50 50.3291 89.666 78.9961 118.999s58.834 51 90.501 65s64.5 22.167 98.5 24.5s68.5 1.5 103.5 -2.5s69.833 -9.66699 104.5 -17s68.667 -13.333 102 -18s65.5 -6.33398 96.5 -5.00098s60.167 8.16602 87.5 20.499s52.333 32 75 59
s42.334 64.167 59.001 111.5c-19.333 -17.333 -39.5 -31.333 -60.5 -42s-42.833 -16 -65.5 -16c-25.333 0 -41.5 11.167 -48.5 33.5s-6.83301 49.5 0.5 81.5c6 24 13.167 49.333 21.5 76s15.5 51.5 21.5 74.5s9.5 43 10.5 60s-3.5 28.167 -13.5 33.5
c12 12 24.167 21.667 36.5 29s23.5 11.833 33.5 13.5s18.167 0 24.5 -5s9.83301 -14.167 10.5 -27.5c0.666992 -19.333 -1.5 -39.5 -6.5 -60.5s-11.333 -42.333 -19 -64l-23.5 -64.5c-8 -21.333 -14 -41.666 -18 -60.999c-4 -18 -6.33301 -32.167 -7 -42.5
s-0.333984 -15.5 0.999023 -15.5c9.33301 0.666992 21.333 9.16699 36 25.5s30.334 36.833 47.001 61.5s33.334 51.167 50.001 79.5l45.5 79c13.667 24.333 24.5 44.5 32.5 60.5s11.667 23.667 11 23c2.66699 4 8.5 7 17.5 9s18.333 3 28 3s18.334 -1 26.001 -3
s11.167 -5 10.5 -9c-4.66699 -10 -11.834 -26.167 -21.501 -48.5s-21.5 -47.166 -35.5 -74.499s-30 -55.833 -48 -85.5s-37.667 -57.167 -59 -82.5c-19.333 -73.333 -43.666 -130.666 -72.999 -171.999s-62.166 -71.833 -98.499 -91.5s-75.333 -31 -117 -34
s-84.834 -2.83301 -129.501 0.5s-90 7.5 -136 12.5s-91.167 5.66699 -135.5 2s-87 -14.167 -128 -31.5s-79.167 -46.333 -114.5 -87z" />
    <glyph glyph-name="w.002" unicode="&#xe030;" horiz-adv-x="464" 
d="M-567 -299c24 50 50.332 89.4932 78.999 118.493s58.667 50.667 90 65s64 22.666 98 24.999s68.333 1.5 103 -2.5s69.334 -9.5 104.001 -16.5s68.667 -12.833 102 -17.5s65.5 -6.66699 96.5 -6s60 7 87 19s52 31.167 75 57.5s42.833 62.5 59.5 108.5
c-16.667 -16 -33.334 -28.667 -50.001 -38s-33.667 -14 -51 -14c-13.333 0 -23.666 3.83301 -30.999 11.5s-12.5 17.334 -15.5 29.001s-4.16699 24.334 -3.5 38.001s2.33398 26.167 5.00098 37.5s6.33398 23.333 11.001 36l13.5 37l12 34.5c3.66699 11 6.5 20.833 8.5 29.5
c-8.66699 -22 -19.667 -47.333 -33 -76s-28.333 -55.667 -45 -81s-34.5 -47 -53.5 -65s-38.167 -27.667 -57.5 -29c-13.333 -0.666992 -23.333 1.83301 -30 7.5s-11.167 13.5 -13.5 23.5s-2.66602 22.167 -0.999023 36.5s4.16699 29.5 7.5 45.5
c4.66699 22.667 10.667 46.834 18 72.501s13.166 49.834 17.499 72.501s6 43 5 61s-6.83301 31 -17.5 39c25.333 22 45.833 35.333 61.5 40s27.5 3.16699 35.5 -4.5s13 -19.667 15 -36s1.83301 -34.666 -0.5 -54.999s-6.33301 -41.166 -12 -62.499
s-11.834 -40.333 -18.501 -57c-7.33301 -18 -12.5 -32.167 -15.5 -42.5s-4.83301 -18.5 -5.5 -24.5s-0.5 -10 0.5 -12s1.83301 -3.33301 2.5 -4c3.33301 -2.66699 9.5 0.333008 18.5 9s19.167 20.834 30.5 36.501s23 34 35 55s23 42.833 33 65.5s17.833 45 23.5 67
s7.5 42 5.5 60c19.333 3.33301 34.666 -0.333984 45.999 -11.001s18.333 -26.667 21 -48c2 -15.333 1.83301 -32.333 -0.5 -51s-5.5 -37.5 -9.5 -56.5s-8.33301 -37.5 -13 -55.5l-12 -48c-4 -16 -4 -25.167 0 -27.5s10.833 0.666992 20.5 9s21 21.5 34 39.5
s26.667 39.5 41 64.5s28.333 52.833 42 83.5s25.5 63 35.5 97c4 4.66699 10.167 7.83398 18.5 9.50098s16.5 2.16699 24.5 1.5s15 -2 21 -4s8.66699 -4.33301 8 -7c-6 -20 -13.667 -42.333 -23 -67s-20 -50 -32 -76s-25.333 -51.833 -40 -77.5s-30.334 -49.5 -47.001 -71.5
c-19.333 -73.333 -43.666 -130.666 -72.999 -171.999s-62.166 -71.833 -98.499 -91.5s-75.333 -31 -117 -34s-84.834 -2.83301 -129.501 0.5s-90 7.5 -136 12.5s-91.167 5.66699 -135.5 2s-87 -14.167 -128 -31.5s-79.167 -46.333 -114.5 -87z" />
    <glyph glyph-name="x.002" unicode="&#xe031;" horiz-adv-x="339" 
d="M-604 -302l-1.99805 2.99609c29.333 60.667 61.833 106.167 97.5 136.5s73.334 50.833 113.001 61.5s80.5 13.834 122.5 9.50098s84 -10.5 126 -18.5l123.5 -22.5c40.333 -7 78.666 -8.16699 114.999 -3.5s69.666 17.834 99.999 39.501s56.833 57.167 79.5 106.5
c-13.333 -7.33301 -26.666 -10.5 -39.999 -9.5s-25.833 6.16699 -37.5 15.5s-21.834 23.333 -30.501 42s-14.334 42 -17.001 70l-146 -128h-50l190 171c-3.33301 50 -8.16602 87.833 -14.499 113.5s-13.5 43.834 -21.5 54.501s-16.667 16.334 -26 17.001l-28 2
c14.667 14.667 30.5 26 47.5 34s35.5 11.333 55.5 10c15.333 -1.33301 27.166 -5.83301 35.499 -13.5s14.5 -18.5 18.5 -32.5s7 -31 9 -51s4 -42.333 6 -67c10 10 21.5 22.5 34.5 37.5s25.333 30.5 37 46.5s21.834 31.167 30.501 45.5s14 25.833 16 34.5h41
c-2.66699 -12.667 -9 -27.834 -19 -45.501s-22.167 -36 -36.5 -55s-30 -38 -47 -57s-33.833 -36.5 -50.5 -52.5c4.66699 -56 14.5 -93.5 29.5 -112.5s36.167 -21.5 63.5 -7.5l-3 -6c-20.667 -66.667 -45.834 -118.5 -75.501 -155.5s-62.5 -64.167 -98.5 -81.5
s-74.833 -27 -116.5 -29s-84.334 -1.16699 -128.001 2.5s-88 7.83398 -133 12.501s-89.167 5 -132.5 1s-85.166 -14.667 -125.499 -32s-77.833 -46 -112.5 -86z" />
    <glyph glyph-name="y.002" unicode="&#xe032;" 
d="M195 231c8.66699 16.667 15.6689 30.8359 21.002 42.5029s9.66602 21.5 12.999 29.5s5.83301 14.833 7.5 20.5s3.16699 11.167 4.5 16.5c0.666992 2.66699 3.16699 6.16699 7.5 10.5s9.66602 8.5 15.999 12.5s13.166 7.33301 20.499 10s14.333 4 21 4
c7.33301 0 11.833 -2.66699 13.5 -8s1.83398 -12.333 0.500977 -21c-7.33301 -34.667 -14.666 -74.334 -21.999 -119.001s-16.666 -89.667 -27.999 -135s-25.166 -88.333 -41.499 -129s-36.833 -74 -61.5 -100c-19.333 -20 -41.333 -35.667 -66 -47s-50 -17.5 -76 -18.5
s-51.667 3.33301 -77 13s-48.333 25.5 -69 47.5c-12.667 13.333 -20 26 -22 38s-1 22.833 3 32.5s9.5 17.334 16.5 23.001s12.833 9.16699 17.5 10.5c26.667 -37.333 55.5 -60.833 86.5 -70.5s60.667 -6.5 89 9.5s53.5 44.167 75.5 84.5s37 91.833 45 154.5
c-8 -12 -18.833 -25.167 -32.5 -39.5s-27.834 -28 -42.501 -41s-29.334 -23.833 -44.001 -32.5s-27 -13 -37 -13c-12 0 -21.167 2.5 -27.5 7.5s-10.5 11.833 -12.5 20.5s-2.33301 19.167 -1 31.5s3.66602 25.5 6.99902 39.5c5.33301 22.667 12.333 47 21 73
s16 51.167 22 75.5s9.33301 46.666 10 66.999s-4 36.166 -14 47.499c12 7.33301 24.333 13.333 37 18s24.167 7 34.5 7s18.833 -2.83301 25.5 -8.5s10 -15.5 10 -29.5c0 -15.333 -2.33301 -33.5 -7 -54.5s-10.167 -42.333 -16.5 -64s-13.166 -42.667 -20.499 -63
s-13.666 -36.833 -18.999 -49.5c-7.33301 -18.667 -8.33301 -29 -3 -31s14.166 2.33301 26.499 13s26.666 26.167 42.999 46.5s31.5 43.166 45.5 68.499z" />
    <glyph glyph-name="z.002" unicode="&#xe033;" horiz-adv-x="300" 
d="M81 325c-2 18.667 1.16699 33.1641 9.5 43.4971s18.666 17.833 30.999 22.5s25 7.5 38 8.5s23.167 1.5 30.5 1.5h132l-193 -340c18 0 35.333 -0.166992 52 -0.5s31.834 -0.166016 45.501 0.500977s25.167 2 34.5 4s16 5 20 9c-1.33301 -7.33301 -2.83301 -15 -4.5 -23
s-4.83398 -15.667 -9.50098 -23c-22 -58.667 -48.167 -104 -78.5 -136s-63.666 -55.167 -99.999 -69.5s-75 -22 -116 -23s-83 0.5 -126 4.5l-130 12c-43.667 4 -86.5 3.83301 -128.5 -0.5s-82.667 -15.166 -122 -32.499s-75.666 -45.666 -108.999 -84.999l-2 3
c28.667 60 60.667 105.167 96 135.5s72.5 51.166 111.5 62.499s79.333 15.333 121 12s83.167 -8.83301 124.5 -16.5s82.166 -14.834 122.499 -21.501s78.5 -8.16699 114.5 -4.5s69.333 15.334 100 35.001s57.667 52.167 81 97.5c-3.33301 -0.666992 -9.33301 -1 -18 -1h-199
l62 115l131 242c-2.66699 0 -8 0.5 -16 1.5s-16.333 0.833008 -25 -0.5s-16.167 -4.5 -22.5 -9.5s-9.16602 -12.833 -8.49902 -23.5c-1.33301 -4.66699 -4.33301 -8.5 -9 -11.5s-9.83398 -4.66699 -15.501 -5s-11 0.833984 -16 3.50098s-7.83301 7 -8.5 13z" />
    <glyph glyph-name="a.003" unicode="&#xe034;" horiz-adv-x="488" 
d="M327 115c13.333 20 26.1602 44.332 38.4932 72.999s21.833 58 28.5 88s9 58.833 7 86.5s-10.333 50.167 -25 67.5c0.666992 16 4.83398 28.333 12.501 37s16.167 14 25.5 16s18.333 0.5 27 -4.5s14.667 -13.167 18 -24.5c8 -30.667 9.5 -62.5 4.5 -95.5
s-13.667 -65.333 -26 -97s-26.666 -61.5 -42.999 -89.5s-31.833 -52.333 -46.5 -73c-10.667 -15.333 -22.667 -30 -36 -44s-26.666 -26 -39.999 -36c-10 -8 -20.667 -13.5 -32 -16.5s-22 -3.33301 -32 -1s-18.833 7.33301 -26.5 15s-12.834 18.167 -15.501 31.5
c-2 11.333 -2.16699 22.833 -0.5 34.5s3.83398 21.5 6.50098 29.5c-32 -37.333 -58 -63.666 -78 -78.999s-39 -21.666 -57 -18.999c-16 2 -27 12.333 -33 31s-7.33301 42 -4 70c2.66699 24.667 8.66699 51.167 18 79.5s21.666 55.5 36.999 81.5s33.5 49.5 54.5 70.5
s44.167 36.167 69.5 45.5c12.667 4.66699 27.5 7.5 44.5 8.5s32.5 -0.666992 46.5 -5s24.5 -11.5 31.5 -21.5s7.16699 -23.333 0.5 -40c-3.33301 -7.33301 -8.5 -13.5 -15.5 -18.5s-14.167 -8.5 -21.5 -10.5s-13.666 -3 -18.999 -3s-7.66602 1.33301 -6.99902 4
c1.33301 4.66699 3.16602 10.5 5.49902 17.5s3.5 13.667 3.5 20s-1.5 11.666 -4.5 15.999s-8.83301 6.5 -17.5 6.5c-10.667 0 -22.667 -7.5 -36 -22.5s-26.666 -34 -39.999 -57s-25.666 -47.667 -36.999 -74s-20.666 -51 -27.999 -74s-11.833 -42 -13.5 -57
s1.16602 -22.5 8.49902 -22.5c4.66699 0 12.667 5.66699 24 17s24.333 26.5 39 45.5s29.667 41.167 45 66.5s29.333 51.666 42 78.999c1.33301 2.66699 4.66602 5.83398 9.99902 9.50098s11.5 7 18.5 10s14.333 5.66699 22 8s14.834 3.5 21.501 3.5
c7.33301 0 13.333 -1.66699 18 -5s5.33398 -9.33301 2.00098 -18c-7.33301 -20 -16.666 -42.833 -27.999 -68.5l-31 -73c-9.33301 -23 -16.166 -42.667 -20.499 -59s-2.5 -25.833 5.5 -28.5c7.33301 -2.66699 18.166 2 32.499 14s29.833 30.333 46.5 55z" />
    <glyph glyph-name="b.003" unicode="&#xe035;" 
d="M178 666c32 -7.33301 50.3301 -27.1729 54.9971 -59.5059s-1 -71.166 -17 -116.499l-15 -41l-15 -40.5l-18.5 -48.5l-25.5 -65c22 30 44.833 55.333 68.5 76s48.167 31 73.5 31c19.333 0 32.833 -6.33301 40.5 -19s10.834 -29.334 9.50098 -50.001
s-6.5 -44.167 -15.5 -70.5s-20.333 -52.666 -34 -78.999s-29.334 -51.666 -47.001 -75.999s-35.5 -45.166 -53.5 -62.499c4.66699 -0.666992 12.834 -0.333984 24.501 0.999023s24.5 4.5 38.5 9.5s28.667 12.333 44 22s29.666 22.167 42.999 37.5
c6.66699 6 12.667 6.66699 18 2s6.33301 -10.667 3 -18c-6 -10 -18 -21.5 -36 -34.5s-38 -24.667 -60 -35s-44.5 -17.833 -67.5 -22.5s-42.5 -4 -58.5 2c-6 -3.33301 -12 -5.33301 -18 -6c-15.333 -3.33301 -31 -3.33301 -47 0s-30 7.5 -42 12.5s-20.667 9.5 -26 13.5
s-5 5 1 3c17.333 -4.66699 33.833 -4.16699 49.5 1.5s31.167 15.167 46.5 28.5v1c16.667 14.667 32.5 33 47.5 55s28.667 44.833 41 68.5s22.833 46.5 31.5 68.5s15.667 41 21 57c6 18 8.33301 29.833 7 35.5s-4.83301 7.33398 -10.5 5.00098s-12.667 -7.5 -21 -15.5
s-16.666 -16.667 -24.999 -26s-15.666 -18.166 -21.999 -26.499s-10.5 -14.166 -12.5 -17.499c-14.667 -24.667 -27.667 -50.667 -39 -78s-22.666 -52.333 -33.999 -75s-23.333 -41.334 -36 -56.001s-27.334 -22 -44.001 -22c-12.667 0 -17.667 8.66699 -15 26l14 53
l39 135.5c14.667 49.667 31.334 100.5 50.001 152.5l77 228c-47.333 -5.33301 -87.166 -23.166 -119.499 -53.499s-56.5 -65.166 -72.5 -104.499c-12.667 -9.33301 -24.834 -14 -36.501 -14s-21.167 3 -28.5 9s-12 14 -14 24s0 20 6 30c16.667 26.667 35.667 49.5 57 68.5
s44 34.5 68 46.5s49 20.333 75 25s51.667 6 77 4z" />
    <glyph glyph-name="c.003" unicode="&#xe036;" horiz-adv-x="397" 
d="M280 430c-2 16 -0.171875 28.9932 5.49512 38.9932s13 16.833 22 20.5s18.167 3.83398 27.5 0.500977s16.666 -10.333 21.999 -21c12.667 -26.667 20.334 -57 23.001 -91s0.833984 -68.667 -5.49902 -104s-16.833 -69.666 -31.5 -102.999s-32.667 -62.833 -54 -88.5
s-45.666 -46.167 -72.999 -61.5s-57 -22.333 -89 -21c-36 1.33301 -65 12.333 -87 33s-35.333 48 -40 82c-4 28.667 -1.83301 59.834 6.5 93.501s21.166 64.834 38.499 93.501s39 52.834 65 72.501s54.667 29.834 86 30.501c22.667 0 39.334 -3.83301 50.001 -11.5
s17.167 -17.167 19.5 -28.5s1.5 -23.5 -2.5 -36.5s-9.66699 -25.167 -17 -36.5s-15.333 -20.833 -24 -28.5s-16.334 -11.5 -23.001 -11.5c-9.33301 0 -17.5 3.66699 -24.5 11s-9.83301 16.333 -8.5 27c8.66699 2 17 7.33301 25 16s14 17.5 18 26.5s5.16699 16.833 3.5 23.5
s-7.16699 9.33398 -16.5 8.00098c-15.333 -6 -30.166 -18 -44.499 -36s-27 -38.667 -38 -62s-19.667 -48 -26 -74s-8.66602 -50 -6.99902 -72s7.83398 -40.5 18.501 -55.5s27.334 -23.5 50.001 -25.5c25.333 -2 48 4 68 18s37.167 32.667 51.5 56s25.5 50 33.5 80
s12.667 59.833 14 89.5s-1 57.5 -7 83.5s-15.667 47.333 -29 64z" />
    <glyph glyph-name="d.003" unicode="&#xe037;" horiz-adv-x="336" 
d="M373 512l-51.001 -179.997l-33 -114.5c-8.66699 -29 -15.334 -50.667 -20.001 -65l-9.5 -29.5c-1.66699 -5.33301 -2.66699 -8 -3 -8s-0.5 -0.333008 -0.5 -1c-3.33301 -14 -5.16602 -26 -5.49902 -36s1.5 -16.833 5.5 -20.5s10.333 -3.33398 19 0.999023
s20.667 14.166 36 29.499c6 6 11.167 11.5 15.5 16.5s7.5 8.5 9.5 10.5c6.66699 6 12.667 6.66699 18 2s6.33301 -10.667 3 -18c-8 -12 -17.167 -23.667 -27.5 -35s-21 -21.5 -32 -30.5s-21.667 -16.167 -32 -21.5s-19.5 -8 -27.5 -8c-19.333 0 -34.333 6.33301 -45 19
s-16 35 -16 67c-21.333 -31.333 -43.166 -52.833 -65.499 -64.5s-41.833 -16.5 -58.5 -14.5c-19.333 2 -33.333 12.667 -42 32s-12.334 43.333 -11.001 72c0.666992 22 4 45.5 10 70.5s14.167 49.167 24.5 72.5s22.833 45.166 37.5 65.499s31.334 37.166 50.001 50.499
s39.167 22 61.5 26s45.833 1.66699 70.5 -7l1 1l70 237c-23.333 -2 -45 -7.66699 -65 -17s-38.167 -21.166 -54.5 -35.499s-30.666 -30.5 -42.999 -48.5s-22.5 -37 -30.5 -57c-12.667 -9.33301 -24.834 -14 -36.501 -14s-21.167 3 -28.5 9s-12 14 -14 24s0 20 6 30
c16.667 26.667 35.667 49.5 57 68.5s44 34.5 68 46.5s49 20.333 75 25s51.667 6 77 4c8 -5.33301 15.833 -11.5 23.5 -18.5s13.667 -16.333 18 -28s6.5 -26 6.5 -43s-3.66699 -38.5 -11 -64.5zM234.999 355.003c-18.667 0 -36.6699 -7.66895 -54.0029 -23.002
s-33.333 -34.666 -48 -57.999s-27.167 -48.333 -37.5 -75s-17.666 -51.167 -21.999 -73.5s-4.83301 -40.666 -1.5 -54.999s11 -20.5 23 -18.5c20.667 3.33301 39 17.333 55 42s31.667 54 47 88l21.5 81.5l24.5 90.5c-1.33301 0 -2.66602 0.166992 -3.99902 0.5
s-2.66602 0.5 -3.99902 0.5z" />
    <glyph glyph-name="e.003" unicode="&#xe038;" horiz-adv-x="432" 
d="M320 430c0.666992 16 4.83496 28.3379 12.502 37.0049s16.167 14 25.5 16s18.333 0.5 27 -4.5s14.667 -13.167 18 -24.5c6.66699 -26.667 9 -55.834 7 -87.501s-7.5 -63.667 -16.5 -96s-21.5 -64 -37.5 -95s-34.167 -58.833 -54.5 -83.5s-42.833 -45 -67.5 -61
s-50.667 -25.333 -78 -28c-19.333 -2 -37.833 -1.33301 -55.5 2s-33.5 9.5 -47.5 18.5s-25.667 21 -35 36s-15.333 33.5 -18 55.5c-4 30.667 -0.166992 63.667 11.5 99s28.5 67.666 50.5 96.999s48.167 52.833 78.5 70.5s62.166 24.5 95.499 20.5
c18.667 -3.33301 30.5 -12.5 35.5 -27.5s5.33301 -32.333 1 -52s-12.833 -39.5 -25.5 -59.5s-27.334 -36 -44.001 -48c-22.667 -16 -43.667 -26.5 -63 -31.5s-36 -7.16699 -50 -6.5c-7.33301 -28.667 -9.33301 -54 -6 -76c3.33301 -23.333 11.833 -39.833 25.5 -49.5
s29.5 -13.834 47.5 -12.501c24 2 46.333 10.667 67 26s39 34.833 55 58.5s29.167 49.667 39.5 78s17.5 56.666 21.5 84.999s4.5 55.166 1.5 80.499s-10.167 46.333 -21.5 63zM202.001 356.005c-21.333 -12.667 -40.6689 -31.8359 -58.002 -57.5029s-31.333 -53.5 -42 -83.5
c17.333 -1.33301 33.833 2.33398 49.5 11.001s29.5 19.334 41.5 32.001s21.833 26.167 29.5 40.5s12.334 26.833 14.001 37.5s-0.166016 18.334 -5.49902 23.001s-15 3.66699 -29 -3z" />
    <glyph glyph-name="f.003" unicode="&#xe039;" horiz-adv-x="220" 
d="M135 301c-5.33301 -16.667 -11.5 -37.165 -18.5 -61.498l-21.5 -78.5h60v-40h-71c-8 -29.333 -16.5 -58.5 -25.5 -87.5l-25.5 -80.5l-21.5 -64.5l-13.5 -39.5c-5.33301 -14 -9.83301 -26.333 -13.5 -37s-7.5 -20 -11.5 -28c-10 -19.333 -21 -31.333 -33 -36
s-29.667 -5 -53 -1l55 174l58 194l27.5 95l26.5 97c6.66699 24 14.667 42.5 24 55.5s19.333 22.5 30 28.5s21.334 9.5 32.001 10.5s20.667 1.5 30 1.5c14.667 0 26 -3.5 34 -10.5s13.5 -15.833 16.5 -26.5s4.33301 -21.834 4 -33.501s-1.83301 -22.167 -4.5 -31.5l-23 1
c1.33301 13.333 1.5 25.666 0.5 36.999s-6.16699 17 -15.5 17c-2.66699 0 -5.83398 -0.333008 -9.50098 -1s-7.5 -2.83398 -11.5 -6.50098s-8.33301 -9.16699 -13 -16.5s-9 -17.666 -13 -30.999z" />
    <glyph glyph-name="g.003" unicode="&#xe03a;" horiz-adv-x="326" 
d="M172 113c-32 -37.333 -58.002 -63.666 -78.002 -78.999s-39 -21.666 -57 -18.999c-16 2 -27 12.333 -33 31s-7.33301 42 -4 70c2.66699 24.667 8.66699 51.167 18 79.5s21.666 55.5 36.999 81.5s33.5 49.5 54.5 70.5s44.167 36.167 69.5 45.5
c12.667 4.66699 27.5 7.5 44.5 8.5s32.5 -0.666992 46.5 -5s24.5 -11.5 31.5 -21.5s7.16699 -23.333 0.5 -40c-3.33301 -7.33301 -8.5 -13.5 -15.5 -18.5s-14.167 -8.5 -21.5 -10.5s-13.666 -3 -18.999 -3s-7.66602 1.33301 -6.99902 4
c1.33301 4.66699 3.16602 10.5 5.49902 17.5s3.5 13.667 3.5 20s-1.5 11.666 -4.5 15.999s-8.83301 6.5 -17.5 6.5c-10.667 0 -22.667 -7.5 -36 -22.5s-26.666 -34 -39.999 -57s-25.666 -47.667 -36.999 -74s-20.666 -51 -27.999 -74s-11.833 -42 -13.5 -57
s1.16602 -22.5 8.49902 -22.5c4.66699 0 12.667 5.66699 24 17s24.333 26.5 39 45.5s29.667 41.167 45 66.5s29.333 51.666 42 78.999c1.33301 2.66699 4.66602 5.83398 9.99902 9.50098s11.5 7 18.5 10s14.333 5.66699 22 8s14.834 3.5 21.501 3.5
c7.33301 0 12.666 -1.66699 15.999 -5s3.33301 -9.33301 0 -18c-0.666992 -1.33301 -2.33398 -6.5 -5.00098 -15.5l-10 -35.5l-14 -50c-5.33301 -18.667 -10.666 -38.334 -15.999 -59.001c-5.33301 -20 -10.333 -39.667 -15 -59s-9.66699 -38.166 -15 -56.499
s-11.5 -36.166 -18.5 -53.499s-15.833 -34 -26.5 -50c-23.333 -37.333 -50.166 -65.5 -80.499 -84.5s-60.833 -27.167 -91.5 -24.5c-24 2 -44.333 9.33301 -61 22s-29.5 27.667 -38.5 45s-14 35.166 -15 53.499s2.33301 34 10 47s19.667 21.667 36 26s37.5 1.5 63.5 -8.5
c-13.333 -5.33301 -22.333 -14.5 -27 -27.5s-6.33398 -26.333 -5.00098 -40s5.66602 -25.834 12.999 -36.501s16.333 -16 27 -16c32 0 61 20.667 87 62c10 15.333 17.833 31 23.5 47s10.334 32.333 14.001 49s6.83398 33.5 9.50098 50.5s5.66699 34.167 9 51.5z" />
    </font>
</defs>
</svg>
