<?xml version="1.0" standalone="no"?>
<!DOCTYPE svg PUBLIC "-//W3C//DTD SVG 1.1//EN" "http://www.w3.org/Graphics/SVG/1.1/DTD/svg11.dtd" >
<svg xmlns="http://www.w3.org/2000/svg" xmlns:xlink="http://www.w3.org/1999/xlink" version="1.1">
<metadata>
Created by FontForge 20150824 at Wed Jun  1 16:36:26 2016
 By Lollia Andrade
Copyright (c) 2016 by Lollia Andrade. All rights reserved.
</metadata>
<defs>
<font id="ArnoiaCaption" horiz-adv-x="506" >
  <font-face 
    font-family="ArnoiaCaption"
    font-weight="400"
    font-variant="small-caps"
    font-stretch="normal"
    units-per-em="1000"
    panose-1="2 10 5 4 3 2 6 2 2 4"
    ascent="710"
    descent="-290"
    x-height="516"
    cap-height="710"
    bbox="0 -237 1146 923"
    underline-thickness="50"
    underline-position="-150"
    unicode-range="U+0020-FB04"
  />
<missing-glyph horiz-adv-x="521" 
d="M21 0v710h479v-710h-479zM260 401l163 258h-325zM289 355l163 -259v518zM98 51h325l-163 258zM69 614v-518l163 259z" />
    <glyph glyph-name="ff" unicode="ff" horiz-adv-x="622" 
d="M430 451v-397l70 -27v-26q1 -1 2 -1h-217v27l74 27v397h-54v-27h-5l-19 19l-19 -19h-5v27h-73v-397l70 -27v-26q1 -1 2 -1h-217v27l74 27v397h-70l-27 -27h-5v120h5l27 -28h70v18q0 87 24.5 133t80.5 56l1 1h8q18 2 29 2h91l-1 -1h20l-77 -102q0 2 -62 32
q-38 -18 -43 -84v-55h73v28h5l19 -20l19 20h5v-28h54v18q0 87 24.5 133t80.5 56l1 1h8q18 2 29 2h91l-1 -1h20l-77 -102q0 2 -62 32q-38 -18 -43 -84v-55h89l27 28h5v-120h-5l-27 27h-89z" />
    <glyph glyph-name="fi" unicode="fi" horiz-adv-x="500" 
d="M183 451v-397l70 -27v-26q1 -1 2 -1h-217v27l74 27v397h-71l-26 -27h-5v120h5l27 -28h70v18q0 87 24.5 133t80.5 56l1 1h8q18 2 29 2h91l-1 -1h20l-77 -102q0 2 -62 32q-38 -18 -43 -84v-55h89l27 28h5v-120h-5l-27 27h-89zM285 0v27l67 27v462h69v-462q27 -12 67 -27
v-27h-203zM334 628q0 21 14 35t34 14t34 -14t14 -35q0 -20 -14 -33.5t-34 -13.5t-34 13.5t-14 33.5z" />
    <glyph glyph-name="fl" unicode="fl" horiz-adv-x="436" 
d="M181 451v-397l71 -27v-26q1 -1 2 -1h-217v27l74 27v397h-71l-26 -27h-6v120h6l26 -28h71v18q0 87 24.5 133t80.5 56l1 1h8q18 2 29 2h91l-1 -1h11l-68 -102q0 2 -62 32q-39 -18 -44 -84v-55h90l84 66v-478q0 -7 3 -16.5t8 -17t9 -6.5l50 12v-76h-75q-24 2 -44.5 21.5
t-20.5 47.5v382h-104z" />
    <glyph glyph-name="ffi" unicode="ffi" horiz-adv-x="751" 
d="M432 451v-397l70 -27v-26q1 -1 2 -1h-217v27l74 27v397h-54v-27h-5l-19 19l-19 -19h-5v27h-73v-397l70 -27v-26q1 -1 2 -1h-217v27l74 27v397h-70l-27 -27h-5v120h5l27 -28h70v18q0 87 24.5 133t80.5 56l1 1h8q18 2 29 2h91l-1 -1h20l-77 -102q0 2 -62 32
q-38 -18 -43 -84v-55h73v28h5l19 -20l19 20h5v-28h54v18q0 87 24.5 133t80.5 56l1 1h8q18 2 29 2h91l-1 -1h20l-77 -102q0 2 -62 32q-38 -18 -43 -84v-55h89l27 28h5v-120h-5l-27 27h-89zM534 0v27l67 27v462h69v-462q27 -12 67 -27v-27h-203zM583 628q0 21 14 35t34 14
t34 -14t14 -35q0 -20 -14 -33.5t-34 -13.5t-34 13.5t-14 33.5z" />
    <glyph glyph-name="ffl" unicode="ffl" horiz-adv-x="688" 
d="M430 451v-397l71 -27v-26q1 -1 2 -1h-217v27l74 27v397h-54v-27h-5l-19 19l-19 -19h-5v27h-74v-397l71 -27v-26q1 -1 2 -1h-217v27l74 27v397h-70l-27 -27h-5v120h5l27 -28h70v18q0 87 24.5 133t80.5 56l1 1h8q18 2 29 2h91l-1 -1h20l-77 -102q0 2 -62 32
q-39 -18 -44 -84v-55h74v28h5l19 -20l19 20h5v-28h54v18q0 87 24.5 133t80.5 56l1 1h8q18 2 29 2h91l-1 -1h11l-68 -102q0 2 -62 32q-39 -18 -44 -84v-55h90l84 66v-478q0 -7 3 -16.5t8 -17t9 -6.5l50 12v-76h-75q-24 2 -44.5 21.5t-20.5 47.5v382h-104z" />
    <glyph glyph-name="f_f_j" unicode="ffj" horiz-adv-x="629" 
d="M406 -226l20 68l43 -7q64 9 71 101v488l-27 27h-89v-397l70 -27v-26q1 -1 2 -1h-217v27l74 27v397h-54v-27h-5l-19 19l-19 -19h-5v27h-73v-397l70 -27v-26q1 -1 2 -1h-217v27l74 27v397h-70l-27 -27h-5v120h5l27 -28h70v18q0 87 24.5 133t80.5 56l1 1h8q18 2 29 2l110 -1
l-77 -102q0 2 -62 32q-38 -18 -43 -84v-55h73v28h5l19 -20l19 20h5v-28h54v18q0 87 24.5 133t80.5 56l1 1h8q18 2 29 2l110 -1l-80 -101l-59 31q-38 -18 -43 -84v-55h187v-548q-2 -100 -35.5 -147t-108.5 -47h-61z" />
    <glyph glyph-name="f_j" unicode="fj" horiz-adv-x="380" 
d="M177 451v-397l70 -27v-26q1 -1 2 -1h-217v27l74 27v397h-70l-27 -27h-5v120h5l27 -28h70v18q0 87 24.5 133t80.5 56l1 1h8q18 2 29 2l110 -1l-77 -102q0 2 -62 32q-38 -18 -43 -84v-55h186v-548q-2 -100 -35.5 -147t-108.5 -47h-61l20 68l43 -7q64 9 71 101v489l-26 26
h-89z" />
    <glyph glyph-name=".notdef" horiz-adv-x="521" 
d="M21 0v710h479v-710h-479zM260 401l163 258h-325zM289 355l163 -259v518zM98 51h325l-163 258zM69 614v-518l163 259z" />
    <glyph glyph-name=".null" horiz-adv-x="0" 
 />
    <glyph glyph-name="nonmarkingreturn" horiz-adv-x="333" 
 />
    <glyph glyph-name="space" unicode=" " horiz-adv-x="225" 
 />
    <glyph glyph-name="exclam" unicode="!" horiz-adv-x="130" 
d="M40 186l-10 524h62v-524h-52zM121 39q0 -23 -16.5 -39t-38.5 -16t-38.5 16t-16.5 39t16.5 39t38.5 16t38.5 -16t16.5 -39z" />
    <glyph glyph-name="quotedbl" unicode="&#x22;" horiz-adv-x="209" 
d="M81 559h-47q0 52 -12 102q-5 18 -5 27q0 16 11 27t28 11q16 0 27 -11t11 -27q0 -8 -3 -25q-10 -53 -10 -104zM178 559h-46q0 52 -12 102q-5 18 -5 27q0 16 11 27t28 11q16 0 26.5 -11t10.5 -27q0 -8 -3 -25q-10 -53 -10 -104z" />
    <glyph glyph-name="numbersign" unicode="#" horiz-adv-x="561" 
d="M9 222l17 65h85q17 66 45 157h-88l17 64h88q40 146 52 202h67q-3 -13 -37 -147q-12 -45 -15 -55h149q40 146 52 202h69q-5 -23 -54 -202h97l-17 -64h-97q-7 -22 -30 -108q-5 -17 -13 -49h100l-18 -65h-100q-54 -196 -57 -222h-66q7 50 56 222h-149q-53 -184 -58 -222h-67
q5 34 58 222h-86zM372 444h-149q-2 -7 -10 -34q-18 -59 -33 -123h148q25 93 44 157z" />
    <glyph glyph-name="dollar" unicode="$" horiz-adv-x="370" 
d="M17 495q0 67 40 113t99 55v46h48v-46q46 -2 84 -30.5t58 -76.5l-43 -29q-10 35 -37.5 55.5t-61.5 23.5v-221q74 -20 115 -54.5t41 -107.5q0 -76 -44 -116.5t-112 -43.5v-63h-48v64q-104 10 -146 104l41 27q14 -30 42.5 -49.5t62.5 -25.5v217q-31 11 -51 20.5t-42.5 27.5
t-34 45.5t-11.5 64.5zM304 220q0 64 -100 104v-205q43 3 71.5 29.5t28.5 71.5zM71 500q0 -38 21.5 -60.5t63.5 -38.5v203q-39 -6 -62 -33.5t-23 -70.5z" />
    <glyph glyph-name="ampersand" unicode="&#x26;" horiz-adv-x="629" 
d="M15 183q0 66 39.5 113t109.5 94q-86 96 -86 168q0 63 46 100.5t115 37.5q64 0 109.5 -34t45.5 -94q0 -53 -34.5 -95t-97.5 -88q31 -32 184 -198q40 92 40 192v15h66q-9 -162 -59 -255q44 -50 78 -85q2 -2 21.5 -22.5t29.5 -31.5h-97l-39 42q-6 7 -19.5 21.5t-18.5 19.5
q-87 -99 -201 -99q-99 0 -165.5 55.5t-66.5 143.5zM247 47q77 0 162 81q-82 84 -201 218q-50 -33 -86.5 -75t-36.5 -82q0 -63 49 -102.5t113 -39.5zM146 559q0 -49 75 -127q105 81 105 133q0 32 -25.5 50.5t-60.5 18.5q-40 0 -67 -20t-27 -55z" />
    <glyph glyph-name="quotesingle" unicode="'" horiz-adv-x="102" 
d="M76 559h-48q0 53 -12 103q-4 22 -4 26q0 16 11 27t27 11q17 0 28 -11t11 -27q0 -8 -3 -25q-10 -53 -10 -104z" />
    <glyph glyph-name="parenleft" unicode="(" horiz-adv-x="192" 
d="M81 327q0 -163 90 -364l-49 -29q-115 237 -115 394q0 93 33 189.5t93 219.5l48 -30q-43 -88 -71.5 -191.5t-28.5 -188.5z" />
    <glyph glyph-name="parenright" unicode=")" horiz-adv-x="195" 
d="M188 328q0 -165 -121 -394l-51 29q99 193 99 364q0 166 -103 380l52 30q59 -123 91.5 -219.5t32.5 -189.5z" />
    <glyph glyph-name="asterisk" unicode="*" horiz-adv-x="316" 
d="M31 640l96 -40v110h55v-115q3 2 13.5 6.5t13.5 6.5q59 26 77 32l22 -49l-100 -44q3 -4 17.5 -22.5t22.5 -27.5q3 -4 8.5 -11t10 -12.5t8.5 -9.5l-43 -35l-73 93q-38 -46 -75 -93l-43 35l67 83q-16 6 -43 19q-26 12 -56 24z" />
    <glyph glyph-name="plus" unicode="+" horiz-adv-x="414" 
d="M174 341v175h67v-175h170v-65h-170v-175h-67v175h-171v65h171z" />
    <glyph glyph-name="comma" unicode="," horiz-adv-x="179" 
d="M60 -73h-51q18 18 40 47t26 42q-30 21 -30 47q0 27 18 45.5t45 18.5t44.5 -18.5t17.5 -45.5q0 -49 -90 -120q-18 -14 -20 -16z" />
    <glyph glyph-name="hyphen" unicode="-" horiz-adv-x="238" 
d="M216 224h-195v66h195v-66z" />
    <glyph glyph-name="period" unicode="." horiz-adv-x="156" 
d="M15 63q0 27 18 45.5t45 18.5t45 -18.5t18 -45.5q0 -26 -18 -44.5t-45 -18.5t-45 18.5t-18 44.5z" />
    <glyph glyph-name="slash" unicode="/" horiz-adv-x="493" 
d="M86 0h-84l409 710h80z" />
    <glyph glyph-name="zero" unicode="0" horiz-adv-x="542" 
d="M273 631q-62 0 -105 -44.5t-60 -106t-17 -132.5t17 -136t60 -113.5t105 -48.5q61 0 103.5 48.5t59 113.5t16.5 136q0 52 -10 100.5t-30.5 90.5t-56 67t-82.5 25zM274 696q85 0 143 -48t84 -124.5t26 -175.5q0 -74 -15.5 -138.5t-45.5 -115.5t-79.5 -80.5t-113.5 -29.5
q-65 0 -115.5 29.5t-81 80.5t-46 115.5t-15.5 138.5q0 152 66 250t193 98z" />
    <glyph glyph-name="one" unicode="1" horiz-adv-x="301" 
d="M86 0v25l69 30v556q-3 -2 -34 -20q-65 -38 -90 -51l-25 -14v98l46 -1l1 1h2q3 0 6 3h-1q49 27 94 53h71v-625l66 -30v-25h-205z" />
    <glyph glyph-name="two" unicode="2" horiz-adv-x="493" 
d="M38 550v131h30l16 -54q80 68 173 71q94 -2 156 -51.5t62 -128.5q0 -39 -15.5 -76t-46 -70.5t-53.5 -54t-58 -48.5q-152 -120 -192 -203h304l30 65h30v-131h-457v10q0 16 3 31q9 49 51 104t96 102.5t107 92.5t89 90t36 81q0 49 -48.5 85t-105.5 36q-54 0 -95.5 -26.5
t-53.5 -55.5h-58z" />
    <glyph glyph-name="three" unicode="3" horiz-adv-x="452" 
d="M16 548v131l30 1l16 -55q28 27 78 51.5t88 19.5q85 -4 142 -53t57 -131q0 -56 -31.5 -95t-85.5 -53q57 -17 92 -67t35 -117q0 -89 -65.5 -142.5t-161.5 -53.5q-78 0 -130.5 31.5t-58.5 91.5h89q9 -57 99 -57q68 0 110.5 35t42.5 99q0 68 -44 107t-127 39h-21v65h23
q72 0 115.5 29.5t43.5 87.5q0 53 -40 85.5t-98 32.5q-104 0 -141 -82h-57z" />
    <glyph glyph-name="four" unicode="4" 
d="M494 286v-119h-98v-112l65 -30v-25h-206v25l69 30v112h-321v79q43 58 129 172q31 41 95 129.5t97 132.5h72v-449h53l30 55h15zM324 229l3 360q-169 -239 -257 -360h254z" />
    <glyph glyph-name="five" unicode="5" horiz-adv-x="469" 
d="M392 549l-30 66h-240q-5 -35 -16 -136q-2 -15 -5 -42t-5 -42q55 57 138 57q96 0 158 -64.5t62 -161.5q0 -105 -65.5 -173.5t-165.5 -68.5q-123 0 -188 65l70 39q31 -38 115 -38q71 0 114.5 50.5t43.5 126.5q0 71 -42.5 115t-110.5 44q-47 0 -85 -24t-56 -66h-67l-3 3
q6 100 46 381h362v-131h-30z" />
    <glyph glyph-name="six" unicode="6" horiz-adv-x="505" 
d="M472 696v-148q0 3 -30.5 23.5t-82.5 41t-94 17.5q-88 0 -131 -75.5t-46 -199.5q25 45 73.5 71t104.5 26q99 0 160.5 -63.5t61.5 -163.5q0 -103 -64 -172t-165 -69q-120 0 -182 85.5t-62 225.5q0 401 249 401q36 0 91 -23t57 -24l30 47h30zM261 386q-74 0 -120 -46.5
t-46 -119.5q0 -68 50.5 -119t116.5 -51q69 0 110.5 49t41.5 124q0 69 -42 116t-111 47z" />
    <glyph glyph-name="seven" unicode="7" horiz-adv-x="500" 
d="M255 0h-201v25l60 30q96 192 274 560h-303l-30 -66h-40v131h481l-299 -625l58 -30v-25z" />
    <glyph glyph-name="eight" unicode="8" 
d="M15 187q0 62 38 108.5t97 64.5q-55 27 -86 61.5t-31 89.5q0 86 66.5 135.5t153.5 49.5t153 -49.5t66 -135.5q0 -52 -31.5 -92t-81.5 -59q60 -21 96 -66.5t36 -108.5q0 -94 -70 -147.5t-170 -53.5q-99 0 -167.5 55.5t-68.5 147.5zM104 509q0 -59 44.5 -95.5t104.5 -36.5
t104 37t44 96q0 57 -44.5 89t-104.5 32t-104 -32.5t-44 -89.5zM91 187q0 -63 48.5 -100t113.5 -37t114 37.5t49 100.5q0 65 -49 102.5t-115 37.5q-65 0 -113 -38.5t-48 -102.5z" />
    <glyph glyph-name="nine" unicode="9" horiz-adv-x="498" 
d="M231 -16q-105 0 -167 71l64 36q12 -28 36 -34.5t76 -6.5q44 0 77.5 25t52.5 67.5t29 93t11 108.5q-25 -46 -71 -72t-104 -26q-95 0 -159 64t-64 157q0 99 65 164t165 65q120 0 180.5 -86t60.5 -225q0 -401 -252 -401zM240 307q68 0 115.5 47t47.5 115t-47 115t-114 47
q-69 0 -114 -48.5t-45 -118.5q0 -65 46 -111t111 -46z" />
    <glyph glyph-name="colon" unicode=":" horiz-adv-x="160" 
d="M17 63q0 27 18 45.5t45 18.5t45 -18.5t18 -45.5q0 -26 -18 -44.5t-45 -18.5t-45 18.5t-18 44.5zM17 453q0 26 18 44.5t45 18.5t45 -18.5t18 -44.5q0 -27 -18 -45t-45 -18t-45 18t-18 45z" />
    <glyph glyph-name="semicolon" unicode=";" horiz-adv-x="180" 
d="M57 -73h-50q18 18 40 47t26 42q-30 21 -30 47q0 27 18 45.5t45 18.5q26 0 44 -18.5t18 -45.5q0 -50 -90 -119q-18 -14 -21 -17zM168 453q0 -27 -18 -45t-44 -18q-27 0 -45 18t-18 45q0 26 18 44.5t45 18.5q26 0 44 -18.5t18 -44.5z" />
    <glyph glyph-name="less" unicode="&#x3c;" horiz-adv-x="494" 
d="M106 254l367 -211v-86l-472 273v49l472 269v-84z" />
    <glyph glyph-name="equal" unicode="=" horiz-adv-x="435" 
d="M424 193h-403v47h403v-47zM424 333v-46h-403v46h403z" />
    <glyph glyph-name="greater" unicode="&#x3e;" horiz-adv-x="494" 
d="M21 43l368 211q-97 55 -157 90q-136 75 -211 119v85l472 -269v-49l-472 -273v86z" />
    <glyph glyph-name="question" unicode="?" horiz-adv-x="391" 
d="M75 589l-68 104h42q60 33 132 33q85 0 145 -49t60 -138q0 -34 -8 -61t-25 -48.5t-30.5 -33.5t-38.5 -31q-34 -27 -52 -44.5t-35 -55t-17 -84.5h-69q0 40 7.5 73t17 54t28 41.5t30 29.5t33.5 26q29 21 43.5 34.5t28 40.5t13.5 60q0 53 -37 85.5t-86 32.5q-41 0 -114 -29
v-40zM97 47q0 20 14 34t34 14t33.5 -14t13.5 -34t-13.5 -33.5t-33.5 -13.5t-34 13.5t-14 33.5z" />
    <glyph glyph-name="at" unicode="@" horiz-adv-x="771" 
d="M260 490l-47 86h186q78 -1 121 -41.5t43 -118.5v-207q0 -18 13.5 -32.5t38.5 -14.5q33 0 59.5 63t26.5 126q0 151 -89.5 234.5t-225.5 83.5q-130 0 -222.5 -93.5t-92.5 -224.5q0 -130 91.5 -219.5t222.5 -89.5q56 0 108 19l63 -34q-86 -43 -171 -43q-155 0 -263 106.5
t-108 260.5t109 264.5t263 110.5q161 0 266.5 -99t105.5 -276q0 -96 -40 -171.5t-110 -75.5q-24 0 -44.5 10.5t-30 22.5t-19 26t-10.5 15q-49 -62 -149 -62q-65 0 -107.5 38t-42.5 97q0 68 53 104t140 36h106v28q0 63 -35.5 82.5t-107.5 19.5q-57 0 -81 -3zM403 342
q-137 0 -137 -89q0 -36 28 -59t73 -23q71 0 111 46q23 26 26 125h-101z" />
    <glyph glyph-name="A" unicode="A" horiz-adv-x="752" 
d="M402 710l269 -650l74 -30h-1v-30h-214v30l56 30q-5 11 -17 43.5t-19 48.5h-353q-6 -13 -18.5 -44.5t-19.5 -47.5l76 -30l1 -30h-229v30l70 30q175 441 260 650h65zM374 625l-151 -406h302q-26 72 -76.5 206t-74.5 200z" />
    <glyph glyph-name="B" unicode="B" horiz-adv-x="621" 
d="M17 0v30q10 3 31.5 15t31.5 15v590q-8 3 -21.5 10.5t-22.5 13.5l-10 6v30h323q46 0 84.5 -9t71.5 -29t52 -57t19 -88t-30.5 -92.5t-78.5 -63.5q63 -18 100.5 -66.5t37.5 -115.5q0 -80 -56 -134.5t-154 -54.5h-174v68h117q43 0 74.5 5.5t58.5 19t41 40.5t14 66
q0 30 -11 53t-34.5 37t-48.5 23t-64 13.5t-70.5 6t-76.5 1.5v71l109 -2q77 0 122 25t45 92q0 123 -166 123h-175v-642h-139z" />
    <glyph glyph-name="C" unicode="C" horiz-adv-x="604" 
d="M522 656l30 54h30v-162h-57q0 32 -61 70.5t-121 36.5q-114 0 -181 -81t-67 -212q0 -140 66.5 -223.5t181.5 -83.5q53 -4 107 25.5t76 71.5l62 -36q-1 -1 -4 -4.5t-4 -5.5q-20 -25 -23 -28q-92 -94 -214 -94q-149 0 -239 103.5t-90 274.5q0 162 90.5 263t238.5 101
q106 0 179 -70z" />
    <glyph glyph-name="D" unicode="D" horiz-adv-x="653" 
d="M155 68h148q131 0 193 77.5t62 212.5q0 136 -70.5 210t-191.5 74h-141v-574zM17 0v30q10 3 31.5 15t31.5 15v590l-55 30v30h256q162 0 260 -94.5t98 -257.5q0 -170 -95 -264t-263 -94h-264z" />
    <glyph glyph-name="E" unicode="E" horiz-adv-x="553" 
d="M488 597l-20 45h-313v-239h232v-69h-232v-266h325q3 9 10 40.5t10 41.5h33v-150h-454v650q-10 3 -31.5 15t-31.5 15v30h502v-113h-30zM16 0v30q10 3 31.5 15t31.5 15v-60h-63z" />
    <glyph glyph-name="F" unicode="F" horiz-adv-x="546" 
d="M28 680v30h514v-107h-30l-30 38h-315v-258h184l30 42h30v-147h-30l-30 36h-184v-254l74 -30v-30h-226v30l76 30v590q-10 3 -31.5 15t-31.5 15z" />
    <glyph glyph-name="G" unicode="G" horiz-adv-x="644" 
d="M393 222l-30 33v65l30 34h30v-34h207q0 -138 -43 -204h2q-1 -1 -4 -4.5t-4 -5.5q-20 -25 -23 -28q-92 -94 -214 -94q-149 0 -239 103.5t-90 274.5q0 162 90.5 263t238.5 101q106 0 179 -70l30 54h30v-162h-57q0 32 -61 70.5t-121 36.5q-114 0 -181 -81t-67 -212
q0 -140 66.5 -223.5t181.5 -83.5q91 0 150.5 56.5t55.5 143.5h-127v-33h-30z" />
    <glyph glyph-name="H" unicode="H" horiz-adv-x="729" 
d="M18 680v30h224v-30l-73 -30q0 -14 -0.5 -59.5t-0.5 -64.5v-123h394v247l-74 30v30h224v-30l-74 -30v-590l74 -30v-30h-225v30l75 30v274h-394v-274l74 -30v-30h-225v30l75 30v590z" />
    <glyph glyph-name="I" unicode="I" horiz-adv-x="246" 
d="M10 0v30l74 30v590l-74 30v30h227v-30l-77 -30v-590l73 -30v-30h-223z" />
    <glyph glyph-name="J" unicode="J" horiz-adv-x="461" 
d="M227 680v30h225v-30l-76 -30v-321q0 -42 -1 -70t-6 -67.5t-13.5 -66t-25 -55.5t-40 -46t-59 -28.5t-80.5 -11.5q-94 0 -148 74l63 35q46 -36 101 -36q31 0 54 9.5t37.5 30t23.5 42t13 56.5t5 61.5t1 68.5l-1 325z" />
    <glyph glyph-name="K" unicode="K" horiz-adv-x="641" 
d="M166 390l307 290l-30 30h143q-73 -76 -183 -184q-61 -61 -159 -161l303 -300l81 -30v-35h-214v30l39 30q-48 49 -143 145t-144 145v-290l74 -30v-30h-224v30l74 30v590l-63 30v30h139v-320z" />
    <glyph glyph-name="L" unicode="L" horiz-adv-x="526" 
d="M15 680v30h131v-642h317l30 47h30v-115h-453v650z" />
    <glyph glyph-name="M" unicode="M" horiz-adv-x="914" 
d="M823 60l75 -30v-30h-225v30l74 30v573q-33 -78 -93.5 -226t-67.5 -165q-14 -34 -100 -242h-74l-245 605v-545l74 -30v-30h-225v30l74 30v657h108l251 -636q75 194 142 362q36 90 108 274h124v-657z" />
    <glyph glyph-name="N" unicode="N" horiz-adv-x="752" 
d="M16 0v30l74 30v650h72q412 -578 425 -596v536l-71 30v30h221v-30l-74 -30v-650h-74q-210 287 -423 586q0 -88 0.5 -263t0.5 -263l73 -30v-30h-224z" />
    <glyph glyph-name="O" unicode="O" horiz-adv-x="690" 
d="M15 362q0 156 91 260t238 104t239 -104t92 -260q0 -171 -91 -274.5t-240 -103.5t-239 103.5t-90 274.5zM96 362q0 -141 66 -224.5t182 -83.5q117 0 183.5 83.5t66.5 224.5q0 131 -67.5 212t-182.5 81t-181.5 -81t-66.5 -212z" />
    <glyph glyph-name="P" unicode="P" horiz-adv-x="585" 
d="M88 710h190q48 0 86.5 -4.5t80.5 -17.5t70 -35.5t46.5 -61t18.5 -90.5q0 -207 -288 -207h-68v69h87q90 0 141 30t51 108q0 68 -45.5 104t-113.5 36h-180v-581l72 -30v-30h-220v30l72 30v590q-10 3 -31.5 15t-31.5 15v30h63z" />
    <glyph glyph-name="Q" unicode="Q" horiz-adv-x="705" 
d="M673 -110l-75 51l-3 4q-11 15 -20.5 33t-20 40.5t-17.5 35.5q-30 -32 -84.5 -51t-110.5 -19q-149 0 -239 103.5t-90 274.5q0 162 90.5 263t238.5 101q149 0 240 -101t91 -263q0 -151 -87 -268q10 -17 32 -53.5t32 -53.5l36 8zM426 106l34 64l74 -23q58 85 58 215
q0 131 -67.5 212t-182.5 81t-181.5 -81t-66.5 -212q0 -141 66 -224t182 -83q29 0 73 14t74 29z" />
    <glyph glyph-name="R" unicode="R" horiz-adv-x="681" 
d="M90 710h191q48 0 87 -4.5t81 -17.5t71 -35.5t47.5 -61t18.5 -90.5q0 -166 -197 -201q164 -66 197 -216q1 -14 11 -24l72 -30v-30h-225v30l63 30q-22 93 -100 159t-154 79h-27v65h88q89 0 140 30t51 108q0 68 -45 104t-113 36h-181v-581l74 -30v-30h-224v30l74 30v590
q-10 3 -31.5 15t-31.5 15v30h63z" />
    <glyph glyph-name="S" unicode="S" horiz-adv-x="532" 
d="M44 86l65 62q19 -47 60.5 -70t94.5 -23q71 0 120.5 34.5t49.5 93.5q0 26 -11 46.5t-27 34t-44.5 26t-52.5 19.5t-62 17q-109 30 -166.5 73.5t-57.5 125.5q0 94 70 147.5t175 53.5q122 0 198 -69l29 53h30v-162h-57q-13 51 -78.5 80t-117.5 28q-75 0 -121.5 -32t-46.5 -91
q0 -56 41.5 -84t132.5 -52q48 -13 77.5 -22.5t65.5 -26.5t56 -37t34 -51t14 -71q0 -102 -73 -153t-192 -52q-55 0 -111 29t-95 73z" />
    <glyph glyph-name="T" unicode="T" horiz-adv-x="572" 
d="M42 603h-33v107h554v-107h-30l-27 38h-178v-581l75 -30v-30h-227v30l76 30v581h-183z" />
    <glyph glyph-name="U" unicode="U" horiz-adv-x="740" 
d="M504 680v30h223v-30l-73 -30v-306q0 -360 -285 -360q-66 0 -116.5 19.5t-81.5 51.5t-50 79.5t-26.5 98t-7.5 111.5v306l-74 30v30h224v-30l-74 -30v-306q0 -137 46.5 -213t159.5 -76q79 0 127 39.5t65 100.5t17 149v306z" />
    <glyph glyph-name="V" unicode="V" horiz-adv-x="754" 
d="M7 680v30h223v-30l-70 -30q30 -81 104 -272.5t112 -294.5q36 95 107.5 283.5t107.5 283.5l-67 30v30h223v-30l-73 -30q-43 -107 -130.5 -325t-130.5 -325h-73l-261 650z" />
    <glyph glyph-name="W" unicode="W" horiz-adv-x="1157" 
d="M920 680v30h226v-30l-76 -30q-243 -612 -258 -650l-75 27l-160 538q-27 -91 -81 -271q-40 -136 -78 -267h-74l-259 623l-75 30v30h223v-30l-70 -30q36 -94 108 -282.5t108 -282.5q60 224 90 337q12 47 38.5 144t39.5 144h61l168 -625q15 40 44.5 118.5t44.5 118.5
q20 54 62.5 164t63.5 164z" />
    <glyph glyph-name="X" unicode="X" horiz-adv-x="710" 
d="M16 0v30l73 30q22 30 100.5 136.5t120.5 164.5q-15 21 -45.5 62t-43.5 59q-15 20 -59 78t-68 90l-72 30v30h224v-28l-60 -30q60 -80 91 -123q48 -66 80 -112q24 35 171 233l-64 30v30h224v-30l-75 -30q-18 -24 -38.5 -52.5t-46 -62t-38.5 -51.5q-30 -40 -41 -54
q-45 -60 -51 -69q69 -98 119 -166q58 -75 101 -135l77 -30v-30h-226v30l57 30q-59 76 -130 179q-1 2 -18 26t-25 37q-16 -19 -87.5 -119.5t-89.5 -122.5l66 -30v-30h-226z" />
    <glyph glyph-name="Y" unicode="Y" horiz-adv-x="708" 
d="M8 680v30h226v-30l-76 -30q1 -66 9 -114t28 -93t60 -68.5t100 -23.5q49 0 84.5 16.5t56 42.5t33 67t16.5 80.5t5 92.5l-74 30v30h224v-30l-74 -31q-6 -331 -231 -355v-234l72 -30v-30h-223v30l75 30v234q-235 26 -237 356z" />
    <glyph glyph-name="Z" unicode="Z" horiz-adv-x="565" 
d="M30 569v141h500v-84l-396 -557h351l30 73h30v-142h-525v69l433 572h-363l-30 -72h-30z" />
    <glyph glyph-name="bracketleft" unicode="[" horiz-adv-x="164" 
d="M155 -90h-134v800h134v-62h-62v-677h62v-61z" />
    <glyph glyph-name="backslash" unicode="\" horiz-adv-x="493" 
d="M491 0h-84l-405 710h80z" />
    <glyph glyph-name="bracketright" unicode="]" horiz-adv-x="165" 
d="M143 -90h-134v61h62v677h-62v62h134v-800z" />
    <glyph glyph-name="asciicircum" unicode="^" horiz-adv-x="336" 
d="M170 635l-95 -186h-66l132 261h59l127 -261h-67z" />
    <glyph glyph-name="underscore" unicode="_" horiz-adv-x="485" 
d="M464 -92h-443v66h443v-66z" />
    <glyph glyph-name="grave" unicode="`" horiz-adv-x="190" 
d="M121 599l-118 111h110q10 -17 30 -49q17 -26 37 -62h-59z" />
    <glyph glyph-name="a" unicode="a" horiz-adv-x="494" 
d="M81 430l-55 102h221q93 -1 144.5 -50t51.5 -141v-288q6 -5 19 -27.5t18 -25.5h-99l-8 58q-60 -74 -178 -74q-78 0 -128.5 45t-50.5 116q0 80 63 123.5t167 43.5h127v33q0 74 -42.5 98t-128.5 24q-68 0 -97 -4zM252 253q-163 0 -163 -106q0 -43 33 -70.5t87 -27.5
q86 0 132 55q18 20 23.5 53t8.5 96h-121z" />
    <glyph glyph-name="b" unicode="b" horiz-adv-x="574" 
d="M13 683v27h141v-248q80 69 161 69q115 0 183.5 -80.5t68.5 -192.5q0 -114 -68 -194t-184 -80q-88 0 -161 63v-47h-70v656zM154 342v-169q24 -52 67.5 -88t94.5 -36q80 0 128 62t48 146q0 83 -48.5 146t-128.5 63q-52 0 -94.5 -36t-66.5 -88z" />
    <glyph glyph-name="c" unicode="c" horiz-adv-x="498" 
d="M484 532l-77 -102q0 2 -65.5 20.5t-66.5 17.5q-83 0 -134 -59.5t-51 -144.5q0 -93 48 -154t129 -61q50 0 93.5 18.5t64.5 55.5l46 -25q-67 -114 -203 -114q-118 0 -185.5 77.5t-67.5 202.5q0 122 71 195t194 73h204z" />
    <glyph glyph-name="d" unicode="d" horiz-adv-x="576" 
d="M422 0v47q-72 -63 -160 -63q-117 0 -185.5 80t-68.5 194q0 112 69 193t185 81q81 0 160 -70v194l-70 27v27h140v-656l71 -27v-27h-141zM422 173v169q-23 52 -65.5 88.5t-94.5 36.5q-80 0 -129.5 -63t-49.5 -147t49 -146t129 -62q51 0 94.5 36.5t66.5 87.5z" />
    <glyph glyph-name="e" unicode="e" horiz-adv-x="519" 
d="M268 49l208 17v-82h-208q-119 0 -186 78.5t-67 206.5q0 112 68.5 187.5t184.5 75.5q112 0 174 -84t62 -202q0 -7 -7 -7h-406q7 -79 49 -129t108 -60q2 0 9 -0.5t11 -0.5zM268 466q-69 0 -117 -47t-60 -116h331q-9 70 -50.5 116.5t-103.5 46.5z" />
    <glyph glyph-name="f" unicode="f" horiz-adv-x="367" 
d="M180 451v-397l70 -27v-26q1 -1 2 -1h-217v27l74 27v397h-70l-27 -27h-5v120h5l27 -28h70v18q0 87 24.5 133t80.5 56l1 1h8q18 2 29 2h91l-1 -1h20l-77 -102q0 2 -62 32q-38 -18 -43 -84v-55h89l27 28h5v-120h-5l-27 27h-89z" />
    <glyph glyph-name="g" unicode="g" horiz-adv-x="551" 
d="M58 -227l77 102q0 -1 22.5 -9t52.5 -17.5t45 -13.5h3q67 0 118 46t51 115v51q-72 -63 -160 -63q-117 0 -185.5 80t-68.5 194q0 112 69 193t185 81q81 0 160 -70v54h109v-23l-38 -27v-449q0 -111 -58 -178t-186 -67q-31 0 -196 1zM266 49q51 0 94.5 36.5t66.5 87.5v169
q-23 52 -65.5 88t-94.5 36q-80 0 -129 -62.5t-49 -146.5t48.5 -146t128.5 -62z" />
    <glyph glyph-name="h" unicode="h" horiz-adv-x="576" 
d="M16 683v27h141v-271q58 93 161 93q90 0 136 -55.5t46 -158.5v-264l71 -27v-27h-211v27l70 27v254q0 154 -117 154q-60 0 -108 -52t-48 -105v-251l71 -27v-27h-212v27l71 27v602z" />
    <glyph glyph-name="i" unicode="i" horiz-adv-x="217" 
d="M10 0v27l67 27v409l-71 27v26h140v-462q27 -12 67 -27v-27h-203zM51 655q0 21 14 35t34 14t34 -14t14 -35q0 -20 -14 -33.5t-34 -13.5t-34 13.5t-14 33.5z" />
    <glyph glyph-name="j" unicode="j" horiz-adv-x="224" 
d="M0 -226l20 68l43 -7q64 9 71 101v526l-70 27v27h141v-548q-2 -100 -35.5 -147t-108.5 -47h-61zM111 655q0 21 14 35t36 14q20 0 33.5 -14t13.5 -35q0 -19 -14 -33t-33 -14q-22 0 -36 13.5t-14 33.5z" />
    <glyph glyph-name="k" unicode="k" horiz-adv-x="511" 
d="M302 0v27l41 27q-27 28 -90 96t-97 103v-199l71 -27v-27h-212v27l71 27v602l-71 27v27h141v-418q34 35 106.5 97.5t104.5 94.5v32h125q-128 -112 -265 -244q32 -34 68 -71q66 -72 141 -147l72 -27v-27h-206z" />
    <glyph glyph-name="l" unicode="l" horiz-adv-x="224" 
d="M5 683v27h140v-606q0 -7 3.5 -16.5t8.5 -17t9 -6.5l50 12v-76h-75q-24 2 -44.5 21.5t-20.5 47.5v587z" />
    <glyph glyph-name="m" unicode="m" horiz-adv-x="910" 
d="M683 0v27l70 27v254q0 75 -29 114.5t-83 39.5q-57 0 -103 -49.5t-48 -102.5v-256l72 -27v-27h-207v27l65 27v254q0 75 -29 114.5t-82 39.5q-58 0 -103.5 -49.5t-47.5 -102.5v-256l70 -27v-27h-211v27l71 27v408l-71 27v27h141v-77q57 93 156 93q116 0 160 -112
q60 112 172 112q86 0 131.5 -55.5t45.5 -158.5v-264l72 -27v-27h-212z" />
    <glyph glyph-name="n" unicode="n" horiz-adv-x="582" 
d="M15 490v26h141v-77q58 93 161 93q90 0 136 -55.5t46 -158.5v-264l71 -27v-27h-211v27l70 27v254q0 154 -117 154q-60 0 -108 -52t-48 -105v-251l71 -27v-27h-212v27l71 27v409z" />
    <glyph glyph-name="o" unicode="o" horiz-adv-x="532" 
d="M443 264q0 83 -48.5 143t-127.5 60q-80 0 -129 -60t-49 -143q0 -93 48 -154t129 -61t129 61t48 154zM267 532q115 0 183 -76.5t68 -191.5q0 -125 -67.5 -202.5t-183.5 -77.5q-118 0 -185.5 77.5t-67.5 202.5q0 115 68 191.5t185 76.5z" />
    <glyph glyph-name="p" unicode="p" horiz-adv-x="575" 
d="M14 -210v27l71 27v619l-71 27v26h141v-48q74 65 161 65q116 0 184 -80.5t68 -193.5q0 -114 -68.5 -194.5t-183.5 -80.5q-82 0 -161 70v-210l71 -27v-27h-212zM155 343v-169q24 -53 66.5 -89t94.5 -36q80 0 128.5 63.5t48.5 147.5q0 82 -48.5 145t-127.5 63
q-51 0 -94.5 -36.5t-67.5 -88.5z" />
    <glyph glyph-name="q" unicode="q" horiz-adv-x="575" 
d="M351 -209v26l70 27v210q-77 -70 -160 -70q-116 0 -185 80.5t-69 194.5q0 112 69 192.5t185 80.5q89 0 160 -64v48h98v-26l-28 -27v-619l71 -27v-26h-211zM421 174v169q-23 51 -66.5 87t-94.5 36q-80 0 -128.5 -62t-48.5 -144q0 -84 49 -147.5t129 -63.5q52 0 94.5 36.5
t65.5 88.5z" />
    <glyph glyph-name="r" unicode="r" horiz-adv-x="374" 
d="M13 0v27l71 27v409l-71 27v26h141v-77q47 72 99 93h117l-77 -102q-2 1 -12 5.5t-19 8.5l-9 5q-40 -21 -68.5 -61.5t-30.5 -77.5v-256l68 -28v-25q1 -1 2 -1h-211z" />
    <glyph glyph-name="s" unicode="s" horiz-adv-x="444" 
d="M425 532l-77 -102q0 1 -56 18t-68 20h-1q-51 0 -84.5 -20.5t-33.5 -62.5q0 -18 10 -31.5t32.5 -23.5t40.5 -15.5t52 -14.5q41 -11 67 -20t58 -26.5t48 -44t16 -62.5q0 -78 -58 -120.5t-150 -42.5q-51 0 -99.5 21.5t-109.5 84.5l52 45q24 -45 67.5 -67.5t96.5 -22.5
q56 0 93.5 25t37.5 70q0 21 -11 37t-35.5 27.5t-43.5 17.5t-54 15q-36 9 -54 14.5t-47.5 18t-44 25.5t-26.5 34.5t-12 48.5q0 76 53.5 115t132.5 39h4h204z" />
    <glyph glyph-name="t" unicode="t" horiz-adv-x="314" 
d="M233 95l76 -101h-93h-5q-64 0 -91.5 29.5t-27.5 88.5v340h-87v64h87v108l71 56v-164h120v-64h-120v-342q0 -23 13 -34q57 18 57 19z" />
    <glyph glyph-name="u" unicode="u" horiz-adv-x="580" 
d="M12 489v27h141v-308q0 -154 118 -154q60 0 107.5 51.5t47.5 105.5v251l-70 27v27h140v-462l71 -27v-27h-141v76q-56 -92 -160 -92q-91 0 -137 55t-46 159v264z" />
    <glyph glyph-name="v" unicode="v" horiz-adv-x="603" 
d="M385 489v27h211v-27l-69 -27l-1 -1v1q-31 -77 -94 -231t-94 -231h-75l-188 462l-68 27v27h214v-27l-67 -27q123 -301 147 -362q4 9 24 59t31 76l92 227z" />
    <glyph glyph-name="w" unicode="w" horiz-adv-x="959" 
d="M736 489v27h212v-27l-70 -27q-122 -297 -187 -462h-76l-136 395q-62 -179 -68 -195q-50 -149 -68 -200h-76l-186 462l-70 27v27h210v-27l-62 -27q79 -190 147 -361q48 136 72 205q8 23 23.5 65.5t28 77.5t23.5 67h55l146 -416q6 14 35 87q15 39 53.5 133t57.5 142z" />
    <glyph glyph-name="x" unicode="x" horiz-adv-x="579" 
d="M353 3v1h1v23l54 27q-14 18 -119 154q-28 -37 -64 -81q-10 -12 -29.5 -36.5t-29.5 -36.5l65 -27v-27h-216v27l82 27q23 30 153 205q-91 116 -114 144q-18 21 -46 59l-72 27v27h214v-27l-55 -27q7 -9 47.5 -62t62.5 -81q4 4 25 32t33 42l56 69l-59 27v27h211v-27l-76 -27
q-21 -27 -72.5 -93t-78.5 -100q25 -33 73 -97q29 -42 89 -118l76 -27v-27h-210v3h-1z" />
    <glyph glyph-name="y" unicode="y" horiz-adv-x="513" 
d="M49 -226l77 102q0 -3 118 -41h10q67 0 118.5 45.5t51.5 115.5v80q-56 -92 -161 -92q-90 0 -136 55t-46 159v264l-71 27v27h141v-308q0 -154 117 -154q60 0 108 51.5t48 105.5v251l-70 27v27h140v-509q0 -105 -59 -170t-184 -65q-61 0 -83 2h-119z" />
    <glyph glyph-name="z" unicode="z" horiz-adv-x="443" 
d="M31 392v124h383v-61l-313 -391h271q0 1 1 1l27 62h24v-127h-405v62l319 391h-254l-27 -61h-26z" />
    <glyph glyph-name="braceleft" unicode="{" horiz-adv-x="205" 
d="M193 -30v-60h-42q-18 1 -30.5 3.5t-28 9.5t-23.5 22t-8 37v149v35t-1.5 32.5t-5 33t-9.5 25.5t-16 20.5t-24 8.5v62q24 1 37 17t16 34.5t3 46.5v190q0 68 90 73h42v-61h-33q-20 -3 -24.5 -14t-4.5 -39v-157q0 -79 -44 -121q44 -46 44 -123v-169q0 -33 18 -55h44z" />
    <glyph glyph-name="bar" unicode="|" horiz-adv-x="110" 
d="M20 0v709h68v-709h-68z" />
    <glyph glyph-name="braceright" unicode="}" horiz-adv-x="205" 
d="M11 658v61h45q90 -5 90 -73v-170q0 -22 0.5 -32.5t3 -29.5t7.5 -28.5t15.5 -17.5t26.5 -9v-62q-19 -2 -30.5 -12t-16 -29.5t-5.5 -33.5t-1 -42v-207q0 -67 -90 -72h-45v60h46q18 21 18 66v166q0 97 42 135q-42 37 -42 99v167q0 43 -18 64h-46z" />
    <glyph glyph-name="asciitilde" unicode="~" horiz-adv-x="410" 
d="M122 334q31 0 89 -34h-1q52 -30 72 -30q37 0 73 55l41 -32q-45 -81 -115 -81q-37 0 -98 38q-44 27 -62 27q-36 0 -70 -53l-37 38q44 72 108 72z" />
    <glyph glyph-name="exclamdown" unicode="&#xa1;" horiz-adv-x="131" 
d="M29 0l10 523h62v-523h-72zM120 670q0 -22 -16 -38t-39 -16t-39 16t-16 38t16 38.5t39 16.5t39 -16.5t16 -38.5z" />
    <glyph glyph-name="cent" unicode="&#xa2;" horiz-adv-x="480" 
d="M68 -90l46 117q-48 37 -75.5 98t-27.5 135q0 121 71.5 193t196.5 72q15 0 29 -3q5 13 14.5 39t14.5 39h68l-38 -97q6 -3 15 -9q1 0 2.5 -1t2.5 -2q3 -1 47 -2q9 0 41 -2l-77 -99q-1 2 -10 17q-16 31 -41 43q-134 -341 -152 -387q27 -12 64 -12q50 0 93 18t64 55l45 -25
q-66 -113 -201 -113q-44 0 -89 15q-4 -9 -11.5 -27.5t-13.5 -34t-10 -27.5h-68zM86 260q0 -102 56 -161q14 37 64.5 164t76.5 197h-19q-81 0 -129.5 -58t-48.5 -142z" />
    <glyph glyph-name="sterling" unicode="&#xa3;" horiz-adv-x="452" 
d="M31 0v63q81 74 81 200q0 40 -5 95h-95v62h82q-1 1 -1 4l-1 2v2q-27 81 -27 124q0 76 55 124.5t140 48.5q69 0 119.5 -32t63.5 -92q-29 -16 -44 -20q-13 -3 -15 -4q-13 41 -46.5 63.5t-79.5 22.5q-57 0 -90.5 -38t-33.5 -96q0 -37 26 -99q1 -1 2.5 -5t1.5 -5h169v-62h-158
q3 -33 3 -67q0 -135 -47 -228h287v-63h-387z" />
    <glyph glyph-name="currency" unicode="&#xa4;" horiz-adv-x="593" 
d="M126 452l-108 108l44 44l108 -107q63 47 137 47q68 0 127 -39q45 45 97 99l45 -46l-93 -99q46 -61 46 -138q0 -74 -45 -136q6 -7 21.5 -23t22.5 -23q34 -34 48 -47l-45 -44l-93 92q-62 -41 -131 -41q-78 0 -142 50q-30 -28 -51 -49q-18 -17 -53 -52l-44 44l104 102
q-37 56 -37 127q0 67 42 131zM140 321q0 -69 49 -118t118 -49t118 49t49 118t-49 118t-118 49t-118 -49t-49 -118z" />
    <glyph glyph-name="yen" unicode="&#xa5;" horiz-adv-x="423" 
d="M177 0v190h-167v49h167v44h-167v47h167v19q-77 11 -112.5 63t-35.5 120v177h56v-177q0 -61 30.5 -97.5t91.5 -36.5q62 0 93 37t31 97v177h57v-177q0 -68 -42 -121t-115 -63v-18h183v-47h-183v-44h183v-49h-183v-190h-54z" />
    <glyph glyph-name="brokenbar" unicode="&#xa6;" horiz-adv-x="93" 
d="M20 327v380h66v-380h-66zM20 -108v380h66l-64 -380h-2z" />
    <glyph glyph-name="section" unicode="&#xa7;" horiz-adv-x="462" 
d="M12 95l47 28q42 -81 163 -81q54 0 88.5 24t34.5 70q0 16 -10 29t-32.5 24t-40 17.5t-50.5 16.5t-52 17t-47.5 20t-44 26.5t-27 34t-11.5 44.5q0 43 20 76.5t55 51.5q-40 32 -40 83q0 74 54.5 111.5t134.5 37.5q63 0 109.5 -24.5t64.5 -74.5l-47 -27q-28 67 -131 67
q-48 0 -81 -20.5t-35 -61.5q19 -29 53 -46t88 -33q33 -9 50 -14.5t43.5 -18.5t40.5 -27.5t25.5 -39t13.5 -55.5q0 -38 -19.5 -70.5t-49.5 -53.5q35 -35 35 -83q0 -75 -56.5 -117t-142.5 -42q-68 0 -125 27.5t-78 83.5zM100 377q1 -27 31.5 -52t75 -40t85.5 -15
q38 0 62.5 17.5t24.5 55.5q0 40 -59.5 74t-123.5 34q-43 0 -69.5 -18t-26.5 -56z" />
    <glyph glyph-name="dieresis" unicode="&#xa8;" horiz-adv-x="322" 
d="M129 640q0 -22 -17 -38.5t-40 -16.5q-22 0 -38.5 16.5t-16.5 38.5q0 23 16 39t39 16t40 -16t17 -39zM304 640q0 -22 -16.5 -38.5t-38.5 -16.5q-23 0 -39 16.5t-16 38.5q0 23 16 39t39 16q22 0 38.5 -16t16.5 -39z" />
    <glyph glyph-name="copyright" unicode="&#xa9;" horiz-adv-x="776" 
d="M14 355q0 156 108 263t266 107q159 0 266.5 -107t107.5 -263q0 -158 -107.5 -264.5t-266.5 -106.5q-158 0 -266 107t-108 264zM63 355q0 -140 92.5 -232t232.5 -92t232 91t92 233q0 138 -92 229t-232 91t-232.5 -91t-92.5 -229zM575 550l-64 -83q-2 4 -5.5 10t-4.5 7
q-1 2 -3.5 6.5t-4.5 8t-4 6.5q-33 22 -89 22q-67 0 -107 -48t-40 -117q0 -75 38.5 -125t104.5 -50q94 0 129 60l38 -21q-53 -93 -166 -93q-96 0 -151 63.5t-55 165.5q0 100 59.5 159.5t162.5 59.5q50 0 90 -28h-1q4 -1 49 -2q3 0 11.5 -0.5t12.5 -0.5z" />
    <glyph glyph-name="ordfeminine" unicode="&#xaa;" horiz-adv-x="314" 
d="M55 643l-33 66h135q57 -1 89 -32.5t32 -91.5v-186q3 -3 11 -17t12 -17h-61l-5 37q-38 -47 -110 -47q-48 0 -78.5 29t-30.5 75q0 52 38.5 80t102.5 28h78v21q0 48 -26 63.5t-79 15.5q-42 0 -60 -3zM160 528q-100 0 -100 -68q0 -28 20.5 -45.5t53.5 -17.5q52 0 81 35
q17 20 20 96h-75z" />
    <glyph glyph-name="guillemotleft" unicode="&#xab;" horiz-adv-x="390" 
d="M131 61l-121 203l121 203h68l-119 -203q96 -165 119 -203h-68zM304 61l-120 203l120 203h69l-120 -204q37 -64 120 -202h-69z" />
    <glyph glyph-name="logicalnot" unicode="&#xac;" horiz-adv-x="492" 
d="M406 118v189h-405v66h471v-255h-66z" />
    <glyph glyph-name="registered" unicode="&#xae;" horiz-adv-x="776" 
d="M14 355q0 156 108 263t266 107q159 0 266.5 -107t107.5 -263q0 -158 -107.5 -264.5t-266.5 -106.5q-158 0 -266 107t-108 264zM63 355q0 -140 92.5 -232t232.5 -92t232 91t92 233q0 138 -92 229t-232 91t-232.5 -91t-92.5 -229zM250 582h115q184 0 184 -126
q0 -101 -119 -121q98 -39 119 -130q0 -9 6 -15l44 -18v-18h-136v18l38 18q-13 56 -60 96t-93 48h-16v39h53q54 0 84.5 18t30.5 65q0 41 -27.5 62.5t-67.5 21.5h-110v-350l45 -18v-18h-135v18l45 18v356q-6 2 -19.5 9t-18.5 9v18h38z" />
    <glyph glyph-name="macron" unicode="&#xaf;" horiz-adv-x="311" 
d="M290 651h-270v58h270v-58z" />
    <glyph glyph-name="degree" unicode="&#xb0;" horiz-adv-x="340" 
d="M14 570q0 65 45.5 110t110.5 45t110.5 -45t45.5 -110q0 -66 -45.5 -111.5t-110.5 -45.5t-110.5 45.5t-45.5 111.5zM79 570q0 -37 27 -64.5t64 -27.5t64 27.5t27 64.5t-27 63.5t-64 26.5t-64 -26.5t-27 -63.5z" />
    <glyph glyph-name="plusminus" unicode="&#xb1;" horiz-adv-x="418" 
d="M177 503v176h66v-176h170v-63h-170v-176h-66v176h-84q-15 0 -44 0.5t-44 0.5v62h172zM5 135v62h408v-62h-408z" />
    <glyph glyph-name="twosuperior" unicode="&#xb2;" horiz-adv-x="271" 
d="M28 627v63h15l9 -26q41 33 89 34q48 -1 80.5 -24.5t32.5 -61.5q0 -24 -16.5 -48.5t-32 -38t-41.5 -32.5q-78 -57 -99 -97h157l16 31h15v-62h-236v5q0 10 1 15q4 23 26 49.5t50.5 49t56 44t46 43t18.5 38.5q0 23 -25 40.5t-55 17.5q-28 0 -49.5 -13t-27.5 -27h-30z" />
    <glyph glyph-name="threesuperior" unicode="&#xb3;" horiz-adv-x="242" 
d="M15 624v67h15l9 -28q13 14 38.5 26.5t45.5 9.5q43 -2 71.5 -27t28.5 -66q0 -28 -16 -48t-43 -27q29 -8 46.5 -33.5t17.5 -59.5q0 -45 -33 -72t-82 -27q-39 0 -65.5 16t-29.5 46h45q5 -29 50 -29q34 0 55.5 18t21.5 50q0 34 -22.5 54t-63.5 20h-11v33h12q36 0 58 14.5
t22 44.5q0 27 -20.5 43.5t-49.5 16.5q-51 0 -71 -42h-29z" />
    <glyph glyph-name="acute" unicode="&#xb4;" horiz-adv-x="190" 
d="M187 710l-117 -111h-60q11 19 38 62q6 9 16.5 26.5l13.5 22.5h109z" />
    <glyph glyph-name="mu" unicode="&#xb5;" horiz-adv-x="431" 
d="M357 0v94q-54 -94 -159 -94q-66 0 -107 29v-236h-71v710h71v-337q10 -46 39 -73t73 -27q59 0 106.5 51.5t47.5 103.5v282h66v-503h-66z" />
    <glyph glyph-name="paragraph" unicode="&#xb6;" horiz-adv-x="488" 
d="M204 -100v399q-87 12 -142 60t-55 142q0 52 16.5 90.5t42 60.5t63 35t72.5 17.5t78 4.5h189v-809h-69v746h-127v-746h-68z" />
    <glyph glyph-name="periodcentered" unicode="&#xb7;" horiz-adv-x="156" 
d="M14 254q0 27 19 46t45 19t45 -19t19 -46q0 -26 -19 -45t-45 -19t-45 19t-19 45z" />
    <glyph glyph-name="cedilla" unicode="&#xb8;" horiz-adv-x="189" 
d="M75 -150q-39 0 -69 25l22 42q19 -32 47 -32q21 0 36.5 17.5t15.5 41.5q0 22 -13.5 39t-34.5 21l19 33q35 -9 56.5 -34.5t21.5 -58.5q0 -39 -29.5 -66.5t-71.5 -27.5z" />
    <glyph glyph-name="onesuperior" unicode="&#xb9;" horiz-adv-x="135" 
d="M39 361v12l29 14v261q-2 -2 -7 -5t-7 -5q-28 -18 -38 -24l-10 -6v46l19 -1l1 1l3 1q20 13 39 25h29v-293l28 -14v-12h-86z" />
    <glyph glyph-name="ordmasculine" unicode="&#xba;" horiz-adv-x="318" 
d="M259 542q0 47 -27.5 80.5t-71.5 33.5q-46 0 -73.5 -33.5t-27.5 -80.5q0 -53 27 -87.5t73 -34.5q45 0 72.5 35t27.5 87zM160 695q66 0 105 -43.5t39 -109.5q0 -71 -39 -115.5t-105 -44.5q-68 0 -106.5 44t-38.5 116q0 67 39 110t106 43z" />
    <glyph glyph-name="guillemotright" unicode="&#xbb;" horiz-adv-x="390" 
d="M380 264l-121 -203h-67q28 48 118 203q0 1 -49.5 86t-68.5 117h67zM207 264l-121 -203h-69q101 168 120 202q-48 82 -120 204h69z" />
    <glyph glyph-name="onequarter" unicode="&#xbc;" horiz-adv-x="688" 
d="M676 209v-88h-72v-81l48 -22v-18h-151v18l51 22v81h-235v58q13 17 45 59.5t49 65.5q19 25 67 91t74 101h52v-327h39l22 40h11zM535 710l-399 -710h-54l403 710h50zM70 276v16l48 19v354q-16 -8 -24 -13q-5 -2 -28 -14.5t-35 -17.5l-17 -9v62h34q1 0 3 2q11 6 33 17.5
t33 16.5h50v-398l46 -19v-16h-143zM552 167l2 262q-2 -3 -35.5 -49.5t-80 -111.5t-72.5 -101h186z" />
    <glyph glyph-name="onehalf" unicode="&#xbd;" horiz-adv-x="750" 
d="M535 710l-397 -707h-54l401 707h50zM70 276v16l48 19v354q-16 -8 -24 -13q-5 -2 -28 -14.5t-35 -17.5l-17 -9v62h34q1 0 3 2q11 6 33 17.5t33 16.5h50v-398l46 -19v-16h-143zM447 366v87h20l11 -36q54 46 115 47q62 -1 103.5 -34t41.5 -86q0 -34 -21 -68t-42 -53.5
t-52 -43.5q-101 -80 -128 -135h203l20 43h20v-87h-305v7q0 8 2 20q6 33 34 69.5t64 68t71.5 61.5t59.5 60t24 54q0 33 -32.5 56.5t-70.5 23.5q-36 0 -63.5 -17.5t-35.5 -36.5h-39z" />
    <glyph glyph-name="threequarters" unicode="&#xbe;" horiz-adv-x="690" 
d="M678 209v-88h-72v-81l48 -22v-18h-151v18l51 22v81h-235v58q13 17 45 59.5t49 65.5q19 25 67 91t74 101h52v-327h39l22 40h11zM569 710l-399 -710h-54l403 710h50zM554 167l2 262q-2 -3 -35.5 -49.5t-80 -111.5t-72.5 -101h186zM12 635v84h19l10 -35q19 18 50.5 33
t55.5 12q54 -2 90.5 -33.5t36.5 -83.5q0 -36 -20.5 -61t-54.5 -33q37 -11 59 -42.5t22 -74.5q0 -57 -41.5 -91t-102.5 -34q-51 0 -84 20t-37 58h57q6 -36 63 -36q43 0 70 22.5t27 62.5q0 44 -28 68.5t-81 24.5h-13v42h15q46 0 73.5 18.5t27.5 55.5q0 34 -25.5 54.5
t-62.5 20.5q-66 0 -90 -52h-36z" />
    <glyph glyph-name="questiondown" unicode="&#xbf;" horiz-adv-x="391" 
d="M316 137l68 -104h-42q-60 -33 -131 -33q-86 0 -146 49t-60 138q0 44 17 79.5t34 51.5t51 43q34 26 52 43.5t35.5 55t17.5 84.5h68q0 -49 -9 -86t-29.5 -64t-35 -40t-42.5 -34q-29 -21 -43.5 -34.5t-28 -40t-13.5 -59.5q0 -52 37.5 -85t86.5 -33q45 0 113 29v40zM294 678
q0 -20 -14 -33.5t-34 -13.5t-33 13.5t-13 33.5t13.5 33.5t32.5 13.5q20 0 34 -13.5t14 -33.5z" />
    <glyph glyph-name="Agrave" unicode="&#xc0;" horiz-adv-x="746" 
d="M399 710l269 -650l74 -30h-1v-30h-214v30l56 30q-5 11 -17 43.5t-19 48.5h-353q-6 -13 -18.5 -44.5t-19.5 -47.5l76 -30l1 -30h-229v30l70 30q175 441 260 650h65zM371 625l-151 -406h302q-26 72 -76.5 206t-74.5 200zM362 793l-118 111h110q10 -17 30 -49q16 -26 37 -62
h-59z" />
    <glyph glyph-name="Aacute" unicode="&#xc1;" horiz-adv-x="747" 
d="M399 710l269 -650l74 -30h-1v-30h-214v30l56 30q-5 11 -17 43.5t-19 48.5h-353q-6 -13 -18.5 -44.5t-19.5 -47.5l76 -30l1 -30h-229v30l70 30q175 441 260 650h65zM371 625l-151 -406h302q-26 72 -76.5 206t-74.5 200zM517 904l-117 -111h-60q11 19 38 62q6 9 16.5 26.5
l13.5 22.5h109z" />
    <glyph glyph-name="Acircumflex" unicode="&#xc2;" horiz-adv-x="750" 
d="M401 710l269 -650l74 -30h-1v-30h-214v30l56 30q-5 11 -17 43.5t-19 48.5h-353q-6 -13 -18.5 -44.5t-19.5 -47.5l76 -30l1 -30h-229v30l70 30q175 441 260 650h65zM373 625l-151 -406h302q-26 72 -76.5 206t-74.5 200zM369 855l-82 -88l-41 32l90 105h67l90 -115l-42 -24
z" />
    <glyph glyph-name="Atilde" unicode="&#xc3;" horiz-adv-x="747" 
d="M400 710l269 -650l74 -30h-1v-30h-214v30l56 30q-5 11 -17 43.5t-19 48.5h-353q-6 -13 -18.5 -44.5t-19.5 -47.5l76 -30l1 -30h-229v30l70 30q175 441 260 650h65zM372 625l-151 -406h302q-26 72 -76.5 206t-74.5 200zM446 912h54q-16 -92 -73 -92q-30 0 -63 19
q-22 14 -36 14q-18 0 -32 -43h-54q17 94 86 94q34 0 60 -18q24 -15 39 -15q12 0 19 41z" />
    <glyph glyph-name="Adieresis" unicode="&#xc4;" horiz-adv-x="750" 
d="M401 710l269 -650l74 -30h-1v-30h-214v30l56 30q-5 11 -17 43.5t-19 48.5h-353q-6 -13 -18.5 -44.5t-19.5 -47.5l76 -30l1 -30h-229v30l70 30q175 441 260 650h65zM373 625l-151 -406h302q-26 72 -76.5 206t-74.5 200zM345 834q0 -22 -17 -38.5t-40 -16.5
q-22 0 -38.5 16.5t-16.5 38.5q0 23 16 39t39 16t40 -16t17 -39zM520 834q0 -22 -16.5 -38.5t-38.5 -16.5q-23 0 -39 16.5t-16 38.5q0 23 16 39t39 16q22 0 38.5 -16t16.5 -39z" />
    <glyph glyph-name="Aring" unicode="&#xc5;" horiz-adv-x="749" 
d="M401 710l269 -650l74 -30h-1v-30h-214v30l56 30q-5 11 -17 43.5t-19 48.5h-353q-6 -13 -18.5 -44.5t-19.5 -47.5l76 -30l1 -30h-229v30l70 30q175 441 260 650h65zM373 625l-151 -406h302q-26 72 -76.5 206t-74.5 200zM296 849q0 30 21.5 50.5t51.5 20.5t51 -20.5
t21 -50.5q0 -29 -21.5 -50.5t-50.5 -21.5t-51 21.5t-22 50.5zM402 849q0 13 -10.5 24t-22.5 11q-13 0 -23.5 -11t-10.5 -24q0 -12 10.5 -23t23.5 -11q11 0 22 11t11 23z" />
    <glyph glyph-name="AE" unicode="&#xc6;" horiz-adv-x="895" 
d="M359 0v30q10 3 31.5 15t31.5 15v92h-224q-6 -13 -18.5 -44.5t-19.5 -47.5l76 -30l1 -30h-229v30l70 30q175 441 260 650h523v-113h-30l-20 45h-313v-239h232v-69h-232v-266h325q3 10 10 41t10 41h33v-150h-517zM385 642l-161 -423h198v423h-37z" />
    <glyph glyph-name="Ccedilla" unicode="&#xc7;" horiz-adv-x="594" 
d="M518 656l30 54h30v-162h-57q0 32 -61 70.5t-121 36.5q-114 0 -181 -81t-67 -212q0 -140 66.5 -223.5t181.5 -83.5q53 -4 107 25.5t76 71.5l62 -36q-1 -1 -4 -4.5t-4 -5.5q-20 -25 -23 -28q-92 -94 -214 -94q-149 0 -239 103.5t-90 274.5q0 162 90.5 263t238.5 101
q106 0 179 -70zM292 -150q-39 0 -69 25l22 42q19 -32 47 -32q21 0 36.5 17.5t15.5 41.5q0 22 -13.5 39t-34.5 21l19 33q35 -9 56.5 -34.5t21.5 -58.5q0 -39 -29.5 -66.5t-71.5 -27.5z" />
    <glyph glyph-name="Egrave" unicode="&#xc8;" horiz-adv-x="533" 
d="M481 597l-20 45h-313v-239h232v-69h-232v-266h325q3 9 10 40.5t10 41.5h33v-150h-454v650q-10 3 -31.5 15t-31.5 15v30h502v-113h-30zM9 0v30q10 3 31.5 15t31.5 15v-60h-63zM268 793l-118 111h110q10 -17 30 -49q17 -26 37 -62h-59z" />
    <glyph glyph-name="Eacute" unicode="&#xc9;" horiz-adv-x="535" 
d="M481 597l-20 45h-313v-239h232v-69h-232v-266h325q3 9 10 40.5t10 41.5h33v-150h-454v650q-10 3 -31.5 15t-31.5 15v30h502v-113h-30zM9 0v30q10 3 31.5 15t31.5 15v-60h-63zM398 904l-117 -111h-60q11 19 38 62q6 9 16.5 26.5l13.5 22.5h109z" />
    <glyph glyph-name="Ecircumflex" unicode="&#xca;" horiz-adv-x="538" 
d="M482 597l-20 45h-313v-239h232v-69h-232v-266h325q3 9 10 40.5t10 41.5h33v-150h-454v650q-10 3 -31.5 15t-31.5 15v30h502v-113h-30zM10 0v30q10 3 31.5 15t31.5 15v-60h-63zM276 855l-82 -88l-41 32l90 105h67l90 -115l-42 -24z" />
    <glyph glyph-name="Edieresis" unicode="&#xcb;" horiz-adv-x="539" 
d="M483 597l-20 45h-313v-239h232v-69h-232v-266h325q3 9 10 40.5t10 41.5h33v-150h-454v650q-10 3 -31.5 15t-31.5 15v30h502v-113h-30zM11 0v30q10 3 31.5 15t31.5 15v-60h-63zM246 834q0 -22 -17 -38.5t-40 -16.5q-22 0 -38.5 16.5t-16.5 38.5q0 23 16 39t39 16t40 -16
t17 -39zM421 834q0 -22 -16.5 -38.5t-38.5 -16.5q-23 0 -39 16.5t-16 38.5q0 23 16 39t39 16q22 0 38.5 -16t16.5 -39z" />
    <glyph glyph-name="Igrave" unicode="&#xcc;" horiz-adv-x="254" 
d="M23 0v30l74 30v590l-74 30v30h227v-30l-77 -30v-590l73 -30v-30h-223zM122 793l-118 111h110q10 -17 30 -49q16 -26 37 -62h-59z" />
    <glyph glyph-name="Iacute" unicode="&#xcd;" horiz-adv-x="245" 
d="M4 0v30l74 30v590l-74 30v30h227v-30l-77 -30v-590l73 -30v-30h-223zM241 904l-117 -111h-60q11 19 38 62q6 9 16.5 26.5l13.5 22.5h109z" />
    <glyph glyph-name="Icircumflex" unicode="&#xce;" horiz-adv-x="263" 
d="M26 0v30l74 30v590l-74 30v30h227v-30l-77 -30v-590l73 -30v-30h-223zM130 855l-82 -88l-41 32l90 105h67l90 -115l-42 -24z" />
    <glyph glyph-name="Idieresis" unicode="&#xcf;" horiz-adv-x="300" 
d="M45 0v30l74 30v590l-74 30v30h227v-30l-77 -30v-590l73 -30v-30h-223zM118 834q0 -22 -17 -38.5t-40 -16.5q-22 0 -38.5 16.5t-16.5 38.5q0 23 16 39t39 16t40 -16t17 -39zM293 834q0 -22 -16.5 -38.5t-38.5 -16.5q-23 0 -39 16.5t-16 38.5q0 23 16 39t39 16
q22 0 38.5 -16t16.5 -39z" />
    <glyph glyph-name="Eth" unicode="&#xd0;" horiz-adv-x="652" 
d="M16 0v30q10 3 31.5 15t31.5 15v590l-55 30v30h256q162 0 260 -94.5t98 -257.5q0 -170 -95 -264t-263 -94h-264zM154 68h148q131 0 193 77.5t62 212.5q0 136 -70.5 210t-191.5 74h-141v-262h184v-66h-184v-246z" />
    <glyph glyph-name="Ntilde" unicode="&#xd1;" horiz-adv-x="741" 
d="M10 0v30l74 30v650h72q412 -578 425 -596v536l-71 30v30h221v-30l-74 -30v-650h-74q-210 287 -423 586q0 -88 0.5 -263t0.5 -263l73 -30v-30h-224zM445 912h54q-16 -92 -73 -92q-30 0 -63 19q-22 14 -36 14q-18 0 -32 -43h-54q17 94 86 94q34 0 60 -18q24 -15 39 -15
q12 0 19 41z" />
    <glyph glyph-name="Ograve" unicode="&#xd2;" horiz-adv-x="680" 
d="M11 362q0 156 91 260t238 104t239 -104t92 -260q0 -171 -91 -274.5t-240 -103.5t-239 103.5t-90 274.5zM92 362q0 -141 66 -224.5t182 -83.5q117 0 183.5 83.5t66.5 224.5q0 131 -67.5 212t-182.5 81t-181.5 -81t-66.5 -212zM299 793l-118 111h110q10 -17 30 -49
q16 -26 37 -62h-59z" />
    <glyph glyph-name="Oacute" unicode="&#xd3;" horiz-adv-x="680" 
d="M10 362q0 156 91 260t238 104t239 -104t92 -260q0 -171 -91 -274.5t-240 -103.5t-239 103.5t-90 274.5zM91 362q0 -141 66 -224.5t182 -83.5q117 0 183.5 83.5t66.5 224.5q0 131 -67.5 212t-182.5 81t-181.5 -81t-66.5 -212zM466 904l-117 -111h-60q11 19 38 62
q6 9 16.5 26.5l13.5 22.5h109z" />
    <glyph glyph-name="Ocircumflex" unicode="&#xd4;" horiz-adv-x="682" 
d="M11 362q0 156 91 260t238 104t239 -104t92 -260q0 -171 -91 -274.5t-240 -103.5t-239 103.5t-90 274.5zM92 362q0 -141 66 -224.5t182 -83.5q117 0 183.5 83.5t66.5 224.5q0 131 -67.5 212t-182.5 81t-181.5 -81t-66.5 -212zM332 855l-82 -88l-41 32l90 105h67l90 -115
l-42 -24z" />
    <glyph glyph-name="Otilde" unicode="&#xd5;" horiz-adv-x="680" 
d="M10 362q0 156 91 260t238 104t239 -104t92 -260q0 -171 -91 -274.5t-240 -103.5t-239 103.5t-90 274.5zM91 362q0 -141 66 -224.5t182 -83.5q117 0 183.5 83.5t66.5 224.5q0 131 -67.5 212t-182.5 81t-181.5 -81t-66.5 -212zM411 912h54q-16 -92 -73 -92q-30 0 -63 19
q-22 14 -36 14q-18 0 -32 -43h-54q17 94 86 94q34 0 60 -18q24 -15 39 -15q12 0 19 41z" />
    <glyph glyph-name="Odieresis" unicode="&#xd6;" horiz-adv-x="682" 
d="M11 362q0 156 91 260t238 104t239 -104t92 -260q0 -171 -91 -274.5t-240 -103.5t-239 103.5t-90 274.5zM92 362q0 -141 66 -224.5t182 -83.5q117 0 183.5 83.5t66.5 224.5q0 131 -67.5 212t-182.5 81t-181.5 -81t-66.5 -212zM304 834q0 -22 -17 -38.5t-40 -16.5
q-22 0 -38.5 16.5t-16.5 38.5q0 23 16 39t39 16t40 -16t17 -39zM479 834q0 -22 -16.5 -38.5t-38.5 -16.5q-23 0 -39 16.5t-16 38.5q0 23 16 39t39 16q22 0 38.5 -16t16.5 -39z" />
    <glyph glyph-name="multiply" unicode="&#xd7;" horiz-adv-x="371" 
d="M73 203l-58 58l113 113q-67 64 -113 112l58 58l113 -113l112 113l58 -58l-113 -112l31.5 -31.5l50.5 -50.5l31 -31l-58 -58l-112 113z" />
    <glyph glyph-name="Oslash" unicode="&#xd8;" horiz-adv-x="690" 
d="M184 0h-84l33 59q-118 105 -118 303q0 156 91 260t238 104q81 0 153 -37q6 9 12 21h80l-35 -60q56 -50 88.5 -125.5t32.5 -162.5q0 -171 -91 -274.5t-240 -103.5q-79 0 -150 34q-8 -14 -10 -18zM96 362q0 -155 76 -237q47 82 143.5 251t144.5 251q-50 28 -116 28
q-115 0 -181.5 -81t-66.5 -212zM594 362q0 140 -77 222q-48 -83 -143.5 -252t-143.5 -252q49 -26 114 -26q117 0 183.5 83.5t66.5 224.5z" />
    <glyph glyph-name="Ugrave" unicode="&#xd9;" horiz-adv-x="731" 
d="M500 680v30h223v-30l-73 -30v-306q0 -360 -285 -360q-66 0 -116.5 19.5t-81.5 51.5t-50 79.5t-26.5 98t-7.5 111.5v306l-74 30v30h224v-30l-74 -30v-306q0 -137 46.5 -213t159.5 -76q79 0 127 39.5t65 100.5t17 149v306zM352 793l-118 111h110q10 -17 30 -49
q17 -26 37 -62h-59z" />
    <glyph glyph-name="Uacute" unicode="&#xda;" horiz-adv-x="730" 
d="M499 680v30h223v-30l-73 -30v-306q0 -360 -285 -360q-66 0 -116.5 19.5t-81.5 51.5t-50 79.5t-26.5 98t-7.5 111.5v306l-74 30v30h224v-30l-74 -30v-306q0 -137 46.5 -213t159.5 -76q79 0 127 39.5t65 100.5t17 149v306zM486 904l-117 -111h-60q11 19 38 62
q6 9 16.5 26.5l13.5 22.5h109z" />
    <glyph glyph-name="Ucircumflex" unicode="&#xdb;" horiz-adv-x="732" 
d="M500 680v30h223v-30l-73 -30v-306q0 -360 -285 -360q-66 0 -116.5 19.5t-81.5 51.5t-50 79.5t-26.5 98t-7.5 111.5v306l-74 30v30h224v-30l-74 -30v-306q0 -137 46.5 -213t159.5 -76q79 0 127 39.5t65 100.5t17 149v306zM366 855l-82 -88l-41 32l90 105h67l90 -115
l-42 -24z" />
    <glyph glyph-name="Udieresis" unicode="&#xdc;" horiz-adv-x="732" 
d="M500 680v30h223v-30l-73 -30v-306q0 -360 -285 -360q-66 0 -116.5 19.5t-81.5 51.5t-50 79.5t-26.5 98t-7.5 111.5v306l-74 30v30h224v-30l-74 -30v-306q0 -137 46.5 -213t159.5 -76q79 0 127 39.5t65 100.5t17 149v306zM335 834q0 -22 -17 -38.5t-40 -16.5
q-22 0 -38.5 16.5t-16.5 38.5q0 23 16 39t39 16t40 -16t17 -39zM510 834q0 -22 -16.5 -38.5t-38.5 -16.5q-23 0 -39 16.5t-16 38.5q0 23 16 39t39 16q22 0 38.5 -16t16.5 -39z" />
    <glyph glyph-name="Yacute" unicode="&#xdd;" horiz-adv-x="700" 
d="M4 680v30h226v-30l-76 -30q1 -66 9 -114t28 -93t60 -68.5t100 -23.5q49 0 84.5 16.5t56 42.5t33 67t16.5 80.5t5 92.5l-74 30v30h224v-30l-74 -31q-6 -331 -231 -355v-234l72 -30v-30h-223v30l75 30v234q-235 26 -237 356zM474 904l-117 -111h-60q11 19 38 62
q6 9 16.5 26.5l13.5 22.5h109z" />
    <glyph glyph-name="Thorn" unicode="&#xde;" horiz-adv-x="503" 
d="M89 110v-110h-69v710h69v-90h100q140 0 225 -70t85 -192q0 -120 -82 -184t-228 -64h-100zM89 173h122q109 0 160.5 50t51.5 135q0 96 -58.5 147.5t-160.5 51.5h-115v-384z" />
    <glyph glyph-name="germandbls" unicode="&#xdf;" horiz-adv-x="500" 
d="M316 0h-92v63h34q73 0 113.5 28.5t40.5 106.5q0 47 -12.5 76t-38 42t-50 16.5t-63.5 3.5h-24v62h25q62 0 98 26t36 95q0 127 -133 127q-72 -4 -95.5 -39t-23.5 -123v-484h-72v333h-46v65h46v119q0 108 50.5 150t160.5 42q80 0 132 -42t52 -139q0 -56 -31.5 -98.5
t-84.5 -59.5q68 -15 107.5 -63t39.5 -119q0 -80 -45 -134t-124 -54z" />
    <glyph glyph-name="agrave" unicode="&#xe0;" horiz-adv-x="483" 
d="M75 430l-55 102h221q93 -1 144.5 -50t51.5 -141v-288q6 -5 19 -27.5t18 -25.5h-99l-8 58q-60 -74 -178 -74q-78 0 -128.5 45t-50.5 116q0 80 63 123.5t167 43.5h127v33q0 74 -42.5 98t-128.5 24q-68 0 -97 -4zM246 253q-163 0 -163 -106q0 -43 33 -70.5t87 -27.5
q86 0 132 55q18 20 23.5 53t8.5 96h-121zM226 599l-118 111h110q10 -17 30 -49q17 -26 37 -62h-59z" />
    <glyph glyph-name="aacute" unicode="&#xe1;" horiz-adv-x="482" 
d="M74 430l-55 102h221q93 -1 144.5 -50t51.5 -141v-288q6 -5 19 -27.5t18 -25.5h-99l-8 58q-60 -74 -178 -74q-78 0 -128.5 45t-50.5 116q0 80 63 123.5t167 43.5h127v33q0 74 -42.5 98t-128.5 24q-68 0 -97 -4zM245 253q-163 0 -163 -106q0 -43 33 -70.5t87 -27.5
q86 0 132 55q18 20 23.5 53t8.5 96h-121zM335 710l-117 -111h-60q11 19 38 62q6 9 16.5 26.5l13.5 22.5h109z" />
    <glyph glyph-name="acircumflex" unicode="&#xe2;" horiz-adv-x="486" 
d="M76 430l-55 102h221q93 -1 144.5 -50t51.5 -141v-288q6 -5 19 -27.5t18 -25.5h-99l-8 58q-60 -74 -178 -74q-78 0 -128.5 45t-50.5 116q0 80 63 123.5t167 43.5h127v33q0 74 -42.5 98t-128.5 24q-68 0 -97 -4zM247 253q-163 0 -163 -106q0 -43 33 -70.5t87 -27.5
q86 0 132 55q18 20 23.5 53t8.5 96h-121zM241 661l-82 -88l-41 32l90 105h67l90 -115l-42 -24z" />
    <glyph glyph-name="atilde" unicode="&#xe3;" horiz-adv-x="484" 
d="M75 430l-55 102h221q93 -1 144.5 -50t51.5 -141v-288q6 -5 19 -27.5t18 -25.5h-99l-8 58q-60 -74 -178 -74q-78 0 -128.5 45t-50.5 116q0 80 63 123.5t167 43.5h127v33q0 74 -42.5 98t-128.5 24q-68 0 -97 -4zM246 253q-163 0 -163 -106q0 -43 33 -70.5t87 -27.5
q86 0 132 55q18 20 23.5 53t8.5 96h-121zM316 718h54q-16 -92 -73 -92q-30 0 -63 19q-22 14 -36 14q-18 0 -32 -43h-54q17 94 86 94q34 0 60 -18q24 -15 39 -15q12 0 19 41z" />
    <glyph glyph-name="adieresis" unicode="&#xe4;" horiz-adv-x="488" 
d="M77 430l-55 102h221q93 -1 144.5 -50t51.5 -141v-288q6 -5 19 -27.5t18 -25.5h-99l-8 58q-60 -74 -178 -74q-78 0 -128.5 45t-50.5 116q0 80 63 123.5t167 43.5h127v33q0 74 -42.5 98t-128.5 24q-68 0 -97 -4zM248 253q-163 0 -163 -106q0 -43 33 -70.5t87 -27.5
q86 0 132 55q18 20 23.5 53t8.5 96h-121zM211 640q0 -22 -17 -38.5t-40 -16.5q-22 0 -38.5 16.5t-16.5 38.5q0 23 16 39t39 16t40 -16t17 -39zM386 640q0 -22 -16.5 -38.5t-38.5 -16.5q-23 0 -39 16.5t-16 38.5q0 23 16 39t39 16q22 0 38.5 -16t16.5 -39z" />
    <glyph glyph-name="aring" unicode="&#xe5;" horiz-adv-x="484" 
d="M75 430l-55 102h221q93 -1 144.5 -50t51.5 -141v-288q6 -5 19 -27.5t18 -25.5h-99l-8 58q-60 -74 -178 -74q-78 0 -128.5 45t-50.5 116q0 80 63 123.5t167 43.5h127v33q0 74 -42.5 98t-128.5 24q-68 0 -97 -4zM246 253q-163 0 -163 -106q0 -43 33 -70.5t87 -27.5
q86 0 132 55q18 20 23.5 53t8.5 96h-121zM168 655q0 30 21.5 50.5t51.5 20.5t51 -20.5t21 -50.5q0 -29 -21.5 -50.5t-50.5 -21.5t-51 21.5t-22 50.5zM274 655q0 13 -10.5 24t-22.5 11q-13 0 -23.5 -11t-10.5 -24q0 -12 10.5 -23t23.5 -11q11 0 22 11t11 23z" />
    <glyph glyph-name="ae" unicode="&#xe6;" horiz-adv-x="886" 
d="M634 49l208 17v-82h-208q-122 0 -189 81v5v-4q-2 3 -7 7.5t-9 9t-6 8.5q-71 -63 -115 -85t-111 -22q-78 0 -128.5 45t-50.5 116q0 80 63 123.5t167 43.5h127v33q0 74 -42.5 98t-128.5 24q-68 0 -97 -4l-24 -33l-55 102h221q138 -2 180 -101q70 101 205 101q112 0 174 -84
t62 -202q0 -7 -7 -7h-406q7 -79 49 -129t108 -60q2 0 9 -0.5t11 -0.5zM254 253q-163 0 -163 -106q0 -43 33 -70.5t87 -27.5q86 0 132 55q18 20 23.5 53t8.5 96h-121zM634 466q-69 0 -117 -47t-60 -116h331q-9 70 -50.5 116.5t-103.5 46.5zM445 53q1 -1 1 2v5l-1 5v1v-13z
" />
    <glyph glyph-name="ccedilla" unicode="&#xe7;" horiz-adv-x="488" 
d="M480 532l-77 -102q0 2 -65.5 20.5t-66.5 17.5q-83 0 -134 -59.5t-51 -144.5q0 -93 48 -154t129 -61q50 0 93.5 18.5t64.5 55.5l46 -25q-67 -114 -203 -114q-118 0 -185.5 77.5t-67.5 202.5q0 122 71 195t194 73h204zM223 -150q-39 0 -69 25l22 42q19 -32 47 -32
q21 0 36.5 17.5t15.5 41.5q0 22 -13.5 39t-34.5 21l19 33q35 -9 56.5 -34.5t21.5 -58.5q0 -39 -29.5 -66.5t-71.5 -27.5z" />
    <glyph glyph-name="egrave" unicode="&#xe8;" 
d="M263 49l208 17v-82h-208q-119 0 -186 78.5t-67 206.5q0 112 68.5 187.5t184.5 75.5q112 0 174 -84t62 -202q0 -7 -7 -7h-406q7 -79 49 -129t108 -60q2 0 9 -0.5t11 -0.5zM263 466q-69 0 -117 -47t-60 -116h331q-9 70 -50.5 116.5t-103.5 46.5zM253 599l-118 111h110
q10 -17 30 -49q17 -26 37 -62h-59z" />
    <glyph glyph-name="eacute" unicode="&#xe9;" horiz-adv-x="507" 
d="M262 49l208 17v-82h-208q-119 0 -186 78.5t-67 206.5q0 112 68.5 187.5t184.5 75.5q112 0 174 -84t62 -202q0 -7 -7 -7h-406q7 -79 49 -129t108 -60q2 0 9 -0.5t11 -0.5zM262 466q-69 0 -117 -47t-60 -116h331q-9 70 -50.5 116.5t-103.5 46.5zM400 710l-117 -111h-60
q11 19 38 62q6 9 16.5 26.5l13.5 22.5h109z" />
    <glyph glyph-name="ecircumflex" unicode="&#xea;" horiz-adv-x="509" 
d="M264 49l208 17v-82h-208q-119 0 -186 78.5t-67 206.5q0 112 68.5 187.5t184.5 75.5q112 0 174 -84t62 -202q0 -7 -7 -7h-406q7 -79 49 -129t108 -60q2 0 9 -0.5t11 -0.5zM264 466q-69 0 -117 -47t-60 -116h331q-9 70 -50.5 116.5t-103.5 46.5zM259 661l-82 -88l-41 32
l90 105h67l90 -115l-42 -24z" />
    <glyph glyph-name="edieresis" unicode="&#xeb;" horiz-adv-x="511" 
d="M229 640q0 -22 -17 -38.5t-40 -16.5q-22 0 -38.5 16.5t-16.5 38.5q0 23 16 39t39 16t40 -16t17 -39zM404 640q0 -22 -16.5 -38.5t-38.5 -16.5q-23 0 -39 16.5t-16 38.5q0 23 16 39t39 16q22 0 38.5 -16t16.5 -39zM265 49l208 17v-82h-208q-119 0 -186 78.5t-67 206.5
q0 112 68.5 187.5t184.5 75.5q112 0 174 -84t62 -202q0 -7 -7 -7h-406q7 -79 49 -129t108 -60q2 0 9 -0.5t11 -0.5zM265 466q-69 0 -117 -47t-60 -116h331q-9 70 -50.5 116.5t-103.5 46.5z" />
    <glyph glyph-name="igrave" unicode="&#xec;" horiz-adv-x="237" 
d="M29 0v27l67 27v409l-71 27v26h140v-462q27 -12 67 -27v-27h-203zM124 599l-118 111h110q10 -17 30 -49q17 -26 37 -62h-59z" />
    <glyph glyph-name="iacute" unicode="&#xed;" horiz-adv-x="239" 
d="M10 0v27l67 27v409l-71 27v26h140v-462q27 -12 67 -27v-27h-203zM233 710l-117 -111h-60q11 19 38 62q6 9 16.5 26.5l13.5 22.5h109z" />
    <glyph glyph-name="icircumflex" unicode="&#xee;" horiz-adv-x="263" 
d="M34 0v27l67 27v409l-71 27v26h140v-462q27 -12 67 -27v-27h-203zM131 661l-82 -88l-41 32l90 105h67l90 -115l-42 -24z" />
    <glyph glyph-name="idieresis" unicode="&#xef;" horiz-adv-x="307" 
d="M55 0v27l67 27v409l-71 27v26h140v-462q27 -12 67 -27v-27h-203zM122 640q0 -22 -17 -38.5t-40 -16.5q-22 0 -38.5 16.5t-16.5 38.5q0 23 16 39t39 16t40 -16t17 -39zM297 640q0 -22 -16.5 -38.5t-38.5 -16.5q-23 0 -39 16.5t-16 38.5q0 23 16 39t39 16q22 0 38.5 -16
t16.5 -39z" />
    <glyph glyph-name="eth" unicode="&#xf0;" horiz-adv-x="517" 
d="M244 480l-40 56l106 73q-32 21 -70 21q-113 0 -146 -63l-56 33q50 95 193 95q81 0 139 -46q30 21 93 63l40 -56l-86 -59q66 -104 66 -303q0 -138 -60.5 -224t-180.5 -86q-100 0 -165 65t-65 164q0 94 63.5 157t159.5 63q58 0 104 -25.5t71 -71.5q-2 140 -52 222
q-14 -9 -54 -36.5t-60 -41.5zM240 373q-65 0 -111 -45.5t-46 -111.5q0 -70 45 -118t114 -48q67 0 114 47t47 114q0 68 -47.5 115t-115.5 47z" />
    <glyph glyph-name="ntilde" unicode="&#xf1;" horiz-adv-x="574" 
d="M10 490v26h141v-77q59 93 161 93q90 0 136 -55.5t46 -158.5v-264l71 -27v-27h-211v27l70 27v254q0 154 -117 154q-60 0 -108 -52t-48 -105v-251l71 -27v-27h-212v27l71 27v409zM359 710h54q-16 -92 -73 -92q-30 0 -63 19q-22 14 -36 14q-18 0 -32 -43h-54q17 94 86 94
q34 0 60 -18q24 -15 39 -15q12 0 19 41z" />
    <glyph glyph-name="ograve" unicode="&#xf2;" horiz-adv-x="523" 
d="M439 264q0 83 -48.5 143t-127.5 60q-80 0 -129 -60t-49 -143q0 -93 48 -154t129 -61t129 61t48 154zM263 532q115 0 183 -76.5t68 -191.5q0 -125 -67.5 -202.5t-183.5 -77.5q-118 0 -185.5 77.5t-67.5 202.5q0 115 68 191.5t185 76.5zM255 599l-118 111h110
q10 -17 30 -49q17 -26 37 -62h-59z" />
    <glyph glyph-name="oacute" unicode="&#xf3;" horiz-adv-x="524" 
d="M438 264q0 83 -48.5 143t-127.5 60q-80 0 -129 -60t-49 -143q0 -93 48 -154t129 -61t129 61t48 154zM262 532q115 0 183 -76.5t68 -191.5q0 -125 -67.5 -202.5t-183.5 -77.5q-118 0 -185.5 77.5t-67.5 202.5q0 115 68 191.5t185 76.5zM390 710l-117 -111h-60q11 19 38 62
q6 9 16.5 26.5l13.5 22.5h109z" />
    <glyph glyph-name="ocircumflex" unicode="&#xf4;" horiz-adv-x="526" 
d="M440 264q0 83 -48.5 143t-127.5 60q-80 0 -129 -60t-49 -143q0 -93 48 -154t129 -61t129 61t48 154zM264 532q115 0 183 -76.5t68 -191.5q0 -125 -67.5 -202.5t-183.5 -77.5q-118 0 -185.5 77.5t-67.5 202.5q0 115 68 191.5t185 76.5zM259 661l-82 -88l-41 32l90 105h67
l90 -115l-42 -24z" />
    <glyph glyph-name="otilde" unicode="&#xf5;" horiz-adv-x="526" 
d="M440 264q0 83 -48.5 143t-127.5 60q-80 0 -129 -60t-49 -143q0 -93 48 -154t129 -61t129 61t48 154zM264 532q115 0 183 -76.5t68 -191.5q0 -125 -67.5 -202.5t-183.5 -77.5q-118 0 -185.5 77.5t-67.5 202.5q0 115 68 191.5t185 76.5zM339 710h54q-16 -92 -73 -92
q-30 0 -63 19q-22 14 -36 14q-18 0 -32 -43h-54q17 94 86 94q34 0 60 -18q24 -15 39 -15q12 0 19 41z" />
    <glyph glyph-name="odieresis" unicode="&#xf6;" horiz-adv-x="528" 
d="M441 264q0 83 -48.5 143t-127.5 60q-80 0 -129 -60t-49 -143q0 -93 48 -154t129 -61t129 61t48 154zM265 532q115 0 183 -76.5t68 -191.5q0 -125 -67.5 -202.5t-183.5 -77.5q-118 0 -185.5 77.5t-67.5 202.5q0 115 68 191.5t185 76.5zM235 655q0 -22 -17 -38.5t-40 -16.5
q-22 0 -38.5 16.5t-16.5 38.5q0 23 16 39t39 16t40 -16t17 -39zM410 655q0 -22 -16.5 -38.5t-38.5 -16.5q-23 0 -39 16.5t-16 38.5q0 23 16 39t39 16q22 0 38.5 -16t16.5 -39z" />
    <glyph glyph-name="divide" unicode="&#xf7;" horiz-adv-x="415" 
d="M145 63q0 27 18 45.5t45 18.5q26 0 44 -18.5t18 -45.5q0 -26 -18 -44.5t-44 -18.5q-27 0 -45 18.5t-18 44.5zM145 463q0 26 18 44.5t45 18.5q26 0 44 -18.5t18 -44.5q0 -27 -18 -45.5t-44 -18.5q-27 0 -45 18.5t-18 45.5zM4 318h407v-70h-407v70z" />
    <glyph glyph-name="oslash" unicode="&#xf8;" horiz-adv-x="527" 
d="M260 525q66 0 119 -28l59 103h78l-82 -143q75 -75 75 -197t-67 -199t-182 -77q-47 0 -87 14l-50 -88h-82l69 120q-99 74 -99 230q0 114 67 189.5t182 75.5zM84 260q0 -111 61 -169l200 348q-39 23 -85 23q-80 0 -128 -59.5t-48 -142.5zM436 260q0 74 -39 130l-191 -335
q26 -8 53 -8q81 0 129 60.5t48 152.5z" />
    <glyph glyph-name="ugrave" unicode="&#xf9;" horiz-adv-x="571" 
d="M9 489v27h141v-308q0 -154 118 -154q60 0 107.5 51.5t47.5 105.5v251l-70 27v27h140v-462l71 -27v-27h-141v76q-56 -92 -160 -92q-91 0 -137 55t-46 159v264zM250 599l-118 111h110q10 -17 30 -49q17 -26 37 -62h-59z" />
    <glyph glyph-name="uacute" unicode="&#xfa;" horiz-adv-x="572" 
d="M8 489v27h141v-308q0 -154 118 -154q60 0 107.5 51.5t47.5 105.5v251l-70 27v27h140v-462l71 -27v-27h-141v76q-56 -92 -160 -92q-91 0 -137 55t-46 159v264zM393 710l-117 -111h-60q11 19 38 62q6 9 16.5 26.5l13.5 22.5h109z" />
    <glyph glyph-name="ucircumflex" unicode="&#xfb;" horiz-adv-x="573" 
d="M9 489v27h141v-308q0 -154 118 -154q60 0 107.5 51.5t47.5 105.5v251l-70 27v27h140v-462l71 -27v-27h-141v76q-56 -92 -160 -92q-91 0 -137 55t-46 159v264zM262 661l-82 -88l-41 32l90 105h67l90 -115l-42 -24z" />
    <glyph glyph-name="udieresis" unicode="&#xfc;" horiz-adv-x="574" 
d="M10 489v27h141v-308q0 -154 118 -154q60 0 107.5 51.5t47.5 105.5v251l-70 27v27h140v-462l71 -27v-27h-141v76q-56 -92 -160 -92q-91 0 -137 55t-46 159v264zM218 659q0 -22 -17 -38.5t-40 -16.5q-22 0 -38.5 16.5t-16.5 38.5q0 23 16 39t39 16t40 -16t17 -39zM393 659
q0 -22 -16.5 -38.5t-38.5 -16.5q-23 0 -39 16.5t-16 38.5q0 23 16 39t39 16q22 0 38.5 -16t16.5 -39z" />
    <glyph glyph-name="yacute" unicode="&#xfd;" horiz-adv-x="503" 
d="M44 -226l77 102q0 -3 118 -41h10q67 0 118.5 45.5t51.5 115.5v80q-56 -92 -161 -92q-90 0 -136 55t-46 159v264l-71 27v27h141v-308q0 -154 117 -154q60 0 108 51.5t48 105.5v251l-70 27v27h140v-509q0 -105 -59 -170t-184 -65q-61 0 -83 2h-119zM389 710l-117 -111h-60
q11 19 38 62q6 9 16.5 26.5l13.5 22.5h109z" />
    <glyph glyph-name="thorn" unicode="&#xfe;" horiz-adv-x="522" 
d="M148 -219h-67v866q-11 8 -34.5 26t-34.5 26h139v-253q67 69 139 69q105 0 167 -79.5t62 -191.5t-61.5 -191t-167.5 -79q-81 0 -139 63q-1 -7 -2 -22.5t-1 -23.5v-210zM151 328v-168q20 -50 57.5 -85.5t82.5 -35.5q70 0 112 61t42 143q0 83 -42 145t-113 62q-44 0 -81 -36
t-58 -86z" />
    <glyph glyph-name="ydieresis" unicode="&#xff;" 
d="M46 -226l77 102q0 -3 118 -41h10q67 0 118.5 45.5t51.5 115.5v80q-56 -92 -161 -92q-90 0 -136 55t-46 159v264l-71 27v27h141v-308q0 -154 117 -154q60 0 108 51.5t48 105.5v251l-70 27v27h140v-509q0 -105 -59 -170t-184 -65q-61 0 -83 2h-119zM210 659
q0 -22 -17 -38.5t-40 -16.5q-22 0 -38.5 16.5t-16.5 38.5q0 23 16 39t39 16t40 -16t17 -39zM385 659q0 -22 -16.5 -38.5t-38.5 -16.5q-23 0 -39 16.5t-16 38.5q0 23 16 39t39 16q22 0 38.5 -16t16.5 -39z" />
    <glyph glyph-name="dotlessi" unicode="&#x131;" horiz-adv-x="108" 
d="M20 0v516h66v-516h-66z" />
    <glyph glyph-name="Lslash" unicode="&#x141;" horiz-adv-x="529" 
d="M15 670v40h134v-387l247 134l31 -59l-278 -150v-180h317l30 47h30v-115h-456v207l-17 -9l-31 58l48 26v369l-34 19h-21z" />
    <glyph glyph-name="lslash" unicode="&#x142;" horiz-adv-x="368" 
d="M51 683v27h140v-367l136 109l38 -48l-174 -140v-160q0 -7 3.5 -16.5t8.5 -17t9 -6.5l50 12v-76h-75h-5h-1l-1 1q-3 0 -5 1q-7 2 -21 10q-2 1 -4 3q-28 21 -28 54v140l-78 -62l-38 48l116 92v369z" />
    <glyph glyph-name="OE" unicode="&#x152;" horiz-adv-x="864" 
d="M800 597l-20 45h-313v-239h232v-69h-232v-266h325q3 10 10 41t10 41h33v-150h-499v-2h-2q-145 0 -237 100t-92 262q0 144 88.5 243.5t224.5 105.5v1h502v-113h-30zM92 360q0 -133 69.5 -214t182.5 -81h47v577h-47q-112 0 -182 -79t-70 -203z" />
    <glyph glyph-name="oe" unicode="&#x153;" horiz-adv-x="950" 
d="M446 264q0 83 -48.5 143t-127.5 60q-80 0 -129 -60t-49 -143q0 -93 48 -154t129 -61t129 61t48 154zM270 532q115 0 183 -76.5t68 -191.5q0 -125 -67.5 -202.5t-183.5 -77.5q-118 0 -185.5 77.5t-67.5 202.5q0 115 68 191.5t185 76.5zM697 49l208 17v-82h-208
q-119 0 -186 78.5t-67 206.5q0 112 68.5 187.5t184.5 75.5q112 0 174 -84t62 -202q0 -7 -7 -7h-406q7 -79 49 -129t108 -60q2 0 9 -0.5t11 -0.5zM697 466q-69 0 -117 -47t-60 -116h331q-9 70 -50.5 116.5t-103.5 46.5z" />
    <glyph glyph-name="Scaron" unicode="&#x160;" horiz-adv-x="521" 
d="M40 86l65 62q19 -47 60.5 -70t94.5 -23q71 0 120.5 34.5t49.5 93.5q0 26 -11 46.5t-27 34t-44.5 26t-52.5 19.5t-62 17q-109 30 -166.5 73.5t-57.5 125.5q0 94 70 147.5t175 53.5q122 0 198 -69l29 53h30v-162h-57q-13 51 -78.5 80t-117.5 28q-75 0 -121.5 -32t-46.5 -91
q0 -56 41.5 -84t132.5 -52q48 -13 77.5 -22.5t65.5 -26.5t56 -37t34 -51t14 -71q0 -102 -73 -153t-192 -52q-55 0 -111 29t-95 73zM171 920l82 -87q8 10 18 20q11 11 33.5 35.5t32.5 34.5l40 -23l-83 -105h-81l-82 102z" />
    <glyph glyph-name="scaron" unicode="&#x161;" horiz-adv-x="438" 
d="M423 532l-77 -102q0 1 -56 18t-68 20h-1q-51 0 -84.5 -20.5t-33.5 -62.5q0 -18 10 -31.5t32.5 -23.5t40.5 -15.5t52 -14.5q41 -11 67 -20t58 -26.5t48 -44t16 -62.5q0 -78 -58 -120.5t-150 -42.5q-51 0 -99.5 21.5t-109.5 84.5l52 45q24 -45 67.5 -67.5t96.5 -22.5
q56 0 93.5 25t37.5 70q0 21 -11 37t-35.5 27.5t-43.5 17.5t-54 15q-36 9 -54 14.5t-47.5 18t-44 25.5t-26.5 34.5t-12 48.5q0 76 53.5 115t132.5 39h4h204zM146 726l82 -87q8 10 18 20q11 11 33.5 35.5t32.5 34.5l40 -23l-83 -105h-81l-82 102z" />
    <glyph glyph-name="Ydieresis" unicode="&#x178;" horiz-adv-x="702" 
d="M5 680v30h226v-30l-76 -30q1 -66 9 -114t28 -93t60 -68.5t100 -23.5q49 0 84.5 16.5t56 42.5t33 67t16.5 80.5t5 92.5l-74 30v30h224v-30l-74 -31q-6 -331 -231 -355v-234l72 -30v-30h-223v30l75 30v234q-235 26 -237 356zM320 834q0 -22 -17 -38.5t-40 -16.5
q-22 0 -38.5 16.5t-16.5 38.5q0 23 16 39t39 16t40 -16t17 -39zM495 834q0 -22 -16.5 -38.5t-38.5 -16.5q-23 0 -39 16.5t-16 38.5q0 23 16 39t39 16q22 0 38.5 -16t16.5 -39z" />
    <glyph glyph-name="Zcaron" unicode="&#x17d;" horiz-adv-x="545" 
d="M20 569v141h500v-84l-396 -557h351l30 73h30v-142h-525v69l433 572h-363l-30 -72h-30zM189 920l82 -87q8 10 18 20q11 11 33.5 35.5t32.5 34.5l40 -23l-83 -105h-81l-82 102z" />
    <glyph glyph-name="zcaron" unicode="&#x17e;" horiz-adv-x="430" 
d="M24 392v124h383v-61l-313 -391h271q0 1 1 1l27 62h24v-127h-405v62l319 391h-254l-27 -61h-26zM131 726l82 -87q8 10 18 20q11 11 33.5 35.5t32.5 34.5l40 -23l-83 -105h-81l-82 102z" />
    <glyph glyph-name="florin" unicode="&#x192;" horiz-adv-x="444" 
d="M439 576l-67 79q-24 -1 -41.5 -13.5t-26.5 -28.5t-15 -45.5t-8 -49.5t-4 -54h123l-1 -33q-2 -15 -2 -19q0 -2 -0.5 -6.5t-0.5 -5.5h-124q-28 -291 -35 -362q-18 -220 -157 -220q-39 0 -75 21l18 132h2l35 -88q4 -1 14 -1q32 0 55 29.5t28 67.5q3 25 8 76.5t7 76.5
q23 237 27 268h-82q0 4 0.5 9.5t1.5 12.5t1 11q0 5 1 15.5t1 15.5h82q3 54 9.5 93t22 80t46.5 63t77 22q5 0 31 -2q47 -4 49 -4v-140z" />
    <glyph glyph-name="circumflex" unicode="&#x2c6;" horiz-adv-x="267" 
d="M133 661l-82 -88l-41 32l90 105h67l90 -115l-42 -24z" />
    <glyph glyph-name="caron" unicode="&#x2c7;" horiz-adv-x="267" 
d="M51 726l82 -87q8 10 18 20q11 11 33.5 35.5t32.5 34.5l40 -23l-83 -105h-81l-82 102z" />
    <glyph glyph-name="breve" unicode="&#x2d8;" horiz-adv-x="238" 
d="M179 704q0 2 -2 6h48v-6q0 -43 -31 -74t-75 -31q-43 0 -74.5 31t-31.5 74v6h47v-6q0 -22 18.5 -41t40.5 -19t41 19t19 41z" />
    <glyph glyph-name="dotaccent" unicode="&#x2d9;" horiz-adv-x="136" 
d="M122 672q0 -21 -16 -37t-38 -16t-38 16t-16 37q0 22 16 38t38 16t38 -16t16 -38z" />
    <glyph glyph-name="ring" unicode="&#x2da;" horiz-adv-x="173" 
d="M14 655q0 30 21.5 50.5t51.5 20.5t51 -20.5t21 -50.5q0 -29 -21.5 -50.5t-50.5 -21.5t-51 21.5t-22 50.5zM120 655q0 13 -10.5 24t-22.5 11q-13 0 -23.5 -11t-10.5 -24q0 -12 10.5 -23t23.5 -11q11 0 22 11t11 23z" />
    <glyph glyph-name="ogonek" unicode="&#x2db;" horiz-adv-x="199" 
d="M125 -190q12 0 30 2l37 -38q-1 0 -4 -0.5t-4 -0.5q-43 -10 -76 -10q-37 0 -65.5 23.5t-28.5 70.5q0 22 14 69.5t31 73.5h76q-27 -27 -47.5 -72t-20.5 -64q0 -22 19.5 -38t38.5 -16z" />
    <glyph glyph-name="tilde" unicode="&#x2dc;" horiz-adv-x="285" 
d="M218 718h54q-16 -92 -73 -92q-30 0 -63 19q-22 14 -36 14q-18 0 -32 -43h-54q17 94 86 94q34 0 60 -18q24 -15 39 -15q12 0 19 41z" />
    <glyph glyph-name="hungarumlaut" unicode="&#x2dd;" horiz-adv-x="254" 
d="M97 688q-1 -1 -3 -7.5t-4 -10.5q-10 -20 -22 -61l-49 3q2 22 2 32q0 3 -0.5 7t-0.5 6v10q0 25 12 42t35 17q14 0 22.5 -8.5t8.5 -22.5q0 -1 -0.5 -2t-0.5 -2v-3zM237 688q-1 -1 -3 -7.5t-4 -10.5q-10 -20 -22 -61l-48 3q2 22 2 32q0 3 -0.5 7t-0.5 6v10q0 25 11.5 42
t34.5 17q14 0 22.5 -8.5t8.5 -22.5q0 -1 -0.5 -2t-0.5 -2v-3z" />
    <glyph glyph-name="endash" unicode="&#x2013;" horiz-adv-x="453" 
d="M20 236v63h413v-63h-413z" />
    <glyph glyph-name="emdash" unicode="&#x2014;" horiz-adv-x="750" 
d="M20 236v63h710v-63h-710z" />
    <glyph glyph-name="quoteleft" unicode="&#x2018;" horiz-adv-x="144" 
d="M85 726h54l-53 -69q-5 -5 -5 -10t2 -20t3 -15q-2 -14 -12.5 -24t-24.5 -10q-16 0 -27 11t-11 27q0 21 17 46t57 64z" />
    <glyph glyph-name="quoteright" unicode="&#x2019;" horiz-adv-x="144" 
d="M61 578h-55l54 69q5 5 5 9l-3 15q-3 9 -3 18q0 15 11 26t26 11q16 0 27 -11t11 -26q0 -22 -16.5 -46t-56.5 -65z" />
    <glyph glyph-name="quotesinglbase" unicode="&#x201a;" horiz-adv-x="179" 
d="M59 -73h-51q18 17 40.5 46.5t26.5 42.5q-31 22 -31 47q0 27 18.5 45.5t44.5 18.5q27 0 45 -18.5t18 -45.5q0 -49 -91 -119q-12 -9 -20 -17z" />
    <glyph glyph-name="quotedblleft" unicode="&#x201c;" horiz-adv-x="306" 
d="M240 726h54l-53 -69q-5 -5 -5 -10t2 -20t3 -15q-2 -14 -12.5 -24t-24.5 -10q-15 0 -26 11t-11 27q0 37 73 110zM89 726h54l-53 -69q-5 -5 -5 -10t2 -20t3 -15q-2 -14 -12.5 -24t-24.5 -10q-16 0 -27 11t-11 27q0 21 17 46t57 64z" />
    <glyph glyph-name="quotedblright" unicode="&#x201d;" horiz-adv-x="307" 
d="M68 571h-56l50 67q8 8 8 13t-2 11q-4 12 -4 21q0 15 12 26.5t28 11.5t28 -11.5t12 -26.5q0 -22 -17.5 -46.5t-58.5 -65.5zM218 571h-58l52 67q8 8 8 13t-2 11q-4 12 -4 21q0 15 12 26.5t28 11.5q15 0 26.5 -11.5t11.5 -26.5q0 -22 -17 -47t-57 -65z" />
    <glyph glyph-name="quotedblbase" unicode="&#x201e;" horiz-adv-x="421" 
d="M65 -73h-50q18 18 40 47t26 42q-31 22 -31 47q0 27 18.5 45.5t45.5 18.5q26 0 44.5 -18.5t18.5 -45.5q0 -49 -91 -119q-18 -14 -21 -17zM295 -73h-51q18 18 40 47t26 42q-30 21 -30 47q0 27 18 45.5t45 18.5t45 -18.5t18 -45.5q0 -22 -16 -45.5t-29.5 -35.5t-38.5 -32
q-21 -16 -27 -23z" />
    <glyph glyph-name="dagger" unicode="&#x2020;" horiz-adv-x="372" 
d="M152 320h-150v65h150v324h69v-324h149v-65h-149v-420h-69v420z" />
    <glyph glyph-name="daggerdbl" unicode="&#x2021;" horiz-adv-x="375" 
d="M153 366h-150v65h150v278h69v-278h150v-65h-150v-172h150v-67h-150v-227h-69v227h-150v67h150v172z" />
    <glyph glyph-name="bullet" unicode="&#x2022;" horiz-adv-x="274" 
d="M14 238q0 52 36 88t87 36q52 0 87.5 -36t35.5 -88q0 -51 -35.5 -86.5t-87.5 -35.5q-51 0 -87 35.5t-36 86.5z" />
    <glyph glyph-name="ellipsis" unicode="&#x2026;" horiz-adv-x="755" 
d="M19 63q0 27 18.5 45.5t44.5 18.5t44.5 -18.5t18.5 -45.5q0 -26 -18.5 -44.5t-44.5 -18.5t-44.5 18.5t-18.5 44.5zM314 63q0 27 18.5 45.5t44.5 18.5q27 0 45 -18.5t18 -45.5q0 -26 -18 -44.5t-45 -18.5q-26 0 -44.5 18.5t-18.5 44.5zM609 63q0 27 18.5 45.5t45.5 18.5
q26 0 44.5 -18.5t18.5 -45.5q0 -26 -18.5 -44.5t-44.5 -18.5q-27 0 -45.5 18.5t-18.5 44.5z" />
    <glyph glyph-name="perthousand" unicode="&#x2030;" horiz-adv-x="871" 
d="M147 658q-37 0 -58 -35t-21 -82q0 -48 21 -83t58 -35q38 0 60 35.5t22 82.5t-22.5 82t-59.5 35zM481 706l46 -19l-174 -302q-147 -259 -222 -388l-46 17zM147 707q59 0 96.5 -48.5t37.5 -117.5q0 -70 -37.5 -118.5t-96.5 -48.5q-57 0 -94.5 48.5t-37.5 118.5
q0 69 37.5 117.5t94.5 48.5zM444 318q58 0 95 -48.5t37 -118.5t-36.5 -118.5t-95.5 -48.5t-96 48.5t-37 118.5q0 69 37 118t96 49zM444 269q-37 0 -59 -35.5t-22 -82.5t21.5 -82t59.5 -35t59 35t21 82t-22 82.5t-58 35.5zM729 318q59 0 96 -49t37 -118q0 -70 -37 -118.5
t-96 -48.5t-95.5 48.5t-36.5 118.5t37 118.5t95 48.5zM729 269q-37 0 -58.5 -36t-21.5 -82q0 -47 21.5 -82t58.5 -35q38 0 59.5 35t21.5 82t-22 82.5t-59 35.5z" />
    <glyph glyph-name="guilsinglleft" unicode="&#x2039;" horiz-adv-x="210" 
d="M125 60l-121 205l121 204h71l-120 -205q11 -19 36.5 -61t37.5 -64q17 -27 46 -79h-71z" />
    <glyph glyph-name="guilsinglright" unicode="&#x203a;" horiz-adv-x="207" 
d="M203 264l-120 -203h-69l120 204q-21 37 -70 118.5t-50 83.5h69z" />
    <glyph glyph-name="fraction" unicode="&#x2044;" horiz-adv-x="492" 
d="M84 0h-82l411 710h78z" />
    <glyph glyph-name="Euro" unicode="&#x20ac;" horiz-adv-x="561" 
d="M9 302v45h59v26h-59v45h63q17 125 87.5 201.5t173.5 76.5q121 0 194 -116q3 -2 10 -8.5t10 -9.5l-74 -58l2 38q-55 87 -142 87q-77 0 -129.5 -58.5t-68.5 -152.5h227v-45h-231v-26h231v-45h-230q11 -113 64.5 -181.5t136.5 -68.5q88 0 145 92q0 6 -4 22q-3 12 -3 19
l78 -54q-47 -70 -98.5 -108.5t-117.5 -38.5q-109 0 -180.5 87t-83.5 231h-60z" />
    <glyph glyph-name="trademark" unicode="&#x2122;" horiz-adv-x="815" 
d="M32 657h-17v56h294v-56h-16l-15 20h-94v-308l40 -16v-16h-121v16l41 16v308h-97zM758 369l40 -16v-16h-120v16l40 16v303q-5 -12 -86 -207q-17 -42 -53 -128h-39l-130 321v-289l39 -16v-16h-119v16l39 16v348h58l133 -337q8 21 23 60.5t27.5 71.5t24.5 60q38 96 57 145
h66v-348z" />
    <glyph glyph-name="minus" unicode="&#x2212;" horiz-adv-x="447" 
d="M20 333h407v-60h-407v60z" />
    <glyph glyph-name="percent" horiz-adv-x="610" 
d="M143 666q-38 0 -61 -37t-23 -86q0 -48 23 -85t61 -37q40 0 63 37t23 85q0 49 -23.5 86t-62.5 37zM487 710l37 -18q-115 -196 -186 -320q-105 -186 -213 -372l-42 14zM143 710q58 0 95 -49t37 -118t-37 -117t-95 -48q-57 0 -93.5 48t-36.5 117t36.5 118t93.5 49zM465 316
q57 0 93.5 -48.5t36.5 -117.5t-36.5 -117.5t-93.5 -48.5q-58 0 -95 48.5t-37 117.5t37 117.5t95 48.5zM465 272q-39 0 -62 -37t-23 -85q0 -49 23 -85.5t62 -36.5t61 36.5t22 85.5t-22.5 85.5t-60.5 36.5z" />
    <glyph glyph-name="zero.taboldstyle" horiz-adv-x="396" 
d="M200 451q-45 0 -75.5 -32t-42.5 -75.5t-12 -94.5t12 -97t42.5 -81t75.5 -35q44 0 74 34.5t42 81t12 97.5q0 81 -32 141.5t-96 60.5zM200 497q90 0 135.5 -69.5t45.5 -178.5q0 -111 -46 -185.5t-135 -74.5q-91 0 -138 74t-47 186q0 109 47 178.5t138 69.5z" />
    <glyph glyph-name="one.taboldstyle" horiz-adv-x="219" 
d="M62 0v18l50 21v397q-2 -1 -25 -14q-45 -27 -64 -36l-18 -10v70l33 -1l1 1h1q4 0 4 2q35 19 67 38h51v-447l47 -21v-18h-147z" />
    <glyph glyph-name="two.taboldstyle" horiz-adv-x="362" 
d="M32 393v93h22l11 -38q56 48 124 51q67 -2 111.5 -37t44.5 -92q0 -36 -23 -73.5t-44.5 -57.5t-56.5 -47q-110 -87 -137 -145h217l21 47h22v-94h-327v7q0 11 3 22q6 35 36 74.5t68.5 73t76.5 66t63.5 64.5t25.5 58q0 35 -34.5 60.5t-75.5 25.5q-38 0 -68 -19t-38 -39h-42z
" />
    <glyph glyph-name="six.taboldstyle" horiz-adv-x="504" 
d="M472 696v-148q0 3 -30.5 23.5t-82.5 41t-94 17.5q-88 0 -131 -75.5t-46 -199.5q25 45 73.5 71t104.5 26q99 0 160.5 -63.5t61.5 -163.5q0 -103 -64 -172t-165 -69q-120 0 -182 85.5t-62 225.5q0 401 249 401q36 0 91 -23t57 -24l30 47h30zM261 386q-74 0 -120 -46.5
t-46 -119.5q0 -68 50.5 -119t116.5 -51q69 0 110.5 49t41.5 124q0 69 -42 116t-111 47z" />
    <glyph glyph-name="eight.taboldstyle" horiz-adv-x="504" 
d="M14 187q0 62 38 108.5t97 64.5q-55 27 -86 61.5t-31 89.5q0 86 66.5 135.5t153.5 49.5t153 -49.5t66 -135.5q0 -52 -31.5 -92t-81.5 -59q60 -21 96 -66.5t36 -108.5q0 -94 -70 -147.5t-170 -53.5q-99 0 -167.5 55.5t-68.5 147.5zM103 509q0 -59 44.5 -95.5t104.5 -36.5
t104 37t44 96q0 57 -44.5 89t-104.5 32t-104 -32.5t-44 -89.5zM90 187q0 -63 48.5 -100t113.5 -37t114 37.5t49 100.5q0 65 -49 102.5t-115 37.5q-65 0 -113 -38.5t-48 -102.5z" />
    <glyph glyph-name="three.taboldstyle" horiz-adv-x="450" 
d="M15 348v131l30 1l16 -55q28 27 78 51.5t88 19.5q85 -4 142 -53t57 -131q0 -56 -31.5 -95t-85.5 -53q57 -17 92 -67t35 -117q0 -89 -65.5 -142.5t-161.5 -53.5q-78 0 -130.5 31.5t-58.5 91.5h89q9 -57 99 -57q68 0 110.5 35t42.5 99q0 68 -44 107t-127 39h-21v65h23
q72 0 115.5 29.5t43.5 87.5q0 53 -40 85.5t-98 32.5q-104 0 -141 -82h-57z" />
    <glyph glyph-name="four.taboldstyle" horiz-adv-x="505" 
d="M494 86v-119h-98v-112l65 -30v-25h-206v25l69 30v112h-321v79q43 58 129 172q31 41 95 129.5t97 132.5h72v-449h53l30 55h15zM324 29l3 360q-169 -239 -257 -360h254z" />
    <glyph glyph-name="five.taboldstyle" horiz-adv-x="469" 
d="M392 349l-30 66h-240q-5 -35 -16 -136q-2 -14 -5 -41.5t-5 -42.5q55 57 138 57q96 0 158 -64.5t62 -161.5q0 -105 -65.5 -173.5t-165.5 -68.5q-123 0 -188 65l70 39q31 -38 115 -38q71 0 114.5 50.5t43.5 126.5q0 71 -42.5 115t-110.5 44q-47 0 -85 -24t-56 -66h-67l-3 3
q6 100 46 381h362v-131h-30z" />
    <glyph glyph-name="seven.taboldstyle" horiz-adv-x="500" 
d="M255 -200h-201v25l60 30q96 192 274 560h-303l-30 -66h-40v131h481l-299 -625l58 -30v-25z" />
    <glyph glyph-name="nine.taboldstyle" horiz-adv-x="498" 
d="M231 -216q-105 0 -167 71l64 36q12 -28 36 -34.5t76 -6.5q44 0 77.5 25t52.5 67.5t29 93t11 108.5q-25 -46 -71 -72t-104 -26q-95 0 -159 64t-64 157q0 99 65 164t165 65q120 0 180.5 -86t60.5 -225q0 -401 -252 -401zM240 107q68 0 115.5 47t47.5 115t-47 115t-114 47
q-69 0 -114 -48.5t-45 -118.5q0 -65 46 -111t111 -46z" />
    <glyph glyph-name="A.small" horiz-adv-x="540" 
d="M289 507l192 -464l53 -22h-1v-21h-152v21l40 22q-5 11 -13 33.5t-13 32.5h-252l-13 -32.5t-14 -33.5l54 -22l1 -21h-164v21l50 22q105 265 186 464h46zM269 446l-108 -290h216q-22 60 -108 290z" />
    <glyph glyph-name="B.small" horiz-adv-x="451" 
d="M16 0v21q6 2 21.5 11t23.5 11v421l-39 22v21h231q70 0 116 -30.5t46 -100.5q0 -36 -22 -65.5t-56 -45.5q45 -13 72 -47.5t27 -82.5q0 -57 -40 -96t-110 -39h-125v49h84q64 0 99 19.5t35 73.5q0 32 -17 52t-52.5 29t-66.5 12t-82 3v51l78 -2q120 0 120 84q0 88 -119 88
h-125v-459h-99z" />
    <glyph glyph-name="C.small" horiz-adv-x="439" 
d="M377 469l21 38h21v-116h-40q0 23 -43.5 50.5t-86.5 26.5q-81 0 -129 -58t-48 -151q0 -100 47.5 -160t129.5 -60q38 -2 76.5 19t53.5 51l45 -26q-5 -5 -6 -7q-2 -3 -7.5 -10t-8.5 -10q-67 -67 -153 -67q-106 0 -170.5 74t-64.5 196q0 115 64.5 187.5t170.5 72.5
q75 0 128 -50z" />
    <glyph glyph-name="D.small" horiz-adv-x="474" 
d="M115 49h105q93 0 137.5 55t44.5 152t-50 150t-137 53h-100v-410zM16 0v21q6 2 22 11t23 11v421l-39 22v21h183q115 0 185 -67.5t70 -183.5q0 -121 -67.5 -188.5t-187.5 -67.5h-189z" />
    <glyph glyph-name="E.small" horiz-adv-x="404" 
d="M353 426l-14 33h-224v-171h166v-49h-166v-190h232q3 7 8 29t7 29h23v-107h-324v464q-7 2 -22.5 11t-22.5 11v21h359v-81h-22zM16 0v21q6 2 22 11t23 11v-43h-45z" />
    <glyph glyph-name="F.small" horiz-adv-x="395" 
d="M24 486v21h367v-76h-21l-22 27h-225v-184h132l21 30h21v-105h-21l-21 25h-132v-181l53 -22v-21h-161v21l54 22v421q-7 2 -22.5 11t-22.5 11z" />
    <glyph glyph-name="G.small" horiz-adv-x="467" 
d="M284 159l-22 23v47l22 24h21v-24h148q0 -99 -31 -146h2q-5 -5 -6 -7q-2 -3 -7.5 -10t-8.5 -10q-67 -67 -153 -67q-106 0 -170.5 74t-64.5 196q0 115 64.5 187.5t170.5 72.5q75 0 128 -50l21 38h21v-116h-40q0 23 -43.5 50.5t-86.5 26.5q-81 0 -129 -58t-48 -151
q0 -100 47.5 -160t129.5 -60q65 0 107.5 40.5t39.5 102.5h-91v-23h-21z" />
    <glyph glyph-name="H.small" horiz-adv-x="528" 
d="M16 486v21h160v-21l-52 -22v-88v-88h281v176l-53 22v21h160v-21l-53 -22v-421l53 -22v-21h-161v21l54 22v196h-281v-196l52 -22v-21h-160v21l53 22v421z" />
    <glyph glyph-name="I.small" horiz-adv-x="182" 
d="M10 0v21l53 22v421l-53 22v21h163v-21l-55 -22v-421l52 -22v-21h-160z" />
    <glyph glyph-name="J.small" horiz-adv-x="333" 
d="M163 486v21h161v-21l-55 -22v-229q0 -43 -1.5 -70.5t-10.5 -64.5t-25 -58.5t-47.5 -37t-75.5 -15.5q-67 0 -106 52l45 25q32 -25 72 -25q27 0 45.5 11t28 27t15 44t6.5 50.5t1 58.5l-1 232z" />
    <glyph glyph-name="K.small" horiz-adv-x="465" 
d="M123 279l219 207l-22 21h103q-60 -62 -131 -131q-21 -21 -59 -59.5t-55 -55.5l217 -215l58 -21v-25h-153v21l28 22l-94.5 94.5t-110.5 112.5v-207l52 -22v-21h-160v21l53 22v421l-45 22v21h100v-228z" />
    <glyph glyph-name="L.small" horiz-adv-x="380" 
d="M14 486v21h93v-458h227l21 33h22v-82h-324v464z" />
    <glyph glyph-name="M.small" horiz-adv-x="662" 
d="M593 43l53 -22v-21h-161v21l53 22v409q-20 -46 -57.5 -139t-57.5 -140q-11 -28 -35 -86l-36 -87h-53l-175 432v-389l53 -22v-21h-161v21l53 22v469h77l179 -454l102 258q15 38 42.5 108.5t34.5 87.5h89v-469z" />
    <glyph glyph-name="N.small" horiz-adv-x="545" 
d="M15 0v21l53 22v464h52q43 -60 144.5 -203.5t158.5 -222.5v383l-50 22v21h157v-21l-52 -22v-464h-53q-172 234 -302 419v-376l52 -22v-21h-160z" />
    <glyph glyph-name="O.small" horiz-adv-x="499" 
d="M14 259q0 111 65 185.5t170 74.5t170.5 -74.5t65.5 -185.5q0 -122 -64.5 -196t-171.5 -74q-106 0 -170.5 74t-64.5 196zM72 259q0 -101 47 -160.5t130 -59.5t130.5 59.5t47.5 160.5q0 93 -48 151t-130 58t-129.5 -58t-47.5 -151z" />
    <glyph glyph-name="P.small" horiz-adv-x="423" 
d="M67 507h136q215 0 215 -149q0 -148 -205 -148h-49v49h62q64 0 100.5 21.5t36.5 77.5q0 48 -32.5 74t-80.5 26h-129v-415l52 -22v-21h-158v21l52 22v421q-7 2 -22.5 11t-22.5 11v21h45z" />
    <glyph glyph-name="Q.small" horiz-adv-x="512" 
d="M431 -45v3l-1 2q-28 52 -42 79q-22 -23 -61 -36.5t-79 -13.5q-106 0 -170.5 74t-64.5 196q0 115 64.5 187.5t170.5 72.5t171.5 -72.5t65.5 -187.5q0 -109 -62 -192q7 -12 22.5 -38t22.5 -38h29v-36h-66zM280 61v44h105q42 60 42 154q0 93 -48 151t-131 58
q-82 0 -129.5 -58t-47.5 -151q0 -101 47 -160.5t130 -59.5q46 0 88 22h-56z" />
    <glyph glyph-name="R.small" horiz-adv-x="493" 
d="M69 507h136q218 0 218 -149q0 -118 -141 -144q117 -46 141 -154q2 -12 8 -17l51 -22v-21h-161v21l45 22q-15 66 -70.5 113.5t-110.5 56.5h-19v46h63q64 0 100 21.5t36 77.5q0 48 -32.5 74t-80.5 26h-129v-415l53 -22v-21h-160v21l53 22v421q-8 3 -23 11.5t-22 10.5v21h45
z" />
    <glyph glyph-name="S.small" horiz-adv-x="388" 
d="M188 519h184l-39 -95l-114 45h-28q-54 0 -87 -23t-33 -65q0 -40 29.5 -60t94.5 -37q43 -11 69 -20.5t54 -26.5t41 -42t13 -60q0 -73 -52.5 -109.5t-137.5 -36.5q-38 0 -78.5 20.5t-68.5 51.5l47 45q26 -67 110 -67q51 0 86.5 24.5t35.5 67.5q0 23 -10.5 39.5t-32.5 28.5
t-43 18.5t-55 15.5q-78 21 -119 52t-41 90q0 67 50 105.5t125 38.5z" />
    <glyph glyph-name="T.small" horiz-adv-x="413" 
d="M32 431h-24v76h396v-76h-21l-20 27h-127v-415l54 -22v-21h-162v21l54 22v415h-131z" />
    <glyph glyph-name="U.small" horiz-adv-x="534" 
d="M363 486v21h159v-21l-52 -22v-218q0 -257 -203 -257q-59 0 -100 20t-62.5 57.5t-30.5 81t-9 98.5v218l-53 22v21h160v-21l-53 -22v-218q0 -98 33.5 -152.5t114.5 -54.5q82 0 115.5 55t33.5 152v218z" />
    <glyph glyph-name="V.small" horiz-adv-x="540" 
d="M6 486v21h159v-21l-50 -22q17 -45 71 -186.5t83 -218.5q21 56 73 193t81 212l-48 22v21h159v-21l-52 -22q-31 -77 -93.5 -232t-92.5 -232h-52l-187 464z" />
    <glyph glyph-name="W.small" horiz-adv-x="830" 
d="M659 486v21h161v-21l-54 -22q-124 -312 -184 -464l-54 19l-114 385q-11 -37 -31 -104t-27 -90q-7 -24 -26.5 -90t-29.5 -101h-53l-185 445l-53 22v21h159v-21l-50 -22q14 -37 69.5 -181t84.5 -222q11 40 32.5 120t32.5 120q5 19 25 93t30 113h44l120 -446q26 70 64 169
q34 90 90 234z" />
    <glyph glyph-name="X.small" horiz-adv-x="515" 
d="M15 0v21l52 22q10 13 69 93t89 122q-10 14 -64 86l-90 120l-52 22v21h160v-20l-43 -21q40 -52 65 -88q9 -13 28.5 -40t29.5 -40q31 46 122 166l-46 22v21h160v-21l-54 -22q-12 -17 -27 -37l-33 -44t-27 -37q-15 -21 -30 -39q-28 -36 -36 -49q42 -60 85 -119
q36 -47 72 -96l55 -22v-21h-161v21l40 22q-47 61 -93 128q-3 5 -9.5 14t-11.5 16.5t-9 14.5q-12 -14 -63.5 -86t-63.5 -87l47 -22v-21h-161z" />
    <glyph glyph-name="Y.small" horiz-adv-x="508" 
d="M7 486v21h161v-21l-54 -22q0 -37 3.5 -65.5t12.5 -57.5t24 -47.5t40.5 -30.5t60.5 -12q43 0 71.5 16.5t42.5 48.5t19 66t6 82l-53 22v21h160v-21l-53 -22q-4 -236 -165 -254v-167l52 -22v-21h-160v21l54 22v167q-169 19 -169 254z" />
    <glyph glyph-name="Z.small" horiz-adv-x="413" 
d="M26 406v101h357v-60l-283 -398h251l21 52h22v-101h-375v49l309 409h-259l-22 -52h-21z" />
    </font>
</defs>
</svg>
