<?xml version="1.0" standalone="no"?>
<!DOCTYPE svg PUBLIC "-//W3C//DTD SVG 1.1//EN" "http://www.w3.org/Graphics/SVG/1.1/DTD/svg11.dtd" >
<svg xmlns="http://www.w3.org/2000/svg" xmlns:xlink="http://www.w3.org/1999/xlink" version="1.1">
<metadata>
Created by FontForge 20150824 at Wed Jun  1 16:18:44 2016
 By Lollia Andrade
Copyright (c) 2016 by Lollia Andrade. All rights reserved.
</metadata>
<defs>
<font id="ArnoiaCaptionItalic" horiz-adv-x="544" >
  <font-face 
    font-family="ArnoiaCaptionItalic"
    font-weight="400"
    font-style="italic"
    font-variant="small-caps"
    font-stretch="normal"
    units-per-em="1000"
    panose-1="2 4 5 4 3 2 6 9 2 4"
    ascent="710"
    descent="-290"
    x-height="516"
    cap-height="710"
    bbox="0 -237 1160 923"
    underline-thickness="50"
    underline-position="-150"
    slope="-12"
    unicode-range="U+0020-FB04"
  />
<missing-glyph horiz-adv-x="628" 
d="M26 0l98 710h479l-99 -710h-478zM320 401l199 258h-325zM342 355l127 -259l73 518zM109 51h325l-127 258zM159 614l-73 -518l199 259z" />
    <glyph glyph-name="ff" unicode="ff" horiz-adv-x="707" 
d="M473 451l-55 -397l66 -27l-4 -26q1 -1 2 -1h-217l4 27l78 27l55 397h-54l-3 -27h-5l-17 19l-21 -19h-5l3 27h-73l-55 -397l66 -27l-4 -26q1 -1 2 -1h-217l4 27l78 27l55 397h-70l-30 -27h-5l16 120h5l24 -28h70l2 18q12 87 43 133t89 56l1 1h8q18 2 29 2h91l-1 -1h20
l-91 -102q0 2 -58 32q-40 -17 -55 -84l-7 -55h73l3 28h5l17 -20l21 20h5l-3 -28h54l2 18q12 87 43 133t89 56l1 1h8q18 2 29 2h91l-1 -1h20l-91 -102q0 2 -58 32q-40 -17 -55 -84l-7 -55h89l30 28h5l-16 -120h-5l-24 27h-89z" />
    <glyph glyph-name="fi" unicode="fi" horiz-adv-x="522" 
d="M221 451l-55 -397l66 -27l-4 -26q1 -1 2 -1h-217l4 27l78 27l55 397h-71l-29 -27h-5l16 120h5l24 -28h70l2 18q12 87 43 133t89 56l1 1h8q18 2 29 2h91l-1 -1h20l-91 -102q0 2 -58 32q-40 -17 -55 -84l-7 -55h89l30 28h5l-16 -120h-5l-24 27h-89zM260 0l4 27l71 27
l65 462h69l-65 -462q24 -11 63 -27l-4 -27h-203zM397 628q3 21 19 35t36 14t32 -14t9 -35q-2 -20 -18 -33.5t-36 -13.5t-32 13.5t-10 33.5z" />
    <glyph glyph-name="fl" unicode="fl" horiz-adv-x="455" 
d="M218 451l-55 -397l67 -27l-4 -26q1 -1 2 -1h-217l4 27l78 27l55 397h-71l-29 -27h-6l16 120h6l23 -28h71l2 18q12 87 43 133t89 56l1 1h8q18 2 29 2h91l-1 -1h11l-82 -102q0 2 -58 32q-41 -18 -56 -84l-7 -55h90l93 66l-67 -478q-1 -7 0.5 -16.5t5.5 -17t8 -6.5l52 12
l-11 -76h-75q-24 2 -41.5 21.5t-13.5 47.5l53 382h-104z" />
    <glyph glyph-name="ffi" unicode="ffi" horiz-adv-x="778" 
d="M474 451l-55 -397l66 -27l-4 -26q1 -1 2 -1h-217l4 27l78 27l55 397h-54l-3 -27h-5l-17 19l-21 -19h-5l3 27h-73l-55 -397l66 -27l-4 -26q1 -1 2 -1h-217l4 27l78 27l55 397h-70l-30 -27h-5l16 120h5l24 -28h70l2 18q12 87 43 133t89 56l1 1h8q18 2 29 2h91l-1 -1h20
l-91 -102q0 2 -58 32q-40 -17 -55 -84l-7 -55h73l3 28h5l17 -20l21 20h5l-3 -28h54l2 18q12 87 43 133t89 56l1 1h8q18 2 29 2h91l-1 -1h20l-91 -102q0 2 -58 32q-40 -17 -55 -84l-7 -55h89l30 28h5l-16 -120h-5l-24 27h-89zM513 0l4 27l71 27l65 462h69l-65 -462
q24 -11 63 -27l-4 -27h-203zM650 628q3 21 19 35t36 14t32 -14t9 -35q-2 -20 -18 -33.5t-36 -13.5t-32 13.5t-10 33.5z" />
    <glyph glyph-name="ffl" unicode="ffl" horiz-adv-x="712" 
d="M471 451l-55 -397l67 -27l-4 -26q1 -1 2 -1h-217l4 27l78 27l55 397h-54l-3 -27h-5l-17 19l-21 -19h-5l3 27h-74l-55 -397l67 -27l-4 -26q1 -1 2 -1h-217l4 27l78 27l55 397h-70l-30 -27h-5l16 120h5l24 -28h70l2 18q12 87 43 133t89 56l1 1h8q18 2 29 2h91l-1 -1h20
l-91 -102q0 2 -58 32q-41 -18 -56 -84l-7 -55h74l3 28h5l17 -20l21 20h5l-3 -28h54l2 18q12 87 43 133t89 56l1 1h8q18 2 29 2h91l-1 -1h11l-82 -102q0 2 -58 32q-41 -18 -56 -84l-7 -55h90l93 66l-67 -478q-1 -7 0.5 -16.5t5.5 -17t8 -6.5l52 12l-11 -76h-75
q-24 2 -41.5 21.5t-13.5 47.5l53 382h-104z" />
    <glyph glyph-name="f_f_j" unicode="ffj" horiz-adv-x="707" 
d="M351 -226l30 68l42 -7q65 9 85 101l69 488l-24 27h-89l-55 -397l66 -27l-4 -26q1 -1 2 -1h-217l4 27l78 27l55 397h-54l-3 -27h-5l-17 19l-21 -19h-5l3 27h-73l-55 -397l66 -27l-4 -26q1 -1 2 -1h-217l4 27l78 27l55 397h-70l-30 -27h-5l16 120h5l23 -28h70l3 18
q12 87 43 133t89 56l1 1h8q18 2 29 2l110 -1l-92 -102q1 1 -18 11t-39 21q-40 -17 -55 -84l-8 -55h73l4 28h5l17 -20l21 20h5l-4 -28h54l3 18q12 87 43 133t89 56l1 1h8q18 2 29 2l110 -1l-94 -101q-3 2 -12.5 7.5t-22.5 12.5t-20 11q-40 -17 -55 -84l-8 -55h187l-77 -548
q-15 -100 -55.5 -147t-115.5 -47h-61z" />
    <glyph glyph-name="f_j" unicode="fj" horiz-adv-x="454" 
d="M217 451l-55 -397l66 -27l-4 -26q1 -1 2 -1h-217l4 27l78 27l55 397h-70l-30 -27h-5l16 120h5l23 -28h70l3 18q12 87 43 133t89 56l1 1h8q18 2 29 2l110 -1l-92 -102q1 1 -18 11t-39 21q-40 -17 -55 -84l-8 -55h186l-77 -548q-15 -100 -55.5 -147t-115.5 -47h-61l30 68
l42 -7q65 9 85 101l69 489l-23 26h-89z" />
    <glyph glyph-name=".notdef" horiz-adv-x="628" 
d="M26 0l98 710h479l-99 -710h-478zM320 401l199 258h-325zM342 355l127 -259l73 518zM109 51h325l-127 258zM159 614l-73 -518l199 259z" />
    <glyph glyph-name=".null" horiz-adv-x="0" 
 />
    <glyph glyph-name="nonmarkingreturn" horiz-adv-x="333" 
 />
    <glyph glyph-name="space" unicode=" " horiz-adv-x="225" 
 />
    <glyph glyph-name="exclam" unicode="!" horiz-adv-x="194" 
d="M57 186l64 524h62l-74 -524h-52zM118 39q-4 -23 -22.5 -39t-40.5 -16q-23 0 -36.5 16.5t-9.5 38.5q3 23 21 39t40 16q23 0 37 -16.5t11 -38.5z" />
    <glyph glyph-name="quotedbl" unicode="&#x22;" horiz-adv-x="234" 
d="M79 559h-47q7 50 2 102q-2 21 -1 27q2 16 14.5 27t29.5 11q16 0 25.5 -11t7.5 -27q-1 -8 -6 -25q-18 -55 -25 -104zM176 559h-46q7 50 2 102q-2 21 -1 27q2 16 14.5 27t29.5 11q16 0 25 -11t7 -27q-1 -8 -6 -25q-18 -55 -25 -104z" />
    <glyph glyph-name="numbersign" unicode="#" horiz-adv-x="613" 
d="M17 222l26 65h85q18 44 67 157h-88l26 64h88q71 174 80 202h67q-3 -10 -57 -147q-10 -23 -23 -55h149q71 174 80 202h69q-4 -12 -82 -202h97l-26 -64h-97q-28 -64 -45 -108q-8 -17 -20 -49h100l-27 -65h-100q-80 -189 -88 -222h-66q11 44 87 222h-149q-78 -181 -89 -222
h-67q7 30 89 222h-86zM411 444h-149q-2 -4 -7 -16t-8 -18q-28 -64 -50 -123h148q34 83 66 157z" />
    <glyph glyph-name="dollar" unicode="$" horiz-adv-x="417" 
d="M65 495q9 67 56 113t107 55l6 46h48l-6 -46q46 -2 80 -30.5t47 -76.5l-47 -29q-6 35 -30.5 55.5t-57.5 23.5l-31 -221q71 -20 107 -54.5t26 -107.5q-11 -76 -61 -116.5t-118 -43.5l-8 -63h-48l9 64q-103 10 -132 104l45 27q9 -29 35 -49t59 -26l31 217q-29 11 -48 20.5
t-39 27.5t-27.5 45.5t-2.5 64.5zM314 220q5 38 -19 62t-67 42l-29 -205q44 3 76.5 29.5t38.5 71.5zM120 500q-6 -38 13 -60.5t58 -38.5l29 203q-40 -6 -67 -33.5t-33 -70.5z" />
    <glyph glyph-name="ampersand" unicode="&#x26;" horiz-adv-x="634" 
d="M34 183q9 66 55 113t123 94q-72 96 -62 168q9 63 60 100.5t120 37.5q64 0 105 -34.5t32 -93.5q-7 -53 -47.5 -95.5t-109.5 -87.5q25 -30 156 -198q52 89 67 192l2 15h66q-33 -163 -95 -255q31 -42 66 -85q36 -44 44 -54h-97l-33 42q-19 23 -33 41q-101 -99 -215 -99
q-99 0 -157.5 55.5t-46.5 143.5zM247 47q78 0 174 81q-70 85 -171 218q-54 -34 -97 -76t-48 -81q-9 -63 34.5 -102.5t107.5 -39.5zM218 559q-7 -48 57 -127q116 80 124 133q4 32 -18.5 50.5t-57.5 18.5q-40 0 -70 -20t-35 -55z" />
    <glyph glyph-name="quotesingle" unicode="'" horiz-adv-x="126" 
d="M77 559h-48q7 51 2 103v26q2 17 14.5 27.5t28.5 10.5q17 0 26.5 -11t7.5 -27q-1 -8 -6 -25q-18 -55 -25 -104z" />
    <glyph glyph-name="parenleft" unicode="(" horiz-adv-x="264" 
d="M104 327q-23 -165 39 -364l-53 -29q-82 239 -60 394q13 93 59.5 189t124.5 220l43 -30q-55 -88 -98 -191.5t-55 -188.5z" />
    <glyph glyph-name="parenright" unicode=")" horiz-adv-x="260" 
d="M230 328q-24 -166 -176 -394l-46 29q126 195 149 364q23 167 -50 380l57 30q42 -123 60.5 -219t5.5 -190z" />
    <glyph glyph-name="asterisk" unicode="*" horiz-adv-x="328" 
d="M44 640l91 -40l15 110h55l-16 -115q5 2 16 7t13 6q70 28 81 32l16 -49l-107 -44q6 -8 17 -25t16 -25q3 -4 11 -15.5t12 -17.5l-48 -35l-60 93q-43 -44 -88 -93l-38 35l78 83q-14 6 -40 19q-25 12 -53 24z" />
    <glyph glyph-name="plus" unicode="+" horiz-adv-x="427" 
d="M185 341l24 175h67l-24 -175h170l-9 -65h-170l-25 -175h-67l25 175h-171l9 65h171z" />
    <glyph glyph-name="comma" unicode="," horiz-adv-x="209" 
d="M61 -73h-50q63 58 78 89q-27 22 -24 47q5 27 25 45.5t47 18.5t42.5 -18.5t10.5 -45.5q-6 -48 -106 -120q-4 -3 -9 -6.5t-8.5 -5.5t-5.5 -4z" />
    <glyph glyph-name="hyphen" unicode="-" horiz-adv-x="270" 
d="M228 224h-195l9 66h195z" />
    <glyph glyph-name="period" unicode="." horiz-adv-x="179" 
d="M26 63q4 27 24.5 45.5t47.5 18.5t42.5 -18.5t11.5 -45.5q-4 -26 -24.5 -44.5t-47.5 -18.5t-42.5 18.5t-11.5 44.5z" />
    <glyph glyph-name="slash" unicode="/" horiz-adv-x="591" 
d="M85 0h-83l507 710h80z" />
    <glyph glyph-name="zero" unicode="0" horiz-adv-x="608" 
d="M346 631q-47 0 -87 -25t-66.5 -67t-43.5 -90.5t-24 -100.5q-9 -49 -4.5 -102t18 -96.5t46.5 -71.5t80 -28q61 0 110 48.5t75 113t36 136.5q9 50 4 100t-18.5 91t-46 66.5t-79.5 25.5zM356 696q85 0 136.5 -48t66.5 -124.5t2 -175.5q-23 -156 -102 -260t-204 -104
q-86 0 -138.5 51.5t-67.5 132t0 180.5q21 152 100.5 250t206.5 98z" />
    <glyph glyph-name="one" unicode="1" horiz-adv-x="274" 
d="M20 0l3 25l73 30l78 556q-14 -8 -36 -20q-86 -46 -97 -51l-27 -14l13 98l46 -1q1 0 3 1q4 0 7 3h-1q69 36 101 53h71l-88 -625l62 -30l-3 -25h-205z" />
    <glyph glyph-name="two" unicode="2" horiz-adv-x="589" 
d="M118 550l19 131h30l8 -54q90 68 183 71q94 -2 149 -51.5t44 -128.5q-6 -39 -27 -76t-55.5 -70.5t-60.5 -54.5t-65 -48q-170 -120 -221 -203h304l39 65h30l-18 -131h-456l1 10q4 19 7 31q15 49 65.5 104t111 102.5t119.5 92.5t101.5 90t47.5 81q7 49 -36.5 85t-100.5 36
q-54 0 -99.5 -26.5t-61.5 -55.5h-58z" />
    <glyph glyph-name="three" unicode="3" horiz-adv-x="523" 
d="M82 548l18 131l30 1l8 -55q33 28 86 52t90 19q85 -4 135 -53t39 -131q-8 -56 -45.5 -95t-92.5 -53q55 -17 83 -67t18 -117q-12 -89 -85.5 -142.5t-169.5 -53.5q-78 0 -126 31.5t-45 91.5h89q1 -34 25 -45.5t66 -11.5q68 0 115 35t56 99q10 68 -28.5 107t-121.5 39h-21
l9 65h23q72 0 119.5 29.5t56.5 87.5q7 53 -28.5 85.5t-93.5 32.5q-104 0 -152 -82h-57z" />
    <glyph glyph-name="four" unicode="4" horiz-adv-x="532" 
d="M511 286l-17 -119h-98l-16 -112l61 -30l-3 -25h-206l3 25l73 30l16 112h-321l11 79q51 58 153 172q40 45 116 133t113 129h72l-63 -449h53l38 55h15zM333 229l53 360q-202 -239 -307 -360h254z" />
    <glyph glyph-name="five" unicode="5" horiz-adv-x="519" 
d="M448 549l-20 66h-240q-8 -26 -21 -77.5t-15 -58.5q-3 -14 -10 -42t-11 -42q63 57 146 57q96 0 149 -64.5t39 -161.5q-15 -105 -90 -173.5t-175 -68.5q-123 0 -179 65l76 39q25 -38 109 -38q71 0 121.5 50.5t61.5 126.5q10 71 -26.5 115t-104.5 44q-46 0 -87.5 -24
t-65.5 -66h-67l-3 3q21 103 100 381h362l-19 -131h-30z" />
    <glyph glyph-name="six" unicode="6" horiz-adv-x="581" 
d="M559 696l-20 -148q0 1 -11 10t-31 21.5t-43.5 24.5t-53.5 20t-57 6q-88 0 -141.5 -75.5t-73.5 -199.5q31 45 83 71t108 26q99 0 151.5 -63.5t38.5 -163.5q-14 -103 -88 -172t-175 -69q-120 0 -170 85.5t-30 225.5q57 401 305 401q36 0 87.5 -23t54.5 -24l36 47h30z
M305 386q-74 0 -126.5 -47t-62.5 -119q-10 -68 33.5 -119t109.5 -51q69 0 117 49t59 124q10 69 -25.5 116t-104.5 47z" />
    <glyph glyph-name="seven" unicode="7" horiz-adv-x="566" 
d="M226 0h-201l3 25l64 30q113 176 353 560h-303l-39 -66h-40l18 131h481l-387 -625l54 -30z" />
    <glyph glyph-name="eight" unicode="8" horiz-adv-x="577" 
d="M36 187q9 62 53.5 108.5t105.5 64.5q-51 27 -77.5 61.5t-18.5 89.5q13 86 86 135.5t160 49.5t146.5 -49.5t46.5 -135.5q-7 -52 -44 -92.5t-90 -58.5q57 -21 87 -66.5t21 -108.5q-14 -94 -91.5 -147.5t-177.5 -53.5q-99 0 -159 55.5t-48 147.5zM170 509q-8 -59 31.5 -95.5
t99.5 -36.5t109 37t57 96q8 57 -32 89t-100 32t-108.5 -32.5t-56.5 -89.5zM112 187q-9 -63 34.5 -100t108.5 -37t119 37.5t63 100.5q9 65 -34.5 102.5t-109.5 37.5q-65 0 -118.5 -38.5t-62.5 -102.5z" />
    <glyph glyph-name="nine" unicode="9" horiz-adv-x="542" 
d="M189 -16q-105 0 -157 71l69 36q5 -15 13.5 -23.5t25 -12.5t29 -4.5t39.5 -0.5q44 0 80.5 25t62 67.5t42.5 93t26 108.5q-31 -46 -81 -72t-108 -26q-95 0 -150 63.5t-42 157.5q14 99 88 164t174 65q120 0 168.5 -86t29.5 -225q-57 -401 -309 -401zM244 307q68 0 122 47
t64 115q9 68 -31.5 115t-107.5 47q-69 0 -120.5 -48.5t-61.5 -118.5q-9 -65 30.5 -111t104.5 -46z" />
    <glyph glyph-name="colon" unicode=":" horiz-adv-x="218" 
d="M19 63q4 27 24.5 45.5t47.5 18.5t42.5 -18.5t11.5 -45.5q-4 -26 -24.5 -44.5t-47.5 -18.5t-42.5 18.5t-11.5 44.5zM74 453q4 26 24.5 44.5t47.5 18.5t42.5 -18.5t11.5 -44.5q-4 -27 -24.5 -45t-47.5 -18t-42.5 18t-11.5 45z" />
    <glyph glyph-name="semicolon" unicode=";" horiz-adv-x="255" 
d="M55 -73h-49q64 59 77 89q-27 22 -23 47q4 27 24.5 45.5t47.5 18.5q26 0 41.5 -18.5t11.5 -45.5q-7 -51 -107 -119q-20 -14 -23 -17zM240 453q-4 -27 -24.5 -45t-46.5 -18q-27 0 -42.5 18t-11.5 45t24 45t47 18q26 0 42 -18.5t12 -44.5z" />
    <glyph glyph-name="less" unicode="&#x3c;" 
d="M110 254l338 -211l-12 -86l-434 273l7 49l510 269l-12 -84z" />
    <glyph glyph-name="equal" unicode="=" horiz-adv-x="488" 
d="M436 193h-403l7 47h403zM456 333l-7 -46h-403l7 46h403z" />
    <glyph glyph-name="greater" unicode="&#x3e;" 
d="M37 43l397 211q-16 10 -45 28t-53 33t-46 29q-120 71 -194 119l12 85l434 -269l-7 -49l-509 -273z" />
    <glyph glyph-name="question" unicode="?" horiz-adv-x="403" 
d="M79 589l-54 104h42q64 33 137 33q85 0 138 -49t41 -138q-5 -34 -16.5 -61t-32 -48t-36 -33.5t-42.5 -31.5q-38 -27 -58 -44.5t-42.5 -55t-29.5 -84.5h-69q7 49 21.5 86.5t39 64t40.5 40t47 33.5q32 21 48.5 34.5t33.5 40.5t22 60q7 53 -25.5 85.5t-81.5 32.5
q-41 0 -118 -29zM25 47q2 20 18 34t36 14t31.5 -14t9.5 -34q-3 -20 -18.5 -33.5t-35.5 -13.5t-32 13.5t-9 33.5z" />
    <glyph glyph-name="at" unicode="@" horiz-adv-x="847" 
d="M315 490l-34 86h186q77 -1 114.5 -42t26.5 -118l-29 -207q-3 -18 9 -32.5t36 -14.5q33 0 68.5 63t44.5 126q21 151 -56.5 234.5t-213.5 83.5q-130 0 -236 -93.5t-124 -224.5q-19 -130 60 -219.5t210 -89.5q56 0 111 19l58 -34q-91 -43 -177 -43q-155 0 -248 106.5
t-71 260.5t146.5 264.5t278.5 110.5q104 0 181 -42t115.5 -128t22.5 -205q-13 -95 -64 -171t-121 -76q-24 0 -43 10.5t-27 22t-15 26t-8 15.5q-59 -62 -158 -62q-65 0 -102 38t-29 97q9 68 67.5 104t145.5 36h106l3 28q9 63 -23.5 82.5t-104.5 19.5q-57 0 -82 -3zM438 342
q-138 0 -150 -89q-5 -36 19.5 -59t70.5 -23q71 0 117 46q25 25 44 125h-101z" />
    <glyph glyph-name="A" unicode="A" horiz-adv-x="765" 
d="M501 710l178 -650l70 -30h-1l-4 -30h-214l4 30l60 30q-3 12 -10.5 44t-12.5 48h-353q-9 -16 -25.5 -46.5t-25.5 -45.5l72 -30l-3 -30h-228l4 30l73 30q292 541 351 650h65zM461 625l-208 -406h302q-18 80 -52.5 228t-41.5 178z" />
    <glyph glyph-name="B" unicode="B" horiz-adv-x="697" 
d="M21 0l4 30q10 3 32.5 15t33.5 15l83 590q-7 3 -19.5 10.5t-21.5 13.5l-9 6l4 30h323q98 0 156.5 -42.5t45.5 -140.5q-7 -51 -43.5 -92.5t-87.5 -63.5q60 -18 91 -66.5t21 -115.5q-11 -80 -74.5 -134.5t-161.5 -54.5h-174l9 68h117q58 0 98 9.5t70.5 39.5t38.5 82
q4 30 -4 53t-29.5 37t-45.5 23t-62 13.5t-69.5 6t-76.5 1.5l10 71l109 -2q77 0 125.5 25t57.5 92q10 69 -32 96t-116 27h-175l-90 -642h-138z" />
    <glyph glyph-name="C" unicode="C" horiz-adv-x="689" 
d="M602 656l37 54h30l-22 -162h-57q4 32 -51.5 70.5t-115.5 36.5q-114 0 -192.5 -81t-97.5 -212q-20 -140 35 -223.5t170 -83.5q53 -4 111 25.5t86 71.5l57 -36l-10 -10q-22 -24 -26 -28q-106 -94 -228 -94q-149 0 -224.5 103.5t-51.5 274.5q23 162 128 263t253 101
q105 0 169 -70z" />
    <glyph glyph-name="D" unicode="D" horiz-adv-x="745" 
d="M168 68h148q131 0 204 77.5t92 212.5q19 136 -41 210t-181 74h-141zM22 0l4 30q10 3 32.5 15t33.5 15l83 590l-51 30l4 30h256q162 0 247 -94.5t62 -257.5q-24 -170 -132 -264t-276 -94h-263z" />
    <glyph glyph-name="E" unicode="E" horiz-adv-x="647" 
d="M574 597l-13 45h-313l-34 -239h232l-10 -69h-232l-37 -266h325q4 10 16 41.5t16 40.5h33l-21 -150h-454l91 650q-10 3 -30 15t-29 15l4 30h502l-16 -113h-30zM20 0l4 30q10 3 32.5 15t33.5 15l-8 -60h-62z" />
    <glyph glyph-name="F" unicode="F" horiz-adv-x="649" 
d="M126 680l4 30h514l-15 -107h-30l-24 38h-315l-37 -258h184l36 42h30l-20 -147h-30l-25 36h-184l-36 -254l70 -30l-4 -30h-225l4 30l79 30l83 590q-10 3 -29.5 15t-29.5 15z" />
    <glyph glyph-name="G" unicode="G" horiz-adv-x="693" 
d="M411 222l-26 33l10 65l34 34h30l-4 -34h207q-20 -137 -72 -204h2l-10 -10q-22 -24 -26 -28q-106 -94 -228 -94q-149 0 -224.5 103.5t-51.5 274.5q23 162 128 263t253 101q105 0 169 -70l37 54h30l-22 -162h-57q4 32 -51.5 70.5t-115.5 36.5q-114 0 -192.5 -81t-97.5 -212
q-20 -140 35 -223.5t170 -83.5q91 0 159 56.5t75 143.5h-127l-4 -33h-30z" />
    <glyph glyph-name="H" unicode="H" horiz-adv-x="837" 
d="M117 680l4 30h224l-4 -30l-77 -30q-5 -38 -19 -124l-17 -123h394l35 247l-70 30l4 30h224l-4 -30l-78 -30l-83 -590l70 -30l-4 -30h-225l4 30l79 30l38 274h-394l-38 -274l70 -30l-4 -30h-224l4 30l78 30l83 590z" />
    <glyph glyph-name="I" unicode="I" horiz-adv-x="342" 
d="M9 0l4 30l77 30l83 590l-70 30l4 30h227l-4 -30l-81 -30l-83 -590l69 -30l-4 -30h-222z" />
    <glyph glyph-name="J" unicode="J" horiz-adv-x="555" 
d="M315 680l4 30h225l-4 -30l-81 -30l-45 -321q-6 -42 -11 -70.5t-15 -67.5t-22.5 -65.5t-33 -55.5t-46.5 -46t-63 -28.5t-82 -11.5q-94 0 -137 74l67 35q41 -36 96 -36q31 0 55.5 9.5t41.5 30t29 42t21 56.5t14 61.5t11 68.5l44 325z" />
    <glyph glyph-name="K" unicode="K" horiz-adv-x="709" 
d="M223 390l348 290l-26 30h143q-90 -82 -209 -184q-153 -136 -181 -161l261 -300l76 -30l-4 -35h-214l4 30l43 30q-41 50 -122.5 145t-123.5 145l-41 -290l70 -30l-4 -30h-223l4 30l77 30l83 590l-59 30l4 30h139z" />
    <glyph glyph-name="L" unicode="L" horiz-adv-x="501" 
d="M66 680l4 30h131l-90 -642h317l37 47h30l-16 -115h-453l91 650z" />
    <glyph glyph-name="M" unicode="M" horiz-adv-x="960" 
d="M837 60l71 -30l-5 -30h-225l5 30l78 30l80 573q-37 -65 -108 -195.5t-108 -195.5q-17 -30 -63 -113.5t-71 -128.5h-74l-160 605l-76 -545l70 -30l-5 -30h-224l5 30l77 30l92 657h108l162 -636q94 177 193 362q48 90 146 274h124z" />
    <glyph glyph-name="N" unicode="N" horiz-adv-x="861" 
d="M21 0l4 30l77 30l91 650h72q19 -33 146 -255.5t196 -340.5l75 536l-67 30l4 30h221l-4 -30l-78 -30l-91 -650h-74q-176 297 -341 586q-12 -88 -36.5 -263t-36.5 -263l69 -30l-4 -30h-223z" />
    <glyph glyph-name="O" unicode="O" horiz-adv-x="763" 
d="M53 362q22 156 128 260t253 104t224 -104t55 -260q-24 -171 -129.5 -274.5t-254.5 -103.5t-224.5 103.5t-51.5 274.5zM134 362q-20 -141 34.5 -224.5t170.5 -83.5q117 0 195 83.5t98 224.5q19 131 -37 212t-171 81t-193 -81t-97 -212z" />
    <glyph glyph-name="P" unicode="P" horiz-adv-x="685" 
d="M190 710h190q48 0 86 -4.5t78 -17.5t65 -35.5t38 -61t6 -90.5q-29 -207 -317 -207h-68l10 69h87q90 0 145 30t66 108q9 68 -31 104t-108 36h-180l-82 -581l68 -30l-4 -30h-219l4 30l75 30l83 590q-10 3 -30 15t-29 15l4 30h63z" />
    <glyph glyph-name="Q" unicode="Q" horiz-adv-x="765" 
d="M576 -63l1 4l-1 3q-8 22 -44 110q-35 -32 -92 -51t-113 -19q-149 0 -224.5 103.5t-51.5 274.5q23 162 127.5 263t252.5 101q149 0 226 -101t54 -263q-22 -153 -125 -268q29 -61 49 -107h40l-7 -50h-92zM385 85l9 62h148q70 85 88 215q18 131 -38 212t-171 81t-193 -81
t-96 -212q-20 -141 34.5 -224t170.5 -83q65 0 127 30h-79z" />
    <glyph glyph-name="R" unicode="R" horiz-adv-x="710" 
d="M192 710h191q48 0 86.5 -4.5t78.5 -17.5t66 -35.5t39 -61t6 -90.5q-24 -166 -225 -201q155 -67 166 -216q0 -14 8 -24l68 -30l-4 -30h-225l4 30l67 30q-8 93 -77 159t-144 79h-27l10 65h88q89 0 144 30t66 108q9 68 -31 104t-107 36h-181l-82 -581l70 -30l-4 -30h-223
l4 30l77 30l83 590q-9 3 -29.5 15t-29.5 15l4 30h63z" />
    <glyph glyph-name="S" unicode="S" horiz-adv-x="600" 
d="M22 86l73 62q12 -47 50.5 -70t91.5 -23q71 0 125.5 34.5t62.5 93.5q4 26 -4 46.5t-22 34t-40.5 26t-50 19.5t-60.5 17q-50 14 -84 29t-64 38t-42 56t-6 76q13 94 91 147.5t183 53.5q121 0 188 -69l36 53h30l-22 -162h-57q-4 35 -39 61.5t-73 37t-69 9.5q-75 0 -126 -32
t-60 -91q-8 -56 29.5 -84t125.5 -52q58 -16 92 -29t70 -36.5t49.5 -58.5t6.5 -84q-14 -102 -94.5 -153t-199.5 -52q-54 0 -106 29t-85 73z" />
    <glyph glyph-name="T" unicode="T" horiz-adv-x="599" 
d="M54 603h-33l15 107h554l-15 -107h-30l-21 38h-178l-82 -581l71 -30l-4 -30h-227l4 30l80 30l82 581h-183z" />
    <glyph glyph-name="U" unicode="U" horiz-adv-x="762" 
d="M520 680l4 30h223l-4 -30l-78 -30l-43 -306q-49 -360 -335 -360q-66 0 -114 19t-73.5 52.5t-39.5 79t-13 98.5t8 111l43 306l-69 30l4 30h224l-4 -30l-79 -30l-43 -306q-19 -137 17 -213t149 -76q115 0 172.5 76.5t76.5 212.5l43 306z" />
    <glyph glyph-name="V" unicode="V" horiz-adv-x="767" 
d="M16 680l4 30h223l-4 -30l-74 -30q20 -84 66.5 -274.5t69.5 -292.5q49 95 147 283.5t148 283.5l-63 30l4 30h223l-4 -30l-77 -30q-58 -107 -176 -325t-176 -325h-73l-170 650z" />
    <glyph glyph-name="W" unicode="W" horiz-adv-x="1174" 
d="M930 680l4 30h226l-4 -30l-80 -30q-315 -586 -349 -650l-72 27l-84 538q-7 -17 -51 -117.5t-68 -153.5q-22 -50 -61.5 -141t-54.5 -126h-74l-171 623l-71 30l4 30h223l-4 -30l-74 -30q22 -94 68 -282.5t68 -282.5q92 224 138 337q19 47 59 144t59 144h61l80 -625
q65 123 123 237q28 54 86 164t86 164z" />
    <glyph glyph-name="X" unicode="X" horiz-adv-x="812" 
d="M21 0l4 30l76 30q24 27 118.5 134.5t144.5 166.5q-9 17 -72 121q-13 21 -48.5 78.5t-54.5 89.5l-68 30l4 30h224l-4 -28l-64 -30q36 -57 74 -123q16 -27 64 -112q27 33 204 233l-60 30l4 30h224l-4 -30l-79 -30q-23 -26 -72.5 -82t-73.5 -84q-35 -39 -49 -54
q-6 -7 -27.5 -31t-33.5 -38q82 -142 96 -166q36 -56 82 -135l73 -30l-4 -30h-226l4 30l61 30q-57 92 -105 179q-30 55 -34 63q-18 -19 -104 -119.5t-107 -122.5l62 -30l-4 -30h-225z" />
    <glyph glyph-name="Y" unicode="Y" horiz-adv-x="722" 
d="M18 680l4 30h226l-4 -30l-80 -30q-10 -59 -7.5 -113t15.5 -95.5t50 -66t97 -24.5t103.5 23t69.5 68t40 93t24 115l-70 30l4 30h224l-4 -30l-78 -31q-52 -331 -281 -355l-33 -234l68 -30l-4 -30h-223l4 30l79 30l33 234q-231 26 -187 356z" />
    <glyph glyph-name="Z" unicode="Z" horiz-adv-x="659" 
d="M113 569l19 141h500l-11 -84l-475 -557h351l41 73h30l-20 -142h-524l8 69l514 572h-363l-40 -72h-30z" />
    <glyph glyph-name="bracketleft" unicode="[" horiz-adv-x="264" 
d="M146 -90h-133l112 800h134l-9 -62h-62l-95 -677h62z" />
    <glyph glyph-name="backslash" unicode="\" horiz-adv-x="397" 
d="M393 0h-84l-306 710h80z" />
    <glyph glyph-name="bracketright" unicode="]" horiz-adv-x="264" 
d="M138 -90h-133l9 61h61l95 677h-62l9 62h134z" />
    <glyph glyph-name="asciicircum" unicode="^" horiz-adv-x="350" 
d="M198 635l-121 -186h-66l169 261h59l90 -261h-67z" />
    <glyph glyph-name="underscore" unicode="_" horiz-adv-x="520" 
d="M477 -92h-443l9 66h443z" />
    <glyph glyph-name="grave" unicode="`" horiz-adv-x="190" 
d="M110 599l-103 111h110q22 -47 23 -49q13 -25 29 -62h-59z" />
    <glyph glyph-name="a" unicode="a" horiz-adv-x="533" 
d="M140 430l-41 102h221q93 -1 137.5 -50t31.5 -141l-40 -288q6 -5 15.5 -27.5t13.5 -25.5h-99l1 58q-71 -74 -189 -74q-78 0 -122 45t-34 116q11 80 80 123.5t173 43.5h127l5 33q10 74 -29 98t-125 24q-68 0 -98 -4zM286 253q-163 0 -178 -106q-6 -43 23 -70.5t83 -27.5
q87 0 140 55q20 20 30.5 52.5t22.5 96.5h-121z" />
    <glyph glyph-name="b" unicode="b" horiz-adv-x="575" 
d="M51 683l4 27h141l-35 -248q90 69 171 69q115 0 172 -80.5t41 -192.5q-16 -114 -95 -194t-195 -80q-87 0 -152 63l-7 -47h-70l92 656zM144 342l-24 -169q17 -52 55.5 -88t89.5 -36q80 0 136.5 62t68.5 146t-27.5 146.5t-119.5 62.5q-52 0 -99.5 -36t-79.5 -88z" />
    <glyph glyph-name="c" unicode="c" horiz-adv-x="567" 
d="M550 532l-91 -102q0 2 -63 20.5t-64 17.5q-83 0 -142.5 -59.5t-71.5 -144.5q-13 -93 26.5 -154t120.5 -61q50 0 96 18.5t73 55.5l42 -25q-83 -114 -219 -114q-118 0 -174.5 77.5t-39.5 202.5q17 122 98.5 195t204.5 73h204z" />
    <glyph glyph-name="d" unicode="d" horiz-adv-x="602" 
d="M406 0l7 47q-80 -63 -169 -63q-117 0 -174 80t-42 194q16 112 96.5 193t196.5 81q80 0 150 -70l27 194l-66 27l4 27h140l-92 -656l67 -27l-4 -27h-141zM430 173l24 169q-16 52 -53 88.5t-89 36.5q-80 0 -138.5 -63t-70.5 -147t28.5 -146t120.5 -62q51 0 100 36.5t78 87.5
z" />
    <glyph glyph-name="e" unicode="e" horiz-adv-x="571" 
d="M266 49l211 17l-12 -82h-208q-119 0 -175 78t-38 207q16 112 95 187.5t195 75.5q112 0 162 -84t34 -202q-1 -7 -8 -7h-406q-4 -79 31 -129t99 -60q2 0 9 -0.5t11 -0.5zM325 466q-69 0 -124 -47t-76 -116h331q0 70 -35 116.5t-96 46.5z" />
    <glyph glyph-name="f" unicode="f" horiz-adv-x="445" 
d="M219 451l-55 -397l66 -27l-4 -26q1 -1 2 -1h-217l4 27l78 27l55 397h-70l-30 -27h-5l16 120h5l24 -28h70l2 18q12 87 43 133t89 56l1 1h8q18 2 29 2h91l-1 -1h20l-91 -102q0 2 -58 32q-40 -17 -55 -84l-7 -55h89l30 28h5l-16 -120h-5l-24 27h-89z" />
    <glyph glyph-name="g" unicode="g" horiz-adv-x="621" 
d="M22 -227l91 102q0 -1 21.5 -9t50 -17.5t43.5 -13.5h3q67 0 124.5 46t66.5 115l7 51q-80 -63 -168 -63q-117 0 -174.5 80t-41.5 194q16 112 96.5 193t196.5 81q80 0 150 -70l7 54h109l-3 -23l-42 -27l-63 -449q-16 -111 -83 -178t-195 -67q-31 0 -196 1zM269 49
q51 0 99.5 36.5t78.5 87.5l24 169q-16 51 -53.5 87.5t-89.5 36.5q-80 0 -137.5 -62.5t-69.5 -146.5t28 -146t120 -62z" />
    <glyph glyph-name="h" unicode="h" horiz-adv-x="590" 
d="M113 683l3 27h141l-38 -271q72 93 174 93q90 0 128 -55.5t24 -158.5l-37 -264l67 -27l-3 -27h-211l3 27l74 27l36 254q22 154 -96 154q-60 0 -115 -52t-63 -105l-35 -251l67 -27l-3 -27h-211l3 27l74 27l85 602z" />
    <glyph glyph-name="i" unicode="i" horiz-adv-x="249" 
d="M2 0l4 27l69 27l58 409l-67 27l3 26h140l-65 -462q26 -12 64 -27l-4 -27h-202zM134 655q3 21 19 35t36 14t32 -14t9 -35q-3 -20 -19 -33.5t-36 -13.5t-32 13.5t-9 33.5z" />
    <glyph glyph-name="j" unicode="j" horiz-adv-x="346" 
d="M0 -226l29 68l42 -7q65 9 85 101l74 526l-67 27l4 27h141l-77 -548q-15 -100 -55.5 -147t-115.5 -47h-60zM234 655q3 21 19 35t38 14q20 0 31.5 -14t8.5 -35q-3 -20 -19 -33.5t-35 -13.5q-22 0 -34 13.5t-9 33.5z" />
    <glyph glyph-name="k" unicode="k" horiz-adv-x="572" 
d="M304 0l3 27l45 27q-24 30 -77 97t-82 102l-28 -199l67 -27l-3 -27h-211l3 27l74 27l85 602l-67 27l3 27h141l-58 -418q40 36 121 98.5t117 93.5l4 32h125q-163 -128 -299 -244q32 -41 58 -71q46 -60 120 -147l68 -27l-3 -27h-206z" />
    <glyph glyph-name="l" unicode="l" horiz-adv-x="200" 
d="M36 683l3 27h140l-85 -606q-1 -7 1 -16.5t6 -17t9 -6.5l51 12l-10 -76h-75q-24 2 -42 21.5t-14 47.5l83 587z" />
    <glyph glyph-name="m" unicode="m" horiz-adv-x="936" 
d="M690 0l4 27l73 27l36 254q10 75 -13 114.5t-77 39.5q-57 0 -110 -49.5t-63 -102.5l-36 -256l69 -27l-4 -27h-207l4 27l68 27l36 254q10 75 -13 114.5t-76 39.5q-58 0 -110.5 -49.5t-62.5 -102.5l-36 -256l67 -27l-4 -27h-210l3 27l74 27l58 408l-67 27l3 27h141l-10 -77
q69 93 169 93q116 0 144 -112q75 112 188 112q86 0 123.5 -55.5t23.5 -158.5l-38 -264l69 -27l-4 -27h-212z" />
    <glyph glyph-name="n" unicode="n" horiz-adv-x="606" 
d="M88 490l3 26h141l-10 -77q70 93 174 93q90 0 128 -55.5t24 -158.5l-38 -264l68 -27l-4 -27h-211l4 27l73 27l36 254q22 154 -95 154q-60 0 -115.5 -52t-62.5 -105l-36 -251l68 -27l-4 -27h-211l3 27l74 27l58 409z" />
    <glyph glyph-name="o" unicode="o" horiz-adv-x="591" 
d="M473 264q12 83 -28 143t-119 60q-80 0 -137.5 -60t-69.5 -143q-13 -93 26.5 -154t120.5 -61t137.5 61t69.5 154zM335 532q115 0 172 -76.5t41 -191.5q-17 -125 -95 -202.5t-195 -77.5q-118 0 -174.5 77.5t-39.5 202.5q16 115 95 191.5t196 76.5z" />
    <glyph glyph-name="p" unicode="p" horiz-adv-x="668" 
d="M18 -210l3 27l74 27l87 619l-67 27l4 26h141l-7 -48q82 65 170 65q116 0 173 -81t41 -193q-17 -114 -96.5 -194.5t-194.5 -80.5q-83 0 -151 70l-30 -210l67 -27l-3 -27h-211zM235 343l-23 -169q17 -53 54 -89t89 -36q80 0 137.5 63.5t69.5 147.5q11 83 -28.5 145.5
t-118.5 62.5q-51 0 -99.5 -36.5t-80.5 -88.5z" />
    <glyph glyph-name="q" unicode="q" horiz-adv-x="604" 
d="M311 -209l3 26l74 27l30 210q-88 -70 -170 -70q-116 0 -174 81t-41 194q16 112 96 192.5t196 80.5q89 0 151 -64l7 48h98l-4 -26l-32 -27l-87 -619l67 -27l-3 -26h-211zM435 174l23 169q-16 51 -54 87t-89 36q-80 0 -137.5 -62t-68.5 -144q-12 -84 28 -147.5t120 -63.5
q52 0 99.5 36.5t78.5 88.5z" />
    <glyph glyph-name="r" unicode="r" horiz-adv-x="453" 
d="M16 0l4 27l73 27l58 409l-67 27l3 26h141l-10 -77q56 72 112 93h117l-92 -102l-11 5.5t-18 8.5l-8 5q-43 -21 -77.5 -61.5t-41.5 -77.5l-36 -256l64 -28l-3 -25q1 -1 2 -1h-210z" />
    <glyph glyph-name="s" unicode="s" horiz-adv-x="513" 
d="M493 532l-91 -102q0 1 -54 18t-65 20h-1q-50 0 -87 -20.5t-43 -62.5q-2 -14 4.5 -26t16 -20t29.5 -16t33.5 -12t40.5 -11q40 -11 64 -20t54 -26.5t42 -44t7 -62.5q-11 -78 -75 -120.5t-156 -42.5q-51 0 -96.5 21.5t-97.5 84.5l58 45q18 -45 58.5 -67.5t93.5 -22.5
q56 0 97 25t47 70q3 21 -6 37t-32 27.5t-40.5 17.5t-51.5 15q-35 9 -52 14.5t-45 18t-41 25.5t-22 34.5t-5 48.5q11 76 70 115t138 39h4h204z" />
    <glyph glyph-name="t" unicode="t" horiz-adv-x="307" 
d="M190 95l62 -101h-93h-5q-64 0 -87.5 29.5t-14.5 88.5l47 340h-87l9 64h87l16 108l78 56l-23 -164h120l-9 -64h-120l-48 -342q-3 -23 8 -34q60 17 60 19z" />
    <glyph glyph-name="u" unicode="u" 
d="M26 489l3 27h141l-43 -308q-21 -154 97 -154q60 0 114.5 51.5t62.5 105.5l35 251l-66 27l3 27h140l-64 -462l67 -27l-4 -27h-141l11 76q-70 -92 -173 -92q-91 0 -129 55t-24 159l37 264z" />
    <glyph glyph-name="v" unicode="v" horiz-adv-x="618" 
d="M395 489l4 27h211l-4 -27l-73 -27l-1 -1v1q-47 -88 -136 -249.5t-117 -212.5h-75l-123 462l-64 27l4 27h214l-4 -27l-71 -27q87 -325 96 -362q14 25 39 71t35 64l124 227z" />
    <glyph glyph-name="w" unicode="w" horiz-adv-x="980" 
d="M748 489l4 27h212l-4 -27l-74 -27q-184 -336 -252 -462h-76l-80 395q-46 -95 -96 -195q-51 -110 -96 -200h-76l-121 462l-66 27l4 27h210l-4 -27l-66 -27q36 -128 97 -361q11 23 46 94.5t54 110.5q12 23 33 65.5t38.5 77.5l33.5 67h55l87 -416q9 16 25 45t23 42
q21 39 72.5 133t76.5 142z" />
    <glyph glyph-name="x" unicode="x" horiz-adv-x="655" 
d="M360 3v1h1l3 23l58 27q-36 56 -97 154q-45 -49 -76 -81q-12 -12 -34.5 -36.5t-34.5 -36.5l61 -27l-4 -27h-215l3 27l86 27q33 37 97 109t85 96q-92 141 -94 144q-26 39 -38 59l-68 27l4 27h214l-4 -27l-59 -27q17 -26 47 -74.5t43 -68.5q8 8 31.5 34.5t37.5 39.5l65 69
l-55 27l4 27h211l-4 -27l-80 -27q-25 -27 -85.5 -93t-92.5 -100q12 -19 32 -52t28 -45q28 -51 72 -118l72 -27l-4 -27h-210l1 3h-1z" />
    <glyph glyph-name="y" unicode="y" horiz-adv-x="590" 
d="M18 -226l91 102q0 -2 112 -41h10q67 0 125 45.5t68 115.5l11 80q-70 -92 -174 -92q-90 0 -128 55t-24 159l37 264l-67 27l4 27h141l-43 -308q-23 -154 95 -154q60 0 115 51.5t63 105.5l35 251l-66 27l4 27h140l-72 -509q-15 -105 -83 -170t-193 -65q-61 0 -82 2h-119z
" />
    <glyph glyph-name="z" unicode="z" horiz-adv-x="521" 
d="M92 392l18 124h383l-9 -61l-368 -391h271q1 1 2 1l35 62h24l-18 -127h-405l9 62l374 391h-254l-36 -61h-26z" />
    <glyph glyph-name="braceleft" unicode="{" horiz-adv-x="267" 
d="M158 -30l-9 -60h-42q-18 1 -30 3.5t-26.5 9.5t-20.5 22t-3 37l21 149q12 50 7.5 100t-41.5 55l9 62q34 2 48.5 28t20.5 70l27 190q10 68 100 73h42l-8 -61h-33q-14 -2 -22 -10t-10 -15.5t-5 -27.5l-22 -157q-11 -79 -61 -121q38 -47 27 -123l-24 -169q-4 -34 11 -55h44z
" />
    <glyph glyph-name="bar" unicode="|" horiz-adv-x="184" 
d="M9 0l98 709h68l-99 -709h-67z" />
    <glyph glyph-name="braceright" unicode="}" horiz-adv-x="270" 
d="M111 658l9 61h45q16 -1 28 -3.5t26.5 -9.5t21.5 -22.5t4 -37.5l-24 -170q-4 -27 -5.5 -41t0 -35t12 -30.5t29.5 -10.5l-9 -62q-19 -2 -31.5 -12t-20 -29.5t-10.5 -33.5t-7 -42l-29 -207q-10 -67 -100 -72h-44l8 60h45q21 21 28 66l23 166q14 97 61 135q-37 37 -28 99
l23 167q7 41 -9 64h-46z" />
    <glyph glyph-name="asciitilde" unicode="~" horiz-adv-x="434" 
d="M142 334q32 0 84 -34h-1q48 -30 68 -30q38 0 81 55l36 -32q-56 -81 -126 -81q-36 0 -93 38q-41 27 -58 27q-36 0 -77 -53l-32 38q55 72 118 72z" />
    <glyph glyph-name="exclamdown" unicode="&#xa1;" horiz-adv-x="204" 
d="M10 0l84 523h62l-74 -523h-72zM195 670q-3 -22 -21 -38t-41 -16t-37 16t-11 38t21.5 38.5t41.5 16.5q22 0 36 -16t11 -39z" />
    <glyph glyph-name="cent" unicode="&#xa2;" horiz-adv-x="535" 
d="M40 -90l62 117q-43 37 -61.5 98t-8.5 135q17 121 98.5 193t206.5 72q15 0 29 -3q3 6 17.5 34.5t22.5 43.5h68l-52 -97q2 -1 14 -9q1 0 2.5 -1t2.5 -2q3 -1 46 -2q9 0 41 -2l-91 -99q-1 4 -4 10t-3 7q-13 32 -35 43q-193 -360 -207 -387q26 -12 62 -12q50 0 95.5 18
t72.5 55l41 -25q-82 -113 -217 -113q-44 0 -87 15q-7 -14 -23.5 -44.5t-23.5 -44.5h-68zM107 260q-14 -101 33 -161q131 245 192 361h-19q-81 0 -137.5 -58t-68.5 -142z" />
    <glyph glyph-name="sterling" unicode="&#xa3;" horiz-adv-x="526" 
d="M17 0l9 63q92 74 109 200q7 48 8 95h-95l9 62h82q-1 1 0 4l-1 2v2q-15 82 -9 124q10 76 72 124.5t147 48.5q69 0 115 -32t51 -92q-33 -17 -47 -20t-16 -4q-7 41 -37.5 63.5t-76.5 22.5q-57 0 -95.5 -38t-47.5 -96q-5 -34 12 -99q0 -1 1 -5t2 -5h169l-9 -62h-158
q-2 -37 -6 -67q-19 -135 -79 -228h287l-9 -63h-387z" />
    <glyph glyph-name="currency" unicode="&#xa4;" horiz-adv-x="676" 
d="M185 452l-93 108l50 44l93 -107q70 47 144 47q68 0 122 -39q61 53 110 99l39 -46l-107 -99q38 -62 27 -138q-11 -74 -64 -136q6 -8 20 -25t17 -21q35 -40 42 -47l-52 -44l-80 92q-67 -41 -136 -41q-80 0 -135 50q-34 -28 -58 -49q-12 -10 -35.5 -30t-25.5 -22l-37 44
l118 102q-29 57 -19 127q8 66 60 131zM181 321q-10 -69 32 -118t111 -49t125 49t66 118t-32.5 118t-111.5 49t-124.5 -49t-65.5 -118z" />
    <glyph glyph-name="yen" unicode="&#xa5;" horiz-adv-x="479" 
d="M156 0l26 190h-167l7 49h167l6 44h-167l7 47h167l3 19q-76 11 -104 63t-19 120l25 177h56l-25 -177q-9 -61 17 -97.5t87 -36.5q62 0 98 37t44 97l25 177h57l-25 -177q-9 -68 -58.5 -121t-123.5 -63l-3 -18h183l-7 -47h-183l-6 -44h183l-7 -49h-183l-26 -190h-54z" />
    <glyph glyph-name="brokenbar" unicode="&#xa6;" horiz-adv-x="191" 
d="M68 327l54 380h66l-54 -380h-66zM8 -108l53 380h66l-117 -380h-2z" />
    <glyph glyph-name="section" unicode="&#xa7;" horiz-adv-x="528" 
d="M16 95l51 28q30 -81 152 -81q54 0 92 24t44 70q3 21 -16.5 38.5t-41 26t-63.5 22.5q-40 13 -62.5 22t-51.5 26.5t-40.5 40.5t-7.5 53q6 43 31 76.5t62 51.5q-36 32 -28 83q10 74 70 111.5t140 37.5q137 0 160 -99l-51 -27q-18 67 -122 67q-48 0 -83.5 -20.5t-43.5 -61.5
q10 -20 32.5 -36t43 -24t54.5 -19q31 -9 47.5 -14.5t41 -18.5t36.5 -27.5t20.5 -39t5.5 -55.5q-12 -77 -87 -124q31 -35 24 -83q-11 -75 -73.5 -117t-148.5 -42q-68 0 -121 27.5t-66 83.5zM144 377q-4 -41 54 -74t123 -33q86 0 97 73q5 40 -49.5 74t-118.5 34
q-96 0 -106 -74z" />
    <glyph glyph-name="dieresis" unicode="&#xa8;" horiz-adv-x="356" 
d="M146 640q-3 -22 -22 -38.5t-42 -16.5q-22 0 -36.5 16.5t-11.5 38.5q4 23 22 39t41 16q24 0 38.5 -16t10.5 -39zM321 640q-3 -22 -21.5 -38.5t-40.5 -16.5q-23 0 -37 16.5t-11 38.5q4 23 22 39t41 16q22 0 36.5 -16t10.5 -39z" />
    <glyph glyph-name="copyright" unicode="&#xa9;" horiz-adv-x="851" 
d="M52 355q22 156 145 263t281 107q159 0 251.5 -107t70.5 -263q-23 -158 -145.5 -264.5t-281.5 -106.5q-158 0 -250.5 107t-70.5 264zM101 355q-20 -140 59.5 -232t219.5 -92t245 91t125 233q19 138 -60.5 229t-219.5 91t-245 -91t-124 -229zM640 550l-76 -83q-1 2 -7 17
l-9 21q-31 22 -86 22q-67 0 -114 -48t-56 -117q-11 -75 20.5 -125t97.5 -50q94 0 137 60l35 -21q-66 -93 -179 -93q-96 0 -142 63.5t-31 165.5q14 100 81.5 159.5t170.5 59.5q51 0 86 -28h-1q4 -1 49 -2q3 0 11.5 -0.5t12.5 -0.5z" />
    <glyph glyph-name="ordfeminine" unicode="&#xaa;" horiz-adv-x="348" 
d="M95 643l-23 66h135q57 -1 84.5 -32.5t18.5 -91.5l-26 -186q3 -3 9 -17t9 -17h-61l1 37q-45 -47 -117 -47q-48 0 -74.5 29t-19.5 75q7 52 49.5 80t106.5 28h78l3 21q7 48 -17 63.5t-77 15.5q-42 0 -61 -3zM184 528q-99 0 -109 -68q-4 -28 14 -45.5t51 -17.5q53 0 86 35
q19 19 33 96h-75z" />
    <glyph glyph-name="guillemotleft" unicode="&#xab;" horiz-adv-x="433" 
d="M112 61l-93 203l150 203h68l-148 -203q59 -137 91 -203h-68zM285 61l-92 203l149 203h69l-149 -204q22 -52 92 -202h-69z" />
    <glyph glyph-name="logicalnot" unicode="&#xac;" horiz-adv-x="516" 
d="M382 118l26 189h-405l10 66h471l-36 -255h-66z" />
    <glyph glyph-name="registered" unicode="&#xae;" horiz-adv-x="851" 
d="M52 355q22 156 145 263t281 107q159 0 251.5 -107t70.5 -263q-23 -158 -145.5 -264.5t-281.5 -106.5q-158 0 -250.5 107t-70.5 264zM101 355q-20 -140 59.5 -232t219.5 -92t245 91t125 233q19 138 -60.5 229t-219.5 91t-245 -91t-124 -229zM319 582h115q37 0 65 -4.5
t55 -17t39.5 -39t7.5 -65.5q-15 -101 -136 -121q93 -40 100 -130q0 -9 4 -15l42 -18l-3 -18h-136l3 18l40 18q-5 56 -46.5 96t-85.5 48h-16l5 39h53q115 0 127 83q6 41 -18.5 62.5t-64.5 21.5h-110l-50 -350l43 -18l-3 -18h-135l3 18l47 18l50 356q-6 2 -18 9t-17 9l2 18h38
z" />
    <glyph glyph-name="macron" unicode="&#xaf;" horiz-adv-x="347" 
d="M305 651h-270l8 58h270z" />
    <glyph glyph-name="degree" unicode="&#xb0;" horiz-adv-x="381" 
d="M35 570q9 65 60.5 110t116.5 45t104.5 -45t30.5 -110q-10 -66 -61.5 -111.5t-116.5 -45.5t-104.5 45.5t-29.5 111.5zM100 570q-5 -37 18 -64.5t60 -27.5t68 27.5t36 64.5t-18.5 63.5t-60.5 26.5t-67.5 -26.5t-35.5 -63.5z" />
    <glyph glyph-name="plusminus" unicode="&#xb1;" horiz-adv-x="474" 
d="M229 503l24 176h66l-24 -176h170l-9 -63h-170l-25 -176h-66l25 176h-84q-14 0 -43.5 0.5t-44.5 0.5l9 62h172zM6 135l8 62h408l-9 -62h-407z" />
    <glyph glyph-name="twosuperior" unicode="&#xb2;" horiz-adv-x="326" 
d="M70 627l9 63h15l6 -26q44 33 93 34q49 -1 78 -24.5t23 -61.5q-3 -24 -23 -49t-38 -38t-46 -32q-87 -59 -112 -97h157l20 31h15l-9 -62h-236l1 5l3 15q9 28 46 62t75.5 59t71.5 53.5t36 49.5q3 23 -20 40.5t-52 17.5q-28 0 -51 -13t-32 -27h-30z" />
    <glyph glyph-name="threesuperior" unicode="&#xb3;" horiz-adv-x="286" 
d="M53 624l9 67h15l5 -28q15 14 42.5 26.5t46.5 9.5q43 -2 68 -27t19 -66q-4 -28 -22.5 -48t-46.5 -27q27 -8 41 -33.5t10 -59.5q-7 -45 -43.5 -72t-85.5 -27q-40 0 -64 16t-23 46h45q1 -29 46 -29q34 0 58.5 18t28.5 50q5 34 -15 54t-61 20h-11l5 33h12q79 0 88 59
q4 27 -14 43.5t-47 16.5q-51 0 -77 -42h-29z" />
    <glyph glyph-name="acute" unicode="&#xb4;" horiz-adv-x="213" 
d="M208 710l-132 -111h-60q9 12 25.5 34.5t20.5 27.5q2 2 37 49h109z" />
    <glyph glyph-name="mu" unicode="&#xb5;" horiz-adv-x="537" 
d="M390 0l13 94q-68 -94 -172 -94q-65 0 -103 29l-33 -236h-70l99 710h71l-48 -337q4 -46 29 -73t69 -27q59 0 114 51.5t62 103.5l40 282h66l-71 -503h-66z" />
    <glyph glyph-name="paragraph" unicode="&#xb6;" horiz-adv-x="548" 
d="M147 -100l56 399q-85 12 -133 60t-35 142q9 64 38.5 107.5t75 64t89.5 28.5t98 8h189l-114 -809h-69l105 746h-127l-105 -746h-68z" />
    <glyph glyph-name="periodcentered" unicode="&#xb7;" horiz-adv-x="182" 
d="M27 254q4 27 25.5 46t47.5 19t42.5 -19t12.5 -46q-4 -26 -25.5 -45t-47.5 -19t-42.5 19t-12.5 45z" />
    <glyph glyph-name="cedilla" unicode="&#xb8;" horiz-adv-x="216" 
d="M74 -150q-39 0 -64 25l27 42q14 -32 42 -32q21 0 39 17.5t22 41.5q3 22 -8.5 39t-31.5 21l24 33q33 -9 51 -34.5t14 -58.5q-6 -39 -39.5 -66.5t-75.5 -27.5z" />
    <glyph glyph-name="onesuperior" unicode="&#xb9;" horiz-adv-x="138" 
d="M16 361l1 12l31 14l37 261q-3 -2 -8 -5t-7 -5q-26 -16 -42 -24l-11 -6l7 46l19 -1l1 1l3 1q25 15 43 25h29l-42 -293l26 -14l-1 -12h-86z" />
    <glyph glyph-name="ordmasculine" unicode="&#xba;" horiz-adv-x="358" 
d="M279 542q6 47 -16.5 80.5t-66.5 33.5q-46 0 -78.5 -33.5t-38.5 -80.5q-8 -52 14.5 -87t68.5 -35q45 0 77 34.5t40 87.5zM201 695q66 0 99 -43.5t24 -109.5q-10 -71 -55.5 -115.5t-111.5 -44.5q-68 0 -100 44t-22 116q9 67 54 110t112 43z" />
    <glyph glyph-name="guillemotright" unicode="&#xbb;" horiz-adv-x="433" 
d="M414 264l-149 -203h-67q105 146 146 203q-66 151 -89 203h67zM241 264l-149 -203h-69q144 196 148 202q-14 32 -50 112t-41 92h69z" />
    <glyph glyph-name="onequarter" unicode="&#xbc;" horiz-adv-x="675" 
d="M651 209l-12 -88h-72l-12 -81l45 -22l-2 -18h-151l2 18l54 22l12 81h-235l8 58q9 11 50 56t61 69q15 17 75 86t93 106h52l-46 -327h39l28 40h11zM580 710l-498 -710h-54l502 710h50zM54 276l3 16l50 19l50 354q-13 -6 -26 -13q-1 0 -27.5 -13.5t-39.5 -18.5l-19 -9l9 62
h34q1 0 3 2q11 5 23 10.5t26 12.5l22 11h50l-56 -398l44 -19l-3 -16h-143zM521 167l39 262q-3 -3 -42.5 -49.5t-95.5 -111.5t-87 -101h186z" />
    <glyph glyph-name="onehalf" unicode="&#xbd;" horiz-adv-x="760" 
d="M578 710l-496 -707h-54l500 707h50zM52 276l3 16l50 19l50 354q-13 -6 -26 -13q-1 0 -27.5 -13.5t-39.5 -18.5l-19 -9l9 62h34q1 0 3 2q11 5 23 10.5t26 12.5l22 11h50l-56 -398l44 -19l-3 -16h-143zM442 366l12 87h20l6 -36q60 46 122 47q62 -1 98.5 -34t29.5 -86
q-5 -34 -30.5 -68t-49 -53.5t-58.5 -43.5q-112 -80 -147 -135h203l26 43h20l-12 -87h-305l1 7q1 4 2.5 10.5t1.5 9.5q10 33 43.5 69.5t74 68t80 61.5t68 60t31.5 54q5 33 -24 56.5t-67 23.5q-36 0 -66 -17.5t-41 -36.5h-39z" />
    <glyph glyph-name="threequarters" unicode="&#xbe;" horiz-adv-x="690" 
d="M666 209l-12 -88h-72l-12 -81l45 -22l-2 -18h-151l2 18l54 22l12 81h-235l8 58q18 20 55.5 62t56.5 63q15 17 75 86t93 106h52l-46 -327h39l27 40h11zM628 710l-499 -710h-54l503 710h50zM536 167l39 262q-3 -3 -42.5 -49.5t-95.5 -111.5t-87 -101h186zM60 635l12 84h19
l5 -35q22 18 55 33t57 12q54 -2 86 -33.5t25 -83.5q-5 -35 -29 -60.5t-59 -33.5q35 -10 52.5 -42t11.5 -75q-8 -57 -54 -91t-107 -34q-51 0 -81.5 20t-28.5 58h57q0 -36 58 -36q43 0 73 22.5t35 62.5q7 44 -17.5 68.5t-77.5 24.5h-13l5 42h15q46 0 76.5 18.5t35.5 55.5
q4 34 -18.5 54.5t-59.5 20.5q-66 0 -97 -52h-36z" />
    <glyph glyph-name="questiondown" unicode="&#xbf;" horiz-adv-x="402" 
d="M323 137l54 -104h-42q-64 -33 -136 -33q-85 0 -138 48.5t-42 138.5q5 34 16.5 60.5t32 48t35 33.5t43.5 32q28 20 43.5 32.5t36.5 35t33.5 51t17.5 64.5h68q-7 -49 -21.5 -86t-38.5 -64t-40.5 -40t-47.5 -34q-32 -21 -48.5 -34.5t-33.5 -40t-22 -59.5q-7 -52 26 -85
t82 -33q45 0 117 29zM377 678q-2 -20 -18 -33.5t-36 -13.5q-19 0 -30.5 13.5t-9.5 33.5q3 20 18.5 33.5t34.5 13.5q20 0 32 -13.5t9 -33.5z" />
    <glyph glyph-name="Agrave" unicode="&#xc0;" horiz-adv-x="757" 
d="M498 710l177 -650l70 -30h-1l-4 -30h-214l4 30l60 30q-3 12 -10.5 44t-12.5 48h-353q-9 -16 -25.5 -46.5t-25.5 -45.5l72 -30l-3 -30h-228l4 30l73 30q270 501 352 650h65zM458 625l-208 -406h302q-14 62 -45.5 197t-48.5 209zM472 793l-102 111h110q7 -17 23 -49
q15 -32 28 -62h-59z" />
    <glyph glyph-name="Aacute" unicode="&#xc1;" horiz-adv-x="757" 
d="M497 710l177 -650l70 -30h-1l-4 -30h-214l4 30l60 30q-3 12 -10.5 44t-12.5 48h-353q-9 -16 -25.5 -46.5t-25.5 -45.5l72 -30l-3 -30h-228l4 30l73 30q270 501 352 650h65zM457 625l-208 -406h302q-14 62 -45.5 197t-48.5 209zM642 904l-133 -111h-60q18 26 47 62
q4 5 37 49h109z" />
    <glyph glyph-name="Acircumflex" unicode="&#xc2;" horiz-adv-x="765" 
d="M501 710l177 -650l70 -30h-1l-4 -30h-214l4 30l60 30q-3 12 -10.5 44t-12.5 48h-353q-9 -16 -25.5 -46.5t-25.5 -45.5l72 -30l-3 -30h-228l4 30l73 30q270 501 352 650h65zM461 625l-208 -406h302q-14 62 -45.5 197t-48.5 209zM489 855l-94 -88l-37 32l105 105h67
l74 -115l-46 -24z" />
    <glyph glyph-name="Atilde" unicode="&#xc3;" horiz-adv-x="759" 
d="M498 710l178 -650l70 -30h-1l-5 -30h-214l5 30l60 30q-3 12 -10.5 44t-12.5 48h-353q-9 -16 -25.5 -46.5t-25.5 -45.5l72 -30l-4 -30h-228l5 30l73 30q292 541 351 650h65zM458 625l-208 -406h302q-18 78 -50.5 218.5t-43.5 187.5zM573 912h54q-30 -92 -86 -92
q-30 0 -61 19q-20 14 -34 14q-16 0 -38 -43h-54q31 94 100 94q33 0 57 -18q21 -15 37 -15q11 0 25 41z" />
    <glyph glyph-name="Adieresis" unicode="&#xc4;" horiz-adv-x="763" 
d="M500 710l178 -650l70 -30h-1l-5 -30h-214l5 30l60 30q-3 12 -10.5 44t-12.5 48h-353q-9 -16 -25.5 -46.5t-25.5 -45.5l72 -30l-4 -30h-228l5 30l73 30q292 541 351 650h65zM460 625l-208 -406h302q-18 78 -50.5 218.5t-43.5 187.5zM462 834q-4 -22 -23 -38.5t-42 -16.5
q-22 0 -36.5 16.5t-10.5 38.5q3 23 21 39t41 16t38 -16t12 -39zM637 834q-4 -22 -22.5 -38.5t-40.5 -16.5q-23 0 -37 16.5t-10 38.5q3 23 21 39t41 16q22 0 36.5 -16t11.5 -39z" />
    <glyph glyph-name="Aring" unicode="&#xc5;" horiz-adv-x="763" 
d="M500 710l178 -650l69 -30h-1l-4 -30h-214l4 30l61 30q-4 15 -11.5 46t-11.5 46h-353q-9 -16 -25.5 -46.5t-25.5 -45.5l71 -30l-3 -30h-228l4 30l74 30q176 329 351 650h65zM460 625l-208 -406h302q-14 62 -45.5 197t-48.5 209zM414 849q4 30 28.5 50.5t54.5 20.5
t48 -20.5t14 -50.5q-4 -29 -28.5 -50.5t-53.5 -21.5t-48 21.5t-15 50.5zM520 849q2 13 -7 24t-21 11q-13 0 -25 -11t-14 -24q-2 -12 7.5 -23t22.5 -11q11 0 23.5 11t13.5 23z" />
    <glyph glyph-name="AE" unicode="&#xc6;" horiz-adv-x="993" 
d="M362 0l4 30q10 3 33.5 15t33.5 15l13 92h-224q-9 -16 -25.5 -46.5t-25.5 -45.5l72 -30l-3 -30h-228l4 30l73 30q292 541 351 650h523l-16 -113h-30l-13 45h-313l-34 -239h232l-10 -69h-232l-37 -266h325q4 10 15.5 41.5t16.5 40.5h33l-21 -150h-517zM478 642l-221 -423
h198l60 423h-37z" />
    <glyph glyph-name="Ccedilla" unicode="&#xc7;" horiz-adv-x="679" 
d="M598 656l38 54h30l-23 -162h-57q5 32 -50.5 70.5t-116.5 36.5q-114 0 -192.5 -81t-96.5 -212q-20 -140 35 -223.5t170 -83.5q53 -4 111 25.5t86 71.5l57 -36l-10 -10q-18 -19 -27 -28q-106 -94 -227 -94q-149 0 -224.5 103.5t-51.5 274.5q23 162 127.5 263t252.5 101
q107 0 169 -70zM259 -150q-38 0 -65 25l28 42q14 -32 42 -32q21 0 39 17.5t21 41.5q3 22 -8 39t-31 21l23 33q34 -9 52 -34.5t13 -58.5q-5 -39 -38.5 -66.5t-75.5 -27.5z" />
    <glyph glyph-name="Egrave" unicode="&#xc8;" horiz-adv-x="624" 
d="M566 597l-14 45h-313l-34 -239h232l-9 -69h-232l-38 -266h325q4 10 15.5 41.5t16.5 40.5h33l-21 -150h-454l91 650q-9 3 -29 15t-30 15l5 30h502l-16 -113h-30zM11 0l4 30q10 3 32.5 15t33.5 15l-8 -60h-62zM380 793l-102 111h110q7 -17 23 -49q15 -32 28 -62h-59z" />
    <glyph glyph-name="Eacute" unicode="&#xc9;" horiz-adv-x="625" 
d="M565 597l-14 45h-313l-34 -239h232l-9 -69h-232l-38 -266h325q4 10 16 41.5t16 40.5h33l-21 -150h-454l91 650q-10 3 -30 15t-29 15l5 30h502l-16 -113h-30zM10 0l4 30q10 3 32.5 15t33.5 15l-8 -60h-62zM525 904l-133 -111h-60q18 26 47 62q4 5 37 49h109z" />
    <glyph glyph-name="Ecircumflex" unicode="&#xca;" horiz-adv-x="631" 
d="M567 597l-14 45h-313l-34 -239h232l-9 -69h-232l-38 -266h325q5 10 16.5 41.5t15.5 40.5h33l-21 -150h-454l91 650q-9 3 -29.5 15t-29.5 15l5 30h502l-16 -113h-30zM12 0l4 30q10 3 32.5 15t33.5 15l-8 -60h-62zM397 855l-94 -88l-37 32l105 105h67l74 -115l-46 -24z" />
    <glyph glyph-name="Edieresis" unicode="&#xcb;" horiz-adv-x="630" 
d="M567 597l-13 45h-313l-34 -239h232l-10 -69h-232l-37 -266h325q5 11 16.5 42.5t14.5 39.5h33l-21 -150h-454l92 650q-10 3 -30 15t-29 15l4 30h502l-16 -113h-30zM12 0l5 30q9 3 32 15t34 15l-9 -60h-62zM364 834q-4 -22 -23 -38.5t-42 -16.5q-22 0 -36.5 16.5
t-10.5 38.5q3 23 21 39t41 16t38 -16t12 -39zM539 834q-4 -22 -22.5 -38.5t-40.5 -16.5q-23 0 -37 16.5t-10 38.5q3 23 21 39t41 16q22 0 36.5 -16t11.5 -39z" />
    <glyph glyph-name="Igrave" unicode="&#xcc;" horiz-adv-x="335" 
d="M4 0l4 30l77 30l83 590l-70 30l5 30h227l-5 -30l-81 -30l-83 -590l69 -30l-4 -30h-222zM213 793l-102 111h110q7 -17 23 -49q15 -32 28 -62h-59z" />
    <glyph glyph-name="Iacute" unicode="&#xcd;" horiz-adv-x="370" 
d="M4 0l4 30l77 30l83 590l-70 30l5 30h227l-5 -30l-81 -30l-83 -590l69 -30l-4 -30h-222zM367 904l-133 -111h-60q19 26 47 62q4 5 37 49h109z" />
    <glyph glyph-name="Icircumflex" unicode="&#xce;" horiz-adv-x="355" 
d="M8 0l4 30l77 30l83 590l-70 30l5 30h227l-5 -30l-81 -30l-83 -590l69 -30l-4 -30h-222zM231 855l-94 -88l-37 32l105 105h67l74 -115l-46 -24z" />
    <glyph glyph-name="Idieresis" unicode="&#xcf;" horiz-adv-x="385" 
d="M10 0l5 30l78 30l83 590l-70 30l4 30h227l-4 -30l-81 -30l-83 -590l69 -30l-5 -30h-223zM201 834q-4 -22 -23 -38.5t-42 -16.5q-22 0 -36.5 16.5t-10.5 38.5q3 23 21 39t41 16t38 -16t12 -39zM376 834q-4 -22 -22.5 -38.5t-40.5 -16.5q-23 0 -37 16.5t-10 38.5
q3 23 21 39t41 16q22 0 36.5 -16t11.5 -39z" />
    <glyph glyph-name="Eth" unicode="&#xd0;" horiz-adv-x="745" 
d="M22 0l4 30q10 3 32.5 15t33.5 15l83 590l-51 30l4 30h256q162 0 247 -94.5t62 -257.5q-24 -170 -132 -264t-276 -94h-263zM168 68h148q131 0 204 77.5t92 212.5q19 136 -41 210t-181 74h-141l-37 -262h184l-9 -66h-184z" />
    <glyph glyph-name="Ntilde" unicode="&#xd1;" horiz-adv-x="848" 
d="M13 0l5 30l77 30l91 650h72q55 -96 168 -294t173 -302l76 536l-67 30l4 30h221l-4 -30l-78 -30l-92 -650h-74q-193 329 -340 586q-13 -88 -37 -263t-36 -263l69 -30l-5 -30h-223zM576 912h54q-30 -92 -86 -92q-30 0 -61 19q-20 14 -34 14q-17 0 -38 -43h-54q31 94 100 94
q33 0 57 -18q21 -15 37 -15q11 0 25 41z" />
    <glyph glyph-name="Ograve" unicode="&#xd2;" horiz-adv-x="750" 
d="M46 362q22 156 127.5 260t252.5 104t224.5 -104t55.5 -260q-24 -171 -129.5 -274.5t-254.5 -103.5t-224 103.5t-52 274.5zM127 362q-20 -141 34.5 -224.5t170.5 -83.5q117 0 195 83.5t98 224.5q18 131 -38 212t-171 81t-193 -81t-96 -212zM395 793l-103 111h110
q22 -47 23 -49q13 -25 29 -62h-59z" />
    <glyph glyph-name="Oacute" unicode="&#xd3;" horiz-adv-x="750" 
d="M44 362q22 156 127.5 260t252.5 104t224.5 -104t55.5 -260q-24 -171 -129.5 -274.5t-254.5 -103.5t-224 103.5t-52 274.5zM125 362q-20 -141 34.5 -224.5t170.5 -83.5q117 0 195 83.5t98 224.5q18 131 -38 212t-171 81t-193 -81t-96 -212zM576 904l-132 -111h-60
q9 12 25.5 34.5t20.5 27.5q2 2 37 49h109z" />
    <glyph glyph-name="Ocircumflex" unicode="&#xd4;" horiz-adv-x="753" 
d="M46 362q22 156 127.5 260t252.5 104t224.5 -104t55.5 -260q-24 -171 -129.5 -274.5t-254.5 -103.5t-224 103.5t-52 274.5zM127 362q-20 -141 34.5 -224.5t170.5 -83.5q117 0 195 83.5t98 224.5q18 131 -38 212t-171 81t-193 -81t-96 -212zM436 855l-94 -88l-36 32
l104 105h67l74 -115l-45 -24z" />
    <glyph glyph-name="Otilde" unicode="&#xd5;" horiz-adv-x="751" 
d="M45 362q22 156 127.5 260t252.5 104t224.5 -104t55.5 -260q-24 -171 -129.5 -274.5t-254.5 -103.5t-224 103.5t-52 274.5zM126 362q-20 -141 34.5 -224.5t170.5 -83.5q117 0 195 83.5t98 224.5q18 131 -38 212t-171 81t-193 -81t-96 -212zM523 912h54q-28 -92 -86 -92
q-29 0 -60 19q-20 14 -34 14q-18 0 -38 -43h-54q30 94 99 94q34 0 58 -18q21 -15 36 -15q13 0 25 41z" />
    <glyph glyph-name="Odieresis" unicode="&#xd6;" horiz-adv-x="754" 
d="M47 362q21 156 127 260t253 104t224 -104t56 -260q-24 -171 -129.5 -274.5t-254.5 -103.5t-224 103.5t-52 274.5zM128 362q-20 -141 34 -224.5t170 -83.5q117 0 195.5 83.5t98.5 224.5q18 131 -38 212t-171 81t-193 -81t-96 -212zM406 834q-3 -22 -22.5 -38.5
t-42.5 -16.5q-22 0 -36 16.5t-11 38.5q3 23 21.5 39t41.5 16t37.5 -16t11.5 -39zM581 834q-3 -22 -22 -38.5t-41 -16.5q-23 0 -36.5 16.5t-10.5 38.5q3 23 21.5 39t41.5 16q22 0 36 -16t11 -39z" />
    <glyph glyph-name="multiply" unicode="&#xd7;" horiz-adv-x="419" 
d="M73 203l-50 58l129 113q-52 55 -97 112l66 58l97 -113l128 113l50 -58l-129 -112q62 -74 97 -113l-66 -58l-96 113z" />
    <glyph glyph-name="Oslash" unicode="&#xd8;" horiz-adv-x="743" 
d="M161 0h-84l41 59q-103 105 -76 303q22 156 128 260t253 104q81 0 147 -37q5 6 15 21h80l-43 -60q50 -50 71.5 -125.5t8.5 -162.5q-24 -171 -129.5 -274.5t-254.5 -103.5q-79 0 -145 34q-10 -12 -12 -18zM123 362q-21 -154 43 -237q59 82 179.5 251.5t179.5 250.5
q-47 28 -112 28q-115 0 -193 -81t-97 -212zM621 362q20 140 -45 222q-68 -95 -192.5 -270.5t-165.5 -233.5q44 -26 110 -26q117 0 195 83.5t98 224.5z" />
    <glyph glyph-name="Ugrave" unicode="&#xd9;" horiz-adv-x="748" 
d="M511 680l4 30h223l-4 -30l-77 -30l-43 -306q-51 -360 -336 -360q-66 0 -113.5 19t-73.5 52.5t-40 79t-12.5 98.5t8.5 111l43 306l-70 30l4 30h224l-4 -30l-78 -30l-43 -306q-20 -137 16 -213t149 -76q115 0 173 76.5t77 212.5l43 306zM379 793l-103 111h110
q22 -47 23 -49q13 -25 29 -62h-59z" />
    <glyph glyph-name="Uacute" unicode="&#xda;" horiz-adv-x="748" 
d="M510 680l4 30h223l-4 -30l-77 -30l-43 -306q-51 -360 -336 -360q-66 0 -113.5 19t-73.5 52.5t-40 79t-12.5 98.5t8.5 111l43 306l-70 30l4 30h224l-4 -30l-78 -30l-43 -306q-20 -137 16 -213t149 -76q115 0 173 76.5t77 212.5l43 306zM528 904l-132 -111h-60
q9 12 26 34.5t20 27.5q2 2 37 49h109z" />
    <glyph glyph-name="Ucircumflex" unicode="&#xdb;" horiz-adv-x="751" 
d="M512 680l4 30h223l-4 -30l-77 -30l-43 -306q-51 -360 -336 -360q-66 0 -113.5 19t-73.5 52.5t-40 79t-12.5 98.5t8.5 111l43 306l-70 30l4 30h224l-4 -30l-78 -30l-43 -306q-20 -137 16 -213t149 -76q115 0 173 76.5t77 212.5l43 306zM402 855l-94 -88l-36 32l104 105h67
l74 -115l-45 -24z" />
    <glyph glyph-name="Udieresis" unicode="&#xdc;" horiz-adv-x="754" 
d="M513 680l5 30h223l-5 -30l-77 -30l-43 -306q-49 -360 -335 -360q-66 0 -114 19t-73.5 52.5t-39.5 79t-13 98.5t8 111l43 306l-70 30l5 30h224l-5 -30l-78 -30l-43 -306q-19 -137 17 -213t149 -76q115 0 172.5 76.5t76.5 212.5l43 306zM370 834q-3 -22 -22.5 -38.5
t-42.5 -16.5q-22 0 -36 16.5t-11 38.5q3 23 21.5 39t41.5 16t37.5 -16t11.5 -39zM545 834q-3 -22 -22 -38.5t-41 -16.5q-23 0 -36.5 16.5t-10.5 38.5q3 23 21.5 39t41.5 16q22 0 36 -16t11 -39z" />
    <glyph glyph-name="Yacute" unicode="&#xdd;" horiz-adv-x="711" 
d="M9 680l5 30h226l-5 -30l-80 -30q-10 -59 -7.5 -113t15.5 -95.5t50 -66t97 -24.5t103.5 23t69.5 68t40 93t24 115l-70 30l5 30h224l-5 -30l-78 -31q-52 -331 -281 -355l-33 -234l68 -30l-4 -30h-223l4 30l79 30l33 234q-231 26 -187 356zM511 904l-133 -111h-60
q19 26 47 62q4 5 37 49h109z" />
    <glyph glyph-name="Thorn" unicode="&#xde;" horiz-adv-x="584" 
d="M109 110l-15 -110h-68l98 710h69l-12 -90h100q140 0 215 -69.5t58 -192.5q-17 -120 -108 -184t-237 -64h-100zM118 173h122q109 0 167.5 50t70.5 135q13 96 -38 147.5t-153 51.5h-115z" />
    <glyph glyph-name="germandbls" unicode="&#xdf;" horiz-adv-x="536" 
d="M281 0h-92l8 63h34q73 0 118 29t55 106q7 47 -1 76t-32 42t-48 16.5t-63 3.5h-24l9 62h25q62 0 101.5 26t49.5 95q10 72 -22.5 99.5t-93.5 27.5q-72 -4 -100.5 -39t-40.5 -123l-68 -484h-72l46 333h-46l10 65h46l16 119q15 108 71.5 150t166.5 42q80 0 126.5 -42
t32.5 -139q-8 -56 -45.5 -98.5t-92.5 -59.5q66 -15 98.5 -63t22.5 -119q-11 -80 -63.5 -134t-131.5 -54z" />
    <glyph glyph-name="agrave" unicode="&#xe0;" horiz-adv-x="517" 
d="M130 430l-41 102h221q93 -1 137.5 -50t31.5 -141l-40 -288q5 -5 15 -27.5t14 -25.5h-99v58q-69 -74 -188 -74q-78 0 -122 45t-35 116q12 80 81 123.5t173 43.5h127l5 33q10 74 -29 98t-125 24q-68 0 -98 -4zM276 253q-163 0 -178 -106q-6 -43 23 -70.5t83 -27.5
q87 0 140 55q20 20 30.5 52.5t22.5 96.5h-121zM304 599l-102 111h110q1 -2 9.5 -20.5t13.5 -28.5q15 -32 28 -62h-59z" />
    <glyph glyph-name="aacute" unicode="&#xe1;" horiz-adv-x="517" 
d="M129 430l-41 102h221q93 -1 137.5 -50t31.5 -141l-40 -288q5 -5 15 -27.5t14 -25.5h-99v58q-69 -74 -188 -74q-78 0 -122 45t-35 116q12 80 81 123.5t173 43.5h127l5 33q10 74 -29 98t-125 24q-68 0 -98 -4zM275 253q-163 0 -178 -106q-6 -43 23 -70.5t83 -27.5
q87 0 140 55q20 20 30.5 52.5t22.5 96.5h-121zM429 710l-133 -111h-60q19 26 47 62q4 5 37 49h109z" />
    <glyph glyph-name="acircumflex" unicode="&#xe2;" horiz-adv-x="522" 
d="M131 430l-41 102h221q93 -1 137.5 -50t31.5 -141l-40 -288q5 -5 15 -27.5t14 -25.5h-99v58q-69 -74 -188 -74q-78 0 -122 45t-35 116q12 80 81 123.5t173 43.5h127l5 33q10 74 -29 98t-125 24q-68 0 -98 -4zM277 253q-163 0 -178 -106q-6 -43 23 -70.5t83 -27.5
q87 0 140 55q20 20 30.5 52.5t22.5 96.5h-121zM328 661l-94 -88l-37 32l105 105h67l74 -115l-46 -24z" />
    <glyph glyph-name="atilde" unicode="&#xe3;" horiz-adv-x="519" 
d="M129 430l-40 102h221q92 -1 137 -50t32 -141l-41 -288q6 -5 16 -27.5t14 -25.5h-99v58q-71 -74 -188 -74q-78 0 -122 45t-35 116q12 80 81 123.5t173 43.5h127l4 33q11 74 -28.5 98t-125.5 24q-68 0 -97 -4zM275 253q-163 0 -178 -106q-6 -43 23.5 -70.5t83.5 -27.5
q87 0 139 55q21 20 31.5 53.5t21.5 95.5h-121zM411 718h54q-30 -92 -86 -92q-30 0 -61 19q-20 14 -34 14q-16 0 -38 -43h-54q31 94 100 94q33 0 57 -18q21 -15 37 -15q11 0 25 41z" />
    <glyph glyph-name="adieresis" unicode="&#xe4;" horiz-adv-x="525" 
d="M132 430l-41 102h221q93 -1 138 -50t32 -141l-41 -288q6 -5 16 -27.5t14 -25.5h-99v58q-71 -74 -189 -74q-78 0 -121.5 45t-34.5 116q12 80 81 123.5t173 43.5h127l4 33q10 74 -29 98t-125 24q-68 0 -97 -4zM278 253q-163 0 -178 -106q-6 -43 23.5 -70.5t83.5 -27.5
q86 0 139 55q33 31 53 149h-121zM296 640q-3 -22 -22.5 -38.5t-42.5 -16.5q-22 0 -36 16.5t-11 38.5q3 23 21 39t41 16t38 -16t12 -39zM471 640q-3 -22 -22 -38.5t-41 -16.5q-23 0 -36.5 16.5t-10.5 38.5q3 23 21 39t41 16q22 0 36.5 -16t11.5 -39z" />
    <glyph glyph-name="aring" unicode="&#xe5;" horiz-adv-x="518" 
d="M128 430l-41 102h221q93 -1 137.5 -50t31.5 -141l-40 -288q6 -5 16 -27.5t14 -25.5h-99v58q-71 -74 -189 -74q-78 0 -121.5 45t-34.5 116q11 80 80 123.5t173 43.5h127l5 33q10 74 -29 98t-125 24q-68 0 -97 -4zM274 253q-163 0 -178 -106q-6 -43 23 -70.5t83 -27.5
q87 0 140 55q20 20 30.5 52.5t22.5 96.5h-121zM253 655q4 30 28.5 50.5t54.5 20.5t48 -20.5t14 -50.5q-5 -29 -29.5 -50.5t-53.5 -21.5t-47.5 21.5t-14.5 50.5zM359 655q2 13 -7 24t-21 11q-13 0 -25.5 -11t-13.5 -24q-2 -12 7 -23t22 -11q11 0 23.5 11t14.5 23z" />
    <glyph glyph-name="ae" unicode="&#xe6;" horiz-adv-x="955" 
d="M644 49l211 17l-12 -82h-208q-122 0 -177 81v5v-4q-2 3 -6.5 7.5t-7.5 9t-5 8.5q-80 -63 -126.5 -85t-114.5 -22q-78 0 -122 45t-34 116q11 80 80 123.5t173 43.5h127l5 33q10 74 -29 98t-125 24q-68 0 -98 -4l-28 -33l-41 102h221q137 -2 166 -101q84 101 219 101
q112 0 162 -84t34 -202q-1 -7 -8 -7h-406q-4 -79 31 -129t99 -60q2 0 9 -0.5t11 -0.5zM293 253q-163 0 -178 -106q-6 -43 23 -70.5t83 -27.5q87 0 140 55q20 20 30.5 52.5t22.5 96.5h-121zM703 466q-69 0 -124 -47t-76 -116h331q0 70 -35 116.5t-96 46.5zM456 53q1 -1 1 2
q1 9 1 10v1z" />
    <glyph glyph-name="ccedilla" unicode="&#xe7;" horiz-adv-x="557" 
d="M548 532l-91 -102q0 2 -63 20.5t-64 17.5q-83 0 -142.5 -59.5t-71.5 -144.5q-13 -93 26.5 -154t120.5 -61q50 0 96 18.5t72 55.5l43 -25q-83 -114 -219 -114q-118 0 -175 77.5t-39 202.5q17 122 98.5 195t204.5 73h204zM195 -150q-40 0 -65 25l27 42q16 -32 43 -32
q21 0 39 17.5t21 41.5q3 22 -8 39t-31 21l23 33q34 -9 52 -34.5t13 -58.5q-5 -39 -38.5 -66.5t-75.5 -27.5z" />
    <glyph glyph-name="egrave" unicode="&#xe8;" horiz-adv-x="556" 
d="M259 49l210 17l-11 -82h-208q-119 0 -175 78t-38 207q16 112 95 187.5t195 75.5q112 0 162 -84t34 -202q-1 -7 -8 -7h-406q-4 -79 31 -129t99 -60q2 0 9 -0.5t11 -0.5zM318 466q-69 0 -124 -47t-76 -116h331q0 70 -35 116.5t-96 46.5zM326 599l-102 111h110
q1 -2 9.5 -20.5t13.5 -28.5q15 -32 28 -62h-59z" />
    <glyph glyph-name="eacute" unicode="&#xe9;" horiz-adv-x="557" 
d="M257 49l210 17l-11 -82h-208q-119 0 -175 78t-38 207q16 112 95 187.5t195 75.5q112 0 162 -84t34 -202q-1 -7 -8 -7h-406q-4 -79 31 -129t99 -60q2 0 9 -0.5t11 -0.5zM316 466q-69 0 -124 -47t-76 -116h331q0 70 -35 116.5t-96 46.5zM488 710l-133 -111h-60q19 26 47 62
q4 5 37 49h109z" />
    <glyph glyph-name="ecircumflex" unicode="&#xea;" horiz-adv-x="562" 
d="M261 49l210 17l-11 -82h-208q-119 0 -175 78.5t-38 206.5q16 112 95 187.5t195 75.5q112 0 162 -84t34 -202q-1 -7 -8 -7h-406q-4 -79 31 -129t99 -60q2 0 9 -0.5t11 -0.5zM320 466q-69 0 -124 -47t-76 -116h331q0 70 -35 116.5t-96 46.5zM342 661l-94 -88l-37 32
l105 105h67l74 -115l-46 -24z" />
    <glyph glyph-name="edieresis" unicode="&#xeb;" horiz-adv-x="565" 
d="M310 640q-3 -22 -22.5 -38.5t-42.5 -16.5q-22 0 -36 16.5t-11 38.5q3 23 21 39t41 16t38 -16t12 -39zM485 640q-3 -22 -22 -38.5t-41 -16.5q-23 0 -36.5 16.5t-10.5 38.5q3 23 21 39t41 16q22 0 36.5 -16t11.5 -39zM263 49l210 17l-12 -82h-208q-119 0 -175 78t-38 207
q16 112 95 187.5t195 75.5q112 0 162.5 -84t33.5 -202q0 -7 -8 -7h-406q-4 -79 31 -129t100 -60q2 0 9 -0.5t11 -0.5zM321 466q-69 0 -123.5 -47t-76.5 -116h331q1 70 -34 116.5t-97 46.5z" />
    <glyph glyph-name="igrave" unicode="&#xec;" horiz-adv-x="258" 
d="M5 0l3 27l71 27l58 409l-68 27l4 26h140l-65 -462q33 -15 63 -27l-3 -27h-203zM184 599l-103 111h110q22 -47 23 -49q13 -25 29 -62h-59z" />
    <glyph glyph-name="iacute" unicode="&#xed;" horiz-adv-x="332" 
d="M6 0l3 27l70 27l58 409l-68 27l4 26h140l-65 -462q33 -15 63 -27l-3 -27h-202zM327 710l-132 -111h-60q9 12 26 34.5t20 27.5q2 2 37 49h109z" />
    <glyph glyph-name="icircumflex" unicode="&#xee;" horiz-adv-x="326" 
d="M12 0l3 27l71 27l58 409l-68 27l4 26h140l-65 -462q33 -15 63 -27l-3 -27h-203zM201 661l-94 -88l-36 32l104 105h67l74 -115l-45 -24z" />
    <glyph glyph-name="idieresis" unicode="&#xef;" horiz-adv-x="365" 
d="M19 0l4 27l71 27l57 409l-67 27l4 26h140l-65 -462q24 -11 63 -27l-4 -27h-203zM176 640q-3 -22 -22.5 -38.5t-42.5 -16.5q-22 0 -36 16.5t-11 38.5q3 23 21.5 39t41.5 16t37.5 -16t11.5 -39zM351 640q-3 -22 -22 -38.5t-41 -16.5q-23 0 -36.5 16.5t-10.5 38.5
q3 23 21.5 39t41.5 16q22 0 36 -16t11 -39z" />
    <glyph glyph-name="eth" unicode="&#xf0;" horiz-adv-x="607" 
d="M305 480l-33 56l117 73q-31 21 -67 21q-113 0 -155 -63l-52 33q64 95 207 95q81 0 132 -46q39 25 102 63l32 -56l-94 -59q51 -104 23 -303q-19 -138 -91.5 -224t-192.5 -86q-100 0 -155.5 65t-42.5 164q14 94 86 157t168 63q58 0 100.5 -25.5t60.5 -71.5q19 138 -21 222
q-16 -10 -59.5 -37t-64.5 -41zM285 373q-65 0 -117 -45.5t-62 -111.5q-9 -70 29 -118t107 -48q67 0 120.5 47t63.5 114q9 68 -32 115t-109 47z" />
    <glyph glyph-name="ntilde" unicode="&#xf1;" horiz-adv-x="592" 
d="M78 490l4 26h141l-11 -77q72 93 174 93q90 0 128 -55.5t24 -158.5l-37 -264l67 -27l-3 -27h-211l3 27l74 27l36 254q22 154 -96 154q-60 0 -115 -52t-63 -105l-35 -251l67 -27l-3 -27h-211l3 27l74 27l58 409zM458 710h54q-28 -92 -86 -92q-29 0 -60 19q-20 14 -34 14
q-18 0 -38 -43h-54q31 94 99 94q34 0 58 -18q21 -15 37 -15q12 0 24 41z" />
    <glyph glyph-name="ograve" unicode="&#xf2;" horiz-adv-x="578" 
d="M466 264q12 83 -28 143t-119 60q-80 0 -137.5 -60t-69.5 -143q-13 -93 26.5 -154t120.5 -61t137.5 61t69.5 154zM328 532q115 0 172 -76.5t41 -191.5q-18 -125 -96 -202.5t-194 -77.5q-118 0 -174.5 77.5t-39.5 202.5q16 115 95 191.5t196 76.5zM329 599l-102 111h110
q1 -2 9.5 -20.5t13.5 -28.5q15 -32 28 -62h-59z" />
    <glyph glyph-name="oacute" unicode="&#xf3;" horiz-adv-x="578" 
d="M464 264q12 83 -28 143t-119 60q-80 0 -137.5 -60t-69.5 -143q-13 -93 26.5 -154t120.5 -61t137.5 61t69.5 154zM326 532q115 0 172 -76.5t41 -191.5q-18 -125 -96 -202.5t-194 -77.5q-118 0 -174.5 77.5t-39.5 202.5q16 115 95 191.5t196 76.5zM479 710l-133 -111h-60
q19 26 47 62q4 5 37 49h109z" />
    <glyph glyph-name="ocircumflex" unicode="&#xf4;" horiz-adv-x="582" 
d="M467 264q12 83 -28 143t-119 60q-80 0 -137.5 -60t-69.5 -143q-13 -93 26.5 -154t120.5 -61t137.5 61t69.5 154zM329 532q115 0 172 -76.5t41 -191.5q-18 -125 -96 -202.5t-194 -77.5q-118 0 -175 77.5t-39 202.5q16 115 95 191.5t196 76.5zM342 661l-94 -88l-37 32
l105 105h67l74 -115l-46 -24z" />
    <glyph glyph-name="otilde" unicode="&#xf5;" horiz-adv-x="582" 
d="M467 264q12 83 -28 143t-119 60q-80 0 -137.5 -60t-69.5 -143q-13 -93 26.5 -154t120.5 -61t137.5 61t69.5 154zM329 532q115 0 172 -76.5t41 -191.5q-18 -125 -96 -202.5t-194 -77.5q-118 0 -175 77.5t-39 202.5q16 115 95 191.5t196 76.5zM429 710h54q-30 -92 -86 -92
q-29 0 -60 19q-20 14 -34 14q-18 0 -38 -43h-54q30 94 99 94q35 0 57 -18q21 -15 37 -15q13 0 25 41z" />
    <glyph glyph-name="odieresis" unicode="&#xf6;" horiz-adv-x="585" 
d="M468 264q12 83 -28 143t-119 60q-80 0 -137.5 -60t-69.5 -143q-13 -93 26.5 -154t120.5 -61t137.5 61t69.5 154zM330 532q115 0 172 -76.5t41 -191.5q-18 -125 -96 -202.5t-194 -77.5q-118 0 -175 77.5t-39 202.5q16 115 95 191.5t196 76.5zM317 655q-3 -22 -22.5 -38.5
t-42.5 -16.5q-22 0 -36 16.5t-11 38.5q4 23 22 39t41 16q24 0 38.5 -16t10.5 -39zM492 655q-3 -22 -22 -38.5t-41 -16.5q-23 0 -36.5 16.5t-10.5 38.5q4 23 22 39t41 16q22 0 36.5 -16t10.5 -39z" />
    <glyph glyph-name="divide" unicode="&#xf7;" horiz-adv-x="430" 
d="M122 63q4 27 24.5 45.5t47.5 18.5q26 0 41.5 -18.5t11.5 -45.5q-4 -26 -24.5 -44.5t-46.5 -18.5q-27 0 -42.5 18.5t-11.5 44.5zM178 463q4 26 24.5 44.5t47.5 18.5q26 0 41.5 -18.5t11.5 -44.5q-4 -27 -24.5 -45.5t-46.5 -18.5q-27 0 -42.5 18.5t-11.5 45.5zM17 318h407
l-10 -70h-407z" />
    <glyph glyph-name="oslash" unicode="&#xf8;" horiz-adv-x="604" 
d="M323 525q67 0 115 -28l74 103h78l-102 -143q64 -75 47 -197t-95 -199t-193 -77q-46 0 -85 14l-62 -88h-82l86 120q-89 75 -67 230q16 115 93.5 190t192.5 75zM110 260q-16 -110 37 -169l249 348q-36 23 -81 23q-80 0 -136.5 -59.5t-68.5 -142.5zM462 260q11 73 -21 130
l-238 -335q26 -8 52 -8q81 0 137.5 60.5t69.5 152.5z" />
    <glyph glyph-name="ugrave" unicode="&#xf9;" horiz-adv-x="527" 
d="M18 489l4 27h141l-44 -308q-21 -154 97 -154q60 0 114.5 51.5t62.5 105.5l35 251l-66 27l4 27h140l-65 -462l67 -27l-4 -27h-141l11 76q-70 -92 -173 -92q-91 0 -129 55t-24 159l37 264zM274 599l-102 111h110q1 -2 9.5 -20.5t13.5 -28.5q15 -32 28 -62h-59z" />
    <glyph glyph-name="uacute" unicode="&#xfa;" horiz-adv-x="527" 
d="M15 489l4 27h141l-44 -308q-21 -154 97 -154q60 0 114.5 51.5t62.5 105.5l35 251l-66 27l4 27h140l-65 -462l67 -27l-4 -27h-141l11 76q-70 -92 -173 -92q-91 0 -129 55t-24 159l37 264zM431 710l-133 -111h-60q18 26 47 62q4 5 37 49h109z" />
    <glyph glyph-name="ucircumflex" unicode="&#xfb;" horiz-adv-x="532" 
d="M19 489l4 27h141l-44 -308q-21 -154 97 -154q60 0 114.5 51.5t62.5 105.5l35 251l-66 27l4 27h140l-65 -462l67 -27l-4 -27h-141l11 76q-70 -92 -173 -92q-91 0 -129 55t-24 159l37 264zM296 661l-94 -88l-37 32l105 105h67l74 -115l-46 -24z" />
    <glyph glyph-name="udieresis" unicode="&#xfc;" horiz-adv-x="534" 
d="M21 489l3 27h141l-43 -308q-21 -154 97 -154q60 0 114.5 51.5t62.5 105.5l35 251l-66 27l3 27h140l-64 -462l67 -27l-4 -27h-141l11 76q-70 -92 -173 -92q-91 0 -129 55t-24 159l37 264zM253 659q-3 -22 -22.5 -38.5t-42.5 -16.5q-22 0 -36 16.5t-11 38.5q3 23 21 39
t41 16t38 -16t12 -39zM428 659q-3 -22 -22 -38.5t-41 -16.5q-23 0 -36.5 16.5t-10.5 38.5q3 23 21 39t41 16q22 0 36.5 -16t11.5 -39z" />
    <glyph glyph-name="yacute" unicode="&#xfd;" horiz-adv-x="576" 
d="M9 -226l90 102q0 -2 112 -41h10q67 0 125.5 46t67.5 115l11 80q-68 -92 -174 -92q-90 0 -128 55t-24 159l37 264l-67 27l4 27h141l-43 -308q-21 -154 95 -154q60 0 115.5 51.5t62.5 105.5l35 251l-66 27l4 27h140l-71 -509q-15 -106 -83 -170.5t-193 -64.5q-61 0 -83 2
h-118zM484 710l-132 -111h-60q9 12 25.5 34.5t20.5 27.5q2 2 37 49h109z" />
    <glyph glyph-name="thorn" unicode="&#xfe;" horiz-adv-x="549" 
d="M90 -219h-67l122 866q-10 8 -31 26t-31 26h139l-36 -253q78 69 149 69q105 0 156 -79.5t35 -191.5t-88.5 -191t-178.5 -79q-81 0 -130 63q-2 -8 -5.5 -23.5t-4.5 -22.5zM170 328l-24 -168q13 -50 46 -85.5t77 -35.5q70 0 120.5 61t62.5 143q11 83 -22 145t-104 62
q-44 0 -86.5 -36t-69.5 -86z" />
    <glyph glyph-name="ydieresis" unicode="&#xff;" horiz-adv-x="579" 
d="M12 -226l90 102q0 -2 112 -41h10q67 0 125 45.5t68 115.5l11 80q-70 -92 -174 -92q-90 0 -128 55t-24 159l37 264l-67 27l4 27h141l-43 -308q-23 -154 95 -154q60 0 115.5 51.5t62.5 105.5l35 251l-66 27l4 27h140l-72 -509q-15 -105 -83 -170t-193 -65q-61 0 -82 2h-118
zM299 659q-3 -22 -22.5 -38.5t-42.5 -16.5q-22 0 -36 16.5t-11 38.5q3 23 21.5 39t41.5 16t37.5 -16t11.5 -39zM474 659q-3 -22 -22 -38.5t-41 -16.5q-23 0 -36.5 16.5t-10.5 38.5q3 23 21.5 39t41.5 16q22 0 36 -16t11 -39z" />
    <glyph glyph-name="dotlessi" unicode="&#x131;" horiz-adv-x="161" 
d="M11 0l73 516h66l-73 -516h-66z" />
    <glyph glyph-name="Lslash" unicode="&#x141;" horiz-adv-x="517" 
d="M76 670l5 40h134l-54 -387l266 134l22 -59l-299 -150l-25 -180h317l37 47h30l-16 -115h-456l29 207l-19 -9l-22 58l51 26l52 369l-31 19h-21z" />
    <glyph glyph-name="lslash" unicode="&#x142;" horiz-adv-x="401" 
d="M122 683l3 27h140l-51 -367l151 109l31 -48l-193 -140l-23 -160q-1 -7 1 -16.5t6 -17t9 -6.5l51 12l-10 -76h-75h-5q-1 0 -1 0.5t-1 0.5q-3 0 -5 1q-5 1 -20 10l-3 3q-25 20 -21 54l20 140l-87 -62l-31 48l129 92l52 369z" />
    <glyph glyph-name="OE" unicode="&#x152;" horiz-adv-x="947" 
d="M873 597l-14 45h-313l-34 -239h232l-9 -69h-232l-38 -266h325q5 10 16.5 41.5t15.5 40.5h33l-21 -150h-499l-1 -2h-2q-144 0 -222 100t-56 262q20 144 122.5 243.5t239.5 105.5v1h502l-15 -113h-30zM131 360q-19 -133 39.5 -214t171.5 -81h47l81 577h-47
q-112 0 -193.5 -79t-98.5 -203z" />
    <glyph glyph-name="oe" unicode="&#x153;" horiz-adv-x="1012" 
d="M479 264q12 83 -28 143t-119 60q-80 0 -137.5 -60t-69.5 -143q-13 -93 26.5 -154t120.5 -61t137.5 61t69.5 154zM341 532q115 0 172 -76.5t41 -191.5q-17 -125 -95 -202.5t-195 -77.5q-118 0 -174.5 77.5t-39.5 202.5q16 115 95 191.5t196 76.5zM700 49l211 17l-12 -82
h-208q-119 0 -175 78t-38 207q16 112 95 187.5t195 75.5q112 0 162 -84t34 -202q-1 -7 -8 -7h-406q-4 -79 31 -129t99 -60q2 0 9 -0.5t11 -0.5zM759 466q-69 0 -124 -47t-76 -116h331q0 70 -35 116.5t-96 46.5z" />
    <glyph glyph-name="Scaron" unicode="&#x160;" horiz-adv-x="586" 
d="M15 86l73 62q12 -47 50.5 -70t91.5 -23q71 0 125.5 34.5t62.5 93.5q4 26 -4 46.5t-22 34t-40.5 26t-50 19.5t-60.5 17q-50 14 -84 29t-64 38t-42 56t-6 76q14 94 91.5 147.5t182.5 53.5q121 0 188 -69l36 53h30l-22 -162h-57q-4 35 -39 61.5t-73 37t-69 9.5
q-75 0 -126 -32t-59 -91q-8 -56 29 -84t125 -52q46 -13 75 -22.5t62 -26.5t50.5 -37t27 -51t3.5 -71q-14 -102 -94 -153t-200 -52q-54 0 -106 29t-85 73zM263 920l70 -87q6 7 21 20q14 12 40.5 37t34.5 33l37 -23l-98 -105h-81l-67 102z" />
    <glyph glyph-name="scaron" unicode="&#x161;" horiz-adv-x="504" 
d="M487 532l-91 -102q0 1 -54 18t-65 20h-1q-50 0 -86.5 -20.5t-42.5 -62.5q-2 -14 4.5 -26t15.5 -20t29 -16t34 -12t40 -11q31 -8 51 -14.5t46.5 -19.5t41 -28t23.5 -38.5t5 -52.5q-11 -78 -75 -120.5t-156 -42.5q-51 0 -96 21.5t-97 84.5l57 45q18 -45 58.5 -67.5
t93.5 -22.5q56 0 97 25t47 70q3 17 -4 31.5t-17.5 23.5t-31.5 17.5t-35.5 13t-41.5 11.5q-43 12 -65 19.5t-51.5 24t-41 40.5t-6.5 57q11 76 69.5 115t137.5 39h4h204zM238 726l69 -87q15 15 21 20q12 11 38 35.5t38 34.5l37 -23l-98 -105h-81l-68 102z" />
    <glyph glyph-name="Ydieresis" unicode="&#x178;" horiz-adv-x="714" 
d="M12 680l4 30h226l-4 -30l-80 -30q-10 -59 -7.5 -113t15.5 -95.5t50 -66t97 -24.5q49 0 87 16.5t62 42.5t42 67t28 80.5t18 92.5l-70 30l4 30h224l-4 -30l-78 -31q-54 -331 -281 -355l-33 -234l68 -30l-5 -30h-223l5 30l79 30l33 234q-233 26 -187 356zM349 834
q-4 -22 -23 -38.5t-42 -16.5q-22 0 -36.5 16.5t-10.5 38.5q3 23 21 39t41 16t38 -16t12 -39zM524 834q-4 -22 -22.5 -38.5t-40.5 -16.5q-23 0 -37 16.5t-10 38.5q3 23 21 39t41 16q22 0 36.5 -16t11.5 -39z" />
    <glyph glyph-name="Zcaron" unicode="&#x17d;" horiz-adv-x="636" 
d="M100 569l20 141h500l-12 -84l-474 -557h351l40 73h30l-20 -142h-524l10 69l512 572h-363l-40 -72h-30zM318 920l70 -87q15 15 21 20q12 11 38 35.5t38 34.5l37 -23l-98 -105h-81l-68 102z" />
    <glyph glyph-name="zcaron" unicode="&#x17e;" horiz-adv-x="502" 
d="M80 392l17 124h383l-8 -61l-368 -391h271q0 1 1 1l36 62h24l-18 -127h-404l9 62l373 391h-254l-36 -61h-26zM234 726l70 -87q6 7 21 20q14 12 40.5 37t34.5 33l37 -23l-98 -105h-81l-67 102z" />
    <glyph glyph-name="florin" unicode="&#x192;" horiz-adv-x="568" 
d="M542 576l-55 79q-24 -1 -43.5 -13.5t-31 -28.5t-21.5 -45.5t-14.5 -49.5t-11.5 -54h123q3 7 -1 -9q-4 -21 -10 -43q0 -2 -1 -6.5t-1 -5.5h-124q-13 -53 -42 -177t-44 -185q-50 -220 -188 -220q-38 0 -71 21l36 132h1l23 -88q4 -1 14 -1q32 0 59 29.5t38 67.5
q6 25 18 76.5t18 76.5q60 249 65 268h-82q1 4 3.5 15.5t3.5 17.5q1 5 3.5 15.5t3.5 15.5h82q10 54 22 93t33.5 80t55.5 63t80 22q5 0 31 -2q4 0 12.5 -1t17.5 -2t18 -1z" />
    <glyph glyph-name="circumflex" unicode="&#x2c6;" horiz-adv-x="283" 
d="M147 661l-94 -88l-36 32l104 105h67l74 -115l-45 -24z" />
    <glyph glyph-name="caron" unicode="&#x2c7;" horiz-adv-x="284" 
d="M64 726l70 -87q2 2 5.5 6t8.5 8.5t6 5.5q12 11 38 35.5t38 34.5l37 -23l-98 -105h-81l-67 102z" />
    <glyph glyph-name="breve" unicode="&#x2d8;" horiz-adv-x="266" 
d="M198 704q1 1 -1 6h48l-1 -6q-6 -43 -41 -74t-79 -31q-43 0 -70.5 31t-21.5 74l1 6h47l-1 -6q-3 -22 13 -41t38 -19t43.5 19t24.5 41z" />
    <glyph glyph-name="dotaccent" unicode="&#x2d9;" horiz-adv-x="160" 
d="M134 672q-3 -21 -21.5 -37t-40.5 -16t-35.5 16t-10.5 37q3 22 21 38t40 16t36 -16t11 -38z" />
    <glyph glyph-name="ring" unicode="&#x2da;" horiz-adv-x="200" 
d="M28 655q4 30 28.5 50.5t54.5 20.5t48 -20.5t14 -50.5q-5 -29 -29.5 -50.5t-53.5 -21.5t-47.5 21.5t-14.5 50.5zM134 655q2 13 -7 24t-21 11q-13 0 -25.5 -11t-13.5 -24q-2 -12 7 -23t22 -11q11 0 23.5 11t14.5 23z" />
    <glyph glyph-name="ogonek" unicode="&#x2db;" horiz-adv-x="211" 
d="M131 -190q12 0 30 2l32 -38q-1 0 -4 -0.5t-4 -0.5q-45 -10 -78 -10q-37 0 -61.5 23t-18.5 71q3 22 23 69.5t42 73.5h76q-31 -27 -57.5 -72t-29.5 -64q-3 -22 14 -38t36 -16z" />
    <glyph glyph-name="tilde" unicode="&#x2dc;" horiz-adv-x="315" 
d="M241 718h54q-30 -92 -86 -92q-30 0 -61 19q-20 14 -34 14q-16 0 -38 -43h-54q31 94 99 94q34 0 58 -18q21 -15 37 -15q11 0 25 41z" />
    <glyph glyph-name="hungarumlaut" unicode="&#x2dd;" horiz-adv-x="289" 
d="M118 688q-3 -8 -9 -18q-11 -16 -31 -61l-48 3l2.5 10t2.5 11.5t1 10.5v6.5t1 6.5l1 10q4 25 18.5 42t37.5 17q14 0 21 -8.5t5 -22.5q0 -1 -0.5 -2t-0.5 -2zM258 688q-3 -8 -9 -18q-11 -16 -31 -61l-47 3l2.5 10t2.5 11.5t1 10.5q1 2 1 6.5v6.5l1 10q4 25 18 42t37 17
q14 0 21 -8.5t5 -22.5q0 -1 -0.5 -2t-0.5 -2z" />
    <glyph glyph-name="endash" unicode="&#x2013;" horiz-adv-x="492" 
d="M35 236l9 63h413l-9 -63h-413z" />
    <glyph glyph-name="emdash" unicode="&#x2014;" horiz-adv-x="789" 
d="M35 236l9 63h710l-9 -63h-710z" />
    <glyph glyph-name="quoteleft" unicode="&#x2018;" horiz-adv-x="168" 
d="M108 726h54l-63 -69q-6 -5 -6 -10q-1 -5 -1 -20t1 -15q-4 -14 -16 -24t-26 -10q-16 0 -25.5 11t-7.5 27q5 37 90 110z" />
    <glyph glyph-name="quoteright" unicode="&#x2019;" horiz-adv-x="169" 
d="M63 578h-55l64 69q4 5 6 9q-1 0 -1 15q-2 10 0 18q1 15 14 26t28 11q16 0 25.5 -11t7.5 -26q-6 -37 -89 -111z" />
    <glyph glyph-name="quotesinglbase" unicode="&#x201a;" horiz-adv-x="210" 
d="M61 -73h-50q20 18 46.5 47t32.5 42q-28 22 -25 47q5 27 25.5 45.5t46.5 18.5q27 0 42.5 -18.5t11.5 -45.5q-6 -48 -107 -119q-11 -7 -23 -17z" />
    <glyph glyph-name="quotedblleft" unicode="&#x201c;" horiz-adv-x="341" 
d="M269 726h54l-63 -69q-6 -5 -6 -10q-1 -5 -1 -20t1 -15q-4 -14 -16 -24t-26 -10q-15 0 -24.5 11t-7.5 27q3 21 23.5 45.5t65.5 64.5zM118 726h54l-63 -69q-6 -5 -6 -10q-1 -5 -1 -20t1 -15q-4 -14 -16 -24t-26 -10q-16 0 -25.5 11t-7.5 27q5 37 90 110z" />
    <glyph glyph-name="quotedblright" unicode="&#x201d;" horiz-adv-x="343" 
d="M76 571h-56l60 67q8 7 10 13q0 8 -1 11q-2 13 -1 21q2 15 15.5 26.5t29.5 11.5t26.5 -11.5t8.5 -26.5q-3 -22 -24 -47t-68 -65zM226 571h-58l62 67q8 7 10 13q0 8 -1 11q-2 13 -1 21q2 15 15.5 26.5t29.5 11.5q15 0 25 -11.5t8 -26.5q-5 -40 -90 -112z" />
    <glyph glyph-name="quotedblbase" unicode="&#x201e;" horiz-adv-x="463" 
d="M73 -73h-50q21 18 47 47t32 42q-28 22 -25 47q5 27 25.5 45.5t47.5 18.5q26 0 42 -18.5t12 -45.5q-6 -48 -107 -119q-22 -15 -24 -17zM303 -73h-51q21 18 47 47t32 42q-27 22 -24 47q5 27 25 45.5t47 18.5t42.5 -18.5t11.5 -45.5q-3 -22 -22.5 -46t-33.5 -35t-43 -32
q-22 -14 -31 -23z" />
    <glyph glyph-name="dagger" unicode="&#x2020;" horiz-adv-x="385" 
d="M155 320h-150l9 65h150l46 324h69l-46 -324h149l-9 -65h-149l-59 -420h-69z" />
    <glyph glyph-name="daggerdbl" unicode="&#x2021;" horiz-adv-x="420" 
d="M187 366h-150l9 65h150l39 278h69l-39 -278h150l-9 -65h-150l-25 -172h150l-9 -67h-150l-32 -227h-69l32 227h-149l8 67h150z" />
    <glyph glyph-name="bullet" unicode="&#x2022;" horiz-adv-x="309" 
d="M31 238q7 52 48.5 88t92.5 36q52 0 82 -36t23 -88q-7 -51 -47.5 -86.5t-92.5 -35.5q-51 0 -82 35.5t-24 86.5z" />
    <glyph glyph-name="ellipsis" unicode="&#x2026;" horiz-adv-x="793" 
d="M38 63q4 27 25 45.5t47 18.5t42 -18.5t12 -45.5q-4 -26 -25 -44.5t-47 -18.5t-42 18.5t-12 44.5zM333 63q4 27 25 45.5t47 18.5q27 0 42.5 -18.5t11.5 -45.5q-4 -26 -24.5 -44.5t-47.5 -18.5q-26 0 -42 18.5t-12 44.5zM628 63q4 27 25 45.5t48 18.5q26 0 42 -18.5
t12 -45.5q-4 -26 -25 -44.5t-47 -18.5q-27 0 -43 18.5t-12 44.5z" />
    <glyph glyph-name="perthousand" unicode="&#x2030;" horiz-adv-x="863" 
d="M190 658q-37 0 -63.5 -35t-32.5 -82q-6 -48 10 -83t53 -35q38 0 65 35.5t33 82.5q7 47 -10.5 82t-54.5 35zM530 706l44 -19l-217 -302q-150 -215 -276 -388l-44 17zM197 707q59 0 89.5 -48.5t20.5 -117.5q-9 -70 -53.5 -118.5t-103.5 -48.5q-57 0 -87.5 48.5t-21.5 118.5
q10 69 54.5 117.5t101.5 48.5zM439 318q58 0 88 -49t20 -118q-9 -70 -52.5 -118.5t-102.5 -48.5t-89 48.5t-21 118.5q10 69 54 118t103 49zM432 269q-37 0 -64 -36t-34 -82q-6 -47 10.5 -82t54.5 -35t63.5 35t32.5 82q7 46 -10 82t-53 36zM724 318q59 0 89 -49t20 -118
q-9 -70 -53 -118.5t-103 -48.5t-88.5 48.5t-20.5 118.5q10 70 54 118.5t102 48.5zM717 269q-37 0 -64 -36t-33 -82q-6 -47 10.5 -82t53.5 -35q38 0 64 35t33 82t-10 82.5t-54 35.5z" />
    <glyph glyph-name="guilsinglleft" unicode="&#x2039;" horiz-adv-x="245" 
d="M102 60l-92 205l150 204h71l-149 -205q9 -20 28 -62t28 -63q17 -34 35 -79h-71z" />
    <glyph glyph-name="guilsinglright" unicode="&#x203a;" horiz-adv-x="240" 
d="M231 264l-148 -203h-69l148 204q-15 34 -48 106.5t-43 95.5h69z" />
    <glyph glyph-name="fraction" unicode="&#x2044;" horiz-adv-x="591" 
d="M83 0h-81l509 710h78z" />
    <glyph glyph-name="Euro" unicode="&#x20ac;" horiz-adv-x="609" 
d="M16 302l6 45h59l4 26h-59l6 45h63q36 126 116.5 202t183.5 76q60 0 106 -31t72 -85l5.5 -5.5t6.5 -7t6 -5.5l-83 -58l8 38q-44 87 -130 87q-77 0 -137.5 -58.5t-90.5 -152.5h227l-6 -45h-231l-4 -26h231l-6 -45h-230q-5 -112 39 -181t127 -69q88 0 158 92q0 14 -1 22
q-2 17 0 19l70 -54q-119 -147 -237 -147q-109 0 -168 87t-51 231h-60z" />
    <glyph glyph-name="trademark" unicode="&#x2122;" horiz-adv-x="814" 
d="M47 657h-17l8 56h294l-8 -56h-16l-12 20h-94l-44 -308l38 -16l-2 -16h-121l2 16l43 16l44 308h-97zM732 369l38 -16l-2 -16h-120l2 16l42 16l43 303q-24 -41 -66.5 -118.5t-48.5 -88.5q-23 -42 -71 -128h-39l-85 321l-41 -289l37 -16l-2 -16h-119l2 16l41 16l49 348h58
l86 -337q11 21 31.5 60.5t37.5 71.5t33 60q3 6 77 145h66z" />
    <glyph glyph-name="minus" unicode="&#x2212;" horiz-adv-x="485" 
d="M43 333h407l-8 -60h-407z" />
    <glyph glyph-name="percent" horiz-adv-x="602" 
d="M184 666q-38 0 -66.5 -37t-35.5 -86q-6 -49 11.5 -85.5t55.5 -36.5q40 0 68 37t35 85q7 49 -11 86t-57 37zM534 710l34 -18q-121 -166 -231 -320q-145 -207 -265 -372l-40 14zM190 710q58 0 88 -49t20 -118q-9 -69 -53 -117t-102 -48q-57 0 -86.5 48t-20.5 117
q10 69 53.5 118t100.5 49zM457 316q57 0 86.5 -48.5t19.5 -117.5q-9 -69 -52.5 -117.5t-100.5 -48.5q-58 0 -88 48.5t-21 117.5q10 69 54 117.5t102 48.5zM450 272q-39 0 -67.5 -37t-34.5 -85q-6 -49 11.5 -85.5t56.5 -36.5q40 0 66.5 36.5t33.5 85.5q7 48 -10.5 85
t-55.5 37z" />
    <glyph glyph-name="zero.taboldstyle" horiz-adv-x="449" 
d="M255 451q-66 0 -106.5 -60.5t-52.5 -141.5q-7 -35 -3.5 -73t13 -69t33 -51t57.5 -20q64 0 105.5 65.5t52.5 147.5q12 81 -11.5 141.5t-87.5 60.5zM261 497q90 0 126 -69.5t20 -178.5q-15 -111 -71.5 -185.5t-145.5 -74.5q-91 0 -127.5 74t-21.5 186q16 109 72.5 178.5
t147.5 69.5z" />
    <glyph glyph-name="one.taboldstyle" horiz-adv-x="208" 
d="M19 0l3 18l53 21l56 397q-5 -3 -14 -7.5l-13 -6.5q-51 -28 -69 -36l-20 -10l10 70l33 -1l1 1h1q4 0 4 2q37 18 73 38h51l-63 -447l44 -21l-3 -18h-147z" />
    <glyph glyph-name="two.taboldstyle" horiz-adv-x="435" 
d="M91 393l13 93h22l6 -38q63 48 131 51q67 -2 106.5 -37t31.5 -92q-4 -28 -19 -54.5t-40.5 -50.5t-43.5 -38.5t-46 -34.5q-123 -88 -157 -145h217l27 47h22l-13 -94h-326v7q1 11 6 22q11 35 46.5 74.5t79 73t85.5 66t72 64.5t34 58q5 35 -26 60.5t-72 25.5q-38 0 -70.5 -19
t-43.5 -39h-42z" />
    <glyph glyph-name="six.taboldstyle" horiz-adv-x="581" 
d="M559 696l-20 -148q0 1 -11 10t-31 21.5t-43.5 24.5t-53.5 20t-57 6q-88 0 -141.5 -75.5t-73.5 -199.5q31 45 83 71t108 26q99 0 151.5 -63.5t38.5 -163.5q-14 -103 -88 -172t-175 -69q-120 0 -170 85.5t-30 225.5q57 401 305 401q36 0 87.5 -23t54.5 -24l36 47h30z
M305 386q-74 0 -126.5 -47t-62.5 -119q-10 -68 33.5 -119t109.5 -51q69 0 117 49t59 124q10 69 -25.5 116t-104.5 47z" />
    <glyph glyph-name="eight.taboldstyle" horiz-adv-x="578" 
d="M36 187q9 62 53.5 108.5t105.5 64.5q-51 27 -77.5 61.5t-18.5 89.5q13 86 86 135.5t160 49.5t146.5 -49.5t46.5 -135.5q-7 -52 -44 -92.5t-90 -58.5q57 -21 87 -66.5t21 -108.5q-14 -94 -91.5 -147.5t-177.5 -53.5q-99 0 -159 55.5t-48 147.5zM170 509q-8 -59 31.5 -95.5
t99.5 -36.5t109 37t57 96q8 57 -32 89t-100 32t-108.5 -32.5t-56.5 -89.5zM112 187q-9 -63 34.5 -100t108.5 -37t119 37.5t63 100.5q9 65 -34.5 102.5t-109.5 37.5q-65 0 -118.5 -38.5t-62.5 -102.5z" />
    <glyph glyph-name="three.taboldstyle" horiz-adv-x="522" 
d="M81 348l18 131l30 1l8 -55q33 28 86 52t90 19q85 -4 135 -53t39 -131q-8 -56 -45.5 -95t-92.5 -53q55 -17 83 -67t18 -117q-12 -89 -85.5 -142.5t-169.5 -53.5q-78 0 -125.5 31.5t-44.5 91.5h88q1 -34 25 -45.5t66 -11.5q68 0 115 35t56 99q10 68 -28.5 107t-121.5 39
h-21l9 65h23q72 0 119.5 29.5t56.5 87.5q7 53 -28.5 85.5t-93.5 32.5q-104 0 -152 -82h-57z" />
    <glyph glyph-name="four.taboldstyle" horiz-adv-x="532" 
d="M510 86l-17 -119h-98l-16 -112l61 -30l-3 -25h-206l3 25l73 30l16 112h-320l11 79q50 58 152 172q40 45 116 133t113 129h72l-63 -449h53l38 55h15zM332 29l53 360q-202 -239 -307 -360h254z" />
    <glyph glyph-name="five.taboldstyle" horiz-adv-x="520" 
d="M448 349l-20 66h-240q-8 -26 -21 -77.5t-15 -58.5q-3 -15 -10 -42t-11 -42q63 57 146 57q96 0 149 -64.5t39 -161.5q-15 -105 -90 -173.5t-175 -68.5q-123 0 -179 65l75 39q26 -38 110 -38q71 0 121.5 50.5t61.5 126.5q10 71 -26.5 115t-104.5 44q-46 0 -87.5 -24
t-65.5 -66h-67l-3 3q21 103 100 381h362l-19 -131h-30z" />
    <glyph glyph-name="seven.taboldstyle" horiz-adv-x="567" 
d="M227 -200h-201l3 25l64 30q113 176 353 560h-303l-39 -66h-40l18 131h481l-387 -625l54 -30z" />
    <glyph glyph-name="nine.taboldstyle" horiz-adv-x="543" 
d="M190 -216q-105 0 -157 71l69 36q9 -28 32.5 -34.5t74.5 -6.5q44 0 80.5 25t62 67.5t42.5 93t26 108.5q-31 -46 -81 -72t-108 -26q-95 0 -150 63.5t-42 157.5q14 99 88 164t174 65q120 0 168.5 -86t29.5 -225q-57 -401 -309 -401zM245 107q68 0 122 47t63 115
q10 68 -30.5 115t-107.5 47q-69 0 -120.5 -48.5t-61.5 -118.5q-9 -65 30.5 -111t104.5 -46z" />
    <glyph glyph-name="A.small" horiz-adv-x="553" 
d="M360 507l127 -464l50 -22h-1l-3 -21h-152l3 21l43 22q-3 10 -8.5 33t-8.5 33h-252q-31 -58 -36 -66l51 -22l-2 -21h-163l3 21l52 22q180 333 251 464h46zM331 446l-148 -290h216q-62 264 -68 290z" />
    <glyph glyph-name="B.small" horiz-adv-x="512" 
d="M21 0l2 21q6 2 22.5 11t25.5 11l59 421l-36 22l3 21h231q70 0 112 -30.5t32 -100.5q-5 -36 -31 -65.5t-63 -45.5q43 -13 65.5 -47.5t15.5 -82.5q-9 -58 -54 -96.5t-115 -38.5h-125l7 49h84q64 0 101.5 19.5t45.5 73.5q3 22 -3 38t-21 26t-32 16.5t-44.5 10t-49.5 4.5
t-55 1l7 51l78 -2q120 0 132 84q7 49 -23.5 68.5t-83.5 19.5h-125l-64 -459h-98z" />
    <glyph glyph-name="C.small" horiz-adv-x="505" 
d="M437 469l26 38h21l-16 -116h-40q3 23 -36.5 50.5t-83.5 26.5q-81 0 -137 -58t-69 -151q-14 -100 25 -160t121 -60q38 -2 79 19t61 51l41 -26l-7 -7q-4 -4 -9.5 -10.5t-8.5 -9.5q-77 -67 -163 -67q-106 0 -160 74t-37 196q17 116 91.5 188t180.5 72q74 0 121 -50z" />
    <glyph glyph-name="D.small" 
d="M127 49h105q93 0 145.5 55t65.5 152t-29.5 150t-129.5 53h-100zM22 0l2 21q6 2 23 11t25 11l59 421l-36 22l3 21h183q115 0 175.5 -67.5t44.5 -183.5q-17 -121 -94 -188.5t-197 -67.5h-188z" />
    <glyph glyph-name="E.small" horiz-adv-x="477" 
d="M417 426l-10 33h-224l-24 -171h166l-7 -49h-166l-26 -190h232q2 5 10.5 28t12.5 30h23l-15 -107h-324l65 464q-6 3 -20.5 11.5t-21.5 10.5l3 21h359l-11 -81h-22zM21 0l2 21q6 2 23 11t25 11l-6 -43h-44z" />
    <glyph glyph-name="F.small" horiz-adv-x="470" 
d="M95 486l3 21h367l-11 -76h-21l-18 27h-225l-26 -184h132l25 30h21l-14 -105h-21l-18 25h-132l-25 -181l50 -22l-3 -21h-160l2 21l57 22l59 421q-7 3 -21.5 11.5t-20.5 10.5z" />
    <glyph glyph-name="G.small" horiz-adv-x="509" 
d="M300 159l-19 23l7 47l25 24h21l-3 -24h148q-14 -100 -52 -146h2l-7 -7q-4 -4 -9.5 -10.5t-8.5 -9.5q-77 -67 -163 -67q-106 0 -160 74t-37 196q17 116 91.5 188t180.5 72q74 0 121 -50l26 38h21l-16 -116h-40q3 23 -36.5 50.5t-83.5 26.5q-81 0 -137 -58t-69 -151
q-14 -100 25 -160t121 -60q65 0 113.5 41t53.5 102h-91l-3 -23h-21z" />
    <glyph glyph-name="H.small" horiz-adv-x="612" 
d="M90 486l3 21h160l-3 -21l-55 -22q-10 -67 -12 -88l-13 -88h281l25 176l-50 22l3 21h160l-3 -21l-56 -22l-59 -421l50 -22l-3 -21h-161l3 21l57 22l27 196h-281l-27 -196l49 -22l-3 -21h-159l2 21l56 22l59 421z" />
    <glyph glyph-name="I.small" horiz-adv-x="251" 
d="M9 0l3 21l55 22l59 421l-50 22l3 21h163l-3 -21l-58 -22l-59 -421l49 -22l-3 -21h-159z" />
    <glyph glyph-name="J.small" horiz-adv-x="401" 
d="M226 486l3 21h161l-3 -21l-58 -22l-32 -229q-6 -43 -11.5 -70.5t-19.5 -64.5t-33 -58.5t-52.5 -37t-77.5 -15.5q-69 0 -98 52l47 25q28 -25 69 -25q27 0 47 11.5t32 27t21 44t13.5 50.5t9.5 58l31 232z" />
    <glyph glyph-name="K.small" horiz-adv-x="521" 
d="M167 279l248 207l-19 21h103q-88 -78 -149 -131q-26 -23 -71.5 -63t-59.5 -52l187 -215l55 -21l-3 -25h-153l3 21l31 22q-21 25 -81.5 96t-94.5 111l-29 -207l49 -22l-3 -21h-159l2 21l56 22l59 421l-42 22l3 21h100z" />
    <glyph glyph-name="L.small" horiz-adv-x="369" 
d="M56 486l3 21h93l-64 -458h227l25 33h22l-11 -82h-324l65 464z" />
    <glyph glyph-name="M.small" horiz-adv-x="702" 
d="M605 43l49 -22l-2 -21h-161l2 21l57 22l57 409q-26 -46 -77 -139t-77 -140q-16 -28 -47.5 -86t-47.5 -87h-53l-115 432l-54 -389l49 -22l-2 -21h-160l1 21l57 22l65 469h77l116 -454l138 258q4 7 104 196h89z" />
    <glyph glyph-name="N.small" horiz-adv-x="627" 
d="M21 0l2 21l56 22l65 464h52q37 -65 118 -207t125 -219l54 383l-47 22l3 21h157l-3 -21l-55 -22l-65 -464h-53q-123 206 -243 419q-41 -286 -53 -376l49 -22l-3 -21h-159z" />
    <glyph glyph-name="O.small" horiz-adv-x="558" 
d="M45 259q15 111 91 185.5t181 74.5t159.5 -74.5t39.5 -185.5q-17 -122 -92 -196t-182 -74q-106 0 -160 74t-37 196zM103 259q-14 -101 24.5 -160.5t121.5 -59.5t139 59.5t70 160.5q13 93 -27 151t-122 58t-137.5 -58t-68.5 -151z" />
    <glyph glyph-name="P.small" horiz-adv-x="498" 
d="M143 507h136q43 0 76 -5.5t64.5 -20.5t45.5 -46t8 -77q-21 -148 -226 -148h-49l7 49h62q64 0 103.5 21.5t47.5 77.5q7 48 -22 74t-77 26h-129l-58 -415l49 -22l-3 -21h-157l2 21l55 22l59 421q-7 3 -21.5 11.5t-20.5 10.5l3 21h45z" />
    <glyph glyph-name="Q.small" horiz-adv-x="561" 
d="M419 -45v3l-1 2q-20 52 -31 79q-25 -23 -66 -36.5t-81 -13.5q-106 0 -160 74t-37 196q17 116 91.5 188t180.5 72t161.5 -72.5t38.5 -187.5q-14 -109 -89 -192q5 -12 17 -38t18 -38h29l-5 -36h-66zM282 61l7 44h105q49 59 63 154q13 93 -26.5 151t-122.5 58
q-82 0 -138 -58t-69 -151q-14 -101 25 -160.5t121 -59.5q47 0 91 22h-56z" />
    <glyph glyph-name="R.small" horiz-adv-x="522" 
d="M144 507h136q43 0 76.5 -5.5t65.5 -20.5t46.5 -46t8.5 -77q-17 -119 -161 -144q111 -46 119 -154q0 -12 6 -17l48 -22l-3 -21h-161l3 21l48 22q-6 66 -55 113.5t-102 56.5h-19l6 46h63q136 0 150 99q7 48 -22 74t-77 26h-129l-58 -415l50 -22l-3 -21h-159l2 21l56 22
l59 421q-7 3 -21.5 11.5t-20.5 10.5l3 21h45z" />
    <glyph glyph-name="S.small" horiz-adv-x="444" 
d="M241 519h184l-53 -95l-107 45h-28q-54 0 -90.5 -23t-42.5 -65q-6 -40 21 -60t90 -37q41 -11 65.5 -20.5t50 -26.5t35.5 -42t5 -60q-11 -73 -68.5 -109.5t-142.5 -36.5q-38 0 -75.5 20.5t-61.5 51.5l54 45q16 -67 100 -67q51 0 90 24.5t45 67.5t-26.5 63.5t-100.5 38.5
q-75 21 -111.5 52t-28.5 90q9 67 65 105.5t131 38.5z" />
    <glyph glyph-name="T.small" horiz-adv-x="437" 
d="M45 431h-24l11 76h396l-11 -76h-21l-16 27h-127l-58 -415l51 -22l-3 -21h-162l3 21l57 22l58 415h-131z" />
    <glyph glyph-name="U.small" horiz-adv-x="557" 
d="M380 486l3 21h159l-3 -21l-55 -22l-30 -218q-36 -257 -239 -257q-204 0 -166 257l30 218l-50 22l3 21h160l-3 -21l-56 -22l-30 -218q-14 -98 12 -152.5t107 -54.5q82 0 123 55t55 152l30 218z" />
    <glyph glyph-name="V.small" horiz-adv-x="555" 
d="M17 486l3 21h159l-3 -21l-53 -22q11 -45 45 -186.5t52 -218.5q22 43 96 185t115 220l-45 22l3 21h159l-3 -21l-55 -22q-193 -355 -251 -464h-52l-122 464z" />
    <glyph glyph-name="W.small" horiz-adv-x="850" 
d="M671 486l3 21h161l-3 -21l-57 -22q-139 -257 -249 -464l-52 19l-59 385q-58 -130 -86 -194q-16 -38 -83 -191h-53l-122 445l-50 22l3 21h159l-3 -21l-53 -22q10 -40 44.5 -183t52.5 -220q15 36 31.5 76t36.5 88.5t31 75.5q71 171 84 206h44l57 -446q27 54 88 169
q64 123 123 234z" />
    <glyph glyph-name="X.small" horiz-adv-x="592" 
d="M21 0l2 21l55 22q21 25 59 68t70 79t59 68q-3 6 -52 86q-12 20 -36.5 60t-36.5 60l-49 22l3 21h160l-3 -20l-46 -21q30 -48 53 -88q33 -58 47 -80q38 48 145 166l-43 22l3 21h160l-3 -21l-57 -22q-60 -69 -104 -118q-24 -28 -35 -39q-29 -31 -43 -49q34 -60 68 -119
q14 -21 59 -96l52 -22l-3 -21h-161l3 21l43 22q-45 71 -75 128q-3 5 -7.5 14t-8.5 16.5t-8 14.5q-14 -15 -75.5 -86.5t-75.5 -86.5l44 -22l-3 -21h-160z" />
    <glyph glyph-name="Y.small" horiz-adv-x="524" 
d="M19 486l3 21h161l-3 -21l-57 -22q-6 -58 -4.5 -105t30.5 -77.5t85 -30.5q43 0 74 16.5t49.5 49t28 66t17.5 81.5l-50 22l3 21h160l-3 -21l-56 -22q-37 -236 -201 -254l-23 -167l49 -22l-3 -21h-160l3 21l57 22l23 167q-167 19 -133 254z" />
    <glyph glyph-name="Z.small" horiz-adv-x="443" 
d="M4 8l3 24h375l-3 -24h-375zM76 468l1 13h357l-1 -13h-357zM9 43l1 6l16 18h80l-15 -18h251l9 18h36l-3 -24h-375zM36 78l20 23h79l-19 -23h-80zM68 114l19 22h78l-19 -22h-78zM99 149l19 21h76l-18 -21h-77zM131 185l18 20h75l-17 -20h-76zM163 220l17 19h73l-16 -19h-74
zM195 256l16 18h72l-16 -18h-72zM226 291l16 18h71l-16 -18h-71zM257 326l16 17h69l-15 -17h-70zM290 362l14 16h67l-13 -16h-68zM438 507l-1 -3h-357l1 3h357zM321 397l14 15h65l-13 -15h-66zM430 447l-12 -14h-65l13 14h64zM392 101l-3 -23h-32l13 23h22zM71 433l2 14h38
l-8 -14h-32zM67 406l1 6h23l-3 -6h-21z" />
    </font>
</defs>
</svg>
