<?xml version="1.0" standalone="no"?>
<!DOCTYPE svg PUBLIC "-//W3C//DTD SVG 1.1//EN" "http://www.w3.org/Graphics/SVG/1.1/DTD/svg11.dtd" >
<svg xmlns="http://www.w3.org/2000/svg" xmlns:xlink="http://www.w3.org/1999/xlink" version="1.1">
<metadata>
Created by FontForge 20150824 at Wed Jun  1 16:48:11 2016
 By Everything Fonts
Copyright (c) 2016 by Lollia Andrade. All rights reserved.
</metadata>
<defs>
<font id="ArnoiaTexItalict" horiz-adv-x="501" >
  <font-face 
    font-family="ArnoiaTexItalict"
    font-weight="400"
    font-style="italic"
    font-stretch="normal"
    units-per-em="1000"
    panose-1="2 10 5 4 3 2 6 2 2 4"
    ascent="710"
    descent="-290"
    x-height="509"
    cap-height="710"
    bbox="-40 -234 1227 906"
    underline-thickness="50"
    underline-position="-150"
    unicode-range="U+0020-FB04"
  />
<missing-glyph horiz-adv-x="533" 
d="M101 710h479l-99 -710h-479zM496 659h-325l126 -258zM446 96l73 518l-200 -259zM411 51l-127 258l-198 -258h325zM63 96l199 259l-126 259z" />
    <glyph glyph-name="ff" unicode="ff" horiz-adv-x="550" 
d="M103 50l56 398h-92l9 61h92l2 19q14 104 53.5 151t115.5 47q37 0 85 -22q34 22 86 22q38 0 86 -22l-35 -50q-20 10 -44 10q-83 0 -104 -100l-7 -55h91l32 20l-14 -101l-27 20h-91l-56 -398l63 -50h-378zM226 448l-56 -398l47 -37l57 37l56 398h-104zM341 528
q12 85 39 130q-16 6 -34 6q-83 0 -104 -100l-7 -54h104z" />
    <glyph glyph-name="fi" unicode="fi" horiz-adv-x="540" 
d="M87 50l56 398h-92l9 61h92l2 19q15 104 54 151t115 47q40 0 86 -22l-35 -50q-20 10 -44 10q-83 0 -104 -100l-7 -55h91l32 20l-14 -101l-27 20h-91l-56 -398l67 -23h-207zM286 27l70 24l58 409l-60 50h134l-65 -460l64 -23h-201zM398 614q3 20 18.5 33.5t35.5 13.5
t31.5 -13.5t8.5 -33.5q-2 -20 -17.5 -33.5t-35.5 -13.5t-31.5 13.5t-9.5 33.5z" />
    <glyph glyph-name="fl" unicode="fl" horiz-adv-x="446" 
d="M149 528q7 50 15 80t25.5 60t49.5 44t79 14q38 0 86 -22l-35 -50q-20 10 -44 10q-83 0 -104 -100l-8 -58h205l-58 -415q-3 -17 7 -24t28 -8l-8 -59h-43q-25 2 -42 21t-13 46l54 378h-138l-56 -395l63 -50h-210l80 50z" />
    <glyph glyph-name="ffi" unicode="ffi" horiz-adv-x="679" 
d="M402 448l-56 -398l63 -50h-378l77 50l56 398h-92l9 61h92l2 19q14 104 53.5 151t115.5 47q37 0 85 -22q34 22 86 22q38 0 86 -22l-35 -50q-20 10 -44 10q-83 0 -104 -100l-7 -55h205l-59 -418q-5 -32 39 -32q4 0 12.5 2t14.5 2l-9 -63h-73q-25 2 -42 21t-13 46l54 381
h-138zM231 448l-56 -398l47 -37l57 37l56 398h-104zM346 528q12 85 39 130q-17 6 -34 6q-83 0 -104 -100l-7 -54h104zM536 583q3 20 18.5 33.5t35.5 13.5t31.5 -13.5t8.5 -33.5t-18.5 -33.5t-35.5 -13.5t-31.5 13.5t-8.5 33.5z" />
    <glyph glyph-name="ffl" unicode="ffl" horiz-adv-x="628" 
d="M106 50l56 398h-92l9 61h92l2 19q14 104 53.5 151t115.5 47q37 0 85 -22q34 22 86 22q38 0 86 -22l-35 -50q-20 10 -44 10q-83 0 -104 -100l-7 -55h91l72 52l-66 -470q-5 -32 39 -32q4 0 12.5 2t14.5 2l-9 -63h-73q-25 2 -42 21t-13 46l54 381h-89l-56 -398l63 -50h-378z
M229 448l-56 -398l47 -37l57 37l56 398h-104zM344 528q12 85 39 130q-17 6 -34 6q-83 0 -104 -100l-7 -54h104z" />
    <glyph glyph-name="f_f_j" unicode="ffj" horiz-adv-x="613" 
d="M528 -32q-14 -78 -61.5 -132.5t-103.5 -69.5l-25 60q36 6 72.5 39.5t45.5 71.5l72 511h-139l-56 -398l63 -50h-378l77 50l56 398h-92l9 61h92l2 19q15 104 54 151t115 47q39 0 85 -22q34 22 86 22q40 0 86 -22l-35 -50q-20 10 -43 10q-84 0 -105 -100l-7 -55h73l-1 1h134
zM218 448l-56 -398l47 -37l57 37l56 398h-104zM333 528q12 86 40 130q-18 6 -34 6q-84 0 -105 -100l-7 -54h104zM528 583q3 20 18.5 33.5t35.5 13.5t31.5 -13.5t8.5 -33.5t-18 -33.5t-35 -13.5t-32 13.5t-9 33.5z" />
    <glyph glyph-name="f_j" unicode="fj" horiz-adv-x="417" 
d="M144 544q1 1 4.5 18.5t8.5 36t17 42.5t28.5 42t44.5 30.5t63 12.5q40 0 86 -22l-35 -50q-20 10 -43 10q-84 0 -105 -100l-7 -55h73l-1 1h134l-76 -542q-14 -78 -61.5 -132.5t-103.5 -69.5l-25 60q36 6 72.5 39.5t45.5 71.5l72 511h-139l-56 -398l63 -50h-208l78 50z
M336 583q3 20 18.5 33.5t35.5 13.5t31.5 -13.5t8.5 -33.5t-18 -33.5t-35 -13.5t-32 13.5t-9 33.5z" />
    <glyph glyph-name=".notdef" horiz-adv-x="533" 
d="M101 710h479l-99 -710h-479zM496 659h-325l126 -258zM446 96l73 518l-200 -259zM411 51l-127 258l-198 -258h325zM63 96l199 259l-126 259z" />
    <glyph glyph-name=".null" horiz-adv-x="0" 
 />
    <glyph glyph-name="nonmarkingreturn" horiz-adv-x="333" 
 />
    <glyph glyph-name="space" unicode=" " horiz-adv-x="225" 
 />
    <glyph glyph-name="exclam" unicode="!" horiz-adv-x="148" 
d="M114 710h60l-74 -523h-60zM108 38q-3 -22 -21 -38t-40 -16t-35.5 16t-11.5 38q4 22 22 38t40 16t36 -16t10 -38z" />
    <glyph glyph-name="quotedbl" unicode="&#x22;" horiz-adv-x="224" 
d="M75 557q6 45 3 85t-2 44q2 16 14.5 26.5t28.5 10.5q15 0 24.5 -10.5t7.5 -26.5q0 -1 -12.5 -42.5t-18.5 -86.5h-45zM173 557q6 45 3 85t-2 44q2 16 14.5 26.5t28.5 10.5q15 0 24.5 -10.5t7.5 -26.5q0 -1 -12.5 -42.5t-18.5 -86.5h-45z" />
    <glyph glyph-name="numbersign" unicode="#" horiz-adv-x="580" 
d="M51 286h85q21 54 67 159h-88l26 62h88q56 139 80 203h66q-7 -18 -81 -203h152q58 148 80 203h67q-3 -8 -14 -35.5t-31.5 -77t-36.5 -90.5h98l-26 -62h-98q-34 -82 -65 -159h100l-27 -63h-100q-80 -192 -88 -223h-65q4 19 88 223h-152q-78 -178 -89 -223h-65q4 18 89 223
h-86zM268 445q-55 -130 -65 -159h151q30 76 66 159h-152z" />
    <glyph glyph-name="dollar" unicode="$" horiz-adv-x="387" 
d="M70 496q10 68 56.5 115t106.5 53l6 46h46l-6 -46q47 -2 81 -29.5t47 -76.5l-46 -28q-6 35 -30.5 55t-59.5 23l-31 -223q37 -11 59 -20.5t44 -27.5t29 -46t2 -68q-11 -77 -61 -117.5t-119 -42.5l-8 -63h-46l9 64q-106 8 -132 103l44 26q18 -61 95 -75l31 220
q-25 9 -39.5 15.5t-34 19.5t-28.5 28t-14 39.5t-1 55.5zM319 220q4 23 -0.5 40t-20 29t-28.5 18.5t-39 17.5l-29 -208q46 2 78 29t39 74zM123 501q-6 -39 13 -61.5t60 -38.5l29 205q-42 -5 -69 -32.5t-33 -72.5z" />
    <glyph glyph-name="ampersand" unicode="&#x26;" horiz-adv-x="652" 
d="M24 183q9 66 56.5 114t124.5 94q-74 95 -64 167q9 62 60 100t119 38q64 0 105 -34.5t32 -93.5q-7 -55 -47 -95.5t-112 -86.5q108 -134 159 -201q54 97 68 194l2 15h65q-32 -162 -96 -256q14 -20 31.5 -42.5t41 -51t36.5 -44.5h-94q-4 5 -28.5 35.5t-38.5 48.5
q-100 -100 -216 -100q-99 0 -158 55.5t-46 143.5zM237 45q86 0 177 83q-86 104 -173 220q-135 -81 -147 -159q-9 -65 34.5 -104.5t108.5 -39.5zM207 559q-7 -51 58 -128q28 19 44 30.5t36.5 30t31.5 36.5t14 37q5 34 -17.5 52t-60.5 18q-41 0 -71 -20.5t-35 -55.5z" />
    <glyph glyph-name="quotesingle" unicode="'" horiz-adv-x="120" 
d="M71 560q6 45 4 85.5t-2 43.5q2 16 14 26.5t28 10.5t25.5 -10.5t7.5 -26.5q0 -1 -12 -42.5t-19 -86.5h-46z" />
    <glyph glyph-name="parenleft" unicode="(" horiz-adv-x="209" 
d="M110 327q-23 -166 40 -365l-53 -28q-81 240 -59 394q13 94 58.5 188.5t124.5 221.5l44 -29q-56 -87 -99.5 -191t-55.5 -191z" />
    <glyph glyph-name="parenright" unicode=")" horiz-adv-x="212" 
d="M218 328q-23 -165 -176 -394l-45 28q124 191 149 365q22 160 -49 382l55 29q42 -124 61 -220t5 -190z" />
    <glyph glyph-name="asterisk" unicode="*" horiz-adv-x="334" 
d="M180 599l15 111h53l-16 -116q8 3 49.5 20.5t62.5 25.5l15 -49l-108 -44q10 -13 28 -41t28 -42l-46 -33l-61 93q-40 -41 -88 -93l-36 33l78 83q-73 35 -93 44l27 49z" />
    <glyph glyph-name="plus" unicode="+" horiz-adv-x="431" 
d="M233 509h66l-25 -176h170l-9 -63h-170l-24 -176h-66l24 176h-171l9 63h171z" />
    <glyph glyph-name="comma" unicode="," horiz-adv-x="194" 
d="M5 -73q19 16 45 46t32 43q-27 22 -24 46q4 26 24.5 44.5t46.5 18.5t41.5 -18.5t11.5 -44.5q-3 -21 -21.5 -44.5t-37.5 -38.5t-43 -31.5t-28 -20.5h-47z" />
    <glyph glyph-name="hyphen" unicode="-" horiz-adv-x="251" 
d="M41 225l9 64h194l-9 -64h-194z" />
    <glyph glyph-name="period" unicode="." horiz-adv-x="171" 
d="M28 62q4 26 24.5 44.5t46.5 18.5t41.5 -18.5t11.5 -44.5t-24.5 -44t-46.5 -18t-41.5 18t-11.5 44z" />
    <glyph glyph-name="slash" unicode="/" horiz-adv-x="506" 
d="M-14 0l506 710h78l-503 -710h-81z" />
    <glyph glyph-name="zero" unicode="0" horiz-adv-x="557" 
d="M346 632q-63 0 -112.5 -45t-75.5 -107t-36 -133q-9 -49 -4 -102t18.5 -96.5t46.5 -72t81 -28.5q62 0 111.5 49t75 113.5t35.5 136.5q9 49 4.5 100t-18 92t-46.5 67t-80 26zM356 696q125 0 175.5 -98t28.5 -251q-22 -155 -101.5 -259t-203.5 -104q-65 0 -112 29.5t-69 80
t-30 116t4 137.5q22 153 101.5 251t206.5 98z" />
    <glyph glyph-name="one" unicode="1" horiz-adv-x="328" 
d="M78 630l32 -23l134 71h70l-88 -626l59 -52h-204l76 52l79 559q-120 -64 -136 -72l-37 -19z" />
    <glyph glyph-name="two" unicode="2" horiz-adv-x="507" 
d="M102 652h60q70 44 170 44q94 0 151 -49.5t46 -129.5q-5 -32 -22 -64t-34.5 -54t-50.5 -50.5t-49.5 -41t-51.5 -37.5q-169 -120 -222 -206h292l83 64l-18 -128h-456v9q6 38 22 70t50 67t62 59t86 70l39 31q7 6 47.5 37t55 43t40.5 37.5t37.5 45.5t14.5 41q7 49 -37 85.5
t-102 36.5t-102.5 -25.5t-60.5 -58.5z" />
    <glyph glyph-name="three" unicode="3" horiz-adv-x="489" 
d="M110 664h60q87 32 144 32q91 0 146 -49t43 -134q-8 -56 -46.5 -96t-94.5 -53q56 -16 85 -66t19 -118q-12 -89 -85.5 -142.5t-169.5 -53.5q-79 0 -133.5 28t-66.5 80l64 33q7 -36 46.5 -56.5t97.5 -20.5q70 0 117.5 35.5t56.5 100.5q10 70 -28.5 108.5t-123.5 38.5h-20
l9 64h22q73 0 121 29.5t57 88.5q7 53 -29 86t-95 33q-100 0 -151 -72z" />
    <glyph glyph-name="four" unicode="4" horiz-adv-x="531" 
d="M402 588q-47 -54 -155 -178t-155 -178h260zM325 52l16 116h-331l9 65q367 415 394 445h70l-63 -446h99l-9 -64h-99l-16 -117l58 -51h-204z" />
    <glyph glyph-name="five" unicode="5" horiz-adv-x="496" 
d="M435 616h-233q-13 -44 -33.5 -126t-24.5 -97q65 59 148 59q96 0 149 -64.5t39 -161.5q-15 -105 -90 -173.5t-175 -68.5q-76 0 -131 28.5t-71 80.5l61 32q13 -36 52.5 -56.5t94.5 -20.5q73 0 123.5 51t61.5 128q11 72 -25.5 116.5t-106.5 44.5q-48 0 -89.5 -24.5
t-65.5 -66.5h-65l-3 3q25 122 100 380h358l-18 -129z" />
    <glyph glyph-name="six" unicode="6" horiz-adv-x="519" 
d="M462 577q-34 55 -124 55t-144 -77.5t-74 -204.5q30 49 81.5 75.5t112.5 26.5q98 0 150.5 -64t38.5 -163q-14 -103 -87.5 -172t-174.5 -69q-121 0 -170.5 85.5t-29.5 225.5q57 401 305 401q74 0 127 -40l80 40zM300 388q-75 0 -128 -47.5t-63 -120.5q-10 -69 33 -120.5
t111 -51.5q70 0 118.5 49t59.5 126q10 70 -25.5 117.5t-105.5 47.5z" />
    <glyph glyph-name="seven" unicode="7" horiz-adv-x="514" 
d="M94 680h478l-418 -680h-83q188 296 386 616h-308l-73 -64z" />
    <glyph glyph-name="eight" unicode="8" horiz-adv-x="521" 
d="M25 187q9 62 54 109.5t107 63.5q-54 29 -79.5 62t-18.5 89q12 86 85.5 135.5t160.5 49.5t145.5 -49.5t46.5 -135.5q-7 -53 -44 -93t-92 -58q59 -21 89 -66t21 -109q-14 -94 -91.5 -147.5t-176.5 -53.5t-159.5 55.5t-47.5 147.5zM157 509q-9 -60 31 -96.5t101 -36.5
t110.5 37t57.5 97q8 57 -32 89.5t-101 32.5q-60 0 -109.5 -33t-57.5 -90zM99 187q-9 -65 34 -102t110 -37t121 37.5t63 102.5t-35 103t-110 38t-120 -38.5t-63 -103.5z" />
    <glyph glyph-name="nine" unicode="9" horiz-adv-x="517" 
d="M36 79l87 46q-1 -3 -2 -8t-1 -6q-5 -39 24.5 -51t87.5 -12q59 0 105.5 45.5t71.5 110t38 144.5q-32 -47 -82.5 -74t-109.5 -27q-95 0 -149.5 63.5t-41.5 156.5q14 99 88 164t173 65q120 0 168.5 -86t29.5 -224q-27 -189 -103 -295.5t-206 -106.5q-69 0 -115 25t-63 70z
M269 306q70 0 124 47t64 116q9 69 -31.5 116t-109.5 47q-71 0 -122 -48.5t-61 -119.5q-10 -66 30 -112t106 -46z" />
    <glyph glyph-name="colon" unicode=":" horiz-adv-x="174" 
d="M16 62q3 26 23.5 44.5t46.5 18.5t41.5 -18.5t12.5 -44.5q-4 -26 -24.5 -44t-46.5 -18t-41.5 18t-11.5 44zM69 441q4 26 24.5 44t46.5 18t41.5 -18t11.5 -44t-24.5 -44.5t-46.5 -18.5t-41.5 18.5t-11.5 44.5z" />
    <glyph glyph-name="semicolon" unicode=";" horiz-adv-x="194" 
d="M-9 -73q18 17 43.5 46.5t32.5 42.5q-28 18 -24 46q4 26 24.5 44.5t46.5 18.5t41.5 -18.5t11.5 -44.5q-3 -21 -21.5 -44.5t-38 -38.5t-43.5 -31.5t-28 -20.5h-45zM220 441q-4 -26 -24 -44.5t-46 -18.5t-42 18.5t-12 44.5t24.5 44t46.5 18t41.5 -18t11.5 -44z" />
    <glyph glyph-name="less" unicode="&#x3c;" horiz-adv-x="508" 
d="M468 42l-12 -84l-433 272l7 49l509 268l-12 -82l-399 -211z" />
    <glyph glyph-name="equal" unicode="=" horiz-adv-x="449" 
d="M36 194l7 45h402l-7 -45h-402zM451 288h-402l7 44h402z" />
    <glyph glyph-name="greater" unicode="&#x3e;" horiz-adv-x="508" 
d="M415 254q-46 29 -162.5 100.5t-177.5 110.5l12 82l433 -268l-7 -49l-509 -272l12 84z" />
    <glyph glyph-name="question" unicode="?" horiz-adv-x="407" 
d="M87 693h40q66 33 137 33q84 0 137.5 -49t41.5 -138q-6 -45 -26.5 -79t-46 -54t-55.5 -42.5t-56 -42.5t-46 -56t-27 -83h-67q10 69 37.5 116t60.5 71.5t65.5 45t57.5 51t31 74.5q8 55 -24.5 87.5t-83.5 32.5q-48 0 -119 -30l-6 -37zM85 46q3 20 18.5 33.5t35.5 13.5
t31 -13.5t8 -33.5q-2 -19 -17 -32.5t-35 -13.5t-31.5 13.5t-9.5 32.5z" />
    <glyph glyph-name="at" unicode="@" horiz-adv-x="789" 
d="M263 525l59 -9q56 49 139 49q75 0 111 -39.5t25 -113.5q-13 -90 -17.5 -139t0 -74.5t13 -31t28.5 -5.5q33 0 68.5 63t44.5 126q21 150 -56.5 234t-213.5 84q-130 0 -236 -93.5t-124 -224.5q-18 -130 60.5 -219.5t209.5 -89.5q57 0 111 19l58 -34q-92 -43 -177 -43
q-155 0 -248 106.5t-71 260.5t146.5 264.5t278.5 110.5q77 0 140.5 -24.5t108 -70.5t63.5 -118.5t7 -161.5q-13 -95 -64 -171t-121 -76q-49 0 -75.5 19.5t-22.5 63.5q-58 -60 -149 -60q-62 0 -96.5 36t-26.5 93q9 64 63.5 99t137.5 35h99l4 25q14 101 -90 101
q-65 0 -119 -71zM438 333q-123 0 -135 -86q-4 -35 18.5 -53.5t67.5 -18.5q61 0 95.5 45.5t43.5 112.5h-90z" />
    <glyph glyph-name="A" unicode="A" horiz-adv-x="755" 
d="M227 218h305q-19 83 -53.5 234.5t-40.5 176.5zM720 0h-214l68 54h-1q-4 16 -12.5 49t-12.5 49h-356q-9 -16 -26.5 -49t-26.5 -49h-1q10 -10 29.5 -27.5t28.5 -26.5h-213l77 54h-1q60 110 176.5 328t176.5 328h64l180 -656h-1z" />
    <glyph glyph-name="B" unicode="B" horiz-adv-x="617" 
d="M59 38l89 634q-7 5 -23.5 18.5t-26.5 19.5h324q97 0 155.5 -43t45.5 -140q-7 -52 -44 -93.5t-89 -62.5q61 -18 92.5 -66t21.5 -116q-11 -80 -74 -134.5t-161 -54.5h-369zM321 66q44 0 76 5.5t61.5 19t47 40.5t23.5 68q4 32 -1 56t-22.5 38.5t-34.5 23t-49.5 12t-54 4.5
t-60.5 1h-50q-19 -12 -35 -21l15 109l30 -21h92q78 0 127 25t58 93q10 70 -32 97t-118 27h-176l-81 -577h184z" />
    <glyph glyph-name="C" unicode="C" horiz-adv-x="640" 
d="M689 675l-102 -126q-3 8 -7 18.5t-6 16.5t-5 12t-7 11l-3 3q-40 47 -140 47q-115 0 -194 -81.5t-98 -213.5q-20 -146 37 -227.5t178 -81.5q61 0 122 41t76 88l73 -46q-16 -9 -37.5 -32t-24.5 -26q-107 -94 -227 -94q-149 0 -224.5 103.5t-51.5 274.5q23 163 127.5 263.5
t253.5 100.5q12 0 24.5 -1.5t22 -3t23 -5.5t21 -6t22.5 -8t20.5 -8t22 -9t20.5 -9z" />
    <glyph glyph-name="D" unicode="D" horiz-adv-x="680" 
d="M59 38h-1l90 634q-7 5 -23.5 18.5t-26.5 19.5h255q162 0 247 -94.5t62 -257.5q-24 -170 -132 -264t-276 -94h-254zM285 66q132 0 205.5 78t92.5 214q19 137 -41 211t-183 74h-142l-81 -577h149z" />
    <glyph glyph-name="E" unicode="E" horiz-adv-x="562" 
d="M58 38l89 634l-50 38h505l-12 -87l-25 20h-348l-34 -241h299l31 20l-15 -107l-25 20h-299l-38 -269h348l45 35l-14 -101h-516z" />
    <glyph glyph-name="F" unicode="F" horiz-adv-x="558" 
d="M78 54l87 618l-50 38h505l-12 -87l-25 20h-348l-37 -261h299l31 20l-15 -107l-25 20h-299l-37 -261l67 -54h-221z" />
    <glyph glyph-name="G" unicode="G" horiz-adv-x="684" 
d="M399 383l31 -22h258q-26 -171 -125 -274t-239 -103q-149 0 -224.5 103.5t-51.5 274.5q23 163 128 263.5t253 100.5q151 0 223 -121h-1q3 -4 10 -10t11 -9l-9 -5q-15 -8 -47 -26t-46 -26l10 37q-55 91 -161 91q-116 0 -194.5 -81t-97.5 -214q-20 -142 35 -225.5t172 -83.5
q96 0 164 66t98 179h-174q-2 -3 -17.5 -20t-23.5 -25z" />
    <glyph glyph-name="H" unicode="H" horiz-adv-x="741" 
d="M625 54h-1l68 -54h-222l81 54l40 281h-398l-40 -281l68 -54h-221l80 54l85 602q-31 19 -67 54h222l-80 -54q-5 -34 -19 -129.5t-18 -124.5h397l36 254q-31 19 -67 54h222l-81 -54z" />
    <glyph glyph-name="I" unicode="I" horiz-adv-x="254" 
d="M147 54h-2l68 -54h-221l80 54l85 602q-31 19 -67 54h222l-80 -54z" />
    <glyph glyph-name="J" unicode="J" horiz-adv-x="503" 
d="M335 710h224l-83 -54l-46 -327q-7 -49 -13.5 -82t-19 -77.5t-32 -74t-47 -57t-69 -41t-93.5 -13.5q-96 0 -140 81l-17 9l74 76v-11.5t-0.5 -12t-0.5 -10.5v-8v-2q40 -51 110 -51q38 0 66.5 16t45.5 38t30 62t19 71.5t13 82.5l45 331z" />
    <glyph glyph-name="K" unicode="K" horiz-adv-x="655" 
d="M609 0h-212l59 43l-261 310l-42 -299l67 -54h-221l80 54l87 617l-58 39h137l-45 -323l338 295l-24 28h150q-55 -49 -191 -168.5t-199 -176.5l266 -310z" />
    <glyph glyph-name="L" unicode="L" horiz-adv-x="545" 
d="M147 672l-50 38h129l-90 -644h327l60 38l-14 -104h-456z" />
    <glyph glyph-name="M" unicode="M" horiz-adv-x="922" 
d="M438 76q63 121 179 337t159 297h175l-58 -38l-87 -619l67 -53h-222l81 53l82 580q-303 -548 -350 -633h-71l-161 605l-78 -554l67 -51h-221l80 51l87 621l-50 38h160z" />
    <glyph glyph-name="N" unicode="N" horiz-adv-x="767" 
d="M599 710h219l-81 -55l-92 -655h-72q-200 339 -343 591l-76 -535l67 -56h-221l80 54l87 618l-49 38h124q42 -73 160 -279.5t184 -321.5l77 547z" />
    <glyph glyph-name="O" unicode="O" horiz-adv-x="705" 
d="M48 362q22 156 128.5 260t251.5 104q147 0 224 -104t55 -260q-24 -171 -129 -274.5t-255 -103.5q-148 0 -223.5 103.5t-51.5 274.5zM127 362q-20 -142 35 -226t171 -84q118 0 196.5 84t98.5 226q19 132 -37 213.5t-173 81.5q-115 0 -193.5 -81t-97.5 -214z" />
    <glyph glyph-name="P" unicode="P" horiz-adv-x="601" 
d="M219 0h-221l80 54l87 618l-50 38h244q48 0 86.5 -4.5t78 -17.5t65 -35.5t38 -61t5.5 -90.5q-29 -206 -317 -206h-57l-33 -10l12 87l30 -10h76q91 0 147 30.5t67 108.5q10 70 -30.5 106t-109.5 36h-182l-83 -589z" />
    <glyph glyph-name="Q" unicode="Q" horiz-adv-x="726" 
d="M479 212l59 -69q70 81 90 219q19 132 -37 213.5t-173 81.5q-115 0 -193.5 -81t-97.5 -214q-20 -142 35 -225.5t171 -83.5q79 0 152 43q-12 14 -31.5 37.5t-26.5 32.5zM591 -26l-63 73q-94 -63 -205 -63q-148 0 -223.5 103.5t-51.5 274.5q23 163 127.5 263.5t251.5 100.5
q149 0 226 -100.5t54 -263.5q-21 -154 -126 -269q8 -9 31.5 -36.5t35.5 -40.5h-1q17 -7 34 -13l-80 -71z" />
    <glyph glyph-name="R" unicode="R" horiz-adv-x="695" 
d="M220 0h-221l80 54l87 618q-7 5 -23.5 18.5t-26.5 19.5h245q48 0 86.5 -4.5t79 -17.5t66 -35.5t38.5 -61t6 -90.5q-24 -165 -228 -200q156 -66 169 -221q0 -10 3 -17t8.5 -11.5t24 -19.5t36.5 -32h-223q41 22 71 47q-5 108 -80.5 179t-155.5 74q-25 -17 -38 -27l15 110
l31 -21h75q90 0 146 30.5t67 108.5q10 70 -30 106t-109 36h-184l-83 -589z" />
    <glyph glyph-name="S" unicode="S" horiz-adv-x="560" 
d="M604 676l-103 -126q-3 8 -7 18.5t-6 16.5t-5 12t-7 11l-3 3q-37 47 -122 47q-75 0 -126.5 -32.5t-59.5 -91.5q-8 -57 30 -86.5t125 -51.5q46 -13 74.5 -22.5t62 -26.5t50.5 -37t27 -51t4 -70q-14 -103 -95.5 -154t-202.5 -51q-130 0 -194 79l-31 59l72 38
q17 -107 181 -107q72 0 126.5 34.5t63.5 95.5q5 32 -6.5 55.5t-39.5 40t-57 27t-75 21.5q-51 15 -84.5 29.5t-63.5 37t-42 55.5t-6 76q13 93 91 147t182 54q80 0 163 -50h84z" />
    <glyph glyph-name="T" unicode="T" horiz-adv-x="587" 
d="M644 710l-14 -105l-50 38h-182l-83 -591l66 -52h-222l82 54l83 589h-187l-60 -38l14 105h553z" />
    <glyph glyph-name="U" unicode="U" horiz-adv-x="756" 
d="M588 710h222l-81 -51l-45 -315q-49 -360 -334 -360q-82 0 -136 29t-75.5 78.5t-27.5 115t7 137.5l45 315l-67 51h222l-81 -51l-45 -315q-10 -85 -3 -150t50 -103t121 -38q60 0 105 22t73.5 63t45.5 91t26 115l45 315z" />
    <glyph glyph-name="V" unicode="V" horiz-adv-x="771" 
d="M671 661l-63 49h222l-79 -50l-355 -660h-72l-171 660l-64 50h222l-79 -50l139 -581z" />
    <glyph glyph-name="W" unicode="W" horiz-adv-x="1172" 
d="M771 81q50 97 150 289t150 289l-66 51h222l-79 -50l-353 -660l-70 27l-84 543q-43 -101 -123.5 -283t-114.5 -260h-72l-172 632l-67 51h222l-79 -49l138 -580q30 74 120 291.5t138 337.5h59z" />
    <glyph glyph-name="X" unicode="X" horiz-adv-x="720" 
d="M523 46q-54 89 -148 259l-128 -150q-42 -50 -92 -107l64 -48h-221l72 46q98 112 272 315q-97 166 -180 303l-60 46h222l-73 -46l27 -45q14 -24 37 -65t42.5 -75t38.5 -64q73 89 208 241l4 5l-63 49h222l-75 -47l-154 -178q-17 -19 -55 -60.5t-56 -63.5q36 -62 102 -175
t81 -139l63 -47h-222z" />
    <glyph glyph-name="Y" unicode="Y" horiz-adv-x="723" 
d="M309 54l34 241q-83 8 -131.5 54.5t-58.5 115.5t0 155l4 39l-67 51h222l-81 -51q-8 -56 -10 -97.5t4.5 -83.5t24 -68.5t52 -43t85.5 -16.5t90 16.5t63 42.5t42 69t27 83.5t17 97.5l-67 51h222l-81 -51l-1 -5q-10 -75 -29 -133.5t-51 -109t-83 -80.5t-119 -36l-34 -243
l66 -52h-222z" />
    <glyph glyph-name="Z" unicode="Z" horiz-adv-x="574" 
d="M111 710h498l-11 -82l-477 -561h357l64 73l-19 -140h-522l9 67l517 576h-371l-64 -72z" />
    <glyph glyph-name="bracketleft" unicode="[" horiz-adv-x="176" 
d="M-7 -90l112 800h132l-9 -60h-62l-96 -681h62l-8 -59h-131z" />
    <glyph glyph-name="backslash" unicode="\" horiz-adv-x="506" 
d="M389 0l-305 710h78l309 -710h-82z" />
    <glyph glyph-name="bracketright" unicode="]" horiz-adv-x="177" 
d="M-17 -90l8 59h61l96 681h-62l9 60h132l-113 -800h-131z" />
    <glyph glyph-name="asciicircum" unicode="^" horiz-adv-x="401" 
d="M127 450h-64l168 260h58l90 -260h-65l-66 188z" />
    <glyph glyph-name="underscore" unicode="_" horiz-adv-x="496" 
d="M18 -92l9 64h442l-9 -64h-442z" />
    <glyph glyph-name="grave" unicode="`" horiz-adv-x="216" 
d="M75 680h106q8 -18 25.5 -54t26.5 -56h-57z" />
    <glyph glyph-name="a" unicode="a" 
d="M155 504q70 21 148 21q93 0 138 -48t32 -141l-40 -286l31 -25l-97 -25v59q-70 -75 -189 -75q-77 0 -120 44.5t-33 114.5q11 79 79.5 122t170.5 43h127l4 32q11 75 -27.5 98.5t-125.5 23.5q-46 0 -75 -14q-6 -7 -10.5 -13.5t-10.5 -15t-11 -15.5l-61 100h70zM272 251
q-162 0 -177 -106q-6 -45 23 -73.5t83 -28.5q83 0 141 58q15 15 25 39t14.5 44.5t12.5 66.5h-122z" />
    <glyph glyph-name="b" unicode="b" horiz-adv-x="581" 
d="M156 660l-60 50h134l-36 -256q87 71 171 71q113 0 170 -80t41 -191t-94.5 -190.5t-192.5 -79.5q-89 0 -152 65l-7 -49h-67zM154 170q15 -53 52.5 -88t92.5 -35q80 0 136 61.5t68 144.5q11 83 -28.5 146t-118.5 63q-55 0 -101.5 -35.5t-76.5 -88.5z" />
    <glyph glyph-name="c" unicode="c" horiz-adv-x="492" 
d="M446 391q-4 8 -9 22t-10 22q-22 17 -44 22t-61 5q-83 0 -139.5 -58t-69.5 -144q-13 -92 25 -152.5t120 -60.5q113 0 168 73l39 -24q-81 -112 -215 -112q-116 0 -171.5 76.5t-38.5 199.5q17 121 95.5 193t199.5 72q62 0 114 -34q2 0 7.5 -0.5t25.5 -1.5t52 -2z" />
    <glyph glyph-name="d" unicode="d" horiz-adv-x="581" 
d="M408 49q-80 -65 -170 -65q-114 0 -170.5 79.5t-40.5 190.5t95.5 191t191.5 80q82 0 151 -71l29 206l-60 50h134l-93 -660l60 -50h-134zM449 338q-15 53 -52 88.5t-92 35.5q-79 0 -136.5 -63t-68.5 -146q-12 -83 27 -144.5t119 -61.5q54 0 102 35.5t77 87.5z" />
    <glyph glyph-name="e" unicode="e" horiz-adv-x="534" 
d="M469 65q-61 -49 -109.5 -65t-108.5 -16q-116 0 -171.5 77.5t-37.5 203.5q16 111 93.5 185.5t191.5 74.5q75 0 123 -41.5t64 -104t6 -136.5q-2 -6 -7 -6h-402q-16 -190 161 -190q46 0 72 13t31 50zM319 462q-71 0 -125 -47t-74 -117h330q1 71 -34 117.5t-97 46.5z" />
    <glyph glyph-name="f" unicode="f" horiz-adv-x="351" 
d="M88 50l56 398h-92l9 61h92l2 19q14 104 53.5 151t115.5 47q38 0 86 -22l-35 -50q-20 10 -44 10q-83 0 -104 -100l-7 -55h91l32 20l-14 -101l-27 20h-91l-56 -398l63 -50h-207z" />
    <glyph glyph-name="g" unicode="g" horiz-adv-x="587" 
d="M491 16q-15 -109 -81.5 -175.5t-193.5 -66.5q-170 0 -199 114l86 37l-3 -45q40 -46 129 -46q68 0 125.5 45.5t66.5 115.5l8 54q-82 -65 -170 -65q-114 0 -170.5 79.5t-40.5 190.5t95.5 191t191.5 80q82 0 151 -71l8 56h134l-74 -48zM267 47q54 0 102 35.5t77 87.5l24 168
q-15 53 -52 88.5t-92 35.5q-79 0 -136.5 -63t-68.5 -146q-12 -83 27 -144.5t119 -61.5z" />
    <glyph glyph-name="h" unicode="h" horiz-adv-x="580" 
d="M198 0h-200l73 50l85 610l-60 50h134l-39 -279q71 94 174 94q179 0 150 -211l-37 -264l63 -50h-201l71 50l35 254q22 154 -95 154q-60 0 -115.5 -52t-62.5 -105l-35 -251z" />
    <glyph glyph-name="i" unicode="i" horiz-adv-x="227" 
d="M-10 0l73 50l58 409l-60 50h134l-65 -459l60 -50h-200zM121 649q3 20 18.5 33.5t35.5 13.5t31.5 -13.5t8.5 -33.5t-18 -33.5t-35 -13.5t-32 13.5t-9 33.5z" />
    <glyph glyph-name="j" unicode="j" horiz-adv-x="239" 
d="M15 -164q83 0 104 100l73 523l-59 50h134l-77 -542q-16 -99 -55.5 -146t-112.5 -47q-29 0 -62 13l37 51q12 -2 18 -2zM196 649q3 20 18.5 33.5t35.5 13.5t31.5 -13.5t8.5 -33.5t-18 -33.5t-35 -13.5t-32 13.5t-9 33.5z" />
    <glyph glyph-name="k" unicode="k" horiz-adv-x="524" 
d="M340 38l-174 215l-28 -203l60 -50h-200l73 50l85 610l-60 50h134l-59 -425q41 37 130 106t130 106l-31 12h132l-45 -30l-250 -211q22 -26 86.5 -104.5t100.5 -119.5l64 -44h-207z" />
    <glyph glyph-name="l" unicode="l" horiz-adv-x="233" 
d="M134 91q-4 -32 40 -32q4 0 12 2t14 2l-8 -63h-73q-25 2 -42 21t-13 46l83 594l-60 49h134z" />
    <glyph glyph-name="m" unicode="m" horiz-adv-x="908" 
d="M409 50l36 254q10 75 -13.5 114.5t-77.5 39.5q-58 0 -110 -49.5t-62 -102.5l-36 -256l60 -50h-201l74 50l58 409l-60 50h134l-11 -78q69 94 169 94q119 0 143 -111q76 111 187 111q85 0 121.5 -54.5t22.5 -156.5l-37 -264l60 -50h-201l74 50l36 254q10 75 -13.5 114.5
t-77.5 39.5q-58 0 -110 -49.5t-62 -102.5l-36 -256l60 -50h-197z" />
    <glyph glyph-name="n" unicode="n" horiz-adv-x="583" 
d="M204 0h-201l74 50l58 409l-60 50h134l-11 -78q70 94 174 94q178 0 149 -211l-37 -264l60 -50h-201l74 50l36 254q21 154 -96 154q-60 0 -115 -52t-63 -105l-35 -251z" />
    <glyph glyph-name="o" unicode="o" horiz-adv-x="544" 
d="M466 260q12 84 -27.5 143t-119.5 59t-136.5 -59t-68.5 -143q-13 -92 25 -152.5t120 -60.5q81 0 137.5 60.5t69.5 152.5zM327 525q114 0 171 -75.5t41 -189.5q-17 -122 -95 -199t-193 -77q-116 0 -171.5 76.5t-38.5 199.5q16 114 94 189.5t192 75.5z" />
    <glyph glyph-name="p" unicode="p" horiz-adv-x="582" 
d="M182 -210h-200l73 50l87 619l-60 50h134l-7 -49q82 65 170 65q114 0 170.5 -79.5t40.5 -190.5t-95.5 -191t-191.5 -80q-82 0 -151 71l-30 -215zM169 171q14 -53 51 -88.5t92 -35.5q79 0 136.5 63t68.5 146q12 83 -27 144.5t-119 61.5q-55 0 -102.5 -35t-76.5 -88z" />
    <glyph glyph-name="q" unicode="q" horiz-adv-x="582" 
d="M519 -210h-201l74 50l30 215q-87 -71 -171 -71q-113 0 -170 80t-41 191t94.5 190.5t192.5 79.5q90 0 152 -65l7 49h67l-94 -669zM462 339q-15 52 -53 87.5t-92 35.5q-80 0 -136 -61.5t-68 -144.5q-11 -83 28.5 -146t118.5 -63q55 0 102 35.5t77 88.5z" />
    <glyph glyph-name="r" unicode="r" horiz-adv-x="373" 
d="M328 457q-51 -8 -96 -55.5t-55 -95.5l-36 -256l60 -50h-201l74 50l58 409l-60 50h134l-11 -78q27 45 69.5 69.5t88.5 24.5q51 -9 59 -12l-60 -90z" />
    <glyph glyph-name="s" unicode="s" horiz-adv-x="441" 
d="M372 391q-4 8 -9 22t-10 22q-22 16 -41 22.5t-53 6.5q-50 0 -86.5 -20.5t-42.5 -63.5q-4 -32 26.5 -51t76 -30t90.5 -25t73.5 -46t21.5 -82q-11 -77 -74.5 -119.5t-154.5 -42.5q-49 0 -92.5 21.5t-96.5 82.5l55 44q34 -89 150 -89q57 0 98 25t47 71q4 30 -17 50t-56 29.5
t-75.5 21t-74.5 24.5t-54.5 41t-14.5 68q11 76 68.5 114t134.5 38q63 0 114 -34q2 0 7.5 -0.5t25.5 -1.5t52 -2z" />
    <glyph glyph-name="t" unicode="t" horiz-adv-x="326" 
d="M140 449h-86l8 60h86l20 140l-16 31h110l-27 -31l-20 -140h120l-8 -60h-120l-48 -341q-3 -28 11.5 -38t44.5 -10q39 0 72 13l2 -60q-65 -19 -96 -19q-63 0 -86 28.5t-15 87.5z" />
    <glyph glyph-name="u" unicode="u" horiz-adv-x="582" 
d="M483 50l60 -50h-134l11 78q-70 -94 -174 -94q-178 0 -149 211l37 264l-60 50h134l-43 -304q-21 -154 95 -154q60 0 115.5 52t62.5 105l36 251l-60 50h134z" />
    <glyph glyph-name="v" unicode="v" horiz-adv-x="607" 
d="M444 509h200l-73 -50l-249 -459h-74l-121 460l-58 49h201l-67 -45l96 -369q36 68 104 192t96 176z" />
    <glyph glyph-name="w" unicode="w" horiz-adv-x="959" 
d="M792 509h201l-73 -49l-249 -460h-74l-80 394q-31 -64 -95.5 -197t-95.5 -197h-74l-121 460l-58 49h200l-66 -45l96 -368q34 69 103 206.5t102 206.5h52l88 -413q29 53 96.5 176.5t103.5 189.5z" />
    <glyph glyph-name="x" unicode="x" horiz-adv-x="574" 
d="M535 0h-200l62 50l-101 157q-25 -27 -75 -79t-74 -78l58 -50h-202l80 50l182 205q-71 112 -131 205l-60 49h202l-64 -45l97 -151q23 25 69.5 74.5t70.5 75.5l-54 46h200l-75 -47l-181 -197q23 -36 66.5 -107.5t66.5 -107.5z" />
    <glyph glyph-name="y" unicode="y" horiz-adv-x="521" 
d="M106 -75l-8 -49q39 -42 126 -42q68 0 125.5 45.5t67.5 115.5l12 83q-71 -94 -175 -94q-178 0 -149 211l37 264l-60 50h134l-43 -304q-21 -154 96 -154q60 0 115 52t63 105l35 251l-60 50h134l-71 -503q-15 -105 -82 -168.5t-191 -63.5q-170 0 -199 114z" />
    <glyph glyph-name="z" unicode="z" horiz-adv-x="453" 
d="M93 509h377l-8 -57l-366 -391h271l59 61l-17 -122h-399l8 59l373 391h-256l-58 -59z" />
    <glyph glyph-name="braceleft" unicode="{" horiz-adv-x="222" 
d="M167 -90h-42q-18 1 -29.5 3.5t-26.5 9.5t-20.5 21.5t-2.5 36.5l21 150q12 50 7.5 100.5t-41.5 55.5l8 60q35 2 49.5 28.5t21.5 71.5l26 191q4 29 23 45.5t35.5 20.5t41.5 6h42l-9 -59h-33q-15 -2 -23 -10t-10 -16t-5 -29l-22 -157q-11 -83 -62 -122q40 -42 28 -123
l-24 -170q-6 -39 10 -56h45z" />
    <glyph glyph-name="bar" unicode="|" horiz-adv-x="250" 
d="M157 710h66l-99 -710h-66z" />
    <glyph glyph-name="braceright" unicode="}" horiz-adv-x="222" 
d="M99 720h44q16 -2 27.5 -4.5t26.5 -9t21.5 -21.5t3.5 -37l-24 -171q-4 -29 -5.5 -42t0 -34.5t12 -31.5t30.5 -11l-8 -60q-19 -2 -32.5 -12t-21 -29.5t-10.5 -34.5t-7 -42l-29 -208q-4 -29 -23 -45.5t-35 -20t-41 -5.5h-43l8 58h45q21 21 27 67l24 167q13 95 62 135
q-38 36 -29 100l23 167q7 45 -8 66h-46z" />
    <glyph glyph-name="asciitilde" unicode="~" horiz-adv-x="455" 
d="M175 333q28 0 79.5 -32t72.5 -32q36 0 81 54l35 -31q-58 -79 -125 -79q-36 0 -85 32.5t-67 32.5q-36 0 -77 -52l-30 36q58 71 116 71z" />
    <glyph glyph-name="exclamdown" unicode="&#xa1;" horiz-adv-x="146" 
d="M95 523h60l-73 -523h-60zM195 672q-3 -22 -21 -38t-40 -16t-36 16t-11 38q4 22 22 38t40 16t36 -16t10 -38z" />
    <glyph glyph-name="cent" unicode="&#xa2;" horiz-adv-x="492" 
d="M110 27q-92 73 -70 233q17 121 98.5 193t206.5 72q14 0 29 -3l41 78h66l-52 -97q5 -2 11.5 -6.5t8.5 -5.5q2 0 7 -0.5t25.5 -1.5t52.5 -2l-88 -96q-4 7 -8 18t-7 16.5t-10 12t-19 12.5l-208 -390q25 -13 64 -13q50 0 95 18t72 55l40 -24q-81 -112 -215 -112q-46 0 -89 15
l-47 -89h-66zM113 260q-14 -104 34 -164l195 366h-20q-83 0 -140 -58.5t-69 -143.5z" />
    <glyph glyph-name="sterling" unicode="&#xa3;" horiz-adv-x="469" 
d="M23 61q90 74 109 202q7 52 8 96h-95l9 61h83q-1 2 -1 5t-1 5v-1q-16 72 -9 124q11 75 72.5 124t146.5 49q69 0 114.5 -32t50.5 -92q-24 -13 -40.5 -17t-20.5 -6q-7 41 -37.5 64t-76.5 23q-58 0 -97.5 -38.5t-48.5 -97.5q-1 -8 -1 -15.5v-13.5t1.5 -14.5t2 -13t3 -14
t3 -12.5t3.5 -14t4 -13h169l-9 -61h-159q-2 -35 -6 -68q-20 -136 -80 -230h289l-9 -61h-386z" />
    <glyph glyph-name="currency" unicode="&#xa4;" horiz-adv-x="608" 
d="M81 561l49 42l93 -107q65 48 145 48q69 0 121 -40q16 14 56 49.5t56 49.5l37 -44l-108 -99q40 -57 29 -139q-10 -75 -66 -136q11 -13 39 -47t40 -47l-49 -42l-80 93q-64 -43 -137 -43q-82 0 -136 52q-76 -67 -119 -102l-37 42l120 103q-30 56 -20 127q9 69 61 132z
M168 321q-10 -70 32.5 -119t112.5 -49t126 49t66 119t-32.5 119.5t-112.5 49.5t-126 -49t-66 -120z" />
    <glyph glyph-name="yen" unicode="&#xa5;" horiz-adv-x="440" 
d="M187 191h-167l7 47h167l6 46h-167l7 45h167l3 21q-41 5 -68.5 23t-39.5 43.5t-16.5 56t1.5 60.5l25 177h54l-25 -177q-9 -62 16 -98.5t88 -36.5t100 37t45 98l25 177h55l-25 -177q-10 -69 -59 -122.5t-123 -61.5l-3 -20h183l-7 -45h-183l-6 -46h183l-7 -47h-183l-26 -191
h-53z" />
    <glyph glyph-name="brokenbar" unicode="&#xa6;" horiz-adv-x="118" 
d="M105 708h64l-53 -380h-64zM-9 -109l53 380h64l-54 -380h-63z" />
    <glyph glyph-name="section" unicode="&#xa7;" horiz-adv-x="478" 
d="M58 120q31 -80 152 -80q55 0 93.5 24t45.5 72q4 29 -26 49t-74.5 33t-89 29t-72.5 45.5t-22 72.5q6 44 31.5 77.5t62.5 51.5q-37 32 -29 83q10 74 70 111.5t140 37.5q138 0 159 -99l-50 -26q-18 68 -121 68q-118 0 -130 -85q14 -30 50 -48.5t75.5 -29t77.5 -25.5
t60.5 -47.5t18.5 -83.5q-11 -80 -88 -124q32 -31 25 -83q-11 -75 -74 -117t-148 -42q-68 0 -120.5 27.5t-65.5 81.5zM135 377q-4 -41 54.5 -74.5t123.5 -33.5q88 0 99 74q6 41 -49.5 75.5t-120.5 34.5q-97 0 -107 -76z" />
    <glyph glyph-name="dieresis" unicode="&#xa8;" horiz-adv-x="336" 
d="M180 642q-3 -22 -22 -38.5t-42 -16.5q-22 0 -35.5 16.5t-10.5 38.5q3 23 21 38.5t40 15.5q23 0 37.5 -15.5t11.5 -38.5zM356 642q-3 -22 -22 -38.5t-40 -16.5q-23 0 -36.5 16.5t-10.5 38.5q3 23 21 38.5t41 15.5q22 0 36 -15.5t11 -38.5z" />
    <glyph glyph-name="copyright" unicode="&#xa9;" horiz-adv-x="793" 
d="M46 355q23 156 146.5 263.5t281.5 107.5t251 -107.5t70 -263.5q-22 -157 -144.5 -264t-281.5 -107q-158 0 -251.5 107t-71.5 264zM94 355q-20 -141 60 -233.5t222 -92.5t246.5 91.5t124.5 234.5q20 139 -59.5 231t-220.5 92q-142 0 -247.5 -91.5t-125.5 -231.5zM561 470
q-3 6 -7.5 18t-8.5 19q-19 14 -36 18t-51 4q-68 0 -115.5 -48.5t-57.5 -118.5q-10 -77 22 -126.5t99 -49.5q95 0 138 60l32 -20q-66 -92 -177 -92q-96 0 -142 63t-32 165q14 100 81.5 159.5t171.5 59.5q50 0 85 -28q10 0 71 -3z" />
    <glyph glyph-name="ordfeminine" unicode="&#xaa;" horiz-adv-x="367" 
d="M140 695q49 15 105 15q66 0 97 -34.5t22 -99.5l-28 -202l22 -17l-68 -18v42q-48 -53 -134 -53q-54 0 -84.5 31t-23.5 81q8 56 56 86t120 30h90l3 23q4 30 -2.5 48t-26 26t-39 10t-54.5 2q-17 0 -29.5 -7t-31.5 -34l-44 68zM223 516q-115 0 -126 -75q-5 -31 16 -51.5
t59 -20.5q58 0 90 32t47 115h-86z" />
    <glyph glyph-name="guillemotleft" unicode="&#xab;" horiz-adv-x="403" 
d="M37 264l149 203h65l-148 -203q55 -130 91 -203h-65zM211 264l149 203h66l-148 -203q55 -130 91 -203h-66z" />
    <glyph glyph-name="logicalnot" unicode="&#xac;" horiz-adv-x="506" 
d="M441 308h-406l9 64h470l-36 -254h-64z" />
    <glyph glyph-name="registered" unicode="&#xae;" horiz-adv-x="793" 
d="M323 151h-133l48 33l52 369q-5 4 -14.5 11.5t-14.5 11.5h147q36 0 64.5 -5t55 -17t38.5 -38.5t7 -64.5q-14 -99 -137 -119q94 -39 102 -133q1 -7 0 -8.5t3.5 -6.5t7.5 -7.5t12.5 -10t18.5 -15.5h-133q24 14 43 28q-4 64 -50 107.5t-92 43.5q-16 -10 -22 -16l9 66l18 -12
h45q54 0 87 18t40 65q6 43 -18 64t-65 21h-110l-50 -352zM46 355q23 156 146.5 263.5t281.5 107.5t251 -107.5t70 -263.5q-22 -157 -144.5 -264t-281.5 -107q-158 0 -251.5 107t-71.5 264zM94 355q-20 -141 60 -233.5t222 -92.5t246.5 91.5t124.5 234.5q20 139 -59.5 231
t-220.5 92q-142 0 -247.5 -91.5t-125.5 -231.5z" />
    <glyph glyph-name="macron" unicode="&#xaf;" horiz-adv-x="323" 
d="M70 654l8 56h269l-8 -56h-269z" />
    <glyph glyph-name="degree" unicode="&#xb0;" horiz-adv-x="355" 
d="M62 571q9 65 60.5 110t115.5 45q66 0 105 -45t30 -110q-10 -66 -61 -111t-117 -45q-65 0 -104 45t-29 111zM125 571q-5 -38 18 -65.5t61 -27.5t69.5 27.5t36.5 65.5t-18.5 65t-61.5 27t-69 -27t-36 -65z" />
    <glyph glyph-name="plusminus" unicode="&#xb1;" horiz-adv-x="435" 
d="M252 680h65l-24 -177h170l-9 -61h-170l-25 -177h-65l25 177q-28 0 -85.5 0.5t-86.5 0.5l9 60h172zM12 196h407l-8 -60h-407z" />
    <glyph glyph-name="twosuperior" unicode="&#xb2;" horiz-adv-x="314" 
d="M89 671h34q43 25 100 25q55 0 88 -28t26 -75q-4 -30 -27 -59.5t-42 -44.5t-52 -38q-99 -72 -129 -119h170l49 37l-11 -74h-266l1 5q3 22 11.5 40t29.5 39t35 33t51 41l23 18q7 6 28 22t31 24.5t24.5 22t21.5 25.5t8 24q4 29 -21.5 49.5t-59.5 20.5q-33 0 -59 -14.5
t-35 -33.5z" />
    <glyph glyph-name="threesuperior" unicode="&#xb3;" horiz-adv-x="294" 
d="M92 678h34q50 18 82 18q50 0 81 -27.5t25 -75.5q-4 -32 -26 -54t-54 -30q32 -9 48 -37t11 -67q-7 -50 -48.5 -80t-95.5 -30q-44 0 -75 16t-38 45l36 18q5 -20 27 -31.5t55 -11.5q40 0 66.5 20t31.5 57q5 39 -16.5 60.5t-68.5 21.5h-12l5 36h13q89 0 99 67q4 30 -16 48.5
t-54 18.5q-55 0 -84 -41z" />
    <glyph glyph-name="acute" unicode="&#xb4;" horiz-adv-x="213" 
d="M117 570h-57q15 22 43 58.5t39 51.5h106z" />
    <glyph glyph-name="mu" unicode="&#xb5;" horiz-adv-x="446" 
d="M368 96q-67 -96 -175 -96q-66 0 -103 31l-34 -239h-68l99 711h69l-47 -337q6 -102 98 -102q60 0 115.5 52.5t62.5 104.5l40 282h64l-71 -503h-64z" />
    <glyph glyph-name="paragraph" unicode="&#xb6;" horiz-adv-x="504" 
d="M234 300q-194 20 -168 202q9 64 38.5 107.5t74.5 64t89 28.5t99 8h188l-114 -810h-67l105 749h-129l-105 -749h-67z" />
    <glyph glyph-name="periodcentered" unicode="&#xb7;" horiz-adv-x="170" 
d="M39 254q4 26 25 45t47 19t42 -19t12 -45t-25 -44.5t-47 -18.5t-42 18.5t-12 44.5z" />
    <glyph glyph-name="cedilla" unicode="&#xb8;" horiz-adv-x="207" 
d="M66 -151q-38 0 -64 26l26 39q15 -31 43 -31q22 0 40 17.5t22 42.5q3 23 -8 40t-31 21l22 31q33 -9 51 -34t14 -58q-6 -38 -40 -66t-75 -28z" />
    <glyph glyph-name="onesuperior" unicode="&#xb9;" horiz-adv-x="198" 
d="M71 651l17 -13l76 40h39l-50 -354l34 -29h-115l43 29l44 316q-12 -6 -38 -20.5t-38 -20.5l-21 -10z" />
    <glyph glyph-name="ordmasculine" unicode="&#xba;" horiz-adv-x="334" 
d="M306 543q6 48 -16.5 82t-68.5 34t-79 -34t-39 -82q-8 -53 14.5 -88t69.5 -35t79 35t40 88zM226 696q66 0 99 -43.5t24 -109.5q-10 -70 -55 -114.5t-111 -44.5q-68 0 -100 44t-22 115q9 66 53.5 109.5t111.5 43.5z" />
    <glyph glyph-name="guillemotright" unicode="&#xbb;" horiz-adv-x="404" 
d="M255 61h-65q116 162 147 203l-90 203h65l91 -203zM81 61h-66q56 76 147 203l-90 203h66l91 -203z" />
    <glyph glyph-name="onequarter" unicode="&#xbc;" horiz-adv-x="580" 
d="M39 0l480 680h48l-478 -680h-50zM89 651l18 -13l78 40h41l-49 -349l35 -29h-119l44 29l44 312q-53 -27 -58 -40l-42 -11zM486 339q-25 -29 -87 -100.5t-91 -104.5h149zM442 30l9 67h-191l5 37q175 197 228 257h40l-37 -257h57l-5 -37h-57l-9 -68l34 -29h-118z" />
    <glyph glyph-name="onehalf" unicode="&#xbd;" horiz-adv-x="634" 
d="M40 0l480 680h48l-478 -680h-50zM90 651l18 -13l78 40h41l-49 -349l35 -29h-119l44 29l44 312q-53 -27 -58 -40l-42 -11zM396 354h32q40 24 93 24q51 0 82 -27t25 -70q-4 -27 -25.5 -55.5t-40 -43t-47.5 -35.5q-93 -67 -120 -112h158l45 35l-9 -70h-248v5q3 27 21.5 53
t36 41t61.5 50l21 17q3 3 25.5 20t30 23.5t22 20.5t20.5 25t8 22q4 27 -20 46.5t-55 19.5q-32 0 -56.5 -14t-32.5 -31z" />
    <glyph glyph-name="threequarters" unicode="&#xbe;" horiz-adv-x="575" 
d="M100 679h32q49 17 78 17q48 0 78 -26.5t23 -70.5q-4 -30 -25 -51.5t-51 -28.5q31 -8 46 -34.5t10 -64.5q-7 -47 -46.5 -76t-89.5 -29q-93 0 -108 58l35 18q8 -41 77 -41q37 0 63 19t30 53q5 37 -16 58t-66 21h-10l5 34h11q87 0 96 64q4 28 -15 45.5t-51 17.5
q-54 0 -81 -38zM55 0l480 679h48l-478 -679h-50zM481 339q-102 -116 -178 -205h149zM436 30l10 67h-191l5 37q118 136 227 257h40l-36 -257h57l-5 -37h-57l-10 -68l34 -29h-118z" />
    <glyph glyph-name="questiondown" unicode="&#xbf;" horiz-adv-x="407" 
d="M370 33h-40q-66 -33 -137 -33q-84 0 -137 49t-42 138q6 45 26.5 79t46 54t55.5 42.5t56 42.5t46 56t27 83h67q-7 -50 -23.5 -89t-37.5 -62.5t-45 -42t-48 -34t-44 -32t-34.5 -41t-19.5 -57.5q-8 -55 24.5 -87.5t83.5 -32.5q48 0 119 30l6 37zM372 680q-3 -20 -18.5 -33.5
t-35.5 -13.5t-31 13.5t-8 33.5q2 19 17 32.5t35 13.5t31.5 -13.5t9.5 -32.5z" />
    <glyph glyph-name="Agrave" unicode="&#xc0;" horiz-adv-x="755" 
d="M221 218h305q-19 83 -53.5 234.5t-40.5 176.5zM714 0h-214l68 54h-1q-4 16 -12.5 49t-12.5 49h-356q-9 -16 -26.5 -49t-26.5 -49h-1q10 -10 29.5 -27.5t28.5 -26.5h-213l77 54h-1q60 110 177 328t176 328h64l180 -656h-1zM309 880h106q8 -18 25.5 -54t26.5 -56h-57z" />
    <glyph glyph-name="Aacute" unicode="&#xc1;" horiz-adv-x="755" 
d="M221 218h305q-19 83 -53.5 234.5t-40.5 176.5zM714 0h-214l68 54h-1q-4 16 -12.5 49t-12.5 49h-356q-9 -16 -26.5 -49t-26.5 -49h-1q10 -10 29.5 -27.5t28.5 -26.5h-213l77 54h-1q60 110 177 328t176 328h64l180 -656h-1zM460 770h-57q15 22 43 58.5t39 51.5h138z" />
    <glyph glyph-name="Acircumflex" unicode="&#xc2;" horiz-adv-x="755" 
d="M221 218h305q-19 83 -53.5 234.5t-40.5 176.5zM714 0h-214l68 54h-1q-4 16 -12.5 49t-12.5 49h-356q-9 -16 -26.5 -49t-26.5 -49h-1q10 -10 29.5 -27.5t28.5 -26.5h-213l77 54h-1q60 110 177 328t176 328h64l180 -656h-1zM367 745l-34 30l103 105h65l74 -115l-42 -23
l-71 91z" />
    <glyph glyph-name="Atilde" unicode="&#xc3;" horiz-adv-x="755" 
d="M221 218h305q-19 83 -53.5 234.5t-40.5 176.5zM714 0h-214l68 54h-1q-4 16 -12.5 49t-12.5 49h-356q-9 -16 -26.5 -49t-26.5 -49h-1q10 -10 29.5 -27.5t28.5 -26.5h-213l77 54h-1q60 110 177 328t176 328h64l180 -656h-1zM581 880q-25 -84 -73 -84q-24 0 -48 16.5
t-37 16.5q-22 0 -40 -43h-38q27 86 84 86q25 0 47.5 -16.5t37.5 -16.5q17 0 29 41h38z" />
    <glyph glyph-name="Adieresis" unicode="&#xc4;" horiz-adv-x="755" 
d="M221 218h305q-15 65 -46 201t-49 210zM713 0h-214l69 54h-1q-4 16 -13 49t-13 49h-356q-9 -16 -26.5 -49t-25.5 -49h-1q9 -10 28.5 -27.5t28.5 -26.5h-213l78 54h-1q60 110 177 328t176 328h64l180 -656h-1zM430 842q-3 -22 -21.5 -38.5t-41.5 -16.5q-22 0 -36 16.5
t-11 38.5q4 23 22 38.5t40 15.5q24 0 38 -15.5t10 -38.5zM606 842q-3 -22 -21.5 -38.5t-39.5 -16.5q-23 0 -37 16.5t-11 38.5q4 23 22 38.5t41 15.5q22 0 36 -15.5t10 -38.5z" />
    <glyph glyph-name="Aring" unicode="&#xc5;" horiz-adv-x="755" 
d="M221 218h305q-15 65 -46 201t-49 210zM713 0h-214l69 54h-1q-4 16 -13 49t-13 49h-356q-9 -16 -26.5 -49t-25.5 -49h-1q9 -10 28.5 -27.5t28.5 -26.5h-213l78 54h-1q60 110 177 328t176 328h64l180 -656h-1zM393 828q4 29 27.5 48.5t50.5 19.5q29 0 46 -19.5t13 -48.5
q-4 -28 -26.5 -48t-51.5 -20q-27 0 -45 20t-14 48zM501 828q2 15 -8.5 27.5t-25.5 12.5t-29 -12.5t-16 -27.5q-2 -14 9 -27t25 -13t29 13t16 27z" />
    <glyph glyph-name="AE" unicode="&#xc6;" horiz-adv-x="929" 
d="M423 38l16 114h-237q-9 -16 -26.5 -49t-26.5 -49h-1q10 -10 29.5 -27.5t28.5 -26.5h-213l77 54h-1q61 110 181.5 328t181.5 328h535l-12 -87l-25 20h-348l-34 -241h299l31 20l-15 -107l-25 20h-299l-38 -269h348l45 35l-14 -101h-517zM237 218h211l59 417h-47z" />
    <glyph glyph-name="Ccedilla" unicode="&#xc7;" horiz-adv-x="640" 
d="M261 -151q-40 0 -64 26l26 39q15 -31 43 -31q22 0 40 17.5t21 42.5q5 24 -9 42q-144 4 -216 106.5t-49 270.5q23 163 127.5 263.5t252.5 100.5q11 0 21 -0.5t21.5 -3t19 -4t21 -6t18 -5.5t20 -7.5t17.5 -7t20 -8.5l18 -8l85 -1l-103 -126q-4 10 -8.5 23.5t-7.5 21
t-8 13.5l-3 3q-40 47 -140 47q-115 0 -194 -81.5t-98 -213.5q-20 -146 37 -227.5t178 -81.5q61 0 121.5 41t76.5 88l72 -46q-15 -9 -35 -30.5t-27 -27.5q-84 -75 -185 -91q9 -23 5 -44q-5 -38 -39 -66t-75 -28z" />
    <glyph glyph-name="Egrave" unicode="&#xc8;" horiz-adv-x="562" 
d="M52 38l89 634l-50 38h505l-12 -87l-25 20h-348l-34 -241h299l31 20l-15 -107l-25 20h-299l-38 -269h348l45 35l-14 -101h-516zM264 880h106q8 -18 25.5 -54t26.5 -56h-57z" />
    <glyph glyph-name="Eacute" unicode="&#xc9;" horiz-adv-x="562" 
d="M52 38l89 634l-50 38h505l-12 -87l-25 20h-348l-34 -241h299l31 20l-15 -107l-25 20h-299l-38 -269h348l45 35l-14 -101h-516zM354 770h-57q15 22 43 58.5t39 51.5h106z" />
    <glyph glyph-name="Ecircumflex" unicode="&#xca;" horiz-adv-x="562" 
d="M52 38l89 634l-50 38h505l-12 -87l-25 20h-348l-34 -241h299l31 20l-15 -107l-25 20h-299l-38 -269h348l45 35l-14 -101h-516zM271 745l-34 30l103 105h65l74 -115l-42 -23l-71 91z" />
    <glyph glyph-name="Edieresis" unicode="&#xcb;" horiz-adv-x="562" 
d="M51 38l89 634l-49 38h505l-12 -87l-26 20h-348l-33 -241h299l30 20l-15 -107l-25 20h-299l-38 -269h348l45 35l-14 -101h-516zM334 842q-3 -22 -21.5 -38.5t-41.5 -16.5q-22 0 -36 16.5t-11 38.5q4 23 22 38.5t40 15.5q24 0 38 -15.5t10 -38.5zM510 842
q-3 -22 -21.5 -38.5t-39.5 -16.5q-23 0 -37 16.5t-11 38.5q4 23 22 38.5t41 15.5q22 0 36 -15.5t10 -38.5z" />
    <glyph glyph-name="Igrave" unicode="&#xcc;" horiz-adv-x="254" 
d="M141 54h-2l68 -54h-221l80 54l85 602q-31 19 -67 54h222l-80 -54zM93 880h106q8 -18 25.5 -54t26.5 -56h-57z" />
    <glyph glyph-name="Iacute" unicode="&#xcd;" horiz-adv-x="254" 
d="M141 54h-2l68 -54h-221l80 54l85 602q-31 19 -67 54h222l-80 -54zM209 770h-57q15 22 43 58.5t39 51.5h106z" />
    <glyph glyph-name="Icircumflex" unicode="&#xce;" horiz-adv-x="254" 
d="M141 54h-2l68 -54h-221l80 54l85 602q-31 19 -67 54h222l-80 -54zM117 745l-34 30l103 105h65l74 -115l-42 -23l-34 91z" />
    <glyph glyph-name="Idieresis" unicode="&#xcf;" horiz-adv-x="254" 
d="M141 54h-2l67 -54h-221l81 54l84 602q-29 18 -66 54h222l-81 -54zM180 842q-3 -22 -21.5 -38.5t-41.5 -16.5q-22 0 -36 16.5t-11 38.5q4 23 22 38.5t40 15.5q24 0 38 -15.5t10 -38.5zM356 842q-3 -22 -21.5 -38.5t-39.5 -16.5q-23 0 -37 16.5t-11 38.5q4 23 22 38.5
t41 15.5q22 0 36 -15.5t10 -38.5z" />
    <glyph glyph-name="Eth" unicode="&#xd0;" horiz-adv-x="679" 
d="M59 38h-1l90 634q-7 5 -23.5 18.5t-26.5 19.5h275q162 0 247 -94.5t62 -257.5q-24 -170 -132 -264t-276 -94h-274zM305 66q132 0 205.5 78t92.5 214q19 137 -41 211t-183 74h-162l-36 -256h241l-9 -64h-241l-36 -257h169z" />
    <glyph glyph-name="Ntilde" unicode="&#xd1;" horiz-adv-x="767" 
d="M593 710h219l-81 -55l-92 -655h-72q-200 339 -343 591l-76 -535l67 -56h-221l80 54l87 618l-49 38h124q42 -73 160 -279.5t184 -321.5l77 547zM587 880q-25 -84 -73 -84q-24 0 -48 16.5t-37 16.5q-22 0 -40 -43h-38q27 86 84 86q25 0 47 -16.5t38 -16.5q17 0 29 41h38z
" />
    <glyph glyph-name="Ograve" unicode="&#xd2;" horiz-adv-x="705" 
d="M43 362q22 156 128 260t251 104q148 0 225 -104t55 -260q-24 -171 -129 -274.5t-255 -103.5q-148 0 -223.5 103.5t-51.5 274.5zM122 362q-20 -142 34.5 -226t170.5 -84q118 0 197 84t99 226q18 133 -38 214t-173 81q-115 0 -193.5 -81.5t-96.5 -213.5zM322 880h106
q7 -15 24.5 -51.5t26.5 -58.5h-57z" />
    <glyph glyph-name="Oacute" unicode="&#xd3;" horiz-adv-x="705" 
d="M43 362q22 156 128 260t251 104q148 0 225 -104t55 -260q-24 -171 -129 -274.5t-255 -103.5q-148 0 -223.5 103.5t-51.5 274.5zM122 362q-20 -142 34.5 -226t170.5 -84q118 0 197 84t99 226q18 133 -38 214t-173 81q-115 0 -193.5 -81.5t-96.5 -213.5zM459 772h-57
q15 22 43 58.5t39 51.5h106z" />
    <glyph glyph-name="Ocircumflex" unicode="&#xd4;" horiz-adv-x="705" 
d="M43 362q22 156 128 260t251 104q148 0 225 -104t55 -260q-24 -171 -129 -274.5t-255 -103.5q-148 0 -223.5 103.5t-51.5 274.5zM122 362q-20 -142 34.5 -226t170.5 -84q118 0 197 84t99 226q18 133 -38 214t-173 81q-115 0 -193.5 -81.5t-96.5 -213.5zM343 745l-35 30
l104 105h65l74 -115l-43 -23l-71 91z" />
    <glyph glyph-name="Otilde" unicode="&#xd5;" horiz-adv-x="705" 
d="M43 362q22 156 128 260t251 104q148 0 225 -104t55 -260q-24 -171 -129 -274.5t-255 -103.5q-148 0 -223.5 103.5t-51.5 274.5zM122 362q-20 -142 34.5 -226t170.5 -84q118 0 197 84t99 226q18 133 -38 214t-173 81q-115 0 -193.5 -81.5t-96.5 -213.5zM557 880
q-25 -84 -73 -84q-24 0 -48 16.5t-37 16.5q-22 0 -40 -43h-38q27 86 84 86q25 0 47 -16.5t38 -16.5q15 0 29 41h38z" />
    <glyph glyph-name="Odieresis" unicode="&#xd6;" horiz-adv-x="705" 
d="M42 362q22 156 128.5 260t251.5 104q147 0 224 -104t55 -260q-24 -171 -129 -274.5t-255 -103.5q-148 0 -223.5 103.5t-51.5 274.5zM121 362q-20 -142 35 -226t171 -84q118 0 196.5 84t98.5 226q19 132 -37 213.5t-173 81.5q-115 0 -193.5 -81t-97.5 -214zM406 842
q-3 -22 -22 -38.5t-42 -16.5q-22 0 -35.5 16.5t-10.5 38.5q3 23 21.5 38.5t40.5 15.5q23 0 37 -15.5t11 -38.5zM582 842q-3 -22 -22 -38.5t-40 -16.5q-23 0 -36.5 16.5t-10.5 38.5q3 23 21.5 38.5t41.5 15.5q21 0 35 -15.5t11 -38.5z" />
    <glyph glyph-name="multiply" unicode="&#xd7;" horiz-adv-x="385" 
d="M33 261l129 113l-97 113l64 56l97 -113l129 113l48 -56l-129 -113l97 -113l-64 -56l-97 113l-129 -113z" />
    <glyph glyph-name="Oslash" unicode="&#xd8;" horiz-adv-x="705" 
d="M84 0l41 58q-104 101 -77 304q22 156 128.5 260t251.5 104q86 0 148 -37l15 21h78l-42 -60q50 -51 71.5 -125.5t8.5 -162.5q-24 -171 -129 -274.5t-255 -103.5q-83 0 -145 34l-12 -18h-82zM127 362q-21 -159 44 -240l362 506q-50 29 -115 29q-115 0 -193.5 -81
t-97.5 -214zM628 362q21 144 -46 225l-360 -508q45 -27 111 -27q118 0 196.5 84t98.5 226z" />
    <glyph glyph-name="Ugrave" unicode="&#xd9;" horiz-adv-x="756" 
d="M582 710h222l-81 -51l-45 -315q-49 -360 -334 -360q-82 0 -136 29t-75.5 78.5t-27.5 115t7 137.5l45 315l-67 51h222l-81 -51l-45 -315q-10 -85 -3 -150t50 -103t121 -38q60 0 105 22t73.5 63t45.5 91t26 115l45 315zM341 880h106q7 -15 24.5 -51.5t26.5 -58.5h-57z" />
    <glyph glyph-name="Uacute" unicode="&#xda;" horiz-adv-x="756" 
d="M582 710h222l-81 -51l-45 -315q-49 -360 -334 -360q-82 0 -136 29t-75.5 78.5t-27.5 115t7 137.5l45 315l-67 51h222l-81 -51l-45 -315q-10 -85 -3 -150t50 -103t121 -38q60 0 105 22t73.5 63t45.5 91t26 115l45 315zM478 770h-57q15 20 42.5 56t40.5 54h106z" />
    <glyph glyph-name="Ucircumflex" unicode="&#xdb;" horiz-adv-x="756" 
d="M582 710h222l-81 -51l-45 -315q-49 -360 -334 -360q-82 0 -136 29t-75.5 78.5t-27.5 115t7 137.5l45 315l-67 51h222l-81 -51l-45 -315q-10 -85 -3 -150t50 -103t121 -38q60 0 105 22t73.5 63t45.5 91t26 115l45 315zM369 745l-35 30l104 105h65l74 -115l-43 -23l-71 91z
" />
    <glyph glyph-name="Udieresis" unicode="&#xdc;" horiz-adv-x="756" 
d="M581 710h222l-81 -51l-44 -315q-51 -360 -335 -360q-66 0 -114 19t-73.5 52t-39.5 78.5t-12.5 99t8.5 111.5l44 315l-67 51h222l-81 -51l-44 -315q-10 -85 -3.5 -150t49.5 -103t121 -38q60 0 105 22t74 63t46 91t26 115l44 315zM432 842q-3 -22 -22 -38.5t-42 -16.5
q-22 0 -35.5 16.5t-10.5 38.5q3 23 21.5 38.5t40.5 15.5q23 0 37 -15.5t11 -38.5zM608 842q-3 -22 -22 -38.5t-40 -16.5q-23 0 -36.5 16.5t-10.5 38.5q3 23 21.5 38.5t41.5 15.5q21 0 35 -15.5t11 -38.5z" />
    <glyph glyph-name="Yacute" unicode="&#xdd;" horiz-adv-x="723" 
d="M303 54l34 241q-83 8 -131.5 54.5t-58.5 115.5t0 155l4 39l-67 51h222l-81 -51q-8 -56 -10 -97.5t4.5 -83.5t24 -68.5t52 -43t85.5 -16.5t90 16.5t63 42.5t42 69t27 83.5t17 97.5l-67 51h222l-81 -51l-1 -5q-10 -75 -29 -133.5t-51 -109t-83 -80.5t-119 -36l-34 -243
l66 -52h-222zM460 770h-57q15 22 43 58.5t39 51.5h106z" />
    <glyph glyph-name="Thorn" unicode="&#xde;" horiz-adv-x="518" 
d="M69 0h-67l99 710h67l-12 -90h101q140 0 215 -70t58 -192q-17 -119 -108 -183.5t-237 -64.5h-101zM216 171q110 0 169 50.5t71 136.5q13 98 -38 149.5t-155 51.5h-116l-54 -388h123z" />
    <glyph glyph-name="germandbls" unicode="&#xdf;" horiz-adv-x="516" 
d="M208 0l8 61h34q74 0 118.5 29t55.5 108q5 22 3 39.5t-3.5 31t-9.5 24t-14 17.5t-18.5 12t-22 8t-25 4.5t-27.5 2t-29 0.5h-23l8 61h25q136 0 153 122q10 73 -22.5 101t-93.5 28q-74 -4 -102.5 -39.5t-41.5 -124.5l-68 -485h-70l46 334h-46l9 64h46l17 120q15 108 72 150
t166 42q79 0 125.5 -42t32.5 -139q-8 -56 -46 -98.5t-94 -60.5q67 -15 100 -63t23 -119q-11 -80 -63 -134t-131 -54h-92z" />
    <glyph glyph-name="agrave" unicode="&#xe0;" 
d="M150 504q69 21 148 21q94 0 138 -48t31 -141l-40 -286l32 -25l-98 -25v59q-69 -75 -188 -75q-77 0 -120.5 44.5t-33.5 114.5q11 79 79.5 122t170.5 43h127l5 32q10 75 -28.5 98.5t-125.5 23.5q-46 0 -75 -14q-7 -8 -16.5 -22.5t-14.5 -21.5l-61 100h70zM266 251
q-161 0 -176 -106q-7 -45 22 -73.5t83 -28.5q83 0 141 58q15 15 25 39.5t14 43t13 67.5h-122zM180 680h106q7 -15 24.5 -51.5t26.5 -58.5h-57z" />
    <glyph glyph-name="aacute" unicode="&#xe1;" 
d="M150 504q69 21 148 21q94 0 138 -48t31 -141l-40 -286l32 -25l-98 -25v59q-69 -75 -188 -75q-77 0 -120.5 44.5t-33.5 114.5q11 79 79.5 122t170.5 43h127l5 32q10 75 -28.5 98.5t-125.5 23.5q-46 0 -75 -14q-7 -8 -16.5 -22.5t-14.5 -21.5l-61 100h70zM266 251
q-161 0 -176 -106q-7 -45 22 -73.5t83 -28.5q83 0 141 58q15 15 25 39.5t14 43t13 67.5h-122zM312 570h-57q15 20 42.5 56t40.5 54h106z" />
    <glyph glyph-name="acircumflex" unicode="&#xe2;" 
d="M150 504q69 21 148 21q94 0 138 -48t31 -141l-40 -286l32 -25l-98 -25v59q-69 -75 -188 -75q-77 0 -120.5 44.5t-33.5 114.5q11 79 79.5 122t170.5 43h127l5 32q10 75 -28.5 98.5t-125.5 23.5q-46 0 -75 -14q-7 -8 -16.5 -22.5t-14.5 -21.5l-61 100h70zM266 251
q-161 0 -176 -106q-7 -45 22 -73.5t83 -28.5q83 0 141 58q15 15 25 39.5t14 43t13 67.5h-122zM220 545l-35 30l104 105h65l74 -115l-43 -23l-71 91z" />
    <glyph glyph-name="atilde" unicode="&#xe3;" 
d="M150 504q69 21 148 21q94 0 138 -48t31 -141l-40 -286l32 -25l-98 -25v59q-69 -75 -188 -75q-77 0 -120.5 44.5t-33.5 114.5q11 79 79.5 122t170.5 43h127l5 32q10 75 -28.5 98.5t-125.5 23.5q-46 0 -75 -14q-7 -8 -16.5 -22.5t-14.5 -21.5l-61 100h70zM266 251
q-161 0 -176 -106q-7 -45 22 -73.5t83 -28.5q83 0 141 58q15 15 25 39.5t14 43t13 67.5h-122zM434 680q-25 -84 -73 -84q-25 0 -49 16.5t-36 16.5q-22 0 -40 -43h-38q27 86 84 86q24 0 47 -16.5t38 -16.5t29 41h38z" />
    <glyph glyph-name="adieresis" unicode="&#xe4;" 
d="M149 504q70 21 148 21q93 0 138 -48t32 -141l-40 -286l31 -25l-97 -25v59q-70 -75 -189 -75q-77 0 -120 44.5t-33 114.5q11 79 79.5 122t170.5 43h127l4 32q11 75 -27.5 98.5t-125.5 23.5q-46 0 -75 -14q-6 -7 -10.5 -13.5t-10.5 -15t-11 -15.5l-61 100h70zM266 251
q-162 0 -177 -106q-6 -45 23 -73.5t83 -28.5q83 0 141 58q15 15 25 39t14.5 44.5t12.5 66.5h-122zM283 642q-3 -22 -22 -38.5t-42 -16.5q-22 0 -35.5 16.5t-10.5 38.5q3 23 21 38.5t40 15.5q23 0 37.5 -15.5t11.5 -38.5zM459 642q-3 -22 -22 -38.5t-40 -16.5
q-23 0 -36.5 16.5t-10.5 38.5q3 23 21 38.5t41 15.5q22 0 36 -15.5t11 -38.5z" />
    <glyph glyph-name="aring" unicode="&#xe5;" 
d="M149 504q70 21 148 21q93 0 138 -48t32 -141l-40 -286l31 -25l-97 -25v59q-70 -75 -189 -75q-77 0 -120 44.5t-33 114.5q11 79 79.5 122t170.5 43h127l4 32q11 75 -27.5 98.5t-125.5 23.5q-46 0 -75 -14q-6 -7 -10.5 -13.5t-10.5 -15t-11 -15.5l-61 100h70zM266 251
q-162 0 -177 -106q-6 -45 23 -73.5t83 -28.5q83 0 141 58q15 15 25 39t14.5 44.5t12.5 66.5h-122zM246 628q4 29 26.5 48.5t50.5 19.5q29 0 46.5 -19.5t13.5 -48.5q-4 -28 -27 -48t-52 -20q-27 0 -44.5 20t-13.5 48zM354 628q2 15 -9 27.5t-26 12.5q-14 0 -28 -12t-16 -28
q-2 -14 8.5 -27t24.5 -13t29 13t17 27z" />
    <glyph glyph-name="ae" unicode="&#xe6;" horiz-adv-x="1035" 
d="M819 65q-61 -49 -109.5 -65t-108.5 -16q-106 0 -188 96q-77 -96 -235 -96q-77 0 -120 44.5t-33 114.5q11 79 79.5 122t170.5 43h125q0 2 1 4.5t2 3.5l3 24q11 75 -27.5 98.5t-125.5 23.5q-46 0 -75 -14q-6 -7 -10.5 -13.5t-10.5 -15t-11 -15.5l-61 96l70 4q70 21 148 21
q133 0 163 -94q84 94 211 94q75 0 123 -41.5t64 -104t6 -136.5q-2 -6 -7 -6h-402q-15 -190 160 -190q47 0 73 13t31 50zM272 251q-162 0 -177 -106q-6 -45 23 -73.5t83 -28.5q85 0 141 58q29 30 45 115q3 34 3 35h-118zM669 462q-71 0 -125 -47t-74 -117h330q1 71 -34 117.5
t-97 46.5z" />
    <glyph glyph-name="ccedilla" unicode="&#xe7;" horiz-adv-x="492" 
d="M194 -151q-40 0 -64 26l26 39q15 -31 43 -31q22 0 40 17.5t21 42.5q4 24 -8 41q-114 2 -169.5 78t-37.5 198q17 121 98 193t207 72q58 0 103 -34q2 0 7.5 -0.5t26 -1.5t52.5 -2l-89 -96q-17 41 -19 44q-22 17 -43.5 22t-61.5 5q-83 0 -139.5 -58.5t-68.5 -143.5
q-13 -92 25 -152.5t120 -60.5q50 0 95 18t72 55l40 -24q-65 -90 -168 -108q10 -21 6 -45q-5 -38 -39 -66t-75 -28z" />
    <glyph glyph-name="egrave" unicode="&#xe8;" horiz-adv-x="534" 
d="M463 65q-61 -49 -109 -65t-108 -16q-116 0 -172 77.5t-38 203.5q16 111 94 185.5t192 74.5q75 0 123 -41.5t63.5 -104t5.5 -136.5q0 -6 -7 -6h-402q-14 -190 162 -190q46 0 71.5 13t31.5 50zM313 462q-71 0 -125 -47t-74 -117h330q2 71 -33.5 117.5t-97.5 46.5zM225 680
h106q7 -15 24.5 -51.5t26.5 -58.5h-57z" />
    <glyph glyph-name="eacute" unicode="&#xe9;" horiz-adv-x="534" 
d="M463 65q-61 -49 -109 -65t-108 -16q-116 0 -172 77.5t-38 203.5q16 111 94 185.5t192 74.5q75 0 123 -41.5t63.5 -104t5.5 -136.5q0 -6 -7 -6h-402q-14 -190 162 -190q46 0 71.5 13t31.5 50zM313 462q-71 0 -125 -47t-74 -117h330q2 71 -33.5 117.5t-97.5 46.5zM353 570
h-57q15 20 42.5 56t40.5 54h106z" />
    <glyph glyph-name="ecircumflex" unicode="&#xea;" horiz-adv-x="534" 
d="M463 65q-61 -49 -109 -65t-108 -16q-116 0 -172 77.5t-38 203.5q16 111 94 185.5t192 74.5q75 0 123 -41.5t63.5 -104t5.5 -136.5q0 -6 -7 -6h-402q-14 -190 162 -190q46 0 71.5 13t31.5 50zM313 462q-71 0 -125 -47t-74 -117h330q2 71 -33.5 117.5t-97.5 46.5zM237 545
l-35 30l104 105h65l74 -115l-43 -23l-71 91z" />
    <glyph glyph-name="edieresis" unicode="&#xeb;" horiz-adv-x="534" 
d="M463 65q-61 -49 -109.5 -65t-108.5 -16q-116 0 -171.5 77.5t-37.5 203.5q16 111 93.5 185.5t191.5 74.5q75 0 123 -41.5t64 -104t6 -136.5q-2 -6 -7 -6h-402q-16 -190 161 -190q46 0 72 13t31 50zM313 462q-71 0 -125.5 -47t-74.5 -117h330q2 71 -33 117.5t-97 46.5z
M300 642q-3 -22 -22 -38.5t-42 -16.5q-22 0 -35.5 16.5t-10.5 38.5q3 23 21 38.5t40 15.5q23 0 37.5 -15.5t11.5 -38.5zM476 642q-3 -22 -22 -38.5t-40 -16.5q-23 0 -36.5 16.5t-10.5 38.5q3 23 21 38.5t41 15.5q22 0 36 -15.5t11 -38.5z" />
    <glyph glyph-name="igrave" unicode="&#xec;" horiz-adv-x="227" 
d="M-9 0l73 50l57 409l-60 50h134l-64 -459l60 -50h-200zM62 680h106q8 -18 25.5 -54t26.5 -56h-83z" />
    <glyph glyph-name="iacute" unicode="&#xed;" horiz-adv-x="227" 
d="M-9 0l73 50l57 409l-60 50h134l-64 -459l60 -50h-200zM175 570h-57q15 22 43 58.5t39 51.5h106z" />
    <glyph glyph-name="icircumflex" unicode="&#xee;" horiz-adv-x="227" 
d="M-9 0l73 50l57 409l-60 50h134l-64 -459l60 -50h-200zM73 545l-35 30l104 105h65l74 -115l-42 -23l-93 91z" />
    <glyph glyph-name="idieresis" unicode="&#xef;" horiz-adv-x="227" 
d="M-10 0l73 50l58 409l-60 50h134l-65 -459l60 -50h-200zM135 642q-3 -22 -21.5 -38.5t-41.5 -16.5q-22 0 -36 16.5t-11 38.5q4 23 22 38.5t40 15.5q24 0 38 -15.5t10 -38.5zM311 642q-3 -22 -21.5 -38.5t-39.5 -16.5q-23 0 -37 16.5t-11 38.5q4 23 22 38.5t41 15.5
q22 0 36 -15.5t10 -38.5z" />
    <glyph glyph-name="eth" unicode="&#xf0;" horiz-adv-x="533" 
d="M265 537l117 73q-28 22 -70 22q-113 0 -155 -63l-50 32q62 95 205 95q84 0 133 -47l102 63l31 -54l-95 -59q52 -102 24 -305q-19 -138 -91.5 -224t-192.5 -86q-99 0 -155 65t-42 164q13 93 85.5 156.5t167.5 63.5q59 0 102 -27t61 -74q19 145 -21 229l-126 -78zM276 374
q-66 0 -118.5 -45.5t-62.5 -112.5q-10 -71 28 -119.5t109 -48.5q69 0 122.5 47t63.5 116t-31 116t-111 47z" />
    <glyph glyph-name="ntilde" unicode="&#xf1;" horiz-adv-x="583" 
d="M199 0h-200l73 50l57 409l-60 50h134l-11 -78q70 94 174 94q179 0 150 -211l-37 -264l60 -50h-201l74 50l35 254q22 154 -95 154q-60 0 -115.5 -52t-62.5 -105l-35 -251zM474 680q-25 -84 -73 -84q-25 0 -49 16.5t-36 16.5q-22 0 -40 -43h-38q27 86 84 86q24 0 47 -16.5
t38 -16.5q17 0 29 41h38z" />
    <glyph glyph-name="ograve" unicode="&#xf2;" horiz-adv-x="544" 
d="M461 260q12 84 -28 143t-120 59t-136 -59t-68 -143q-13 -92 25 -152.5t120 -60.5q81 0 137.5 60.5t69.5 152.5zM322 525q114 0 171 -75.5t41 -189.5q-18 -122 -95.5 -199t-192.5 -77q-116 0 -172 76.5t-38 199.5q16 114 94 189.5t192 75.5zM221 680h106q7 -15 24.5 -51.5
t26.5 -58.5h-57z" />
    <glyph glyph-name="oacute" unicode="&#xf3;" horiz-adv-x="544" 
d="M461 260q12 84 -28 143t-120 59t-136 -59t-68 -143q-13 -92 25 -152.5t120 -60.5q81 0 137.5 60.5t69.5 152.5zM322 525q114 0 171 -75.5t41 -189.5q-18 -122 -95.5 -199t-192.5 -77q-116 0 -172 76.5t-38 199.5q16 114 94 189.5t192 75.5zM337 570h-57q15 20 42.5 56
t40.5 54h106z" />
    <glyph glyph-name="ocircumflex" unicode="&#xf4;" horiz-adv-x="544" 
d="M461 260q12 84 -28 143t-120 59t-136 -59t-68 -143q-13 -92 25 -152.5t120 -60.5q81 0 137.5 60.5t69.5 152.5zM322 525q114 0 171 -75.5t41 -189.5q-18 -122 -95.5 -199t-192.5 -77q-116 0 -172 76.5t-38 199.5q16 114 94 189.5t192 75.5zM242 545l-35 30l104 105h65
l74 -115l-43 -23l-71 91z" />
    <glyph glyph-name="otilde" unicode="&#xf5;" horiz-adv-x="544" 
d="M461 260q12 84 -28 143t-120 59t-136 -59t-68 -143q-13 -92 25 -152.5t120 -60.5q81 0 137.5 60.5t69.5 152.5zM322 525q114 0 171 -75.5t41 -189.5q-18 -122 -95.5 -199t-192.5 -77q-116 0 -172 76.5t-38 199.5q16 114 94 189.5t192 75.5zM455 680q-25 -84 -73 -84
q-24 0 -48 16.5t-37 16.5q-22 0 -40 -43h-38q27 86 84 86q24 0 46.5 -16.5t38.5 -16.5q15 0 29 41h38z" />
    <glyph glyph-name="odieresis" unicode="&#xf6;" horiz-adv-x="544" 
d="M460 260q12 84 -27.5 143t-119.5 59t-136.5 -59t-68.5 -143q-13 -92 25 -152.5t120 -60.5q81 0 137.5 60.5t69.5 152.5zM321 525q114 0 171 -75.5t41 -189.5q-17 -122 -95 -199t-193 -77q-116 0 -171.5 76.5t-38.5 199.5q16 114 94 189.5t192 75.5zM305 642
q-3 -22 -22 -38.5t-42 -16.5q-22 0 -35.5 16.5t-10.5 38.5q3 23 21 38.5t40 15.5q23 0 37.5 -15.5t11.5 -38.5zM481 642q-3 -22 -22 -38.5t-40 -16.5q-23 0 -36.5 16.5t-10.5 38.5q3 23 21 38.5t41 15.5q22 0 36 -15.5t11 -38.5z" />
    <glyph glyph-name="divide" unicode="&#xf7;" horiz-adv-x="432" 
d="M144 62q4 26 24.5 44.5t46.5 18.5t41.5 -18.5t11.5 -44.5t-24.5 -44t-46.5 -18t-41.5 18t-11.5 44zM200 464q4 26 24.5 44t46.5 18t41.5 -18t11.5 -44t-24.5 -44.5t-46.5 -18.5t-41.5 18.5t-11.5 44.5zM445 317l-10 -68h-406l10 68h406z" />
    <glyph glyph-name="oslash" unicode="&#xf8;" horiz-adv-x="545" 
d="M324 525q68 0 115 -28l74 103h78l-102 -143q64 -75 47 -197t-95 -199t-193 -77q-45 0 -85 14l-62 -88h-82l86 120q-89 75 -67 230q16 114 94 189.5t192 75.5zM111 260q-15 -109 37 -169l249 348q-34 23 -81 23q-80 0 -136.5 -59t-68.5 -143zM463 260q11 74 -21 130
l-238 -335q27 -8 52 -8q81 0 137.5 60.5t69.5 152.5z" />
    <glyph glyph-name="ugrave" unicode="&#xf9;" horiz-adv-x="582" 
d="M207 680h106q7 -15 24.5 -51.5t26.5 -58.5h-57zM477 50l60 -50h-134l11 78q-70 -94 -174 -94q-89 0 -126.5 54t-22.5 157l37 264l-60 50h134l-43 -304q-21 -154 95 -154q60 0 115.5 52t62.5 105l36 251l-60 50h134z" />
    <glyph glyph-name="uacute" unicode="&#xfa;" horiz-adv-x="582" 
d="M351 570h-57q15 20 42.5 56t40.5 54h106zM477 50l60 -50h-134l11 78q-70 -94 -174 -94q-89 0 -126.5 54t-22.5 157l37 264l-60 50h134l-43 -304q-21 -154 95 -154q60 0 115.5 52t62.5 105l36 251l-60 50h134z" />
    <glyph glyph-name="ucircumflex" unicode="&#xfb;" horiz-adv-x="582" 
d="M261 545l-35 30l104 105h65l74 -115l-43 -23l-71 91zM477 50l60 -50h-134l11 78q-70 -94 -174 -94q-89 0 -126.5 54t-22.5 157l37 264l-60 50h134l-43 -304q-21 -154 95 -154q60 0 115.5 52t62.5 105l36 251l-60 50h134z" />
    <glyph glyph-name="udieresis" unicode="&#xfc;" horiz-adv-x="582" 
d="M324 642q-3 -22 -22 -38.5t-42 -16.5q-22 0 -35.5 16.5t-10.5 38.5q3 23 21 38.5t40 15.5q23 0 37.5 -15.5t11.5 -38.5zM500 642q-3 -22 -22 -38.5t-40 -16.5q-23 0 -36.5 16.5t-10.5 38.5q3 23 21 38.5t41 15.5q22 0 36 -15.5t11 -38.5zM477 50l60 -50h-134l11 78
q-70 -94 -175 -94q-178 0 -149 211l37 264l-60 50h134l-43 -304q-21 -154 96 -154q60 0 115 52t63 105l35 251l-60 50h134z" />
    <glyph glyph-name="yacute" unicode="&#xfd;" horiz-adv-x="521" 
d="M100 -75l-8 -49q39 -42 126 -42q68 0 125.5 45.5t67.5 115.5l12 83q-71 -94 -175 -94q-178 0 -149 211l37 264l-60 50h134l-43 -304q-21 -154 96 -154q60 0 115 52t63 105l35 251l-60 50h134l-71 -503q-15 -105 -82 -168.5t-191 -63.5q-170 0 -199 114zM340 570h-57
q15 22 43 58.5t39 51.5h106z" />
    <glyph glyph-name="thorn" unicode="&#xfe;" horiz-adv-x="536" 
d="M39 -220l122 870l-59 50h134l-36 -256q76 71 151 71q104 0 155.5 -80t35.5 -191t-89 -190.5t-178 -79.5q-82 0 -132 65l-7 -49h-3l-29 -210h-65zM160 160q12 -53 44.5 -88t80.5 -35q71 0 121.5 61.5t62.5 144.5q11 84 -22.5 146.5t-104.5 62.5q-46 0 -88.5 -35.5
t-69.5 -88.5z" />
    <glyph glyph-name="ydieresis" unicode="&#xff;" horiz-adv-x="521" 
d="M99 -75l-7 -49q38 -42 126 -42q68 0 125.5 45.5t66.5 115.5l12 83q-70 -94 -174 -94q-179 0 -150 211l37 264l-59 50h134l-43 -304q-22 -154 95 -154q60 0 115.5 52t62.5 105l35 251l-59 50h134l-71 -503q-15 -104 -82.5 -168t-191.5 -64q-79 0 -132 28t-67 86zM300 642
q-3 -22 -22 -38.5t-42 -16.5q-22 0 -35.5 16.5t-10.5 38.5q4 23 22 38.5t40 15.5q24 0 38 -15.5t10 -38.5zM476 642q-3 -22 -22 -38.5t-40 -16.5q-23 0 -36.5 16.5t-10.5 38.5q4 23 22 38.5t41 15.5q22 0 36 -15.5t10 -38.5z" />
    <glyph glyph-name="dotlessi" unicode="&#x131;" horiz-adv-x="120" 
d="M80 510h64l-71 -510h-64z" />
    <glyph glyph-name="Lslash" unicode="&#x141;" horiz-adv-x="544" 
d="M40 256l51 26l55 390l-50 38h129l-54 -389l271 136l22 -59l-304 -152l-25 -180h327l60 38l-14 -104h-456l29 207l-19 -9z" />
    <glyph glyph-name="lslash" unicode="&#x142;" horiz-adv-x="384" 
d="M221 342l152 110l31 -48l-194 -141l-25 -172q-4 -32 40 -32q4 0 12 2t14 2l-8 -63h-73q-25 2 -42 21t-13 46l20 143l-88 -63l-31 48l130 93l52 372l-60 50h134z" />
    <glyph glyph-name="OE" unicode="&#x152;" horiz-adv-x="918" 
d="M456 641q-136 0 -223 -74t-106 -205q-19 -141 45.5 -217.5t202.5 -76.5h41l81 573h-41zM352 0q-162 4 -244.5 100t-59.5 262q22 151 132.5 247t270.5 100l505 1l-12 -87l-25 20h-348l-34 -241h299l31 20l-15 -107l-25 20h-299l-38 -269h348l45 35l-14 -101h-517zM625 498
q-1 0 -1 2z" />
    <glyph glyph-name="oe" unicode="&#x153;" horiz-adv-x="1078" 
d="M896 65q-61 -49 -109.5 -65t-108.5 -16q-149 0 -196 122q-82 -122 -231 -122q-116 0 -171.5 76.5t-38.5 199.5q16 114 94 189.5t192 75.5q146 0 197 -119q83 119 230 119q75 0 123 -41.5t64 -104t6 -136.5q-1 -6 -7 -6h-402q-16 -190 161 -190q46 0 72 13t31 50zM466 260
q12 84 -27.5 143t-119.5 59t-136.5 -59t-68.5 -143q-13 -92 25 -152.5t120 -60.5q81 0 137.5 60.5t69.5 152.5zM746 462q-71 0 -125 -47t-74 -117h330q1 71 -34 117.5t-97 46.5z" />
    <glyph glyph-name="Scaron" unicode="&#x160;" horiz-adv-x="560" 
d="M598 676l-103 -126q-3 8 -7 18.5t-6 16.5t-5 12t-7 11l-3 3q-35 47 -122 47q-75 0 -126.5 -32.5t-59.5 -91.5q-8 -57 30 -86.5t125 -51.5q46 -13 74.5 -22.5t62 -26.5t50.5 -37t27 -51t4 -70q-14 -103 -95.5 -154t-202.5 -51q-130 0 -194 79l-31 59l72 38
q17 -107 181 -107q72 0 126.5 34.5t63.5 95.5q5 32 -6.5 55.5t-39.5 40t-57 27t-75 21.5q-51 15 -84 29.5t-63.5 37t-42.5 55.5t-6 76q13 93 91 147t182 54q80 0 163 -50h84zM360 805q13 11 47 43.5t51 47.5l35 -21l-98 -105h-79l-67 102l41 21z" />
    <glyph glyph-name="scaron" unicode="&#x161;" horiz-adv-x="441" 
d="M366 391q-4 9 -9.5 22.5t-9.5 21.5q-22 16 -41 22.5t-53 6.5q-50 0 -86.5 -20.5t-42.5 -63.5q-4 -32 26.5 -51t76 -30t90.5 -25t73.5 -46t21.5 -82q-11 -77 -74.5 -119.5t-154.5 -42.5q-49 0 -92.5 21.5t-95.5 82.5l54 44q34 -89 150 -89q57 0 98 25t47 71q4 30 -17 50
t-56 29.5t-75.5 21t-74.5 24.5t-54.5 41t-14.5 68q11 76 68.5 114t134.5 38q63 0 114 -34q2 0 7 -0.5t25.5 -1.5t52.5 -2zM280 605q15 14 48.5 45.5t48.5 45.5l35 -21l-97 -105h-79l-67 102l41 21z" />
    <glyph glyph-name="Ydieresis" unicode="&#x178;" horiz-adv-x="719" 
d="M300 54l34 241q-83 8 -131.5 54.5t-58.5 115.5t0 155l4 39l-67 51h222l-81 -51q-8 -57 -10 -98t4.5 -83t24 -68.5t52 -43t85.5 -16.5t90 16.5t63.5 43t42 68.5t26.5 83t17 98l-67 51h222l-81 -51v-5q-11 -75 -30 -133.5t-51 -109t-83 -80.5t-119 -36l-34 -243l66 -52
h-222zM415 852q-3 -22 -21.5 -38.5t-41.5 -16.5q-22 0 -36 16.5t-11 38.5q4 23 22 38.5t40 15.5q24 0 38 -15.5t10 -38.5zM591 852q-3 -22 -21.5 -38.5t-39.5 -16.5q-23 0 -37 16.5t-11 38.5q4 23 22 38.5t41 15.5q22 0 36 -15.5t10 -38.5z" />
    <glyph glyph-name="Zcaron" unicode="&#x17d;" horiz-adv-x="574" 
d="M105 710h498l-12 -82l-477 -561h357l65 73l-20 -140h-521l8 67l517 576h-371l-64 -72zM366 805q13 11 47 43.5t51 47.5l35 -21l-98 -105h-79l-66 102l41 21z" />
    <glyph glyph-name="zcaron" unicode="&#x17e;" horiz-adv-x="453" 
d="M87 509h377l-8 -57l-366 -391h271l58 61l-17 -122h-399l8 59l373 391h-256l-58 -59zM285 605q13 11 47 43.5t51 47.5l35 -21l-98 -105h-79l-67 102l41 21z" />
    <glyph glyph-name="florin" unicode="&#x192;" horiz-adv-x="461" 
d="M455 658q-18 0 -33.5 -7t-26 -15t-20.5 -26.5t-15 -30t-12 -38t-9 -37t-8 -40.5h123q-3 -8 -5 -19t-4.5 -24t-3.5 -19h-124q-28 -123 -86 -365q-46 -220 -188 -220q-38 0 -70 20l35 133l23 -89q3 -1 15 -1q34 0 61 29.5t36 68.5q18 71 51.5 213.5t50.5 210.5h-82
q3 10 7 31t7 31h82q8 43 16 75.5t23.5 69t34.5 60t49 39t68 15.5q7 0 16.5 -1t26.5 -2.5t35 -2.5l-19 -137z" />
    <glyph glyph-name="circumflex" unicode="&#x2c6;" horiz-adv-x="307" 
d="M104 545l-35 30l104 105h65l74 -115l-42 -23l-71 91z" />
    <glyph glyph-name="caron" unicode="&#x2c7;" horiz-adv-x="281" 
d="M179 605q13 11 47 43.5t51 47.5l35 -21l-98 -105h-79l-67 102l41 21z" />
    <glyph glyph-name="breve" unicode="&#x2d8;" horiz-adv-x="300" 
d="M257 691q0 4 -1 5h45v-5q-6 -43 -41.5 -74t-79.5 -31q-42 0 -69 31t-21 74v5h45v-5q-4 -22 13 -42t38 -20q22 0 44.5 20t26.5 42z" />
    <glyph glyph-name="dotaccent" unicode="&#x2d9;" horiz-adv-x="151" 
d="M173 643q-3 -21 -21.5 -37t-39.5 -16t-34.5 16t-10.5 37q3 22 21 37.5t39 15.5t35 -15.5t11 -37.5z" />
    <glyph glyph-name="ring" unicode="&#x2da;" horiz-adv-x="216" 
d="M76 628q4 29 26.5 48.5t50.5 19.5q29 0 46.5 -19.5t13.5 -48.5q-5 -28 -27.5 -48t-51.5 -20q-27 0 -44.5 20.5t-13.5 47.5zM184 628q2 15 -9 27.5t-26 12.5q-14 0 -28 -12t-16 -28q-2 -14 8.5 -27t24.5 -13t29 13t17 27z" />
    <glyph glyph-name="ogonek" unicode="&#x2db;" horiz-adv-x="216" 
d="M115 -176q11 0 29 2l31 -36q-58 -14 -84 -14q-37 0 -62 23t-18 70q3 22 22.5 63t40.5 68h72q-30 -28 -55.5 -67t-27.5 -56q-3 -24 14.5 -38.5t37.5 -14.5z" />
    <glyph glyph-name="tilde" unicode="&#x2dc;" horiz-adv-x="236" 
d="M277 680q-26 -84 -73 -84q-24 0 -49 16.5t-37 16.5q-20 0 -40 -43h-38q29 86 84 86q24 0 47.5 -16.5t38.5 -16.5t29 41h38z" />
    <glyph glyph-name="hungarumlaut" unicode="&#x2dd;" horiz-adv-x="273" 
d="M152 659q-31 -59 -40 -79h-47q3 12 7 34q0 4 0.5 11.5t1.5 11.5q10 59 54 59q14 0 21 -8.5t5 -21.5q0 -1 -2 -7zM293 659q-31 -59 -40 -79h-47q3 12 7 34q0 4 0.5 11.5t1.5 11.5q10 59 54 59q14 0 21 -8.5t5 -21.5q0 -1 -2 -7z" />
    <glyph glyph-name="endash" unicode="&#x2013;" horiz-adv-x="466" 
d="M50 298h412l-9 -61h-412z" />
    <glyph glyph-name="emdash" unicode="&#x2014;" horiz-adv-x="765" 
d="M50 298h711l-9 -61h-711z" />
    <glyph glyph-name="quoteleft" unicode="&#x2018;" horiz-adv-x="157" 
d="M199 724l-61 -67q-6 -5 -6 -11q-1 -5 -1.5 -21t0.5 -16q-4 -14 -15 -23t-25 -9q-15 0 -24.5 11t-7.5 26q5 38 90 110h50z" />
    <glyph glyph-name="quoteright" unicode="&#x2019;" horiz-adv-x="158" 
d="M50 577l61 68q7 6 7 11q0 3 -1 14.5t0 17.5q1 14 14 25t27 11q15 0 24.5 -11t7.5 -25q-6 -37 -89 -111h-51z" />
    <glyph glyph-name="quotesinglbase" unicode="&#x201a;" horiz-adv-x="195" 
d="M5 -73q20 17 46 46.5t32 42.5q-28 20 -25 46q4 26 24.5 44.5t46.5 18.5t42 -18.5t12 -44.5q-3 -21 -21.5 -44t-38 -38.5t-43.5 -32t-28 -20.5h-47z" />
    <glyph glyph-name="quotedblleft" unicode="&#x201c;" horiz-adv-x="320" 
d="M355 724l-61 -67q-6 -5 -6 -11q-1 -5 -1.5 -21t0.5 -16q-4 -14 -15 -23t-25 -9q-15 0 -24.5 11t-7.5 26q5 38 90 110h50zM203 724l-61 -67q-6 -5 -6 -11q-1 -5 -1.5 -21t0.5 -16q-4 -14 -15 -23t-25 -9q-15 0 -24.5 11t-7.5 26q5 38 90 110h50z" />
    <glyph glyph-name="quotedblright" unicode="&#x201d;" horiz-adv-x="322" 
d="M56 573l58 66q8 7 10 14q0 3 -1.5 14.5t-0.5 17.5q2 14 15.5 25.5t29.5 11.5t25.5 -11.5t7.5 -25.5q-5 -38 -91 -112h-53zM205 573l60 66q8 7 10 14q0 3 -1.5 14.5t-0.5 17.5q2 14 15.5 25.5t29.5 11.5q14 0 23.5 -11.5t7.5 -25.5q-5 -40 -89 -112h-55z" />
    <glyph glyph-name="quotedblbase" unicode="&#x201e;" horiz-adv-x="434" 
d="M10 -73q19 16 45 46t32 43q-28 20 -25 46q4 26 25 44.5t47 18.5t41.5 -18.5t11.5 -44.5q-3 -21 -21.5 -44.5t-38 -38.5t-43.5 -31.5t-28 -20.5h-46zM240 -73q19 16 45 46t32 43q-27 22 -24 46q4 26 24.5 44.5t46.5 18.5t41.5 -18.5t11.5 -44.5q-4 -28 -30 -55t-60 -50
t-40 -30h-47z" />
    <glyph glyph-name="dagger" unicode="&#x2020;" horiz-adv-x="389" 
d="M34 321l9 64h150l46 325h68l-46 -325h149l-9 -64h-149l-59 -421h-68l59 421h-150z" />
    <glyph glyph-name="daggerdbl" unicode="&#x2021;" horiz-adv-x="392" 
d="M42 367l9 64h150l39 279h68l-39 -279h150l-9 -64h-150l-25 -174h150l-9 -65h-150l-32 -228h-68l32 228h-150l9 65h150l25 174h-150z" />
    <glyph glyph-name="bullet" unicode="&#x2022;" horiz-adv-x="289" 
d="M38 238q7 52 48 87.5t92 35.5q52 0 82.5 -35.5t22.5 -87.5q-7 -51 -47.5 -86.5t-92.5 -35.5q-51 0 -81.5 35.5t-23.5 86.5z" />
    <glyph glyph-name="ellipsis" unicode="&#x2026;" horiz-adv-x="770" 
d="M30 62q4 26 25 44.5t47 18.5t41.5 -18.5t11.5 -44.5t-24.5 -44t-46.5 -18t-42 18t-12 44zM327 62q4 26 24.5 44.5t46.5 18.5t41.5 -18.5t11.5 -44.5t-24.5 -44t-46.5 -18t-41.5 18t-11.5 44zM623 62q4 26 25 44.5t47 18.5t41.5 -18.5t11.5 -44.5t-24.5 -44t-46.5 -18
t-42 18t-12 44z" />
    <glyph glyph-name="perthousand" unicode="&#x2030;" horiz-adv-x="890" 
d="M223 661q-37 0 -64 -36t-34 -83q-6 -48 10.5 -83.5t54.5 -35.5t65.5 36t33.5 83q7 47 -10.5 83t-55.5 36zM607 689q-306 -428 -494 -692l-43 17l495 693zM230 708q59 0 89 -48.5t20 -117.5q-9 -69 -53 -118t-103 -49q-57 0 -87.5 49t-21.5 118q10 68 54.5 117t101.5 49z
M473 317q58 0 87.5 -48.5t19.5 -117.5q-9 -70 -52.5 -118.5t-101.5 -48.5q-59 0 -89 48.5t-21 118.5q10 69 54.5 117.5t102.5 48.5zM466 270q-38 0 -65 -36t-34 -83q-6 -48 11 -83.5t55 -35.5t64 35.5t33 83.5q7 47 -10 83t-54 36zM759 317q59 0 89 -48.5t20 -117.5
q-9 -70 -53 -118.5t-103 -48.5q-58 0 -87.5 48.5t-20.5 118.5q10 69 53.5 117.5t101.5 48.5zM752 270q-37 0 -64 -36t-34 -83q-6 -48 10.5 -83.5t54.5 -35.5q39 0 65 35.5t33 83.5q7 46 -10.5 82.5t-54.5 36.5z" />
    <glyph glyph-name="guilsinglleft" unicode="&#x2039;" horiz-adv-x="224" 
d="M31 265l149 204h69l-149 -204q8 -18 41 -91.5t50 -113.5h-69z" />
    <glyph glyph-name="guilsinglright" unicode="&#x203a;" horiz-adv-x="221" 
d="M78 61h-66l147 203q-13 32 -45.5 103t-44.5 100h66l91 -203z" />
    <glyph glyph-name="fraction" unicode="&#x2044;" horiz-adv-x="506" 
d="M-14 0l508 710h76l-505 -710h-79z" />
    <glyph glyph-name="Euro" unicode="&#x20ac;" horiz-adv-x="578" 
d="M42 346h59l4 28h-59l6 44h63q34 127 114.5 202.5t185.5 75.5q122 0 178 -117l17 -17l-80 -55l7 36q-39 87 -131 87q-81 0 -141.5 -57t-88.5 -155h228l-6 -44h-232l-4 -28h232l-6 -43h-231q-8 -118 36 -185.5t132 -67.5q90 0 159 94q0 2 -1 20t-1 19l69 -52
q-117 -147 -236 -147q-111 0 -170.5 86.5t-48.5 232.5h-60z" />
    <glyph glyph-name="trademark" unicode="&#x2122;" horiz-adv-x="988" 
d="M683 299l219 411h113l-38 -25l-56 -401l43 -34h-144l53 34l53 376q-217 -391 -227 -410h-46l-104 392l-50 -359l43 -33h-144l53 33l56 402l-32 25h104zM447 710l-10 -68l-31 25h-118l-54 -383l42 -34h-144l54 35l54 382h-121l-40 -25l10 68h358z" />
    <glyph glyph-name="minus" unicode="&#x2212;" horiz-adv-x="460" 
d="M458 332l-8 -58h-406l8 58h406z" />
    <glyph glyph-name="percent" horiz-adv-x="643" 
d="M228 668q-39 0 -67.5 -37.5t-34.5 -86.5q-7 -49 10.5 -86t56.5 -37q40 0 69 37.5t36 85.5q6 50 -12 87t-58 37zM612 693q-84 -116 -248.5 -346.5t-248.5 -346.5l-37 13l502 697zM234 710q57 0 87.5 -49t21.5 -117q-10 -68 -54.5 -116.5t-101.5 -48.5q-56 0 -86 48.5
t-20 116.5q9 68 52.5 117t100.5 49zM501 315q57 0 87 -48.5t20 -116.5q-9 -69 -52.5 -117.5t-100.5 -48.5t-87 48.5t-21 117.5q10 68 53.5 116.5t100.5 48.5zM495 273q-40 0 -68 -37.5t-35 -85.5q-7 -50 11 -87t58 -37t67.5 37.5t34.5 86.5q7 48 -11 85.5t-57 37.5z" />
    <glyph glyph-name="zero.taboldstyle" horiz-adv-x="402" 
d="M249 454q-65 0 -107 -61.5t-54 -143.5q-7 -50 -0.5 -97t32.5 -82.5t70 -35.5q43 0 78.5 35.5t54.5 82.5t26 97q12 81 -12.5 143t-87.5 62zM256 500q88 0 124.5 -71t20.5 -180q-15 -110 -73 -185t-144 -75q-89 0 -126.5 74.5t-22.5 185.5q16 109 74 180t147 71z" />
    <glyph glyph-name="one.taboldstyle" horiz-adv-x="244" 
d="M60 453l23 -17l96 51h50l-63 -450l42 -37h-147l56 37l56 402q-79 -42 -97 -52l-27 -13z" />
    <glyph glyph-name="two.taboldstyle" horiz-adv-x="377" 
d="M80 468h43q52 32 122 32q68 0 108.5 -35.5t32.5 -93.5q-5 -36 -33.5 -73.5t-51.5 -56t-64 -47.5q-123 -88 -160 -148h210l60 46l-13 -92h-328l1 6q7 51 42.5 90.5t115.5 101.5l28 22q7 6 34.5 27t38.5 30.5t29.5 27t26.5 32t10 29.5q6 37 -25.5 62.5t-73.5 25.5
t-74 -18.5t-43 -41.5z" />
    <glyph glyph-name="six.taboldstyle" horiz-adv-x="517" 
d="M461 577q-34 55 -124 55t-144 -77.5t-74 -204.5q30 49 81.5 75.5t112.5 26.5q98 0 150.5 -64t38.5 -163q-14 -103 -87.5 -172t-174.5 -69q-121 0 -170.5 85.5t-29.5 225.5q57 401 305 401q74 0 127 -40l71 40zM299 388q-75 0 -128 -47.5t-63 -120.5q-10 -69 33 -120.5
t111 -51.5q70 0 118.5 49t59.5 126q10 70 -25.5 117.5t-105.5 47.5z" />
    <glyph glyph-name="eight.taboldstyle" horiz-adv-x="521" 
d="M25 187q9 62 54 109.5t107 63.5q-54 29 -79.5 62t-18.5 89q12 86 85.5 135.5t160.5 49.5t145.5 -49.5t46.5 -135.5q-7 -53 -44 -93t-92 -58q59 -21 89 -66t21 -109q-14 -94 -91.5 -147.5t-176.5 -53.5t-159.5 55.5t-47.5 147.5zM157 509q-9 -60 31 -96.5t101 -36.5
t110.5 37t57.5 97q8 57 -32 89.5t-101 32.5q-60 0 -109.5 -33t-57.5 -90zM99 187q-9 -65 34 -102t110 -37t121 37.5t63 102.5t-35 103t-110 38t-120 -38.5t-63 -103.5z" />
    <glyph glyph-name="three.taboldstyle" horiz-adv-x="487" 
d="M95 464h60q87 32 144 32q91 0 146 -49t43 -134q-8 -56 -46.5 -96t-94.5 -53q56 -16 85 -66t19 -118q-12 -89 -85.5 -142.5t-169.5 -53.5q-79 0 -133.5 28t-66.5 80l64 33q7 -36 46.5 -56.5t97.5 -20.5q70 0 117.5 35.5t56.5 100.5q10 70 -28.5 108.5t-123.5 38.5h-20
l9 64h22q73 0 121 29.5t57 88.5q7 53 -29 86t-95 33q-100 0 -151 -72z" />
    <glyph glyph-name="four.taboldstyle" horiz-adv-x="530" 
d="M388 388q-47 -54 -155 -178t-155 -178h260zM311 -148l16 116h-330l8 65q367 415 394 445h70l-63 -446h99l-9 -64h-99l-16 -117l58 -51h-204z" />
    <glyph glyph-name="five.taboldstyle" horiz-adv-x="494" 
d="M420 416h-233q-13 -44 -33.5 -126t-24.5 -97q65 59 148 59q96 0 149 -64.5t39 -161.5q-15 -105 -90 -173.5t-175 -68.5q-76 0 -131 28.5t-70 80.5l60 32q13 -36 52.5 -56.5t94.5 -20.5q73 0 123.5 51t61.5 128q11 72 -25.5 116.5t-106.5 44.5q-48 0 -89.5 -24.5
t-65.5 -66.5h-65l-3 3q25 122 100 380h358l-18 -129z" />
    <glyph glyph-name="seven.taboldstyle" horiz-adv-x="512" 
d="M79 480h478l-418 -680h-83q188 296 386 616h-308l-73 -64z" />
    <glyph glyph-name="nine.taboldstyle" horiz-adv-x="515" 
d="M21 -121l94 51q-3 -8 -3 -15q-6 -37 22.5 -52t82.5 -15q59 0 105.5 45.5t71.5 110t37 144.5q-31 -47 -81.5 -74t-109.5 -27q-95 0 -149.5 63.5t-41.5 156.5q14 99 88 164t173 65q120 0 168.5 -86t29.5 -224q-27 -189 -103 -295.5t-206 -106.5q-69 0 -115 25t-63 70z
M254 106q70 0 124 47t63 116q10 69 -30.5 116t-109.5 47q-71 0 -122 -48.5t-61 -119.5q-10 -66 30 -112t106 -46z" />
    <glyph glyph-name="A.small" horiz-adv-x="567" 
d="M540 0h-154l49 39h-1q-3 11 -9 34.5t-9 35.5h-264q-6 -12 -19 -35t-19 -35h-1q6 -6 13 -12.5t15.5 -14.5t13.5 -12h-154l56 39q43 79 128.5 236t128.5 235h53l127 -471h-1zM178 157h227q-13 50 -36.5 147.5t-35.5 147.5z" />
    <glyph glyph-name="B.small" horiz-adv-x="455" 
d="M48 27l64 456q-5 4 -11 8.5t-13.5 10t-11.5 8.5h231q69 0 111.5 -31t32.5 -100q-5 -37 -31.5 -67t-64.5 -46q45 -13 67.5 -47t15.5 -83q-9 -58 -54.5 -97t-114.5 -39h-264zM234 47q65 0 103 20t46 76q4 27 -4 46t-20.5 29t-38 15t-44 6t-52.5 1h-36q-2 -1 -7.5 -4.5
t-10 -6.5t-8.5 -4l11 78l22 -15h66q122 0 134 85q7 50 -23.5 69.5t-84.5 19.5h-124l-59 -415h130z" />
    <glyph glyph-name="C.small" horiz-adv-x="471" 
d="M445 98q0 -2 -17 -15q-36 -43 -86 -68.5t-103 -25.5q-107 0 -161.5 74t-37.5 197q17 117 92 189t182 72t161 -87q14 -11 15 -12l-72 -43l5 28q-40 65 -116 65q-83 0 -139.5 -58.5t-70.5 -153.5q-14 -103 25.5 -162.5t123.5 -59.5q79 0 138 70l-1 14q-1 15 -1 17z" />
    <glyph glyph-name="D.small" 
d="M49 27h-1l65 456q-5 4 -11 8.5t-13.5 10t-11.5 8.5h193q116 0 177 -68t45 -185q-17 -122 -94.5 -189.5t-198.5 -67.5h-193zM220 47q184 0 215 210q14 100 -29 152.5t-132 52.5h-111l-59 -415h116z" />
    <glyph glyph-name="E.small" horiz-adv-x="417" 
d="M48 27l64 456l-36 27h363l-8 -62l-18 14h-250l-25 -173h215l22 14l-11 -77l-18 15h-215l-27 -194h250l33 26l-10 -73h-372z" />
    <glyph glyph-name="F.small" horiz-adv-x="411" 
d="M62 39l62 444l-35 27h363l-8 -62l-18 14h-250l-27 -188h214l23 15l-11 -77l-19 14h-214l-26 -187l48 -39h-160z" />
    <glyph glyph-name="G.small" horiz-adv-x="503" 
d="M293 275l23 -16h185q-17 -122 -89.5 -196t-171.5 -74q-107 0 -161.5 74t-37.5 197q17 117 92 189t182 72q108 0 160 -86h-1q2 -1 7 -6.5t9 -7.5l-7 -4q-11 -6 -34 -19t-33 -18l8 27q-43 65 -116 65q-83 0 -139.5 -58.5t-70.5 -153.5q-14 -103 25.5 -162.5t123.5 -59.5
q68 0 117.5 47t70.5 129h-125q-14 -14 -30 -32z" />
    <glyph glyph-name="H.small" horiz-adv-x="544" 
d="M455 39h-1l49 -39h-160l59 39l28 202h-286l-28 -202l49 -39h-160l58 39l61 432q-30 21 -48 39h160l-58 -39q-3 -20 -13 -88.5t-14 -93.5h286l26 182q-33 23 -49 39h160l-58 -39z" />
    <glyph glyph-name="I.small" horiz-adv-x="192" 
d="M110 39h-1l49 -39h-159l58 39l61 432q-33 23 -49 39h160l-58 -39z" />
    <glyph glyph-name="J.small" horiz-adv-x="369" 
d="M244 510h161l-60 -39l-33 -235q-6 -43 -12 -71t-20 -64.5t-33.5 -58.5t-53 -37.5t-78.5 -15.5q-70 0 -100 58l-14 6l55 55q-4 -68 78 -68q27 0 47.5 11t32.5 27t21.5 44.5t14 51.5t9.5 59l32 238z" />
    <glyph glyph-name="K.small" horiz-adv-x="482" 
d="M443 0h-152l42 31l-187 223l-30 -215l48 -39h-160l58 39l62 443l-41 28h99l-32 -232l242 212l-17 20h108q-45 -41 -143.5 -127t-137.5 -121l192 -222z" />
    <glyph glyph-name="L.small" horiz-adv-x="399" 
d="M111 483l-36 27h93l-65 -463h235l43 28l-10 -75h-327z" />
    <glyph glyph-name="M.small" horiz-adv-x="676" 
d="M321 55q174 324 243 455h126l-42 -27l-62 -445l48 -38h-160l59 38l59 417q-50 -88 -138 -248t-114 -207h-51l-116 435l-56 -398l49 -37h-160l58 37l62 446l-35 27h115z" />
    <glyph glyph-name="N.small" horiz-adv-x="563" 
d="M436 510h157l-58 -40l-66 -470h-52q-95 160 -247 425l-54 -385l49 -40h-160l58 39l62 444l-35 27h89q164 -287 248 -432l55 393z" />
    <glyph glyph-name="O.small" horiz-adv-x="520" 
d="M41 260q16 112 92.5 186.5t180.5 74.5q106 0 161.5 -74.5t39.5 -186.5q-17 -123 -93 -197t-183 -74q-106 0 -160.5 74t-37.5 197zM98 260q-14 -102 25 -162.5t123 -60.5q85 0 141.5 60.5t70.5 162.5q14 95 -26.5 153.5t-124.5 58.5q-83 0 -139 -58.5t-70 -153.5z" />
    <glyph glyph-name="P.small" horiz-adv-x="442" 
d="M164 0h-160l58 39l62 444l-35 27h175q44 0 77.5 -6t65 -21t45.5 -46t8 -77q-20 -148 -228 -148h-41l-24 -7l9 62l22 -7h55q65 0 105 22t48 78q7 50 -22 76t-78 26h-130l-60 -423z" />
    <glyph glyph-name="Q.small" horiz-adv-x="534" 
d="M430 -19l-44 53q-69 -45 -148 -45q-106 0 -160.5 74t-37.5 197q17 116 92 188.5t181 72.5q107 0 162.5 -72t38.5 -189q-14 -111 -91 -193q12 -11 27 -30.5t21 -25.5h-1l12 -4t13 -5l-57 -51zM350 152l43 -49q50 56 64 157q14 95 -26.5 153.5t-124.5 58.5
q-83 0 -139 -58.5t-70 -153.5q-14 -103 25 -162.5t123 -59.5q55 0 110 31q-21 25 -22 26l-20 24z" />
    <glyph glyph-name="R.small" horiz-adv-x="512" 
d="M165 0h-160l58 39l62 444q-15 12 -35 27h176q44 0 78 -6t66 -21t46 -46t8 -77q-17 -118 -164 -144q114 -48 122 -159q0 -8 2.5 -13t6.5 -8t17 -13.5t26 -22.5h-161q46 26 51 34q-4 77 -58.5 129t-110.5 52q-22 -14 -28 -19l11 79l23 -15h54q65 0 104.5 22t47.5 78
q7 50 -21.5 76t-77.5 26h-132l-60 -423z" />
    <glyph glyph-name="S.small" horiz-adv-x="416" 
d="M18 88l45 23q30 -73 137 -73q53 0 92 25t45 68q6 40 -19 59.5t-83 35.5l-6 2q-6 1 -11 3t-7 3t-3 1h1q-75 21 -112 52t-29 90q9 67 65 105.5t131 38.5q80 0 124 -40l37 40l-11 -77l-46 -23q-21 52 -108 52q-55 0 -91.5 -23t-42.5 -66q-5 -36 23 -59t70.5 -36t85 -27.5
t69.5 -46t20 -79.5q-11 -74 -69.5 -110.5t-144.5 -36.5q-94 0 -139 56l-35 -45z" />
    <glyph glyph-name="T.small" horiz-adv-x="431" 
d="M467 510l-10 -75l-35 27h-131l-60 -425l48 -37h-160l59 39l60 423h-134l-44 -27l10 75h397z" />
    <glyph glyph-name="U.small" horiz-adv-x="554" 
d="M428 510h159l-59 -37l-31 -226q-37 -258 -241 -258q-59 0 -97 21t-53.5 56t-20 82t5.5 99l31 226l-47 37h159l-59 -37l-31 -226q-14 -99 11.5 -154t107.5 -55q83 0 125 55.5t56 153.5l31 226z" />
    <glyph glyph-name="V.small" horiz-adv-x="563" 
d="M487 475l-46 35h160l-57 -36l-255 -474h-52l-123 474l-46 36h160l-57 -36l100 -417z" />
    <glyph glyph-name="W.small" horiz-adv-x="852" 
d="M559 58q5 10 215 415l-47 37h159l-57 -36l-253 -474l-50 19l-61 390q-31 -73 -89.5 -204.5t-81.5 -185.5h-51l-124 453l-48 38h159l-56 -36l99 -416q32 78 93.5 228.5t91.5 223.5h42z" />
    <glyph glyph-name="X.small" horiz-adv-x="530" 
d="M382 33q-19 36 -55.5 99t-50.5 87l-92 -108q-9 -11 -32.5 -37t-33.5 -40l46 -34h-160l52 33q40 45 112 129t84 97q-21 38 -65 110.5t-64 107.5l-43 33h159l-52 -33l19 -32q9 -15 37 -67t47 -80q1 1 150 173l3 4l-45 35h159l-54 -34l-111 -128q-7 -8 -20 -22.5t-20 -21.5
l-39 -45q100 -169 131 -225l46 -34h-160z" />
    <glyph glyph-name="Y.small" horiz-adv-x="528" 
d="M226 39l24 173q-88 8 -119 71.5t-17 161.5l3 28l-48 37h159l-58 -37q-7 -62 -6.5 -111.5t29.5 -80t89 -30.5q45 0 76.5 16.5t50 50t28.5 68.5t17 87l-48 37h159l-58 -37v-3q-16 -113 -63 -181.5t-141 -76.5l-24 -175l48 -37h-160z" />
    <glyph glyph-name="Z.small" horiz-adv-x="427" 
d="M87 510h358l-8 -59l-343 -403h257l46 53l-14 -101h-375l6 48l373 414h-267l-47 -52z" />
    </font>
</defs>
</svg>
