<?xml version="1.0" standalone="no"?>
<!DOCTYPE svg PUBLIC "-//W3C//DTD SVG 1.1//EN" "http://www.w3.org/Graphics/SVG/1.1/DTD/svg11.dtd" >
<svg xmlns="http://www.w3.org/2000/svg" xmlns:xlink="http://www.w3.org/1999/xlink" version="1.1">
<metadata>
Created by FontForge 20150824 at Wed Jun  1 16:49:52 2016
 By Everything Fonts
Copyright (c) 2016 by Lollia Andrade. All rights reserved.
</metadata>
<defs>
<font id="ArnoiaText" horiz-adv-x="501" >
  <font-face 
    font-family="ArnoiaText"
    font-weight="400"
    font-stretch="normal"
    units-per-em="1000"
    panose-1="2 10 5 4 3 2 6 2 2 4"
    ascent="710"
    descent="-290"
    x-height="509"
    cap-height="710"
    bbox="-40 -234 1153 906"
    underline-thickness="50"
    underline-position="-150"
    unicode-range="U+0020-FB04"
  />
<missing-glyph horiz-adv-x="533" 
d="M27 710h479v-710h-479v710zM429 659h-325l162 -258zM458 96v518l-163 -259zM429 51l-163 258l-162 -258h325zM75 96l163 259l-163 259v-518z" />
    <glyph glyph-name="ff" unicode="ff" horiz-adv-x="550" 
d="M122 50v398h-92v61h92v19q0 104 32.5 151t108.5 47q38 0 88 -22q31 22 83 22q39 0 89 -22l-28 -50q-21 10 -45 10q-83 0 -90 -100v-55h91l30 20v-101l-30 20h-91v-398l70 -50h-378zM189 448v-398l52 -37l52 37v398h-104zM293 528q0 85 21 130q-18 6 -35 6q-83 0 -90 -100
v-54h104v18z" />
    <glyph glyph-name="fi" unicode="fi" horiz-adv-x="540" 
d="M107 50v398h-92v61h92v19q0 104 32.5 151t108.5 47q39 0 89 -22l-28 -50q-21 10 -45 10q-83 0 -90 -100v-55h91l30 20v-101l-30 20h-91v-398l70 -23h-207zM309 27l67 24v409l-67 50h134v-460l67 -23h-201zM339 614q0 20 13.5 33.5t33.5 13.5t33.5 -13.5t13.5 -33.5
t-13.5 -33.5t-33.5 -13.5t-33.5 13.5t-13.5 33.5z" />
    <glyph glyph-name="fl" unicode="fl" horiz-adv-x="446" 
d="M101 528q0 50 4 80t17 60t43 44t77 14q39 0 89 -22l-28 -50q-21 10 -45 10q-83 0 -90 -100v-58h205v-415q0 -30 40 -32v-59h-43q-25 2 -44.5 21t-19.5 46v378h-138v-395l70 -50h-210l73 50v478z" />
    <glyph glyph-name="ffi" unicode="ffi" horiz-adv-x="679" 
d="M365 448v-398l70 -50h-378l70 50v398h-92v61h92v19q0 104 32.5 151t108.5 47q38 0 88 -22q31 22 83 22q39 0 89 -22l-28 -50q-21 10 -45 10q-83 0 -90 -100v-55h205v-418q0 -32 44 -32q4 0 12 2t14 2v-63h-73q-25 2 -44.5 21t-19.5 46v381h-138zM194 448v-398l52 -37
l52 37v398h-104zM298 528q0 85 21 130q-18 6 -35 6q-83 0 -90 -100v-54h104v18zM480 583q0 20 13.5 33.5t33.5 13.5t33.5 -13.5t13.5 -33.5t-13.5 -33.5t-33.5 -13.5t-33.5 13.5t-13.5 33.5z" />
    <glyph glyph-name="ffl" unicode="ffl" horiz-adv-x="628" 
d="M125 50v398h-92v61h92v19q0 104 32.5 151t108.5 47q38 0 88 -22q31 22 83 22q39 0 89 -22l-28 -50q-21 10 -45 10q-83 0 -90 -100v-55h91l65 52v-470q0 -32 44 -32q4 0 12 2t14 2v-63h-73q-25 2 -44.5 21t-19.5 46v381h-89v-398l70 -50h-378zM192 448v-398l52 -37l52 37
v398h-104zM296 528q0 85 21 130q-18 6 -35 6q-83 0 -90 -100v-54h104v18z" />
    <glyph glyph-name="f_f_j" unicode="ffj" horiz-adv-x="613" 
d="M550 -32q-2 -78 -42 -132.5t-94 -69.5l-34 60q35 6 67 39.5t36 71.5v511h-139v-398l70 -50h-378l70 50v398h-92v61h92v19q0 104 32.5 151t108.5 47q38 0 88 -22q31 22 83 22q39 0 89 -22l-28 -50q-21 10 -45 10q-83 0 -90 -100v-55h73l-1 1h134v-542zM173 448v-398
l52 -37l52 37v398h-104zM277 528q0 85 21 130q-18 6 -35 6q-83 0 -90 -100v-54h104v18zM464 583q0 20 13.5 33.5t33.5 13.5t33.5 -13.5t13.5 -33.5t-13.5 -33.5t-33.5 -13.5t-33.5 13.5t-13.5 33.5z" />
    <glyph glyph-name="f_j" unicode="fj" horiz-adv-x="417" 
d="M85 544q0 2 1.5 19t4 35.5t11.5 42t22.5 42t40 31t61.5 12.5q39 0 89 -22l-28 -50q-21 10 -45 10q-83 0 -90 -100v-55h73l-1 1h134v-542q-2 -78 -42 -132.5t-94 -69.5l-34 60q35 6 67 39.5t36 71.5v511h-139v-398l70 -50h-209l72 50v494zM272 583q0 20 13.5 33.5
t33.5 13.5t33.5 -13.5t13.5 -33.5t-13.5 -33.5t-33.5 -13.5t-33.5 13.5t-13.5 33.5z" />
    <glyph glyph-name=".notdef" horiz-adv-x="533" 
d="M27 710h479v-710h-479v710zM429 659h-325l162 -258zM458 96v518l-163 -259zM429 51l-163 258l-162 -258h325zM75 96l163 259l-163 259v-518z" />
    <glyph glyph-name=".null" horiz-adv-x="0" 
 />
    <glyph glyph-name="nonmarkingreturn" horiz-adv-x="333" 
 />
    <glyph glyph-name="space" unicode=" " horiz-adv-x="225" 
 />
    <glyph glyph-name="exclam" unicode="!" horiz-adv-x="148" 
d="M39 710h60v-523h-60v523zM128 38q0 -22 -16 -38t-38 -16t-38 16t-16 38t16 38t38 16t38 -16t16 -38z" />
    <glyph glyph-name="quotedbl" unicode="&#x22;" horiz-adv-x="224" 
d="M42 557q0 45 -8.5 85t-8.5 44q0 16 11 26.5t27 10.5q15 0 26 -10.5t11 -26.5q0 -2 -6.5 -43t-6.5 -86h-45zM140 557q0 45 -8.5 85t-8.5 44q0 16 11 26.5t27 10.5q15 0 26 -10.5t11 -26.5q0 -2 -6.5 -43t-6.5 -86h-45z" />
    <glyph glyph-name="numbersign" unicode="#" horiz-adv-x="580" 
d="M36 286h85q9 35 45 159h-88l17 62h88q12 45 23.5 90.5t19.5 76.5t9 36h66q-1 -5 -9 -35.5t-20 -76.5t-24 -91h152q10 41 23 90.5t20 77t9 35.5h67q-2 -7 -9.5 -36t-20 -76t-24.5 -91h98l-17 -62h-98q-7 -25 -14.5 -53t-16 -59t-12.5 -47h100l-18 -63h-100
q-54 -197 -57 -223h-65q2 21 57 223h-152q-53 -182 -58 -223h-65q2 18 58 223h-86zM231 445q-36 -127 -43 -159h151q16 63 44 159h-152z" />
    <glyph glyph-name="dollar" unicode="$" horiz-adv-x="387" 
d="M26 496q0 69 39.5 115.5t99.5 52.5v46h46v-46q101 -5 143 -106l-42 -28q-22 71 -101 78v-223q39 -11 62.5 -20.5t47.5 -27.5t35.5 -46t11.5 -68q0 -77 -44.5 -117.5t-112.5 -42.5v-63h-46v64q-106 8 -146 103l40 26q27 -61 106 -75v220q-33 12 -52 20.5t-42 26.5
t-34 45.5t-11 65.5zM314 220q0 23 -7 40t-24 29t-30.5 18.5t-41.5 17.5v-208q46 2 74.5 29t28.5 74zM78 501q0 -39 22 -61.5t65 -38.5v205q-41 -5 -64 -32.5t-23 -72.5z" />
    <glyph glyph-name="ampersand" unicode="&#x26;" horiz-adv-x="652" 
d="M23 183q0 66 40 114t111 94q-87 97 -87 167q0 62 46 100t114 38q64 0 109.5 -34.5t45.5 -93.5q0 -55 -34 -95.5t-100 -86.5q112 -117 187 -201q41 96 41 194v15h65q-9 -162 -60 -256q22 -26 70 -76.5t58 -61.5h-94q-75 81 -78 84q-87 -100 -202 -100q-99 0 -165.5 55.5
t-66.5 143.5zM255 45q87 0 165 83q-105 110 -204 220q-51 -34 -87.5 -75.5t-36.5 -83.5q0 -65 49 -104.5t114 -39.5zM153 559q0 -50 76 -128q35 26 53 41t36 41.5t18 51.5q0 34 -25 52t-63 18q-41 0 -68 -20.5t-27 -55.5z" />
    <glyph glyph-name="quotesingle" unicode="'" horiz-adv-x="120" 
d="M38 560q0 45 -8 85.5t-8 43.5q0 16 10.5 26.5t26.5 10.5t27 -10.5t11 -26.5q0 -2 -6.5 -43t-6.5 -86h-46z" />
    <glyph glyph-name="parenleft" unicode="(" horiz-adv-x="209" 
d="M88 327q0 -164 91 -365l-49 -28q-114 239 -114 394q0 94 32 188.5t93 221.5l48 -29q-43 -88 -72 -192t-29 -190z" />
    <glyph glyph-name="parenright" unicode=")" horiz-adv-x="212" 
d="M196 328q0 -166 -121 -394l-50 28q99 191 99 365q0 160 -103 382l51 29q59 -123 91.5 -219.5t32.5 -190.5z" />
    <glyph glyph-name="asterisk" unicode="*" horiz-adv-x="334" 
d="M136 599v111h53v-116q6 3 45.5 20.5t60.5 25.5l21 -49l-101 -44q11 -13 33 -41.5t34 -41.5l-41 -33l-74 93q-30 -36 -75 -93l-41 33l67 83q-70 32 -100 44l21 49z" />
    <glyph glyph-name="plus" unicode="+" horiz-adv-x="431" 
d="M183 509h66v-176h170v-63h-170v-176h-66v176h-171v63h171v176z" />
    <glyph glyph-name="comma" unicode="," horiz-adv-x="194" 
d="M18 -73q17 17 38.5 46.5t25.5 42.5q-30 21 -30 46q0 26 18 44.5t44 18.5t44 -18.5t18 -44.5q0 -21 -15 -44.5t-32.5 -38.5t-38.5 -31.5t-25 -20.5h-47z" />
    <glyph glyph-name="hyphen" unicode="-" horiz-adv-x="251" 
d="M28 225v64h194v-64h-194z" />
    <glyph glyph-name="period" unicode="." horiz-adv-x="171" 
d="M24 62q0 26 18 44.5t44 18.5t44 -18.5t18 -44.5t-18 -44t-44 -18t-44 18t-18 44z" />
    <glyph glyph-name="slash" unicode="/" horiz-adv-x="506" 
d="M10 0l408 710h78l-404 -710h-82z" />
    <glyph glyph-name="zero" unicode="0" horiz-adv-x="557" 
d="M282 632q-63 0 -106 -45t-60.5 -107t-17.5 -133q0 -52 10.5 -102.5t31.5 -95.5t57.5 -73t84.5 -28q47 0 83.5 28t56.5 73t30 95.5t10 102.5q0 72 -16.5 133.5t-59 106.5t-104.5 45zM283 696q125 0 189 -98t64 -251q0 -155 -65 -259t-189 -104q-65 0 -115.5 29.5t-81 80.5
t-46 115t-15.5 138q0 153 66 251t193 98z" />
    <glyph glyph-name="one" unicode="1" horiz-adv-x="328" 
d="M14 630l35 -23l124 71h70v-626l66 -52h-204l69 52v559q-93 -55 -125 -72l-35 -19v110z" />
    <glyph glyph-name="two" unicode="2" horiz-adv-x="507" 
d="M35 652h60q65 44 164 44q94 0 158 -49.5t64 -129.5q0 -32 -12.5 -64t-27 -54t-43.5 -50.5t-44 -41t-46 -37.5q-153 -121 -193 -206h292l74 64v-128h-457v9q0 38 11.5 70t40.5 67t53.5 59t76.5 70l35 31q6 6 42.5 37t48.5 43t35 37.5t31.5 45.5t8.5 41q0 49 -49 85.5
t-107 36.5t-99 -25.5t-52 -58.5z" />
    <glyph glyph-name="three" unicode="3" horiz-adv-x="489" 
d="M41 664h60q83 32 140 32q91 0 152.5 -49t61.5 -134q0 -56 -32.5 -96t-87.5 -53q58 -16 94 -66t36 -118q0 -89 -65.5 -142.5t-161.5 -53.5q-79 0 -138 28t-78 80l60 33q13 -36 55 -56.5t100 -20.5q70 0 112.5 35.5t42.5 100.5q0 70 -44 108.5t-129 38.5h-20v64h22
q73 0 117 29.5t44 88.5q0 53 -40.5 86t-99.5 33q-101 0 -141 -72z" />
    <glyph glyph-name="four" unicode="4" horiz-adv-x="531" 
d="M344 588q-133 -181 -260 -356h260v356zM342 52v116h-331v65q287 385 331 445h70v-446h99v-64h-99v-117l65 -51h-204z" />
    <glyph glyph-name="five" unicode="5" horiz-adv-x="496" 
d="M372 616h-233q-7 -44 -16 -127.5t-10 -95.5q56 59 139 59q96 0 158 -64.5t62 -161.5q0 -105 -65.5 -173.5t-165.5 -68.5q-76 0 -135 28.5t-82 80.5l56 32q19 -36 61 -56.5t97 -20.5q73 0 116.5 51t43.5 128q0 72 -42.5 116.5t-112.5 44.5q-48 0 -86 -24.5t-56 -66.5h-65
l-3 3q7 119 46 380h358v-129z" />
    <glyph glyph-name="six" unicode="6" horiz-adv-x="519" 
d="M405 577q-41 55 -131 55t-133.5 -77.5t-45.5 -204.5q24 49 71.5 75.5t108.5 26.5q98 0 159.5 -64t61.5 -163q0 -103 -63.5 -172t-164.5 -69q-121 0 -182.5 85.5t-61.5 225.5q0 401 249 401q74 0 132 -40l75 40zM270 388q-75 0 -121.5 -47.5t-46.5 -120.5
q0 -69 50.5 -120.5t118.5 -51.5q70 0 111.5 49t41.5 126q0 70 -42 117.5t-112 47.5z" />
    <glyph glyph-name="seven" unicode="7" horiz-adv-x="514" 
d="M23 680h478l-323 -680h-83q137 276 300 616h-308l-64 -64v128z" />
    <glyph glyph-name="eight" unicode="8" horiz-adv-x="521" 
d="M23 187q0 62 39 109.5t98 63.5q-58 29 -88.5 62t-30.5 89q0 86 66.5 135.5t153.5 49.5t152.5 -49.5t65.5 -135.5q0 -53 -31 -92.5t-84 -58.5q62 -21 98 -66t36 -109q0 -94 -70 -147.5t-169 -53.5t-167.5 55.5t-68.5 147.5zM110 509q0 -60 45 -96.5t106 -36.5t105 37
t44 97q0 57 -44.5 89.5t-105.5 32.5q-60 0 -105 -33t-45 -90zM97 187q0 -65 48.5 -102t115.5 -37t115.5 37.5t48.5 102.5t-49.5 103t-115.5 38t-114.5 -38.5t-48.5 -103.5z" />
    <glyph glyph-name="nine" unicode="9" horiz-adv-x="517" 
d="M49 79l81 46q-1 -5 -1 -14q0 -39 31.5 -51t89.5 -12q59 0 99 45.5t55.5 110t17.5 144.5q-25 -47 -71.5 -74t-105.5 -27q-95 0 -158.5 63.5t-63.5 156.5q0 99 65 164t164 65q120 0 180.5 -86t60.5 -224q0 -190 -61 -296t-191 -106q-143 0 -192 95zM250 306q70 0 117.5 47
t47.5 116t-47 116t-116 47q-71 0 -115.5 -48.5t-44.5 -119.5q0 -67 46 -112.5t112 -45.5z" />
    <glyph glyph-name="colon" unicode=":" horiz-adv-x="174" 
d="M25 62q0 26 18 44.5t44 18.5t44 -18.5t18 -44.5t-18 -44t-44 -18t-44 18t-18 44zM25 441q0 26 18 44t44 18t44 -18t18 -44t-18 -44.5t-44 -18.5t-44 18.5t-18 44.5z" />
    <glyph glyph-name="semicolon" unicode=";" horiz-adv-x="194" 
d="M16 -73q17 17 38.5 46.5t25.5 42.5q-30 19 -30 46q0 26 18 44.5t44 18.5t44 -18.5t18 -44.5q0 -27 -21.5 -54.5t-56.5 -53.5l-34 -27h-46zM174 441q0 -26 -18 -44.5t-44 -18.5t-44 18.5t-18 44.5t18 44t44 18t44 -18t18 -44z" />
    <glyph glyph-name="less" unicode="&#x3c;" horiz-adv-x="508" 
d="M480 42v-84l-471 272v49l471 268v-82l-369 -211z" />
    <glyph glyph-name="equal" unicode="=" horiz-adv-x="449" 
d="M28 194v45h402v-45h-402zM430 288h-402v44h402v-44z" />
    <glyph glyph-name="greater" unicode="&#x3e;" horiz-adv-x="508" 
d="M398 254q-50 29 -176.5 100.5t-193.5 110.5v82l471 -268v-49l-471 -272v84z" />
    <glyph glyph-name="question" unicode="?" horiz-adv-x="407" 
d="M16 693h40q61 33 132 33q84 0 144.5 -49t60.5 -138q0 -52 -21.5 -90t-51.5 -61.5t-60.5 -47.5t-52 -63.5t-21.5 -94.5h-67q0 69 21 116t50.5 71.5t59 45t50.5 51t21 74.5q0 55 -37 87.5t-88 32.5q-48 0 -115 -30v-37zM105 46q0 20 13.5 33.5t33.5 13.5t33 -13.5t13 -33.5
q0 -19 -13 -32.5t-33 -13.5t-33.5 13.5t-13.5 32.5z" />
    <glyph glyph-name="at" unicode="@" horiz-adv-x="789" 
d="M215 525l60 -9q49 49 132 49q75 0 116.5 -39.5t41.5 -113.5q0 -118 6 -170.5t16.5 -66t36.5 -13.5q33 0 59.5 63t26.5 126q0 150 -89.5 234t-225.5 84q-130 0 -222.5 -93.5t-92.5 -224.5q0 -129 91.5 -219t222.5 -90q57 0 108 19l63 -34q-88 -43 -171 -43
q-155 0 -263 106.5t-108 260.5t109 264.5t263 110.5q160 0 266 -99t106 -276q0 -96 -40 -171.5t-110 -75.5q-106 0 -110 83q-50 -60 -140 -60q-62 0 -102 36t-40 93q0 64 50 99t133 35h99v25q0 101 -104 101q-64 0 -109 -71zM417 333q-123 0 -123 -86q0 -35 25.5 -53.5
t70.5 -18.5q61 0 89 45.5t28 112.5h-90z" />
    <glyph glyph-name="A" unicode="A" horiz-adv-x="755" 
d="M222 218h305q-92 249 -152 411zM745 0h-214l61 54h-1q-7 16 -20 49t-19 49h-356q-7 -16 -20 -49t-19 -49h-1q10 -9 32.5 -26.5t32.5 -27.5h-214l71 54h-1q44 110 130.5 328t130.5 328h64l272 -656h-1z" />
    <glyph glyph-name="B" unicode="B" horiz-adv-x="617" 
d="M79 38v634q-9 6 -27 19t-28 19h324q97 0 161.5 -43t64.5 -140q0 -52 -30.5 -93.5t-80.5 -62.5q64 -18 102 -66t38 -116q0 -80 -55.5 -134.5t-153.5 -54.5h-370zM337 66q44 0 75.5 5.5t58.5 19t41 40.5t14 68q0 32 -8.5 56t-27.5 38.5t-37.5 23t-51 12t-54.5 4.5t-61 1
h-50q-4 -2 -11 -7t-12.5 -8.5t-9.5 -5.5v109l33 -21h92q78 0 123.5 25t45.5 93q0 124 -168 124h-176v-577h184z" />
    <glyph glyph-name="C" unicode="C" horiz-adv-x="640" 
d="M620 675l-85 -126q-5 9 -11.5 23t-11 21.5t-10.5 13.5l-3 3q-47 47 -147 47q-115 0 -182.5 -81.5t-67.5 -213.5q0 -146 68.5 -227.5t189.5 -81.5q61 0 116 41t64 88l79 -46q-14 -9 -31.5 -31t-22.5 -27q-94 -94 -213 -94q-149 0 -239 103.5t-90 274.5q0 163 90 263.5
t239 100.5q12 0 24.5 -1.5t22 -3t24.5 -5.5t21.5 -6t24 -8t21.5 -7.5t23.5 -9.5t21.5 -9z" />
    <glyph glyph-name="D" unicode="D" horiz-adv-x="680" 
d="M79 38h-1l1 634q-9 6 -27 19t-28 19h255q162 0 260 -94.5t98 -257.5q0 -170 -95 -264t-263 -94h-255zM301 66q132 0 194.5 78t62.5 214q0 137 -70.5 211t-193.5 74h-142v-577h149z" />
    <glyph glyph-name="E" unicode="E" horiz-adv-x="562" 
d="M78 38v634l-55 38h505v-87l-28 20h-348v-241h299l28 20v-107l-28 20h-299v-269h348l40 35v-101h-517z" />
    <glyph glyph-name="F" unicode="F" horiz-adv-x="558" 
d="M96 54v618l-55 38h505v-87l-28 20h-348v-261h299l28 20v-107l-28 20h-299v-261l74 -54h-222z" />
    <glyph glyph-name="G" unicode="G" horiz-adv-x="684" 
d="M371 383l34 -22h258q-2 -171 -86.5 -274t-224.5 -103q-149 0 -239 103.5t-90 274.5q0 163 90.5 263.5t238.5 100.5q152 0 240 -121h-1q4 -4 12 -10l12 -9l-8 -5q-14 -8 -43 -26t-43 -26l5 37q-68 91 -174 91q-116 0 -183 -81t-67 -214q0 -142 66.5 -225.5t183.5 -83.5
q95 0 154 65.5t74 179.5h-174q-6 -6 -17.5 -22.5t-17.5 -22.5v130z" />
    <glyph glyph-name="H" unicode="H" horiz-adv-x="741" 
d="M643 54h-1l75 -54h-222l74 54v281h-398v-281l75 -54h-222l74 54v602q-33 19 -74 54h222l-73 -54q0 -33 -0.5 -127.5t-0.5 -126.5h397v254q-33 19 -74 54h222l-74 -54v-602z" />
    <glyph glyph-name="I" unicode="I" horiz-adv-x="254" 
d="M165 54h-2l75 -54h-222l74 54v602q-33 19 -74 54h222l-73 -54v-602z" />
    <glyph glyph-name="J" unicode="J" horiz-adv-x="503" 
d="M260 710h224l-75 -54v-327q0 -49 -2 -82t-8.5 -77.5t-21.5 -74t-39 -57t-63.5 -41t-91.5 -13.5q-97 0 -151 81l-20 9l65 76q1 -10 1.5 -15.5t1.5 -13.5t2 -11v-4q47 -51 117 -51q32 0 55.5 9.5t38 30t23.5 42t13 57t5 62.5t1 69l-1 331z" />
    <glyph glyph-name="K" unicode="K" horiz-adv-x="655" 
d="M634 0h-212l53 43l-304 310v-299l74 -54h-222l74 54v617l-63 39h137v-323l297 295l-28 28h150q-44 -45 -164.5 -165.5t-177.5 -179.5l310 -310z" />
    <glyph glyph-name="L" unicode="L" horiz-adv-x="545" 
d="M78 672l-55 38h129v-644h327l55 38v-104h-456v672z" />
    <glyph glyph-name="M" unicode="M" horiz-adv-x="922" 
d="M453 76q46 118 130 331.5t119 302.5h175l-53 -38v-619l74 -53h-222l74 53v580q-56 -136 -261 -633h-71l-246 605v-554l74 -51h-222l74 51v621l-55 38h160z" />
    <glyph glyph-name="N" unicode="N" horiz-adv-x="767" 
d="M525 710h219l-74 -55v-655h-72q-277 380 -426 591v-535l74 -56h-222l74 54v618l-54 38h124q261 -367 428 -601v547z" />
    <glyph glyph-name="O" unicode="O" horiz-adv-x="705" 
d="M23 362q0 156 91.5 260t236.5 104q147 0 239 -104t92 -260q0 -171 -90.5 -274.5t-240.5 -103.5q-148 0 -238 103.5t-90 274.5zM102 362q0 -142 66.5 -226t182.5 -84q118 0 185 84t67 226q0 132 -67.5 213.5t-184.5 81.5q-115 0 -182 -81.5t-67 -213.5z" />
    <glyph glyph-name="P" unicode="P" horiz-adv-x="601" 
d="M244 0h-222l74 54v618l-55 38h244q61 0 108.5 -8t94.5 -28.5t73 -64.5t26 -108q0 -206 -288 -206h-57l-32 -10v87l32 -10h76q91 0 142.5 30.5t51.5 108.5q0 70 -45.5 106t-114.5 36h-182v-589z" />
    <glyph glyph-name="Q" unicode="Q" horiz-adv-x="726" 
d="M473 212l69 -69q59 83 59 219q0 132 -67.5 213.5t-184.5 81.5q-115 0 -182 -81.5t-67 -213.5q0 -142 66.5 -225.5t182.5 -83.5q80 0 146 43q-13 13 -35.5 36.5t-32.5 33.5zM618 -26l-73 73q-86 -63 -196 -63q-148 0 -238 103.5t-90 274.5q0 162 90.5 263t237.5 101
q149 0 240 -100.5t91 -263.5q0 -153 -88 -269q9 -9 25 -25.5t28.5 -29t23.5 -22.5h-1q5 -2 18 -6.5t18 -6.5l-70 -71z" />
    <glyph glyph-name="R" unicode="R" horiz-adv-x="695" 
d="M245 0h-222l74 54v618q-10 6 -27.5 19t-27.5 19h245q61 0 109 -8t95.5 -28.5t74 -64.5t26.5 -108q0 -88 -55 -136t-145 -64q166 -66 200 -221q1 -10 5.5 -17t10 -11.5t26 -19.5t41.5 -32h-223q42 24 65 47q-20 108 -105.5 179t-166.5 74q-20 -14 -34 -27v110l34 -21h75
q90 0 141.5 30.5t51.5 108.5q0 70 -45.5 106t-113.5 36h-184v-589z" />
    <glyph glyph-name="S" unicode="S" horiz-adv-x="560" 
d="M534 676l-85 -126q-5 9 -11.5 23t-11 21.5t-10.5 13.5l-3 3q-43 47 -129 47q-75 0 -122 -32.5t-47 -91.5q0 -57 42.5 -86.5t132.5 -51.5q48 -13 77.5 -22.5t65.5 -26.5t56 -37t34 -51t14 -70q0 -103 -74 -154t-195 -51q-131 0 -205 79l-40 59l67 38q32 -107 196 -107
q73 0 122.5 34.5t49.5 95.5q0 32 -15 55.5t-45.5 40t-61 27t-77.5 21.5q-109 31 -166 73.5t-57 124.5q0 93 70 147t174 54q80 0 170 -50h84z" />
    <glyph glyph-name="T" unicode="T" horiz-adv-x="587" 
d="M570 710v-105l-55 38h-182v-591l73 -52h-222l75 54v589h-187l-55 -38v105h553z" />
    <glyph glyph-name="U" unicode="U" horiz-adv-x="756" 
d="M513 710h222l-74 -51v-315q0 -360 -284 -360q-66 0 -116.5 19.5t-81.5 51.5t-50 79.5t-26.5 97.5t-7.5 112v315l-74 51h222l-74 -51v-315q0 -67 10 -117t32.5 -91t64.5 -62t101 -21q60 0 102 22t65 63t33 91t10 115v315z" />
    <glyph glyph-name="V" unicode="V" horiz-adv-x="771" 
d="M604 661l-70 49h222l-72 -50l-263 -660h-72l-263 660l-71 50h222l-72 -50l220 -581z" />
    <glyph glyph-name="W" unicode="W" horiz-adv-x="1172" 
d="M785 81q36 98 109 289t110 289l-73 51h222l-72 -50l-261 -660l-73 27l-161 543q-29 -103 -84.5 -286t-76.5 -257h-72l-261 632l-74 51h222l-72 -49l219 -580q27 101 84 310t86 319h59z" />
    <glyph glyph-name="X" unicode="X" horiz-adv-x="720" 
d="M542 46q-70 94 -184 259l-107 -150q-23 -33 -77 -107l70 -48h-222l67 46l228 315q-95 131 -223 303l-66 46h222l-67 -46l33 -45q13 -17 65 -90.5t82 -113.5q46 68 174 241l4 5l-70 49h222l-69 -47l-129 -178q-13 -17 -45 -59t-48 -65q15 -20 227 -314l69 -47h-222z" />
    <glyph glyph-name="Y" unicode="Y" horiz-adv-x="723" 
d="M327 54v241q-64 6 -111 33.5t-73.5 72.5t-39 99.5t-12.5 119.5l-1 39l-74 51h222l-74 -51q0 -56 4 -97.5t16 -83.5t33 -68.5t58 -43t88 -16.5t87.5 16.5t57 42.5t32.5 69t15.5 83.5t3.5 97.5l-74 51h222l-74 -51v-5q0 -75 -10.5 -133.5t-35.5 -109t-72 -80.5t-114 -36
v-243l73 -52h-222z" />
    <glyph glyph-name="Z" unicode="Z" horiz-adv-x="574" 
d="M37 710h498v-82l-398 -561h357l54 73v-140h-522v67l436 576h-371l-54 -72v139z" />
    <glyph glyph-name="bracketleft" unicode="[" horiz-adv-x="176" 
d="M27 -90v800h132v-60h-62v-681h62v-59h-132z" />
    <glyph glyph-name="backslash" unicode="\" horiz-adv-x="506" 
d="M414 0l-404 710h78l408 -710h-82z" />
    <glyph glyph-name="bracketright" unicode="]" horiz-adv-x="177" 
d="M17 -90v59h62v681h-62v60h132v-800h-132z" />
    <glyph glyph-name="asciicircum" unicode="^" horiz-adv-x="401" 
d="M105 450h-64l131 260h58l127 -260h-65l-92 188z" />
    <glyph glyph-name="underscore" unicode="_" horiz-adv-x="496" 
d="M27 -92v64h442v-64h-442z" />
    <glyph glyph-name="grave" unicode="`" horiz-adv-x="216" 
d="M24 680h106q10 -17 32.5 -53t34.5 -57h-57z" />
    <glyph glyph-name="a" unicode="a" 
d="M103 504q66 21 145 21q93 0 144.5 -48t51.5 -141v-286l35 -25l-94 -25l-8 59q-59 -75 -178 -75q-77 0 -126.5 44.5t-49.5 114.5q0 79 62.5 122t164.5 43h127v32q0 75 -42 98.5t-129 23.5q-46 0 -73 -14q-5 -7 -8.5 -13.5t-8 -15t-8.5 -15.5l-75 100h70zM255 251
q-162 0 -162 -106q0 -45 33 -73.5t87 -28.5q83 0 133 58q13 15 19.5 39.5t8 43.5t3.5 67h-122z" />
    <glyph glyph-name="b" unicode="b" horiz-adv-x="581" 
d="M88 660l-67 50h134v-256q78 71 161 71q113 0 181 -80t68 -191t-67.5 -190.5t-181.5 -79.5q-89 0 -161 65v-49h-67v660zM155 170q22 -53 64.5 -88t97.5 -35q80 0 127.5 61.5t47.5 144.5t-48.5 146t-127.5 63q-55 0 -97 -35.5t-64 -88.5v-168z" />
    <glyph glyph-name="c" unicode="c" horiz-adv-x="492" 
d="M409 391q-3 5 -11 20t-14 24q-24 17 -47 22t-62 5q-83 0 -131.5 -58.5t-48.5 -143.5q0 -92 46.5 -152.5t128.5 -60.5q113 0 157 73l43 -24q-65 -112 -199 -112q-116 0 -182.5 76.5t-66.5 199.5q0 121 68.5 193t189.5 72q63 0 118 -34q2 0 7.5 -0.5t26 -1.5t52.5 -2z" />
    <glyph glyph-name="d" unicode="d" horiz-adv-x="581" 
d="M426 49q-72 -65 -161 -65q-114 0 -181.5 79.5t-67.5 190.5t68 191t181 80q83 0 161 -71v206l-67 50h134v-660l67 -50h-134v49zM426 338q-22 53 -64 88.5t-97 35.5q-79 0 -127.5 -63t-48.5 -146t47.5 -144.5t127.5 -61.5q54 0 97 35.5t65 87.5v168z" />
    <glyph glyph-name="e" unicode="e" horiz-adv-x="534" 
d="M478 65q-54 -49 -100 -65t-106 -16q-116 0 -182.5 77.5t-66.5 203.5q0 111 67.5 185.5t181.5 74.5q75 0 129 -41.5t78.5 -104t24.5 -136.5q0 -6 -6 -6h-402q12 -190 188 -190q46 0 70 13t24 50zM272 462q-71 0 -118.5 -47t-57.5 -117h330q-9 71 -50.5 117.5t-103.5 46.5z
" />
    <glyph glyph-name="f" unicode="f" horiz-adv-x="351" 
d="M107 50v398h-92v61h92v19q0 104 32.5 151t108.5 47q39 0 89 -22l-28 -50q-21 10 -45 10q-83 0 -90 -100v-55h91l30 20v-101l-30 20h-91v-398l70 -50h-207z" />
    <glyph glyph-name="g" unicode="g" horiz-adv-x="587" 
d="M500 16q0 -109 -57 -175.5t-184 -66.5q-79 0 -136 28t-79 86l81 37l3 -45q46 -46 135 -46q68 0 119 45.5t51 115.5v54q-72 -65 -161 -65q-114 0 -181.5 79.5t-67.5 190.5t68 191t181 80q83 0 161 -71v56h134l-67 -48v-446zM271 47q54 0 97 35.5t65 87.5v168
q-22 53 -64 88.5t-97 35.5q-79 0 -127.5 -63t-48.5 -146t47.5 -144.5t127.5 -61.5z" />
    <glyph glyph-name="h" unicode="h" horiz-adv-x="580" 
d="M223 0h-201l67 50v610l-67 50h134v-279q57 94 161 94q179 0 179 -211v-264l70 -50h-201l64 50v254q0 154 -117 154q-60 0 -108 -52t-48 -105v-251z" />
    <glyph glyph-name="i" unicode="i" horiz-adv-x="227" 
d="M14 0l67 50v409l-67 50h134v-459l67 -50h-201zM55 649q0 20 13.5 33.5t33.5 13.5t33.5 -13.5t13.5 -33.5t-13.5 -33.5t-33.5 -13.5t-33.5 13.5t-13.5 33.5z" />
    <glyph glyph-name="j" unicode="j" horiz-adv-x="239" 
d="M55 -164q83 0 90 100v523l-67 50h134v-542q-2 -99 -35 -146t-106 -47q-30 0 -65 13l30 51q14 -2 19 -2zM122 649q0 20 13.5 33.5t33.5 13.5t33.5 -13.5t13.5 -33.5t-13.5 -33.5t-33.5 -13.5t-33.5 13.5t-13.5 33.5z" />
    <glyph glyph-name="k" unicode="k" horiz-adv-x="524" 
d="M360 38l-204 215v-203l67 -50h-201l67 50v610l-67 50h134v-425q36 37 115 106t116 106l-33 12h132l-41 -30l-220 -211q26 -26 101.5 -104.5t116.5 -119.5l70 -44h-207z" />
    <glyph glyph-name="l" unicode="l" horiz-adv-x="233" 
d="M147 91q0 -32 44 -32q4 0 12 2t14 2v-63h-73q-25 2 -44.5 21t-19.5 46v594l-67 49h134v-619z" />
    <glyph glyph-name="m" unicode="m" horiz-adv-x="908" 
d="M421 50v254q0 75 -29 114.5t-83 39.5q-58 0 -103.5 -49.5t-47.5 -102.5v-256l67 -50h-201l67 50v409l-67 50h134v-78q55 94 156 94q119 0 159 -111q60 111 171 111q85 0 129.5 -54.5t44.5 -156.5v-264l67 -50h-201l67 50v254q0 75 -29 114.5t-83 39.5q-58 0 -103.5 -49.5
t-47.5 -102.5v-256l67 -50h-197z" />
    <glyph glyph-name="n" unicode="n" horiz-adv-x="583" 
d="M223 0h-201l67 50v409l-67 50h134v-78q57 94 161 94q179 0 179 -211v-264l67 -50h-201l67 50v254q0 154 -117 154q-60 0 -108 -52t-48 -105v-251z" />
    <glyph glyph-name="o" unicode="o" horiz-adv-x="544" 
d="M448 260q0 84 -48 143t-128 59t-128 -59t-48 -143q0 -92 46.5 -152.5t128.5 -60.5q81 0 129 60.5t48 152.5zM272 525q114 0 181.5 -75.5t67.5 -189.5q0 -122 -67 -199t-182 -77q-116 0 -182.5 76.5t-66.5 199.5q0 114 67.5 189.5t181.5 75.5z" />
    <glyph glyph-name="p" unicode="p" horiz-adv-x="582" 
d="M223 -210h-201l67 50v619l-67 50h134v-49q72 65 161 65q114 0 181.5 -79.5t67.5 -190.5t-68 -191t-181 -80q-83 0 -161 71v-215zM156 171q22 -53 64 -88.5t97 -35.5q79 0 127.5 63t48.5 146t-47.5 144.5t-127.5 61.5q-55 0 -97.5 -35t-64.5 -88v-168z" />
    <glyph glyph-name="q" unicode="q" horiz-adv-x="582" 
d="M560 -210h-201l67 50v215q-78 -71 -161 -71q-113 0 -181 80t-68 191t67.5 190.5t181.5 79.5q89 0 161 -65v49h67v-669zM426 339q-22 52 -65 87.5t-97 35.5q-80 0 -127.5 -61.5t-47.5 -144.5t48.5 -146t127.5 -63q55 0 97 35.5t64 88.5v168z" />
    <glyph glyph-name="r" unicode="r" horiz-adv-x="373" 
d="M283 457q-50 -8 -89 -55.5t-41 -95.5v-256l67 -50h-201l67 50v409l-67 50h134v-78q22 45 60.5 69.5t84.5 24.5q51 -9 61 -12l-48 -90z" />
    <glyph glyph-name="s" unicode="s" horiz-adv-x="441" 
d="M335 391q-3 5 -11 20t-14 24q-43 29 -98 29q-50 0 -83.5 -20.5t-33.5 -63.5q0 -32 33 -51t80 -30t94.5 -25t80.5 -46t33 -82q0 -77 -57.5 -119.5t-148.5 -42.5q-49 0 -96 21.5t-108 82.5l49 44q47 -89 162 -89q57 0 94.5 25t37.5 71q0 30 -24 50t-60 29.5t-78.5 21
t-78.5 24.5t-60 41t-24 68q0 76 52.5 114t129.5 38q64 0 118 -34q2 0 7.5 -0.5t26 -1.5t52.5 -2z" />
    <glyph glyph-name="t" unicode="t" horiz-adv-x="326" 
d="M101 449h-86v60h86v140l-20 31h110l-23 -31v-140h120v-60h-120v-341q1 -48 63 -48q38 0 70 13l10 -60q-62 -19 -93 -19q-63 0 -90 29t-27 87v339z" />
    <glyph glyph-name="u" unicode="u" horiz-adv-x="582" 
d="M494 50l67 -50h-134v78q-57 -94 -161 -94q-179 0 -179 211v264l-67 50h134v-304q0 -154 117 -154q60 0 108 52t48 105v251l-67 50h134v-459z" />
    <glyph glyph-name="v" unicode="v" horiz-adv-x="607" 
d="M391 509h200l-66 -50l-185 -459h-74l-185 460l-65 49h201l-61 -45l148 -369q21 54 71 177.5t77 190.5z" />
    <glyph glyph-name="w" unicode="w" horiz-adv-x="959" 
d="M739 509h201l-66 -49l-185 -460h-74l-135 394q-22 -64 -68 -197t-68 -197h-74l-185 460l-65 49h200l-60 -45l148 -368q24 68 73.5 206.5t73.5 206.5h52l146 -413q135 333 148 366z" />
    <glyph glyph-name="x" unicode="x" horiz-adv-x="574" 
d="M553 0h-200l55 50l-123 157q-13 -17 -127 -157l65 -50h-202l73 50l154 205q-26 34 -80 102.5t-80 102.5l-67 49h202l-58 -45l118 -151q20 25 59.5 74.5t59.5 75.5l-60 46h200l-69 -47l-153 -197q28 -36 81.5 -107.5t81.5 -107.5z" />
    <glyph glyph-name="y" unicode="y" horiz-adv-x="521" 
d="M127 -75l-1 -49q45 -42 132 -42q68 0 119 45.5t51 115.5v83q-57 -94 -161 -94q-179 0 -179 211v264l-67 50h134v-304q0 -154 117 -154q60 0 108 52t48 105v251l-67 50h134v-503q0 -104 -58.5 -168t-182.5 -64q-79 0 -136 28t-79 86z" />
    <glyph glyph-name="z" unicode="z" horiz-adv-x="453" 
d="M40 509h377v-57l-311 -391h271l50 61v-122h-399v59l318 391h-256l-50 -59v118z" />
    <glyph glyph-name="braceleft" unicode="{" horiz-adv-x="222" 
d="M202 -90h-42q-25 2 -41 5.5t-32 20t-16 45.5v150q0 36 -1 53.5t-5.5 45t-17 41t-32.5 16.5v60q24 1 37 17.5t16 35t3 47.5v191q0 29 16.5 45.5t32.5 20.5t40 6h42v-59h-33q-15 -2 -21.5 -10t-7.5 -16t-1 -29v-157q0 -83 -45 -122q45 -41 45 -123v-170q0 -39 18 -56h45
v-58z" />
    <glyph glyph-name="bar" unicode="|" horiz-adv-x="250" 
d="M83 710h66v-710h-66v710z" />
    <glyph glyph-name="braceright" unicode="}" horiz-adv-x="222" 
d="M20 720h44q89 -8 89 -72v-171v-28t1.5 -25t4.5 -26t9 -19t15.5 -15.5t23.5 -5.5v-60q-19 -2 -30.5 -12t-16.5 -29.5t-6 -34.5t-1 -42v-208q0 -29 -16.5 -45.5t-32 -20t-40.5 -5.5h-44v58h46q18 21 18 67v167q0 95 43 135q-43 35 -43 100v167q0 45 -18 66h-46v59z" />
    <glyph glyph-name="asciitilde" unicode="~" horiz-adv-x="455" 
d="M148 333q28 0 84 -32t77 -32q38 0 73 54l40 -31q-49 -79 -114 -79q-36 0 -89 32.5t-72 32.5q-36 0 -70 -52l-35 36q47 71 106 71z" />
    <glyph glyph-name="exclamdown" unicode="&#xa1;" horiz-adv-x="146" 
d="M48 523h60v-523h-60v523zM127 672q0 -22 -16 -38t-38 -16t-38 16t-16 38t16 38t38 16t38 -16t16 -38z" />
    <glyph glyph-name="cent" unicode="&#xa2;" horiz-adv-x="492" 
d="M125 27q-103 73 -103 233q0 121 71.5 193t196.5 72q14 0 29 -3l30 78h66l-38 -97l21 -12q2 0 7.5 -0.5t26 -1.5t52.5 -2l-75 -96q-4 6 -10 18t-9.5 16.5t-12 11.5t-20.5 13l-153 -390q26 -13 66 -13q113 0 157 73l43 -24q-65 -112 -199 -112q-46 0 -91 15l-35 -89h-66z
M95 260q0 -104 57 -164l143 366h-20q-83 0 -131.5 -58.5t-48.5 -143.5z" />
    <glyph glyph-name="sterling" unicode="&#xa3;" horiz-adv-x="469" 
d="M40 61q81 75 81 202q0 38 -5 96h-95v61h83q0 2 -1 5t-2 5v-1q-27 72 -27 124q0 75 55 124t140 49q69 0 119 -32.5t63 -91.5q-22 -13 -37.5 -17t-19.5 -6q-13 41 -47 64t-80 23q-58 0 -92 -38.5t-34 -97.5q0 -36 31 -110h169v-61h-159q3 -35 3 -68q0 -134 -48 -230h289
v-61h-386v61z" />
    <glyph glyph-name="currency" unicode="&#xa4;" horiz-adv-x="608" 
d="M26 561l43 42l108 -107q57 48 138 48q69 0 127 -40q28 29 98 99l43 -44l-94 -99q48 -57 48 -139q0 -76 -47 -136q14 -13 47 -46.5t46 -47.5l-43 -42l-94 93q-57 -43 -131 -43q-81 0 -143 52q-69 -69 -104 -102l-43 42l105 103q-38 55 -38 127q0 69 43 132zM146 321
q0 -70 49.5 -119t119.5 -49t119 49t49 119t-49 119.5t-119 49.5q-71 0 -120 -49t-49 -120z" />
    <glyph glyph-name="yen" unicode="&#xa5;" horiz-adv-x="440" 
d="M186 191h-167v47h167v46h-167v45h167v21q-79 9 -113.5 61t-34.5 122v177h54v-177q0 -62 30 -98.5t93 -36.5t94.5 37t31.5 98v177h55v-177q0 -69 -42 -122.5t-115 -61.5v-20h183v-45h-183v-46h183v-47h-183v-191h-53v191z" />
    <glyph glyph-name="brokenbar" unicode="&#xa6;" horiz-adv-x="118" 
d="M27 708h64v-380h-64v380zM27 -109v380h64v-380h-64z" />
    <glyph glyph-name="section" unicode="&#xa7;" horiz-adv-x="478" 
d="M67 120q42 -80 163 -80q55 0 90 24t35 72q0 29 -32.5 49t-79 33t-93 29t-79 45.5t-32.5 72.5q0 90 76 129q-41 31 -41 83q0 74 54.5 111.5t134.5 37.5q138 0 173 -99l-46 -26q-27 68 -131 68q-118 0 -118 -85q18 -30 57 -48.5t80 -29t80.5 -25.5t67 -47.5t30.5 -83.5
q0 -80 -70 -124q36 -31 36 -83q0 -75 -57 -117t-142 -42q-68 0 -125 27.5t-77 81.5zM107 377q2 -41 65.5 -74.5t128.5 -33.5q88 0 88 74q0 41 -60 75.5t-125 34.5q-97 0 -97 -76z" />
    <glyph glyph-name="dieresis" unicode="&#xa8;" horiz-adv-x="336" 
d="M135 642q0 -22 -16.5 -38.5t-39.5 -16.5q-22 0 -38 16.5t-16 38.5q0 23 16 38.5t38 15.5q23 0 39.5 -15.5t16.5 -38.5zM311 642q0 -22 -16.5 -38.5t-37.5 -16.5q-23 0 -39 16.5t-16 38.5q0 23 16 38.5t39 15.5q22 0 38 -15.5t16 -38.5z" />
    <glyph glyph-name="copyright" unicode="&#xa9;" horiz-adv-x="793" 
d="M22 355q0 156 108.5 263.5t266.5 107.5t266 -107.5t108 -263.5q0 -157 -107.5 -264t-266.5 -107q-158 0 -266.5 107t-108.5 264zM70 355q0 -141 92.5 -233.5t234.5 -92.5t234 91.5t92 234.5q0 140 -92.5 231.5t-233.5 91.5q-142 0 -234.5 -91.5t-92.5 -231.5zM520 470
q-3 5 -9.5 17.5t-11.5 19.5q-32 22 -90 22q-68 0 -108.5 -48.5t-40.5 -118.5q0 -77 39 -126.5t106 -49.5q95 0 130 60l35 -20q-53 -92 -164 -92q-96 0 -151 63.5t-55 164.5q0 100 59 159.5t163 59.5q49 0 89 -28q10 0 71 -3z" />
    <glyph glyph-name="ordfeminine" unicode="&#xaa;" horiz-adv-x="367" 
d="M79 695q48 15 103 15q66 0 102 -34.5t36 -99.5v-202l25 -17l-66 -18l-6 42q-41 -53 -126 -53q-54 0 -89 31t-35 81q0 55 44 85.5t116 30.5h90v23q0 24 -7 40.5t-17.5 25.5t-30 13.5t-35.5 5.5t-44 1q-17 0 -28.5 -7t-27.5 -34l-53 68zM187 516q-115 0 -115 -75
q0 -31 23.5 -51.5t61.5 -20.5q58 0 85 32t31 115h-86z" />
    <glyph glyph-name="guillemotleft" unicode="&#xab;" horiz-adv-x="403" 
d="M19 264l120 203h65l-119 -203q81 -143 119 -203h-65zM193 264l120 203h66l-119 -203q81 -143 119 -203h-66z" />
    <glyph glyph-name="logicalnot" unicode="&#xac;" horiz-adv-x="506" 
d="M415 308h-406v64h470v-254h-64v190z" />
    <glyph glyph-name="registered" unicode="&#xae;" horiz-adv-x="793" 
d="M327 151h-133l44 33v369q-16 12 -33 23h147q183 0 183 -125q0 -99 -120 -119q99 -40 120 -133q0 -5 1 -8t5 -7t8.5 -7t14.5 -10.5t20 -15.5h-133q29 18 39 28q-13 64 -65 107.5t-98 43.5q-14 -10 -20 -16v66l20 -12h45q54 0 84.5 18t30.5 65q0 43 -27 64t-68 21h-110
v-352zM22 355q0 156 108.5 263.5t266.5 107.5t266 -107.5t108 -263.5q0 -157 -107.5 -264t-266.5 -107q-158 0 -266.5 107t-108.5 264zM70 355q0 -141 92.5 -233.5t234.5 -92.5t234 91.5t92 234.5q0 140 -92.5 231.5t-233.5 91.5q-142 0 -234.5 -91.5t-92.5 -231.5z" />
    <glyph glyph-name="macron" unicode="&#xaf;" horiz-adv-x="323" 
d="M27 654v56h269v-56h-269z" />
    <glyph glyph-name="degree" unicode="&#xb0;" horiz-adv-x="355" 
d="M22 571q0 65 45 110t110 45q66 0 111 -45t45 -110q0 -66 -45 -111t-111 -45q-65 0 -110 45t-45 111zM85 571q0 -38 27 -65.5t65 -27.5t65.5 27.5t27.5 65.5t-27.5 65t-65.5 27t-65 -27t-27 -65z" />
    <glyph glyph-name="plusminus" unicode="&#xb1;" horiz-adv-x="435" 
d="M186 680h65v-177h170v-61h-170v-177h-65v177q-28 0 -85.5 0.5t-86.5 0.5v60h172v177zM14 196h407v-60h-407v60z" />
    <glyph glyph-name="twosuperior" unicode="&#xb2;" horiz-adv-x="314" 
d="M30 671h34q40 25 96 25q55 0 92 -28t37 -75q0 -29 -19 -59t-35.5 -45t-46.5 -38q-89 -71 -112 -119h170l43 37v-74h-266v5q0 29 15.5 55.5t32 43t58.5 54.5l20 18q6 6 25 22t27.5 24.5t21 22t18 25.5t5.5 24q0 29 -28.5 49.5t-62.5 20.5q-33 0 -57 -14.5t-31 -33.5z" />
    <glyph glyph-name="threesuperior" unicode="&#xb3;" horiz-adv-x="294" 
d="M32 678h34q47 18 79 18q50 0 85.5 -27.5t35.5 -75.5q0 -31 -18.5 -53.5t-49.5 -30.5q33 -9 53 -37t20 -67q0 -50 -37 -80t-91 -30q-44 0 -77 16t-45 45l34 18q18 -43 88 -43q39 0 63 20t24 57q0 39 -25 60.5t-72 21.5h-12v36h13q90 0 90 67q0 30 -22.5 48.5t-56.5 18.5
q-56 0 -79 -41z" />
    <glyph glyph-name="acute" unicode="&#xb4;" horiz-adv-x="213" 
d="M81 570h-57q12 21 34.5 57.5t32.5 52.5h106z" />
    <glyph glyph-name="mu" unicode="&#xb5;" horiz-adv-x="446" 
d="M365 96q-53 -96 -161 -96q-67 0 -108 31v-239h-69v711h69v-337q21 -102 113 -102q60 0 108 52.5t48 104.5v282h64v-503h-64v96z" />
    <glyph glyph-name="paragraph" unicode="&#xb6;" horiz-adv-x="504" 
d="M214 300q-197 20 -197 202q0 64 23.5 107.5t65.5 64t85 28.5t98 8h188v-810h-67v749h-129v-749h-67v400z" />
    <glyph glyph-name="periodcentered" unicode="&#xb7;" horiz-adv-x="170" 
d="M22 254q0 26 18.5 45t44.5 19t44.5 -19t18.5 -45t-18.5 -44.5t-44.5 -18.5t-44.5 18.5t-18.5 44.5z" />
    <glyph glyph-name="cedilla" unicode="&#xb8;" horiz-adv-x="207" 
d="M84 -151q-39 0 -68 26l21 39q18 -31 47 -31q22 0 37.5 17.5t15.5 42.5q0 23 -13.5 40t-33.5 21l18 31q34 -9 55.5 -34t21.5 -58q0 -38 -30 -66t-71 -28z" />
    <glyph glyph-name="onesuperior" unicode="&#xb9;" horiz-adv-x="198" 
d="M14 651l19 -13l70 40h39v-354l38 -29h-115l39 29v316q-11 -6 -35.5 -20.5t-35.5 -20.5l-19 -10v62z" />
    <glyph glyph-name="ordmasculine" unicode="&#xba;" horiz-adv-x="334" 
d="M268 543q0 48 -27.5 82t-73.5 34t-74 -34t-28 -82q0 -53 27 -88t74 -35t74.5 35t27.5 88zM167 696q66 0 105 -43.5t39 -109.5q0 -70 -39 -114.5t-105 -44.5q-67 0 -105.5 44t-38.5 115q0 66 38.5 109.5t105.5 43.5z" />
    <glyph glyph-name="guillemotright" unicode="&#xbb;" horiz-adv-x="404" 
d="M265 61h-65q104 178 119 203l-119 203h65l120 -203zM91 61h-66q77 130 119 203l-119 203h66l120 -203z" />
    <glyph glyph-name="onequarter" unicode="&#xbc;" horiz-adv-x="580" 
d="M63 0l385 680h48l-383 -680h-50zM22 651l20 -13l72 40h41v-349l39 -29h-119l40 29v312q-49 -28 -52 -40l-41 -11v61zM463 339q-82 -112 -149 -205h149v205zM462 30v67h-191v37q107 145 191 257h40v-257h57v-37h-57v-68l38 -29h-118z" />
    <glyph glyph-name="onehalf" unicode="&#xbd;" horiz-adv-x="634" 
d="M64 0l385 680h48l-383 -680h-50zM23 651l20 -13l72 40h41v-349l39 -29h-119l40 29v312q-49 -28 -52 -40l-41 -11v61zM371 354h32q37 24 89 24q51 0 86 -27t35 -70q0 -27 -17.5 -55.5t-34 -43.5t-42.5 -35q-84 -66 -105 -112h158l41 35v-70h-248v5q0 21 5.5 38t22.5 37
t28.5 31t41.5 38l19 17q4 3 23 19.5t26 23.5t19.5 20.5t17 25t4.5 22.5q0 27 -26.5 46.5t-57.5 19.5q-32 0 -54 -14t-28 -31z" />
    <glyph glyph-name="threequarters" unicode="&#xbe;" horiz-adv-x="575" 
d="M30 679h32q45 17 75 17q48 0 81.5 -26.5t33.5 -70.5q0 -30 -17.5 -51.5t-47.5 -28.5q32 -8 51 -34.5t19 -64.5q0 -47 -35.5 -76t-85.5 -29q-94 0 -116 58l32 18q14 -41 83 -41q37 0 60 19t23 53q0 37 -24 58t-69 21h-10v34h11q40 0 63.5 16t23.5 48q0 28 -21.5 45.5
t-53.5 17.5q-53 0 -76 -38zM80 0l385 679h48l-383 -679h-50zM458 339q-82 -112 -149 -205h149v205zM457 30v67h-191v37q106 145 191 257h40v-257h57v-37h-57v-68l38 -29h-118z" />
    <glyph glyph-name="questiondown" unicode="&#xbf;" horiz-adv-x="407" 
d="M391 33h-40q-61 -33 -132 -33q-84 0 -144.5 49t-60.5 138q0 52 21.5 90t52 61.5t60.5 47.5t51.5 63.5t21.5 94.5h67q0 -69 -21 -116t-50.5 -71.5t-59 -45t-50.5 -51t-21 -74.5q0 -55 37 -87.5t88 -32.5q47 0 115 30v37zM302 680q0 -20 -13.5 -33.5t-33.5 -13.5t-33 13.5
t-13 33.5q0 19 13 32.5t33 13.5t33.5 -13.5t13.5 -32.5z" />
    <glyph glyph-name="Agrave" unicode="&#xc0;" horiz-adv-x="755" 
d="M222 218h305q-92 249 -152 411zM745 0h-214l61 54h-1q-7 16 -20 49t-19 49h-356q-7 -16 -20 -49t-19 -49h-1q10 -9 32.5 -26.5t32.5 -27.5h-214l71 54h-1q44 110 130.5 328t130.5 328h64l272 -656h-1zM217 880h106q10 -17 32.5 -53t34.5 -57h-57z" />
    <glyph glyph-name="Aacute" unicode="&#xc1;" horiz-adv-x="755" 
d="M222 218h305q-92 249 -152 411zM745 0h-214l61 54h-1q-7 16 -20 49t-19 49h-356q-7 -16 -20 -49t-19 -49h-1q10 -9 32.5 -26.5t32.5 -27.5h-214l71 54h-1q44 110 130.5 328t130.5 328h64l272 -656h-1zM383 770h-57q12 21 34.5 57t32.5 53h138z" />
    <glyph glyph-name="Acircumflex" unicode="&#xc2;" horiz-adv-x="755" 
d="M222 218h305q-92 249 -152 411zM745 0h-214l61 54h-1q-7 16 -20 49t-19 49h-356q-7 -16 -20 -49t-19 -49h-1q10 -9 32.5 -26.5t32.5 -27.5h-214l71 54h-1q44 110 130.5 328t130.5 328h64l272 -656h-1zM294 745l-39 30l89 105h65l90 -115l-39 -23l-84 91z" />
    <glyph glyph-name="Atilde" unicode="&#xc3;" horiz-adv-x="755" 
d="M222 218h305q-92 249 -152 411zM745 0h-214l61 54h-1q-7 16 -20 49t-19 49h-356q-7 -16 -20 -49t-19 -49h-1q10 -9 32.5 -26.5t32.5 -27.5h-214l71 54h-1q44 110 130.5 328t130.5 328h64l272 -656h-1zM489 880q-13 -84 -61 -84q-24 0 -51 16.5t-39 16.5q-21 0 -34 -43
h-38q15 86 72 86q24 0 49 -16.5t41 -16.5t23 41h38z" />
    <glyph glyph-name="Adieresis" unicode="&#xc4;" horiz-adv-x="755" 
d="M222 218h305q-92 249 -152 411zM745 0h-214l61 54h-1q-7 16 -20 49t-19 49h-356q-7 -16 -20 -49t-19 -49h-1q10 -9 32.5 -26.5t32.5 -27.5h-214l71 54h-1q44 110 130.5 328t130.5 328h64l272 -656h-1zM344 842q0 -22 -16.5 -38.5t-39.5 -16.5q-22 0 -38 16.5t-16 38.5
q0 23 16 38.5t38 15.5q23 0 39.5 -15.5t16.5 -38.5zM520 842q0 -22 -16.5 -38.5t-37.5 -16.5q-23 0 -39 16.5t-16 38.5q0 23 16 38.5t39 15.5q22 0 38 -15.5t16 -38.5z" />
    <glyph glyph-name="Aring" unicode="&#xc5;" horiz-adv-x="755" 
d="M222 218h305q-92 249 -152 411zM745 0h-214l61 54h-1q-7 16 -20 49t-19 49h-356q-7 -16 -20 -49t-19 -49h-1q10 -9 32.5 -26.5t32.5 -27.5h-214l71 54h-1q44 110 130.5 328t130.5 328h64l272 -656h-1zM309 828q0 29 20 48.5t48 19.5q29 0 49 -19.5t20 -48.5
q0 -28 -20 -48t-49 -20q-27 0 -47.5 20t-20.5 48zM417 828q0 15 -12.5 27.5t-27.5 12.5t-27 -12t-12 -28q0 -14 12.5 -27t26.5 -13t27 13t13 27z" />
    <glyph glyph-name="AE" unicode="&#xc6;" horiz-adv-x="929" 
d="M443 38v114h-237q-6 -16 -19 -49t-20 -49h-1q11 -9 33 -26.5t32 -27.5h-214l71 54h-1q46 110 136 328t135 328h535v-87l-28 20h-348v-241h299l28 20v-107l-28 20h-299v-269h348l40 35v-101h-517zM232 218h211v417h-47z" />
    <glyph glyph-name="Ccedilla" unicode="&#xc7;" horiz-adv-x="640" 
d="M303 -151q-39 0 -68 26l21 39q18 -31 47 -31q22 0 37.5 17.5t15.5 42.5q0 24 -15 42q-145 4 -231.5 106.5t-86.5 270.5q0 163 90 263.5t239 100.5q12 0 24.5 -1.5t22 -3t24.5 -5.5t21.5 -6t24 -8t21.5 -7.5t23.5 -9.5t21.5 -9l85 -1l-85 -126q-5 9 -11.5 23t-11 21.5
t-10.5 13.5l-3 3q-47 47 -147 47q-115 0 -182.5 -81.5t-67.5 -213.5q0 -146 68.5 -227.5t189.5 -81.5q61 0 116 41t64 88l79 -46q-14 -9 -31.5 -31t-22.5 -27q-75 -75 -173 -91q12 -22 12 -44q0 -38 -30 -66t-71 -28z" />
    <glyph glyph-name="Egrave" unicode="&#xc8;" horiz-adv-x="562" 
d="M78 38v634l-55 38h505v-87l-28 20h-348v-241h299l28 20v-107l-28 20h-299v-269h348l40 35v-101h-517zM172 880h106q10 -17 32.5 -53t34.5 -57h-57z" />
    <glyph glyph-name="Eacute" unicode="&#xc9;" horiz-adv-x="562" 
d="M78 38v634l-55 38h505v-87l-28 20h-348v-241h299l28 20v-107l-28 20h-299v-269h348l40 35v-101h-517zM277 770h-57q12 21 34.5 57t32.5 53h106z" />
    <glyph glyph-name="Ecircumflex" unicode="&#xca;" horiz-adv-x="562" 
d="M78 38v634l-55 38h505v-87l-28 20h-348v-241h299l28 20v-107l-28 20h-299v-269h348l40 35v-101h-517zM198 745l-39 30l89 105h65l90 -115l-39 -23l-84 91z" />
    <glyph glyph-name="Edieresis" unicode="&#xcb;" horiz-adv-x="562" 
d="M78 38v634l-55 38h505v-87l-28 20h-348v-241h299l28 20v-107l-28 20h-299v-269h348l40 35v-101h-517zM248 842q0 -22 -16.5 -38.5t-39.5 -16.5q-22 0 -38 16.5t-16 38.5q0 23 16 38.5t38 15.5q23 0 39.5 -15.5t16.5 -38.5zM424 842q0 -22 -16.5 -38.5t-37.5 -16.5
q-23 0 -39 16.5t-16 38.5q0 23 16 38.5t39 15.5q22 0 38 -15.5t16 -38.5z" />
    <glyph glyph-name="Igrave" unicode="&#xcc;" horiz-adv-x="254" 
d="M165 54h-2l75 -54h-222l74 54v602q-33 19 -74 54h222l-73 -54v-602zM1 880h106q10 -17 32.5 -53t34.5 -57h-57z" />
    <glyph glyph-name="Iacute" unicode="&#xcd;" horiz-adv-x="254" 
d="M165 54h-2l75 -54h-222l74 54v602q-33 19 -74 54h222l-73 -54v-602zM132 770h-57q12 21 34.5 57t32.5 53h106z" />
    <glyph glyph-name="Icircumflex" unicode="&#xce;" horiz-adv-x="254" 
d="M165 54h-2l75 -54h-222l74 54v602q-33 19 -74 54h222l-73 -54v-602zM44 745l-39 30l89 105h65l90 -115l-39 -23l-47 91z" />
    <glyph glyph-name="Idieresis" unicode="&#xcf;" horiz-adv-x="254" 
d="M165 54h-2l75 -54h-222l74 54v602q-33 19 -74 54h222l-73 -54v-602zM94 842q0 -22 -16.5 -38.5t-39.5 -16.5q-22 0 -38 16.5t-16 38.5q0 23 16 38.5t38 15.5q23 0 39.5 -15.5t16.5 -38.5zM270 842q0 -22 -16.5 -38.5t-37.5 -16.5q-23 0 -39 16.5t-16 38.5q0 23 16 38.5
t39 15.5q22 0 38 -15.5t16 -38.5z" />
    <glyph glyph-name="Eth" unicode="&#xd0;" horiz-adv-x="679" 
d="M79 38h-1l1 634q-9 6 -27 19t-28 19h275q162 0 260 -94.5t98 -257.5q0 -170 -95 -264t-263 -94h-275zM321 66q132 0 194.5 78t62.5 214q0 137 -70.5 211t-193.5 74h-162v-256h241v-64h-241v-257h169z" />
    <glyph glyph-name="Ntilde" unicode="&#xd1;" horiz-adv-x="767" 
d="M525 710h219l-74 -55v-655h-72q-277 380 -426 591v-535l74 -56h-222l74 54v618l-54 38h124q261 -367 428 -601v547zM495 880q-13 -84 -61 -84q-24 0 -51 16.5t-39 16.5q-21 0 -34 -43h-38q15 86 72 86q25 0 50 -16.5t40 -16.5q16 0 23 41h38z" />
    <glyph glyph-name="Ograve" unicode="&#xd2;" horiz-adv-x="705" 
d="M23 362q0 156 91.5 260t236.5 104q147 0 239 -104t92 -260q0 -171 -90.5 -274.5t-240.5 -103.5q-148 0 -238 103.5t-90 274.5zM102 362q0 -142 66.5 -226t182.5 -84q118 0 185 84t67 226q0 132 -67.5 213.5t-184.5 81.5q-115 0 -182 -81.5t-67 -213.5zM229 880h106
q10 -17 32.5 -53t34.5 -57h-57z" />
    <glyph glyph-name="Oacute" unicode="&#xd3;" horiz-adv-x="705" 
d="M23 362q0 156 91.5 260t236.5 104q147 0 239 -104t92 -260q0 -171 -90.5 -274.5t-240.5 -103.5q-148 0 -238 103.5t-90 274.5zM102 362q0 -142 66.5 -226t182.5 -84q118 0 185 84t67 226q0 132 -67.5 213.5t-184.5 81.5q-115 0 -182 -81.5t-67 -213.5zM381 772h-57
q12 21 34.5 57.5t32.5 52.5h106z" />
    <glyph glyph-name="Ocircumflex" unicode="&#xd4;" horiz-adv-x="705" 
d="M23 362q0 156 91.5 260t236.5 104q147 0 239 -104t92 -260q0 -171 -90.5 -274.5t-240.5 -103.5q-148 0 -238 103.5t-90 274.5zM102 362q0 -142 66.5 -226t182.5 -84q118 0 185 84t67 226q0 132 -67.5 213.5t-184.5 81.5q-115 0 -182 -81.5t-67 -213.5zM269 745l-39 30
l89 105h65l90 -115l-39 -23l-84 91z" />
    <glyph glyph-name="Otilde" unicode="&#xd5;" horiz-adv-x="705" 
d="M23 362q0 156 91.5 260t236.5 104q147 0 239 -104t92 -260q0 -171 -90.5 -274.5t-240.5 -103.5q-148 0 -238 103.5t-90 274.5zM102 362q0 -142 66.5 -226t182.5 -84q118 0 185 84t67 226q0 132 -67.5 213.5t-184.5 81.5q-115 0 -182 -81.5t-67 -213.5zM464 880
q-13 -84 -61 -84q-25 0 -51 16.5t-39 16.5q-21 0 -34 -43h-38q15 86 72 86q25 0 50 -16.5t40 -16.5q16 0 23 41h38z" />
    <glyph glyph-name="Odieresis" unicode="&#xd6;" horiz-adv-x="705" 
d="M23 362q0 156 91.5 260t236.5 104q147 0 239 -104t92 -260q0 -171 -90.5 -274.5t-240.5 -103.5q-148 0 -238 103.5t-90 274.5zM102 362q0 -142 66.5 -226t182.5 -84q118 0 185 84t67 226q0 132 -67.5 213.5t-184.5 81.5q-115 0 -182 -81.5t-67 -213.5zM319 842
q0 -22 -16.5 -38.5t-39.5 -16.5q-22 0 -38 16.5t-16 38.5q0 23 16 38.5t38 15.5q23 0 39.5 -15.5t16.5 -38.5zM495 842q0 -22 -16.5 -38.5t-37.5 -16.5q-23 0 -39 16.5t-16 38.5q0 23 16 38.5t39 15.5q22 0 38 -15.5t16 -38.5z" />
    <glyph glyph-name="multiply" unicode="&#xd7;" horiz-adv-x="385" 
d="M23 261l113 113l-113 113l56 56l113 -113l113 113l56 -56l-113 -113l113 -113l-56 -56l-113 113l-113 -113z" />
    <glyph glyph-name="Oslash" unicode="&#xd8;" horiz-adv-x="705" 
d="M109 0l33 58q-119 102 -119 304q0 156 91.5 260t236.5 104q86 0 154 -37l12 21h78l-34 -60q121 -107 121 -288q0 -171 -90.5 -274.5t-240.5 -103.5q-83 0 -150 34l-10 -18h-82zM102 362q0 -157 77 -240l291 506q-53 29 -119 29q-115 0 -182 -81.5t-67 -213.5zM603 362
q0 144 -78 225l-289 -508q50 -27 115 -27q118 0 185 84t67 226z" />
    <glyph glyph-name="Ugrave" unicode="&#xd9;" horiz-adv-x="756" 
d="M513 710h222l-74 -51v-315q0 -360 -284 -360q-66 0 -116.5 19.5t-81.5 51.5t-50 79.5t-26.5 97.5t-7.5 112v315l-74 51h222l-74 -51v-315q0 -67 10 -117t32.5 -91t64.5 -62t101 -21q60 0 102 22t65 63t33 91t10 115v315zM248 880h106q10 -17 32.5 -53t34.5 -57h-57z" />
    <glyph glyph-name="Uacute" unicode="&#xda;" horiz-adv-x="756" 
d="M513 710h222l-74 -51v-315q0 -360 -284 -360q-66 0 -116.5 19.5t-81.5 51.5t-50 79.5t-26.5 97.5t-7.5 112v315l-74 51h222l-74 -51v-315q0 -67 10 -117t32.5 -91t64.5 -62t101 -21q60 0 102 22t65 63t33 91t10 115v315zM401 770h-57q12 21 34.5 57t32.5 53h106z" />
    <glyph glyph-name="Ucircumflex" unicode="&#xdb;" horiz-adv-x="756" 
d="M513 710h222l-74 -51v-315q0 -360 -284 -360q-66 0 -116.5 19.5t-81.5 51.5t-50 79.5t-26.5 97.5t-7.5 112v315l-74 51h222l-74 -51v-315q0 -67 10 -117t32.5 -91t64.5 -62t101 -21q60 0 102 22t65 63t33 91t10 115v315zM295 745l-39 30l89 105h65l90 -115l-39 -23
l-84 91z" />
    <glyph glyph-name="Udieresis" unicode="&#xdc;" horiz-adv-x="756" 
d="M513 710h222l-74 -51v-315q0 -360 -284 -360q-66 0 -116.5 19.5t-81.5 51.5t-50 79.5t-26.5 97.5t-7.5 112v315l-74 51h222l-74 -51v-315q0 -67 10 -117t32.5 -91t64.5 -62t101 -21q60 0 102 22t65 63t33 91t10 115v315zM345 842q0 -22 -16.5 -38.5t-39.5 -16.5
q-22 0 -38 16.5t-16 38.5q0 23 16 38.5t38 15.5q23 0 39.5 -15.5t16.5 -38.5zM521 842q0 -22 -16.5 -38.5t-37.5 -16.5q-23 0 -39 16.5t-16 38.5q0 23 16 38.5t39 15.5q22 0 38 -15.5t16 -38.5z" />
    <glyph glyph-name="Yacute" unicode="&#xdd;" horiz-adv-x="723" 
d="M327 54v241q-64 6 -111 33.5t-73.5 72.5t-39 99.5t-12.5 119.5l-1 39l-74 51h222l-74 -51q0 -56 4 -97.5t16 -83.5t33 -68.5t58 -43t88 -16.5t87.5 16.5t57 42.5t32.5 69t15.5 83.5t3.5 97.5l-74 51h222l-74 -51v-5q0 -75 -10.5 -133.5t-35.5 -109t-72 -80.5t-114 -36
v-243l73 -52h-222zM383 770h-57q12 21 34.5 57t32.5 53h106z" />
    <glyph glyph-name="Thorn" unicode="&#xde;" horiz-adv-x="518" 
d="M94 0h-67v710h67v-90h101q140 0 225 -70t85 -192q0 -119 -82 -183.5t-228 -64.5h-101v-110zM217 171q110 0 162 50.5t52 136.5q0 98 -58.5 149.5t-162.5 51.5h-116v-388h123z" />
    <glyph glyph-name="germandbls" unicode="&#xdf;" horiz-adv-x="516" 
d="M233 0v61h34q74 0 114.5 29t40.5 108q0 47 -12.5 76.5t-38.5 42.5t-50.5 16.5t-64.5 3.5h-23v61h25q62 0 98.5 26.5t36.5 95.5q0 129 -134 129q-73 -4 -97 -39.5t-24 -124.5v-485h-70v334h-46v64h46v120q0 108 51 150t160 42q79 0 131 -42t52 -139q0 -56 -32 -98.5
t-86 -60.5q69 -15 109 -63t40 -119q0 -80 -44.5 -134t-123.5 -54h-92z" />
    <glyph glyph-name="agrave" unicode="&#xe0;" 
d="M103 504q66 21 145 21q93 0 144.5 -48t51.5 -141v-286l35 -25l-94 -25l-8 59q-59 -75 -178 -75q-77 0 -126.5 44.5t-49.5 114.5q0 79 62.5 122t164.5 43h127v32q0 75 -42 98.5t-129 23.5q-46 0 -73 -14q-5 -7 -8.5 -13.5t-8 -15t-8.5 -15.5l-75 100h70zM255 251
q-162 0 -162 -106q0 -45 33 -73.5t87 -28.5q83 0 133 58q13 15 19.5 39.5t8 43.5t3.5 67h-122zM108 680h106q10 -17 32.5 -53t34.5 -57h-57z" />
    <glyph glyph-name="aacute" unicode="&#xe1;" 
d="M103 504q66 21 145 21q93 0 144.5 -48t51.5 -141v-286l35 -25l-94 -25l-8 59q-59 -75 -178 -75q-77 0 -126.5 44.5t-49.5 114.5q0 79 62.5 122t164.5 43h127v32q0 75 -42 98.5t-129 23.5q-46 0 -73 -14q-5 -7 -8.5 -13.5t-8 -15t-8.5 -15.5l-75 100h70zM255 251
q-162 0 -162 -106q0 -45 33 -73.5t87 -28.5q83 0 133 58q13 15 19.5 39.5t8 43.5t3.5 67h-122zM256 570h-57q12 21 34.5 57.5t32.5 52.5h106z" />
    <glyph glyph-name="acircumflex" unicode="&#xe2;" 
d="M103 504q66 21 145 21q93 0 144.5 -48t51.5 -141v-286l35 -25l-94 -25l-8 59q-59 -75 -178 -75q-77 0 -126.5 44.5t-49.5 114.5q0 79 62.5 122t164.5 43h127v32q0 75 -42 98.5t-129 23.5q-46 0 -73 -14q-5 -7 -8.5 -13.5t-8 -15t-8.5 -15.5l-75 100h70zM255 251
q-162 0 -162 -106q0 -45 33 -73.5t87 -28.5q83 0 133 58q13 15 19.5 39.5t8 43.5t3.5 67h-122zM167 545l-39 30l89 105h65l90 -115l-39 -23l-84 91z" />
    <glyph glyph-name="atilde" unicode="&#xe3;" 
d="M103 504q66 21 145 21q93 0 144.5 -48t51.5 -141v-286l35 -25l-94 -25l-8 59q-59 -75 -178 -75q-77 0 -126.5 44.5t-49.5 114.5q0 79 62.5 122t164.5 43h127v32q0 75 -42 98.5t-129 23.5q-46 0 -73 -14q-5 -7 -8.5 -13.5t-8 -15t-8.5 -15.5l-75 100h70zM255 251
q-162 0 -162 -106q0 -45 33 -73.5t87 -28.5q83 0 133 58q13 15 19.5 39.5t8 43.5t3.5 67h-122zM362 680q-13 -84 -61 -84q-25 0 -51 16.5t-39 16.5q-21 0 -34 -43h-38q15 86 72 86q25 0 50 -16.5t40 -16.5q16 0 23 41h38z" />
    <glyph glyph-name="adieresis" unicode="&#xe4;" 
d="M103 504q66 21 145 21q93 0 144.5 -48t51.5 -141v-286l35 -25l-94 -25l-8 59q-59 -75 -178 -75q-77 0 -126.5 44.5t-49.5 114.5q0 79 62.5 122t164.5 43h127v32q0 75 -42 98.5t-129 23.5q-46 0 -73 -14q-5 -7 -8.5 -13.5t-8 -15t-8.5 -15.5l-75 100h70zM255 251
q-162 0 -162 -106q0 -45 33 -73.5t87 -28.5q83 0 133 58q13 15 19.5 39.5t8 43.5t3.5 67h-122zM217 642q0 -22 -16.5 -38.5t-39.5 -16.5q-22 0 -38 16.5t-16 38.5q0 23 16 38.5t38 15.5q23 0 39.5 -15.5t16.5 -38.5zM393 642q0 -22 -16.5 -38.5t-37.5 -16.5q-23 0 -39 16.5
t-16 38.5q0 23 16 38.5t39 15.5q22 0 38 -15.5t16 -38.5z" />
    <glyph glyph-name="aring" unicode="&#xe5;" 
d="M103 504q66 21 145 21q93 0 144.5 -48t51.5 -141v-286l35 -25l-94 -25l-8 59q-59 -75 -178 -75q-77 0 -126.5 44.5t-49.5 114.5q0 79 62.5 122t164.5 43h127v32q0 75 -42 98.5t-129 23.5q-46 0 -73 -14q-5 -7 -8.5 -13.5t-8 -15t-8.5 -15.5l-75 100h70zM255 251
q-162 0 -162 -106q0 -45 33 -73.5t87 -28.5q83 0 133 58q13 15 19.5 39.5t8 43.5t3.5 67h-122zM182 628q0 29 20 48.5t48 19.5q29 0 49 -19.5t20 -48.5q0 -28 -20 -48t-49 -20q-27 0 -47.5 20t-20.5 48zM290 628q0 15 -12.5 27.5t-27.5 12.5q-14 0 -26.5 -12t-12.5 -28
q0 -14 12.5 -27t26.5 -13t27 13t13 27z" />
    <glyph glyph-name="ae" unicode="&#xe6;" horiz-adv-x="1035" 
d="M828 65q-54 -49 -100 -65t-106 -16q-106 0 -202 96q-63 -96 -221 -96q-77 0 -126.5 44.5t-49.5 114.5q0 79 62.5 122t164.5 43h125q1 1 1 3.5t1 4.5v24q0 75 -42 98.5t-129 23.5q-46 0 -73 -14q-5 -7 -8.5 -13.5t-8 -15t-8.5 -15.5l-75 96l70 4q66 21 145 21
q133 0 176 -94q71 94 198 94q75 0 129 -41.5t78.5 -104t24.5 -136.5q0 -6 -6 -6h-402q12 -190 187 -190q47 0 71 13t24 50zM255 251q-162 0 -162 -106q0 -45 33 -73.5t87 -28.5q85 0 133 58q24 29 29 115q-2 24 -2 35h-118zM622 462q-71 0 -118.5 -47t-57.5 -117h330
q-9 71 -50.5 117.5t-103.5 46.5z" />
    <glyph glyph-name="ccedilla" unicode="&#xe7;" horiz-adv-x="492" 
d="M229 -151q-39 0 -68 26l21 39q18 -31 47 -31q22 0 37.5 17.5t15.5 42.5q0 24 -14 41q-115 2 -180.5 78t-65.5 198q0 121 71.5 193t196.5 72q58 0 108 -34q2 0 7.5 -0.5t26 -1.5t52.5 -2l-75 -96q-3 5 -11 20t-14 24q-24 17 -47 22t-62 5q-83 0 -131.5 -58.5t-48.5 -143.5
q0 -92 46.5 -152.5t128.5 -60.5q113 0 157 73l43 -24q-52 -90 -153 -108q13 -20 13 -45q0 -38 -30 -66t-71 -28z" />
    <glyph glyph-name="egrave" unicode="&#xe8;" horiz-adv-x="534" 
d="M478 65q-54 -49 -100 -65t-106 -16q-116 0 -182.5 77.5t-66.5 203.5q0 111 67.5 185.5t181.5 74.5q75 0 129 -41.5t78.5 -104t24.5 -136.5q0 -6 -6 -6h-402q12 -190 188 -190q46 0 70 13t24 50zM272 462q-71 0 -118.5 -47t-57.5 -117h330q-9 71 -50.5 117.5t-103.5 46.5z
M153 680h106q10 -17 32.5 -53t34.5 -57h-57z" />
    <glyph glyph-name="eacute" unicode="&#xe9;" horiz-adv-x="534" 
d="M478 65q-54 -49 -100 -65t-106 -16q-116 0 -182.5 77.5t-66.5 203.5q0 111 67.5 185.5t181.5 74.5q75 0 129 -41.5t78.5 -104t24.5 -136.5q0 -6 -6 -6h-402q12 -190 188 -190q46 0 70 13t24 50zM272 462q-71 0 -118.5 -47t-57.5 -117h330q-9 71 -50.5 117.5t-103.5 46.5z
M297 570h-57q12 21 34.5 57.5t32.5 52.5h106z" />
    <glyph glyph-name="ecircumflex" unicode="&#xea;" horiz-adv-x="534" 
d="M478 65q-54 -49 -100 -65t-106 -16q-116 0 -182.5 77.5t-66.5 203.5q0 111 67.5 185.5t181.5 74.5q75 0 129 -41.5t78.5 -104t24.5 -136.5q0 -6 -6 -6h-402q12 -190 188 -190q46 0 70 13t24 50zM272 462q-71 0 -118.5 -47t-57.5 -117h330q-9 71 -50.5 117.5t-103.5 46.5z
M184 545l-39 30l89 105h65l90 -115l-39 -23l-84 91z" />
    <glyph glyph-name="edieresis" unicode="&#xeb;" horiz-adv-x="534" 
d="M478 65q-54 -49 -100 -65t-106 -16q-116 0 -182.5 77.5t-66.5 203.5q0 111 67.5 185.5t181.5 74.5q75 0 129 -41.5t78.5 -104t24.5 -136.5q0 -6 -6 -6h-402q12 -190 188 -190q46 0 70 13t24 50zM272 462q-71 0 -118.5 -47t-57.5 -117h330q-9 71 -50.5 117.5t-103.5 46.5z
M234 642q0 -22 -16.5 -38.5t-39.5 -16.5q-22 0 -38 16.5t-16 38.5q0 23 16 38.5t38 15.5q23 0 39.5 -15.5t16.5 -38.5zM410 642q0 -22 -16.5 -38.5t-37.5 -16.5q-23 0 -39 16.5t-16 38.5q0 23 16 38.5t39 15.5q22 0 38 -15.5t16 -38.5z" />
    <glyph glyph-name="igrave" unicode="&#xec;" horiz-adv-x="227" 
d="M14 0l67 50v409l-67 50h134v-459l67 -50h-201zM-9 680h106q10 -16 32.5 -52.5t34.5 -57.5h-83z" />
    <glyph glyph-name="iacute" unicode="&#xed;" horiz-adv-x="227" 
d="M14 0l67 50v409l-67 50h134v-459l67 -50h-201zM119 570h-57q12 21 34.5 57.5t32.5 52.5h106z" />
    <glyph glyph-name="icircumflex" unicode="&#xee;" horiz-adv-x="227" 
d="M14 0l67 50v409l-67 50h134v-459l67 -50h-201zM21 545l-39 30l89 105h65l90 -115l-39 -23l-106 91z" />
    <glyph glyph-name="idieresis" unicode="&#xef;" horiz-adv-x="227" 
d="M14 0l67 50v409l-67 50h134v-459l67 -50h-201zM70 642q0 -22 -16.5 -38.5t-39.5 -16.5q-22 0 -38 16.5t-16 38.5q0 23 16 38.5t38 15.5q23 0 39.5 -15.5t16.5 -38.5zM246 642q0 -22 -16.5 -38.5t-37.5 -16.5q-23 0 -39 16.5t-16 38.5q0 23 16 38.5t39 15.5q22 0 38 -15.5
t16 -38.5z" />
    <glyph glyph-name="eth" unicode="&#xf0;" horiz-adv-x="533" 
d="M214 537l107 73q-31 22 -73 22q-112 0 -146 -63l-55 32q49 95 192 95q84 0 140 -47l93 63l38 -54l-86 -59q67 -103 67 -305q0 -138 -60.5 -224t-180.5 -86q-99 0 -164 65t-65 164q0 93 63.5 156.5t158.5 63.5q59 0 105.5 -27t71.5 -74q-2 145 -53 229l-115 -78zM248 374
q-66 0 -112 -45.5t-46 -112.5q0 -71 44.5 -119.5t115.5 -48.5q69 0 116 47t47 116t-47.5 116t-117.5 47z" />
    <glyph glyph-name="ntilde" unicode="&#xf1;" horiz-adv-x="583" 
d="M223 0h-201l67 50v409l-67 50h134v-78q57 94 161 94q179 0 179 -211v-264l67 -50h-201l67 50v254q0 154 -117 154q-60 0 -108 -52t-48 -105v-251zM403 680q-13 -84 -61 -84q-24 0 -51 16.5t-39 16.5q-21 0 -34 -43h-38q15 86 72 86q24 0 49 -16.5t41 -16.5t23 41h38z" />
    <glyph glyph-name="ograve" unicode="&#xf2;" horiz-adv-x="544" 
d="M448 260q0 84 -48 143t-128 59t-128 -59t-48 -143q0 -92 46.5 -152.5t128.5 -60.5q81 0 129 60.5t48 152.5zM272 525q114 0 181.5 -75.5t67.5 -189.5q0 -122 -67 -199t-182 -77q-116 0 -182.5 76.5t-66.5 199.5q0 114 67.5 189.5t181.5 75.5zM149 680h106
q10 -17 32.5 -53t34.5 -57h-57z" />
    <glyph glyph-name="oacute" unicode="&#xf3;" horiz-adv-x="544" 
d="M448 260q0 84 -48 143t-128 59t-128 -59t-48 -143q0 -92 46.5 -152.5t128.5 -60.5q81 0 129 60.5t48 152.5zM272 525q114 0 181.5 -75.5t67.5 -189.5q0 -122 -67 -199t-182 -77q-116 0 -182.5 76.5t-66.5 199.5q0 114 67.5 189.5t181.5 75.5zM281 570h-57
q12 21 34.5 57.5t32.5 52.5h106z" />
    <glyph glyph-name="ocircumflex" unicode="&#xf4;" horiz-adv-x="544" 
d="M448 260q0 84 -48 143t-128 59t-128 -59t-48 -143q0 -92 46.5 -152.5t128.5 -60.5q81 0 129 60.5t48 152.5zM272 525q114 0 181.5 -75.5t67.5 -189.5q0 -122 -67 -199t-182 -77q-116 0 -182.5 76.5t-66.5 199.5q0 114 67.5 189.5t181.5 75.5zM189 545l-39 30l89 105h65
l90 -115l-39 -23l-84 91z" />
    <glyph glyph-name="otilde" unicode="&#xf5;" horiz-adv-x="544" 
d="M448 260q0 84 -48 143t-128 59t-128 -59t-48 -143q0 -92 46.5 -152.5t128.5 -60.5q81 0 129 60.5t48 152.5zM272 525q114 0 181.5 -75.5t67.5 -189.5q0 -122 -67 -199t-182 -77q-116 0 -182.5 76.5t-66.5 199.5q0 114 67.5 189.5t181.5 75.5zM383 680q-13 -84 -61 -84
q-24 0 -51 16.5t-39 16.5q-21 0 -34 -43h-38q15 86 72 86q24 0 49 -16.5t41 -16.5t23 41h38z" />
    <glyph glyph-name="odieresis" unicode="&#xf6;" horiz-adv-x="544" 
d="M448 260q0 84 -48 143t-128 59t-128 -59t-48 -143q0 -92 46.5 -152.5t128.5 -60.5q81 0 129 60.5t48 152.5zM272 525q114 0 181.5 -75.5t67.5 -189.5q0 -122 -67 -199t-182 -77q-116 0 -182.5 76.5t-66.5 199.5q0 114 67.5 189.5t181.5 75.5zM239 642q0 -22 -16.5 -38.5
t-39.5 -16.5q-22 0 -38 16.5t-16 38.5q0 23 16 38.5t38 15.5q23 0 39.5 -15.5t16.5 -38.5zM415 642q0 -22 -16.5 -38.5t-37.5 -16.5q-23 0 -39 16.5t-16 38.5q0 23 16 38.5t39 15.5q22 0 38 -15.5t16 -38.5z" />
    <glyph glyph-name="divide" unicode="&#xf7;" horiz-adv-x="432" 
d="M154 62q0 26 18 44.5t44 18.5t44 -18.5t18 -44.5t-18 -44t-44 -18t-44 18t-18 44zM154 464q0 26 18 44t44 18t44 -18t18 -44t-18 -44.5t-44 -18.5t-44 18.5t-18 44.5zM419 317v-68h-406v68h406z" />
    <glyph glyph-name="oslash" unicode="&#xf8;" horiz-adv-x="545" 
d="M269 525q67 0 119 -28l59 103h78l-82 -143q75 -75 75 -197t-67 -199t-182 -77q-45 0 -87 14l-50 -88h-82l69 120q-99 74 -99 230q0 114 67.5 189.5t181.5 75.5zM93 260q0 -110 61 -169l200 348q-37 23 -85 23q-80 0 -128 -59t-48 -143zM445 260q0 74 -39 130l-191 -335
q27 -8 53 -8q81 0 129 60.5t48 152.5z" />
    <glyph glyph-name="ugrave" unicode="&#xf9;" horiz-adv-x="582" 
d="M135 680h106q10 -17 32.5 -53t34.5 -57h-57zM494 50l67 -50h-134v78q-57 -94 -161 -94q-179 0 -179 211v264l-67 50h134v-304q0 -154 117 -154q60 0 108 52t48 105v251l-67 50h134v-459z" />
    <glyph glyph-name="uacute" unicode="&#xfa;" horiz-adv-x="582" 
d="M295 570h-57q12 21 34.5 57.5t32.5 52.5h106zM494 50l67 -50h-134v78q-57 -94 -161 -94q-179 0 -179 211v264l-67 50h134v-304q0 -154 117 -154q60 0 108 52t48 105v251l-67 50h134v-459z" />
    <glyph glyph-name="ucircumflex" unicode="&#xfb;" horiz-adv-x="582" 
d="M208 545l-39 30l89 105h65l90 -115l-39 -23l-84 91zM494 50l67 -50h-134v78q-57 -94 -161 -94q-179 0 -179 211v264l-67 50h134v-304q0 -154 117 -154q60 0 108 52t48 105v251l-67 50h134v-459z" />
    <glyph glyph-name="udieresis" unicode="&#xfc;" horiz-adv-x="582" 
d="M258 642q0 -22 -16.5 -38.5t-39.5 -16.5q-22 0 -38 16.5t-16 38.5q0 23 16 38.5t38 15.5q23 0 39.5 -15.5t16.5 -38.5zM434 642q0 -22 -16.5 -38.5t-37.5 -16.5q-23 0 -39 16.5t-16 38.5q0 23 16 38.5t39 15.5q22 0 38 -15.5t16 -38.5zM494 50l67 -50h-134v78
q-57 -94 -161 -94q-179 0 -179 211v264l-67 50h134v-304q0 -154 117 -154q60 0 108 52t48 105v251l-67 50h134v-459z" />
    <glyph glyph-name="yacute" unicode="&#xfd;" horiz-adv-x="521" 
d="M127 -75l-1 -49q45 -42 132 -42q68 0 119 45.5t51 115.5v83q-57 -94 -161 -94q-179 0 -179 211v264l-67 50h134v-304q0 -154 117 -154q60 0 108 52t48 105v251l-67 50h134v-503q0 -104 -58.5 -168t-182.5 -64q-79 0 -136 28t-79 86zM276 570h-57q12 21 34.5 57.5
t32.5 52.5h106z" />
    <glyph glyph-name="thorn" unicode="&#xfe;" horiz-adv-x="536" 
d="M87 -220v870l-66 50h134v-256q66 71 141 71q104 0 166.5 -80t62.5 -191t-62 -190.5t-167 -79.5q-83 0 -141 65v-49h-3v-210h-65zM155 160q19 -53 56.5 -88t85.5 -35q71 0 113 61.5t42 144.5q0 84 -42.5 146.5t-113.5 62.5q-46 0 -84 -36t-57 -88v-168z" />
    <glyph glyph-name="ydieresis" unicode="&#xff;" horiz-adv-x="521" 
d="M127 -75l-1 -49q45 -42 132 -42q68 0 119 45.5t51 115.5v83q-57 -94 -161 -94q-179 0 -179 211v264l-67 50h134v-304q0 -154 117 -154q60 0 108 52t48 105v251l-67 50h134v-503q0 -104 -58.5 -168t-182.5 -64q-79 0 -136 28t-79 86zM227 642q0 -22 -16.5 -38.5
t-39.5 -16.5q-22 0 -38 16.5t-16 38.5q0 23 16 38.5t38 15.5q23 0 39.5 -15.5t16.5 -38.5zM403 642q0 -22 -16.5 -38.5t-37.5 -16.5q-23 0 -39 16.5t-16 38.5q0 23 16 38.5t39 15.5q22 0 38 -15.5t16 -38.5z" />
    <glyph glyph-name="dotlessi" unicode="&#x131;" horiz-adv-x="120" 
d="M27 510h64v-510h-64v510z" />
    <glyph glyph-name="Lslash" unicode="&#x141;" horiz-adv-x="544" 
d="M29 256l48 26v390l-55 38h129v-389l252 136l31 -59l-283 -152v-180h327l55 38v-104h-456v207l-17 -9z" />
    <glyph glyph-name="lslash" unicode="&#x142;" horiz-adv-x="384" 
d="M198 342l137 110l38 -48l-175 -141v-172q0 -32 44 -32q4 0 12 2t14 2v-63h-73q-25 2 -44.5 21t-19.5 46v143l-79 -63l-38 48l117 93v372l-67 50h134v-368z" />
    <glyph glyph-name="OE" unicode="&#x152;" horiz-adv-x="918" 
d="M391 641q-136 0 -212.5 -74t-76.5 -205q0 -141 75.5 -217.5t213.5 -76.5h41v573h-41zM377 0q-162 4 -258 100t-96 262q0 151 97 247t257 100l505 1v-87l-28 20h-348v-241h299l28 20v-107l-28 20h-299v-269h348l40 35v-101h-517zM580 498q-1 0 -1 2z" />
    <glyph glyph-name="oe" unicode="&#x153;" horiz-adv-x="1078" 
d="M905 65q-54 -49 -100 -65t-106 -16q-150 0 -214 122q-64 -122 -213 -122q-116 0 -182.5 76.5t-66.5 199.5q0 114 67.5 189.5t181.5 75.5q145 0 213 -119q31 56 86 87.5t128 31.5q75 0 129 -41.5t78.5 -104t24.5 -136.5q0 -6 -6 -6h-402q12 -190 188 -190q46 0 70 13
t24 50zM448 260q0 84 -48 143t-128 59t-128 -59t-48 -143q0 -92 46.5 -152.5t128.5 -60.5q81 0 129 60.5t48 152.5zM699 462q-71 0 -118.5 -47t-57.5 -117h330q-9 71 -50.5 117.5t-103.5 46.5z" />
    <glyph glyph-name="Scaron" unicode="&#x160;" horiz-adv-x="560" 
d="M534 676l-85 -126q-5 9 -11.5 23t-11 21.5t-10.5 13.5l-3 3q-43 47 -129 47q-75 0 -122 -32.5t-47 -91.5q0 -57 42.5 -86.5t132.5 -51.5q48 -13 77.5 -22.5t65.5 -26.5t56 -37t34 -51t14 -70q0 -103 -74 -154t-195 -51q-131 0 -205 79l-40 59l67 38q32 -107 196 -107
q73 0 122.5 34.5t49.5 95.5q0 32 -15 55.5t-45.5 40t-61 27t-77.5 21.5q-109 31 -166 73.5t-57 124.5q0 93 70 147t174 54q80 0 170 -50h84zM278 805q11 12 40.5 44t44.5 47l38 -21l-83 -105h-79l-81 102l38 21z" />
    <glyph glyph-name="scaron" unicode="&#x161;" horiz-adv-x="441" 
d="M335 391q-4 6 -11.5 20.5t-13.5 23.5q-43 29 -98 29q-50 0 -83.5 -20.5t-33.5 -63.5q0 -32 33 -51t80 -30t94.5 -25t80.5 -46t33 -82q0 -77 -57.5 -119.5t-148.5 -42.5q-49 0 -96 21.5t-108 82.5l49 44q47 -89 162 -89q57 0 94.5 25t37.5 71q0 30 -24 50t-60 29.5
t-78.5 21t-78.5 24.5t-60 41t-24 68q0 76 52.5 114t129.5 38q64 0 118 -34q2 0 7.5 -0.5t26 -1.5t52.5 -2zM219 605q11 12 40.5 44t44.5 47l38 -21l-83 -105h-79l-81 102l38 21z" />
    <glyph glyph-name="Ydieresis" unicode="&#x178;" horiz-adv-x="719" 
d="M325 54v241q-64 6 -111 33.5t-73.5 72.5t-39 99.5t-12.5 119.5l-1 39l-74 51h222l-74 -51q0 -56 4 -97.5t16 -83.5t33 -68.5t58 -43t88 -16.5t87.5 16.5t57 42.5t32.5 69t15.5 83.5t3.5 97.5l-74 51h222l-74 -51v-5q0 -75 -10.5 -133.5t-35.5 -109t-72 -80.5t-114 -36
v-243l73 -52h-222zM328 852q0 -22 -16.5 -38.5t-39.5 -16.5q-22 0 -38 16.5t-16 38.5q0 23 16 38.5t38 15.5q23 0 39.5 -15.5t16.5 -38.5zM504 852q0 -22 -16.5 -38.5t-37.5 -16.5q-23 0 -39 16.5t-16 38.5q0 23 16 38.5t39 15.5q22 0 38 -15.5t16 -38.5z" />
    <glyph glyph-name="Zcaron" unicode="&#x17d;" horiz-adv-x="574" 
d="M37 710h498v-82l-398 -561h357l54 73v-140h-522v67l436 576h-371l-54 -72v139zM285 805q11 12 40.5 44t44.5 47l38 -21l-83 -105h-79l-81 102l38 21z" />
    <glyph glyph-name="zcaron" unicode="&#x17e;" horiz-adv-x="453" 
d="M40 509h377v-57l-311 -391h271l50 61v-122h-399v59l318 391h-256l-50 -59v118zM225 605q11 12 40.5 44t44.5 47l38 -21l-83 -105h-79l-81 102l38 21z" />
    <glyph glyph-name="florin" unicode="&#x192;" horiz-adv-x="461" 
d="M382 658q-21 0 -37 -7t-26 -24t-16.5 -31t-10 -42.5t-4.5 -42.5t-3 -47h123q-1 -7 -4 -62h-124q-11 -123 -35 -365q-15 -220 -157 -220q-39 0 -74 20l18 133l35 -89q3 -1 15 -1q34 0 57 29.5t27 68.5q7 66 20.5 209t21.5 215h-82q2 10 3 31t2 31h82q2 55 8.5 94.5
t22 80.5t47 62.5t77.5 21.5q7 0 16.5 -1t27 -2.5t35.5 -2.5v-137z" />
    <glyph glyph-name="circumflex" unicode="&#x2c6;" horiz-adv-x="307" 
d="M71 545l-39 30l89 105h65l90 -115l-39 -23l-84 91z" />
    <glyph glyph-name="caron" unicode="&#x2c7;" horiz-adv-x="281" 
d="M139 605q11 12 40.5 44t44.5 47l38 -21l-83 -105h-79l-81 102l38 21z" />
    <glyph glyph-name="breve" unicode="&#x2d8;" horiz-adv-x="300" 
d="M205 691q0 4 -1 5h45v-5q0 -43 -31 -74t-75 -31q-42 0 -73.5 31t-31.5 74v5h45v-5q0 -22 19.5 -42t40.5 -20q22 0 42 20t20 42z" />
    <glyph glyph-name="dotaccent" unicode="&#x2d9;" horiz-adv-x="151" 
d="M128 643q0 -21 -16 -37t-37 -16t-37 16t-16 37q0 22 16 37.5t37 15.5t37 -15.5t16 -37.5z" />
    <glyph glyph-name="ring" unicode="&#x2da;" horiz-adv-x="216" 
d="M32 628q0 29 20 48.5t48 19.5q29 0 49 -19.5t20 -48.5q0 -28 -20 -48t-49 -20q-27 0 -47.5 20t-20.5 48zM140 628q0 15 -12.5 27.5t-27.5 12.5q-14 0 -26.5 -12t-12.5 -28q0 -14 12.5 -27t26.5 -13t27 13t13 27z" />
    <glyph glyph-name="ogonek" unicode="&#x2db;" horiz-adv-x="216" 
d="M132 -176q11 0 29 2l36 -36q-56 -14 -82 -14q-37 0 -65 23t-28 70q0 22 13.5 63t31.5 68h72q-26 -28 -46 -67t-20 -56q0 -24 19.5 -38.5t39.5 -14.5z" />
    <glyph glyph-name="tilde" unicode="&#x2dc;" horiz-adv-x="236" 
d="M226 680q-13 -84 -61 -84q-25 0 -51 16.5t-39 16.5q-21 0 -34 -43h-38q15 86 72 86q25 0 50 -16.5t40 -16.5q16 0 23 41h38z" />
    <glyph glyph-name="hungarumlaut" unicode="&#x2dd;" horiz-adv-x="273" 
d="M105 659q-20 -49 -29 -79h-47q2 24 2 34q0 5 -0.5 12.5t-0.5 10.5q0 25 11.5 42t34.5 17q14 0 22 -8.5t8 -21.5q0 -2 -0.5 -4t-0.5 -3zM246 659q-20 -49 -29 -79h-47q2 24 2 34q0 5 -0.5 12.5t-0.5 10.5q0 25 11.5 42t34.5 17q14 0 22 -8.5t8 -21.5q0 -2 -1 -4v-3z" />
    <glyph glyph-name="endash" unicode="&#x2013;" horiz-adv-x="466" 
d="M27 298h412v-61h-412v61z" />
    <glyph glyph-name="emdash" unicode="&#x2014;" horiz-adv-x="765" 
d="M27 298h711v-61h-711v61z" />
    <glyph glyph-name="quoteleft" unicode="&#x2018;" horiz-adv-x="157" 
d="M143 724l-51 -67q-5 -5 -5 -11q0 -5 2 -21t3 -16q-5 -32 -36 -32q-15 0 -26 11t-11 26q0 21 17 46t57 64h50z" />
    <glyph glyph-name="quoteright" unicode="&#x2019;" horiz-adv-x="158" 
d="M15 577l52 68q5 5 5 11q0 4 -3 15t-3 17q0 14 11 25t25 11q15 0 26 -11t11 -25q0 -37 -73 -111h-51z" />
    <glyph glyph-name="quotesinglbase" unicode="&#x201a;" horiz-adv-x="195" 
d="M18 -73q17 17 39 46.5t26 42.5q-31 20 -31 46t18 44.5t44 18.5t44.5 -18.5t18.5 -44.5q0 -21 -15.5 -44t-33 -38.5t-38.5 -32t-25 -20.5h-47z" />
    <glyph glyph-name="quotedblleft" unicode="&#x201c;" horiz-adv-x="320" 
d="M299 724l-51 -67q-5 -5 -5 -11q0 -5 2 -21t3 -16q-5 -32 -36 -32q-15 0 -26 11t-11 26q0 21 17 46t57 64h50zM147 724l-51 -67q-5 -5 -5 -11q0 -5 2 -21t3 -16q-5 -32 -36 -32q-15 0 -26 11t-11 26q0 21 17 46t57 64h50z" />
    <glyph glyph-name="quotedblright" unicode="&#x201d;" horiz-adv-x="322" 
d="M21 573l49 66q8 8 8 14q0 3 -3 14t-3 18q0 14 11.5 25.5t27.5 11.5t27.5 -11.5t11.5 -25.5q0 -37 -76 -112h-53zM170 573l51 66q8 8 8 14q0 3 -3 14t-3 18q0 14 11.5 25.5t27.5 11.5q14 0 25.5 -11.5t11.5 -25.5q0 -39 -74 -112h-55z" />
    <glyph glyph-name="quotedblbase" unicode="&#x201e;" horiz-adv-x="434" 
d="M23 -73q17 17 38.5 46.5t25.5 42.5q-31 20 -31 46t18.5 44.5t44.5 18.5t44 -18.5t18 -44.5q0 -27 -21.5 -54.5t-55.5 -53.5l-35 -27h-46zM253 -73q17 17 38.5 46.5t25.5 42.5q-30 21 -30 46q0 26 18 44.5t44 18.5t44 -18.5t18 -44.5q0 -28 -22.5 -55t-53 -50t-35.5 -30
h-47z" />
    <glyph glyph-name="dagger" unicode="&#x2020;" horiz-adv-x="389" 
d="M11 321v64h150v325h68v-325h149v-64h-149v-421h-68v421h-150z" />
    <glyph glyph-name="daggerdbl" unicode="&#x2021;" horiz-adv-x="392" 
d="M12 367v64h150v279h68v-279h150v-64h-150v-174h150v-65h-150v-228h-68v228h-150v65h150v174h-150z" />
    <glyph glyph-name="bullet" unicode="&#x2022;" horiz-adv-x="289" 
d="M22 238q0 52 35.5 87.5t86.5 35.5q52 0 87.5 -35.5t35.5 -87.5q0 -51 -35.5 -86.5t-87.5 -35.5q-51 0 -86.5 35.5t-35.5 86.5z" />
    <glyph glyph-name="ellipsis" unicode="&#x2026;" horiz-adv-x="770" 
d="M26 62q0 26 18.5 44.5t44.5 18.5t44 -18.5t18 -44.5t-18 -44t-44 -18t-44.5 18t-18.5 44zM323 62q0 26 18 44.5t44 18.5t44 -18.5t18 -44.5t-18 -44t-44 -18t-44 18t-18 44zM619 62q0 26 18.5 44.5t44.5 18.5t44 -18.5t18 -44.5t-18 -44t-44 -18t-44.5 18t-18.5 44z" />
    <glyph glyph-name="perthousand" unicode="&#x2030;" horiz-adv-x="890" 
d="M155 661q-38 0 -59.5 -36t-21.5 -83q0 -48 21.5 -83.5t59.5 -35.5t60.5 36t22.5 83t-22.5 83t-60.5 36zM535 689q-67 -116 -199 -346t-198 -346l-45 17l397 693zM155 708q59 0 96 -48.5t37 -117.5t-37 -118t-96 -49q-57 0 -94.5 49t-37.5 118q0 68 37.5 117t94.5 49z
M453 317q58 0 94.5 -48.5t36.5 -117.5q0 -70 -36.5 -118.5t-94.5 -48.5q-59 0 -96 48.5t-37 118.5q0 69 37 117.5t96 48.5zM453 270q-38 0 -60 -36t-22 -83q0 -48 22 -83.5t60 -35.5t59.5 35.5t21.5 83.5q0 47 -22 83t-59 36zM739 317q59 0 96 -48.5t37 -117.5
q0 -70 -37 -118.5t-96 -48.5q-58 0 -94.5 48.5t-36.5 118.5q0 69 36.5 117.5t94.5 48.5zM739 270q-37 0 -59 -36t-22 -83q0 -48 21.5 -83.5t59.5 -35.5q39 0 60.5 35.5t21.5 83.5q0 47 -22.5 83t-59.5 36z" />
    <glyph glyph-name="guilsinglleft" unicode="&#x2039;" horiz-adv-x="224" 
d="M13 265l120 204h69l-120 -204q20 -34 60.5 -102.5t59.5 -102.5h-69z" />
    <glyph glyph-name="guilsinglright" unicode="&#x203a;" horiz-adv-x="221" 
d="M88 61h-66l119 203q-18 32 -60.5 104t-58.5 99h66l120 -203z" />
    <glyph glyph-name="fraction" unicode="&#x2044;" horiz-adv-x="506" 
d="M10 0l410 710h76l-406 -710h-80z" />
    <glyph glyph-name="Euro" unicode="&#x20ac;" horiz-adv-x="578" 
d="M18 346h59v28h-59v44h63q16 127 86 202.5t175 75.5q122 0 194 -117l19 -17l-72 -55l2 36q-51 87 -143 87q-81 0 -133 -57t-67 -155h228v-44h-232v-28h232v-43h-231q8 -118 61.5 -185.5t141.5 -67.5q91 0 146 94q0 2 -3.5 20t-3.5 19l76 -52q-96 -147 -215 -147
q-111 0 -182.5 86.5t-81.5 232.5h-60v43z" />
    <glyph glyph-name="trademark" unicode="&#x2122;" horiz-adv-x="988" 
d="M675 299q29 76 84 215t77 196h113l-34 -25v-401l48 -34h-144l48 34v376q-26 -63 -82.5 -200t-86.5 -210h-46l-159 392v-359l48 -33h-144l48 33v402l-36 25h104zM381 710v-68l-35 25h-118v-383l47 -34h-144l49 35v382h-121l-36 -25v68h358z" />
    <glyph glyph-name="minus" unicode="&#x2212;" horiz-adv-x="460" 
d="M433 332v-58h-406v58h406z" />
    <glyph glyph-name="percent" horiz-adv-x="643" 
d="M159 668q-39 0 -62 -37.5t-23 -86.5t23 -86t62 -37q40 0 63.5 37.5t23.5 85.5q0 50 -23.5 87t-63.5 37zM539 693q-67 -116 -199.5 -346.5t-199.5 -346.5l-39 13l404 697zM159 710q57 0 94.5 -49t37.5 -117t-37.5 -116.5t-94.5 -48.5q-56 0 -93 48.5t-37 116.5t36.5 117
t93.5 49zM482 315q56 0 93 -48.5t37 -116.5q0 -69 -36.5 -117.5t-93.5 -48.5t-94 48.5t-37 117.5q0 68 37 116.5t94 48.5zM482 273q-40 0 -63 -37.5t-23 -85.5q0 -50 23 -87t63 -37t62.5 37.5t22.5 86.5t-23 86t-62 37z" />
    <glyph glyph-name="zero.taboldstyle" horiz-adv-x="402" 
d="M203 454q-65 0 -98.5 -62t-33.5 -143q0 -50 13 -97t44 -82.5t75 -35.5q43 0 73.5 35.5t43 82.5t12.5 97q0 81 -33 143t-96 62zM203 500q88 0 134.5 -71t46.5 -180q0 -110 -47.5 -185t-133.5 -75q-89 0 -137 74.5t-48 185.5q0 109 48 180t137 71z" />
    <glyph glyph-name="one.taboldstyle" horiz-adv-x="244" 
d="M14 453l25 -17l89 51h50v-450l48 -37h-147l50 37v402q-51 -29 -90 -52l-25 -13v79z" />
    <glyph glyph-name="two.taboldstyle" horiz-adv-x="377" 
d="M32 468h43q49 32 118 32q68 0 113.5 -35.5t45.5 -93.5q0 -28 -11 -54t-34 -50.5t-37.5 -37.5t-41.5 -35q-110 -87 -139 -148h210l53 46v-92h-328v6q0 51 30 90.5t101 101.5l25 22q5 5 31 27t35 30.5t25 26.5t22 32.5t6 29.5q0 37 -35 62.5t-77 25.5t-71 -18.5t-37 -41.5z
" />
    <glyph glyph-name="six.taboldstyle" horiz-adv-x="517" 
d="M404 577q-41 55 -131 55t-133.5 -77.5t-45.5 -204.5q24 49 71.5 75.5t108.5 26.5q98 0 159.5 -64t61.5 -163q0 -103 -63.5 -172t-164.5 -69q-121 0 -182.5 85.5t-61.5 225.5q0 401 249 401q74 0 132 -40l66 40zM269 388q-75 0 -121.5 -47.5t-46.5 -120.5
q0 -69 50.5 -120.5t118.5 -51.5q70 0 111.5 49t41.5 126q0 70 -42 117.5t-112 47.5z" />
    <glyph glyph-name="eight.taboldstyle" horiz-adv-x="521" 
d="M23 187q0 62 39 109.5t98 63.5q-58 29 -88.5 62t-30.5 89q0 86 66.5 135.5t153.5 49.5t152.5 -49.5t65.5 -135.5q0 -53 -31 -92.5t-84 -58.5q62 -21 98 -66t36 -109q0 -94 -70 -147.5t-169 -53.5t-167.5 55.5t-68.5 147.5zM110 509q0 -60 45 -96.5t106 -36.5t105 37
t44 97q0 57 -44.5 89.5t-105.5 32.5q-60 0 -105 -33t-45 -90zM97 187q0 -65 48.5 -102t115.5 -37t115.5 37.5t48.5 102.5t-49.5 103t-115.5 38t-114.5 -38.5t-48.5 -103.5z" />
    <glyph glyph-name="three.taboldstyle" horiz-adv-x="487" 
d="M40 464h60q83 32 140 32q91 0 152.5 -49t61.5 -134q0 -56 -32.5 -96t-87.5 -53q58 -16 94 -66t36 -118q0 -89 -65.5 -142.5t-161.5 -53.5q-79 0 -138 28t-78 80l60 33q13 -36 55 -56.5t100 -20.5q70 0 112.5 35.5t42.5 100.5q0 70 -44 108.5t-129 38.5h-20v64h22
q73 0 117 29.5t44 88.5q0 53 -40.5 86t-99.5 33q-101 0 -141 -72z" />
    <glyph glyph-name="four.taboldstyle" horiz-adv-x="530" 
d="M344 388q-133 -181 -260 -356h260v356zM342 -148v116h-331v65q287 385 331 445h70v-446h99v-64h-99v-117l65 -51h-204z" />
    <glyph glyph-name="five.taboldstyle" horiz-adv-x="494" 
d="M371 416h-233q-7 -44 -16 -127.5t-10 -95.5q56 59 139 59q96 0 158 -64.5t62 -161.5q0 -105 -65.5 -173.5t-165.5 -68.5q-76 0 -135 28.5t-82 80.5l56 32q19 -36 61 -56.5t97 -20.5q73 0 116.5 51t43.5 128q0 72 -42.5 116.5t-112.5 44.5q-48 0 -86 -24.5t-56 -66.5h-65
l-3 3q7 119 46 380h358v-129z" />
    <glyph glyph-name="seven.taboldstyle" horiz-adv-x="512" 
d="M22 480h478l-323 -680h-83q137 276 300 616h-308l-64 -64v128z" />
    <glyph glyph-name="nine.taboldstyle" horiz-adv-x="515" 
d="M48 -121l87 51q-1 -5 -1 -15q0 -67 115 -67q59 0 99 45.5t55.5 110t17.5 144.5q-25 -47 -71.5 -74t-105.5 -27q-95 0 -158.5 63.5t-63.5 156.5q0 99 65 164t164 65q120 0 180.5 -86t60.5 -224q0 -190 -61 -296t-191 -106q-143 0 -192 95zM249 106q70 0 117.5 47t47.5 116
t-47 116t-116 47q-71 0 -115.5 -48.5t-44.5 -119.5q0 -67 46 -112.5t112 -45.5z" />
    <glyph glyph-name="A.small" horiz-adv-x="567" 
d="M558 0h-154l44 39h-1q-4 12 -14 35t-14 35h-264q-4 -11 -13.5 -34.5t-14.5 -35.5h-1q7 -7 23 -20t24 -19h-154l51 39q32 78 95.5 235.5t95.5 235.5h53l193 -471h-1zM174 157h227q-20 50 -57 147.5t-56 147.5z" />
    <glyph glyph-name="B.small" horiz-adv-x="455" 
d="M63 27v456q-9 6 -40 27h231q69 0 115.5 -31t46.5 -100q0 -37 -22.5 -67t-57.5 -46q46 -13 73.5 -47t27.5 -83q0 -58 -40 -97t-110 -39h-264zM246 47q65 0 100 20t35 76q0 23 -6 40t-19.5 27.5t-27 16.5t-36.5 9t-39 3.5t-44 0.5h-36q-2 -1 -11 -7t-13 -8v78l24 -15h66
q56 0 89 18t33 67q0 89 -121 89h-124v-415h130z" />
    <glyph glyph-name="C.small" horiz-adv-x="471" 
d="M450 98l-15 -15q-31 -43 -77.5 -68.5t-98.5 -25.5q-107 0 -172 74t-65 197q0 117 65 189t172 72q108 0 173 -87q16 -12 17 -12l-66 -43l1 28q-22 30 -55.5 47.5t-69.5 17.5q-83 0 -131.5 -58.5t-48.5 -153.5q0 -103 48 -162.5t132 -59.5q80 0 128 70l-3 14q-3 15 -3 17z
" />
    <glyph glyph-name="D.small" 
d="M64 27h-1l1 456q-9 6 -40 27h193q116 0 186.5 -68t70.5 -185q0 -122 -68 -189.5t-189 -67.5h-193zM232 47q95 0 140 56t45 154q0 100 -50.5 152.5t-139.5 52.5h-111v-415h116z" />
    <glyph glyph-name="E.small" horiz-adv-x="417" 
d="M63 27v456l-40 27h363v-62l-20 14h-250v-173h215l20 14v-77l-20 15h-215v-194h250l29 26v-73h-372z" />
    <glyph glyph-name="F.small" horiz-adv-x="411" 
d="M75 39v444l-39 27h363v-62l-20 14h-250v-188h214l21 15v-77l-21 14h-214v-187l53 -39h-160z" />
    <glyph glyph-name="G.small" horiz-adv-x="503" 
d="M273 275l25 -16h185q0 -122 -62 -196t-161 -74q-107 0 -172 74t-65 197q0 117 65 189t172 72q109 0 172 -86h-1q3 -2 8.5 -7t9.5 -7l-6 -4q-11 -6 -33 -19.5t-29 -17.5l4 27q-52 65 -125 65q-84 0 -132 -58.5t-48 -153.5q0 -103 48 -162.5t132 -59.5q68 0 111 47t52 129
h-125q-4 -5 -13 -16.5t-12 -15.5v93z" />
    <glyph glyph-name="H.small" horiz-adv-x="544" 
d="M468 39h-1l54 -39h-160l54 39v202h-286v-202l54 -39h-160l53 39v432q-31 19 -53 39h160l-53 -39q0 -23 -0.5 -91.5t-0.5 -90.5h286v182q-34 22 -54 39h160l-53 -39v-432z" />
    <glyph glyph-name="I.small" horiz-adv-x="192" 
d="M123 39h-1l54 -39h-160l54 39v432q-34 22 -54 39h160l-53 -39v-432z" />
    <glyph glyph-name="J.small" horiz-adv-x="369" 
d="M190 510h161l-54 -39v-235q0 -35 -1.5 -59t-6 -55.5t-15.5 -52.5t-28 -41t-45.5 -29.5t-65.5 -9.5q-71 0 -109 58l-14 6l47 55q5 -68 87 -68q23 0 39.5 7t27 21.5t17 30t9.5 40.5t4 44.5t1 49.5l-1 238z" />
    <glyph glyph-name="K.small" horiz-adv-x="482" 
d="M461 0h-152l38 31l-218 223v-215l53 -39h-160l53 39v443l-45 28h99v-232l213 212l-20 20h108q-36 -38 -121.5 -123t-124.5 -125l223 -222z" />
    <glyph glyph-name="L.small" horiz-adv-x="399" 
d="M62 483l-40 27h93v-463h235l39 28v-75h-327v483z" />
    <glyph glyph-name="M.small" horiz-adv-x="676" 
d="M332 55q30 77 89.5 227.5t89.5 227.5h126l-38 -27v-445l53 -38h-160l54 38v417q-32 -77 -94 -228t-94 -227h-51l-177 435v-398l54 -37h-160l53 37v446l-39 27h115z" />
    <glyph glyph-name="N.small" horiz-adv-x="563" 
d="M383 510h157l-53 -40v-470h-52q-149 204 -306 425v-385l54 -40h-160l53 39v444l-39 27h89q134 -189 308 -432v393z" />
    <glyph glyph-name="O.small" horiz-adv-x="520" 
d="M23 260q0 112 66 186.5t170 74.5q106 0 172 -74.5t66 -186.5q0 -123 -65.5 -197t-172.5 -74q-106 0 -171 74t-65 197zM80 260q0 -102 47.5 -162.5t131.5 -60.5q85 0 133 60.5t48 162.5q0 95 -48.5 153.5t-132.5 58.5q-83 0 -131 -58.5t-48 -153.5z" />
    <glyph glyph-name="P.small" horiz-adv-x="442" 
d="M182 0h-160l53 39v444l-39 27h175q217 0 217 -150q0 -148 -207 -148h-41l-23 -7v62l23 -7h55q65 0 102 22t37 78q0 50 -33 76t-82 26h-130v-423z" />
    <glyph glyph-name="Q.small" horiz-adv-x="534" 
d="M450 -19l-52 53q-63 -45 -141 -45q-106 0 -171 74t-65 197q0 116 65 188.5t171 72.5q107 0 172.5 -72t65.5 -189q0 -112 -64 -193q13 -10 30.5 -29.5t25.5 -26.5h-1q4 -2 13 -5t13 -4l-50 -51zM346 152l50 -49q42 58 42 157q0 95 -48.5 153.5t-132.5 58.5
q-83 0 -131 -58.5t-48 -153.5q0 -103 47.5 -162.5t131.5 -59.5q56 0 105 31q-23 22 -25 26l-24 24z" />
    <glyph glyph-name="R.small" horiz-adv-x="512" 
d="M183 0h-160l53 39v444q-5 4 -11.5 8.5t-15 10t-12.5 8.5h176q219 0 219 -150q0 -118 -144 -144q120 -48 144 -159q2 -8 5 -13t7.5 -8t18.5 -13t29 -23h-161q42 25 47 34q-15 77 -77 129t-118 52q-21 -15 -25 -19v79l25 -15h54q65 0 101.5 22t36.5 78q0 50 -32.5 76
t-81.5 26h-132v-423z" />
    <glyph glyph-name="S.small" horiz-adv-x="416" 
d="M24 88l42 23q40 -73 147 -73q53 0 88.5 25t35.5 68q0 39 -27.5 59t-87.5 36l-7 2q-6 1 -11 3l-7.5 3t-3.5 1h1q-78 21 -119.5 52.5t-41.5 89.5q0 67 50.5 105.5t125.5 38.5q80 0 130 -40l31 40v-77l-43 -23q-28 52 -115 52q-55 0 -88.5 -23t-33.5 -66q0 -36 31 -59
t76 -36t89.5 -27.5t75.5 -46t31 -79.5q0 -74 -53 -110.5t-140 -36.5q-94 0 -147 56l-29 -45v88z" />
    <glyph glyph-name="T.small" horiz-adv-x="431" 
d="M414 510v-75l-39 27h-131v-425l53 -37h-160l54 39v423h-134l-40 -27v75h397z" />
    <glyph glyph-name="U.small" horiz-adv-x="554" 
d="M374 510h159l-53 -37v-226q0 -258 -204 -258q-112 0 -157 70t-45 188v226l-53 37h159l-53 -37v-226q0 -99 33.5 -154t115.5 -55q83 0 117 55.5t34 153.5v226z" />
    <glyph glyph-name="V.small" horiz-adv-x="563" 
d="M439 475l-51 35h160l-52 -36l-189 -474h-52l-189 474l-51 36h160l-52 -36l158 -417z" />
    <glyph glyph-name="W.small" horiz-adv-x="852" 
d="M569 58q18 48 157 415l-52 37h159l-52 -36l-187 -474l-52 19l-116 390q-21 -74 -61 -206t-55 -184h-51l-188 453l-53 38h159l-51 -36l157 -416q22 84 64 237.5t58 214.5h42z" />
    <glyph glyph-name="X.small" horiz-adv-x="530" 
d="M396 33q-23 34 -67.5 95.5t-64.5 90.5l-77 -108q-5 -8 -25.5 -35.5t-29.5 -41.5l50 -34h-160l48 33q25 34 164 226q-29 41 -85 116t-75 102l-47 33h159l-48 -33l24 -32q11 -15 46.5 -67t58.5 -80q12 16 125 173l3 4l-50 35h159l-49 -34l-93 -128q-5 -8 -16.5 -22
t-17.5 -22l-33 -45q114 -154 163 -225l50 -34h-160z" />
    <glyph glyph-name="Y.small" horiz-adv-x="528" 
d="M239 39v173q-89 8 -129 71.5t-40 161.5l-1 28l-53 37h159l-53 -37q0 -40 2.5 -70t11.5 -60t24 -49t41.5 -31t63.5 -12q36 0 62.5 12t41.5 31t23.5 49.5t11 59.5t2.5 70l-53 37h159l-53 -37v-3q0 -113 -37 -181.5t-130 -76.5v-175l53 -37h-160z" />
    <glyph glyph-name="Z.small" horiz-adv-x="427" 
d="M34 510h358v-59l-286 -403h257l38 53v-101h-375v48l314 414h-267l-39 -52v100z" />
    </font>
</defs>
</svg>
