<?xml version="1.0" standalone="no"?>
<!DOCTYPE svg PUBLIC "-//W3C//DTD SVG 1.1//EN" "http://www.w3.org/Graphics/SVG/1.1/DTD/svg11.dtd" >
<svg>
<metadata>
Created by FontForge 20090914 at Sat Feb  2 03:03:47 2019
 By www-data
Copyright (c) 2019 by Creative LAB. All rights reserved.
</metadata>
<defs>
<font id="MarcelaScript" horiz-adv-x="228" >
  <font-face 
    font-family="Marcela Script"
    font-weight="400"
    font-stretch="normal"
    units-per-em="1000"
    panose-1="2 0 5 6 2 0 0 2 0 4"
    ascent="750"
    descent="-250"
    x-height="376"
    cap-height="585"
    bbox="-406.002 -70 797.897 622.001"
    underline-thickness="50"
    underline-position="-50"
    unicode-range="U+000D-U+E067"
  />
<missing-glyph horiz-adv-x="124" 
 />
    <glyph glyph-name=".notdef" horiz-adv-x="124" 
 />
    <glyph glyph-name="NULL" horiz-adv-x="0" 
 />
    <glyph glyph-name="NULL" horiz-adv-x="0" 
 />
    <glyph glyph-name="nonmarkingreturn" unicode="&#xd;" horiz-adv-x="124" 
 />
    <glyph glyph-name="space" unicode=" " horiz-adv-x="124" 
 />
    <glyph glyph-name="exclam" unicode="!" horiz-adv-x="173" 
d="M30 158c0 8.66699 3 14.832 9 18.499s13.333 5.5 22 5.5c7.33301 0 14.333 -1.83301 21 -5.5s10 -9.83398 10 -18.501c0 -9.33301 -3 -16.166 -9 -20.499s-13.333 -6.5 -22 -6.5s-16 2.33301 -22 7s-9 11.334 -9 20.001zM52 183.998
c-4 0 -7.00098 0.998047 -9.00098 2.99805s-1.33301 6 2 12c12 14.667 22.833 34.5 32.5 59.5l27.5 72.5c6 16.667 12.167 32.834 18.5 48.501s13 29.834 20 42.501s14.333 22.834 22 30.501s16.167 11.5 25.5 11.5c7.33301 0 12.333 -1.33301 15 -4s4 -5 4 -7
c0 -0.666992 -0.166992 -1.33398 -0.5 -2.00098l-4.5 -9c-5.33301 -5.33301 -11.5 -17.5 -18.5 -36.5s-14.167 -40.167 -21.5 -63.5c-9.33301 -26.667 -19.666 -54.667 -30.999 -84s-24.333 -56.333 -39 -81h-10z" />
    <glyph glyph-name="quotedbl" unicode="&#x22;" horiz-adv-x="291" 
d="M114 503c15.333 -8.66699 23 -20.001 23 -34.001c0 -10.667 -3.83301 -22.167 -11.5 -34.5s-16.167 -24 -25.5 -35s-18.666 -20.167 -27.999 -27.5s-15.333 -11 -18 -11c-4 0 -8.33301 1.83301 -13 5.5s-6.33398 8.83398 -5.00098 15.501c8.66699 8 16.667 16.5 24 25.5
s11 17.167 11 24.5c0 2.66699 -1 5 -3 7c-4 4.66699 -7.66699 9.16699 -11 13.5s-5 8.5 -5 12.5c0 11.333 4.33301 21 13 29s19.667 12 33 12c5.33301 0 10 -0.666992 14 -2zM210 502.999c16 -8.66699 24.0029 -20.001 24.0029 -34.001
c0 -10.667 -3.83301 -22.167 -11.5 -34.5s-16.334 -24 -26.001 -35s-19.167 -20.167 -28.5 -27.5s-15.333 -11 -18 -11c-4 0 -8.33301 1.83301 -13 5.5s-6.33398 8.83398 -5.00098 15.501c8.66699 8 16.667 16.5 24 25.5s11 17.167 11 24.5c0 2.66699 -1 5 -3 7
c-4 4.66699 -7.66699 9.16699 -11 13.5s-5 8.5 -5 12.5c0 11.333 4.16699 21 12.5 29s19.166 12 32.499 12c6 0 11 -0.666992 15 -2z" />
    <glyph glyph-name="numbersign" unicode="#" horiz-adv-x="270" 
d="M91 178c-2.66699 -3.33301 -5.83398 -6.33789 -9.50098 -9.00488s-7.83398 -4 -12.501 -4c-6.66699 0 -12.334 1.66699 -17.001 5s-7 7.33301 -7 12v2c0 2 0.333008 3.66699 1 5l7 19c-7.33301 0 -13.5 1 -18.5 3s-7.5 7.33301 -7.5 16c0 9.33301 3 14.666 9 15.999
s13.333 2 22 2h8c0 0.666992 1.33301 4.33398 4 11.001h-4c-9.33301 0 -17.333 1.16699 -24 3.5s-10 8.16602 -10 17.499s3.5 14.833 10.5 16.5s15.833 2.5 26.5 2.5h12c0 0.666992 0.166992 1.33398 0.5 2.00098s0.5 1.33398 0.5 2.00098l4.5 16.5
c1.66699 6.33301 4 12 7 17s6.5 9.33301 10.5 13s8.66699 5.5 14 5.5c14.667 0 22 -6.33301 22 -19c0 -5.33301 -0.666992 -10.166 -2 -14.499s-3 -9.16602 -5 -14.499c-0.666992 -1.33301 -1.16699 -2.83301 -1.5 -4.5s-0.833008 -2.83398 -1.5 -3.50098h2
c2 6 4.5 12.667 7.5 20s5.16699 13.666 6.5 18.999c0.666992 1.33301 2 3 4 5c1.33301 1.33301 3.33301 2.5 6 3.5s6 1.5 10 1.5c14.667 0 22 -6.33301 22 -19c0 -5.33301 -1.16699 -10.666 -3.5 -15.999s-4.5 -10 -6.5 -14c6.66699 -0.666992 12.834 -2.16699 18.501 -4.5
s8.5 -7.16602 8.5 -14.499c0 -9.33301 -3.33301 -15 -10 -17s-14.667 -3 -24 -3h-5l-2 -12h3c9.33301 0 17.166 -0.666992 23.499 -2s9.5 -6.66602 9.5 -15.999c0 -8.66699 -3.33301 -14.167 -10 -16.5s-15 -3.5 -25 -3.5h-15l-8 -26
c-1.33301 -3.33301 -4.16602 -8 -8.49902 -14s-10.166 -9 -17.499 -9s-12.666 1.83301 -15.999 5.5s-5 8.16699 -5 13.5c0 6.66699 2.33301 15.334 7 26.001c0 0.666992 0.166992 1.16699 0.5 1.5s0.5 0.833008 0.5 1.5l1 2h-3zM115 244.995l3 12h-2l-2 -12h1z" />
    <glyph glyph-name="dollar" unicode="$" horiz-adv-x="232" 
d="M130 367c0 -10.667 2 -22.333 6 -35c6.66699 8.66699 11.167 16.167 13.5 22.5s3.5 12.833 3.5 19.5c0 11.333 -2.66699 17 -8 17c-4 0 -7.5 -2 -10.5 -6s-4.5 -10 -4.5 -18zM186 374.001c0 -1.33301 -0.667969 -5.49805 -2.00098 -12.498s-3.5 -14.333 -6.5 -22
s-7 -14.667 -12 -21s-10.833 -9.5 -17.5 -9.5h-4c0.666992 -1.33301 1.16699 -3 1.5 -5s1.16602 -3.66699 2.49902 -5l16 -51c5.33301 -17.333 8 -35 8 -53c0 -24.667 -7.5 -45.834 -22.5 -63.501s-31.5 -27.834 -49.5 -30.501l-2 -11c-2.66699 -9.33301 -10 -14 -22 -14
c-6.66699 0 -12.167 1.5 -16.5 4.5s-6.5 9.16699 -6.5 18.5l2 11c-10.667 5.33301 -18.5 13 -23.5 23s-7.5 21.333 -7.5 34c0 2 0.833008 6.5 2.5 13.5s4 14.167 7 21.5s6.83301 14 11.5 20s10.334 9 17.001 9c5.33301 0 9.5 -1.5 12.5 -4.5s4.5 -5.83301 4.5 -8.5
c0 -0.666992 -0.166992 -1.5 -0.5 -2.5s-0.5 -2.16699 -0.5 -3.5c-7.33301 -9.33301 -12.5 -17.666 -15.5 -24.999s-4.5 -13.666 -4.5 -18.999c0 -6.66699 1.66699 -13.334 5 -20.001c2.66699 6.66699 9.66699 10 21 10c3.33301 0 7 -0.833008 11 -2.5s7 -5.16699 9 -10.5
c3.33301 5.33301 6.33301 12.166 9 20.499s4 17.833 4 28.5c0 14.667 -2.66699 30.167 -8 46.5s-11 32.833 -17 49.5c-5.33301 14.667 -10 29 -14 43s-6 27.333 -6 40c0 14.667 3.83301 26.167 11.5 34.5s16.834 13.833 27.501 16.5l4 16c1.33301 5.33301 4 9 8 11
s8.66699 3 14 3c14.667 0 22 -7.66699 22 -23l-1 -14c18.667 -8.66699 28 -23 28 -43z" />
    <glyph glyph-name="percent" unicode="%" horiz-adv-x="270" 
d="M94 338c-4.66699 5.33301 -8 10.667 -10 16c-1.33301 -4 -2 -7.66699 -2 -11v-10c0 -7.33301 -1 -11 -3 -11c2.66699 0 7.66699 5.33301 15 16zM82 369.001c0 9.33301 2.83301 18.168 8.5 26.501s12.167 14.166 19.5 17.499l3 -10
c-7.33301 -2 -13.5 -7.83301 -18.5 -17.5s-8.5 -20.167 -10.5 -31.5c-1.33301 3.33301 -2 8.33301 -2 15zM113 427.003c5.33301 -2.66699 8.66504 -5.66406 9.99805 -8.99707h4c6.66699 0 12.167 -1.66699 16.5 -5s6.5 -9 6.5 -17c0 -8.66699 -4.33301 -22 -13 -40
c6 4 12.167 10 18.5 18s11.5 16.333 15.5 25c2 3.33301 5 5.83301 9 7.5s7.66699 2.5 11 2.5c5.33301 0 10.666 -1.66699 15.999 -5s8 -8 8 -14c0 -0.666992 -0.166992 -1.33398 -0.5 -2.00098l-2.5 -5c-15.333 -28 -30 -57.833 -44 -89.5l-44 -95.5
c-7.33301 -16.667 -14.833 -32.834 -22.5 -48.501s-15.167 -31.834 -22.5 -48.501c-2.66699 -4 -6.16699 -7.5 -10.5 -10.5s-8.16602 -4.5 -11.499 -4.5c-5.33301 0 -10.5 1.83301 -15.5 5.5s-7.5 8.16699 -7.5 13.5v1c0 0.666992 1 2.66699 3 6
c9.33301 18 18.166 36.333 26.499 55l26.5 58c0.666992 0.666992 1.33398 2 2.00098 4s1.33398 3.66699 2.00098 5l43 93c-2.66699 -0.666992 -7 -1 -13 -1c-17.333 -22.667 -34.666 -34 -51.999 -34c-13.333 0 -23.166 4.83301 -29.499 14.5s-9.5 20.834 -9.5 33.501
c0 10 1.66699 20.333 5 31s8.33301 20.167 15 28.5s14.667 15.166 24 20.499s19.666 8 30.999 8zM163.999 174.006l9 -1.99902l-7 -23c-0.666992 3.33301 -1.16699 6.16602 -1.5 8.49902s-0.5 4.83301 -0.5 7.5v9zM173.999 128.007c-2 3.33301 -3.5 6.83203 -4.5 10.499
s-2.16699 7.16699 -3.5 10.5c-2 -9.33301 -3 -17.666 -3 -24.999c0 -8.66699 -0.666992 -13 -2 -13c2 0 6.33301 5.66699 13 17zM194.999 216.006c5.33301 -3.33301 12.0029 -7.99609 20.0029 -13.9961s12 -14.333 12 -25c0 -8.66699 -2 -18.5 -6 -29.5
s-9.33301 -21.333 -16 -31s-14.5 -17.834 -23.5 -24.501s-18.167 -10 -27.5 -10c-13.333 0 -23 4.66699 -29 14s-9 20.666 -9 33.999c0 10 1.66699 20.167 5 30.5s8.16602 19.666 14.499 27.999s14.166 15.166 23.499 20.499s19.666 8 30.999 8zM187.002 133.01
c-5.33301 0 -6.66504 2.66602 -3.99805 7.99902l6 14c1.33301 2.66699 3.16602 3.83398 5.49902 3.50098s3.83301 -1.83301 4.5 -4.5l5 -14c1.33301 -4.66699 -0.333984 -7 -5.00098 -7h-12zM197.003 167.009c0 -1.33301 0.166992 -3 0.5 -5s0.833008 -4.66699 1.5 -8l-10 1
c3.33301 10 5 16.667 5 20c0 2.66699 1 4 3 4v-12zM105.003 343.009c-4 0 -5.33105 2.33105 -3.99805 6.99805l6 12c1.33301 2 3 3 5 3s3.33301 -1.33301 4 -4l2 -4c0.666992 -1.33301 1.66699 -2.66602 3 -3.99902s1.66602 -3.16602 0.999023 -5.49902
s-2.33398 -3.5 -5.00098 -3.5zM115.005 370.007c0 -3.33301 0.333008 -6 1 -8h-9c6 12 9 21 9 27v5l5 -5c-4 -2.66699 -6 -9 -6 -19z" />
    <glyph glyph-name="ampersand" unicode="&#x26;" horiz-adv-x="353" 
d="M180 264c-7.33301 2.66699 -11.0039 6.66895 -11.0039 12.002c0 2.66699 1.5 5.5 4.5 8.5s7.16699 4.5 12.5 4.5c7.33301 0 13.833 -2.16699 19.5 -6.5s10.334 -9.5 14.001 -15.5s6.5 -12.5 8.5 -19.5s3 -13.167 3 -18.5c0 -14 -3.66699 -28.833 -11 -44.5
s-17.666 -29.167 -30.999 -40.5c6.66699 -8.66699 14 -15 22 -19s15.667 -6 23 -6c10 0 19 3.16699 27 9.5s14.333 12.166 19 17.499c3.33301 3.33301 6.83301 6.33301 10.5 9s7.16699 2.66699 10.5 0c6.66699 -3.33301 10 -8.33301 10 -15
c-2.66699 -12 -11.5 -22.667 -26.5 -32s-31.833 -14 -50.5 -14c-13.333 0 -26.166 2.5 -38.499 7.5s-23.5 13.5 -33.5 25.5c-8.66699 -4 -17.167 -6.83301 -25.5 -8.5s-16.5 -2.5 -24.5 -2.5c-23.333 0 -43.333 6.5 -60 19.5s-25 33.167 -25 60.5
c0 32.667 10.5 58.5 31.5 77.5s46.5 34.167 76.5 45.5c5.33301 31.333 16.333 56.333 33 75s34.667 28 54 28c15.333 0 27.833 -4.33301 37.5 -13s14.5 -19.334 14.5 -32.001c0 -11.333 -4.33301 -22.833 -13 -34.5s-23.667 -21.834 -45 -30.501l-54 -23
c-1.33301 -5.33301 -2 -10.666 -2 -15.999v-16c0 -18 1.33301 -34.833 4 -50.5s6 -28.5 10 -38.5c8.66699 8 14.834 17.333 18.501 28s5.5 21.667 5.5 33c0 8 -1.5 15.167 -4.5 21.5s-7.16699 10.5 -12.5 12.5h2zM144.996 293.002
c2 -0.666992 3.16797 -1.99902 3.50098 -3.99902s-0.5 -3.66699 -2.5 -5l-10 -6c-5.33301 -2.66699 -8 -1.33398 -8 3.99902s0.333008 9 1 11c1.33301 3.33301 3.66602 4.33301 6.99902 3zM126.997 258.003c0 4 -0.167969 6.33203 -0.500977 6.99902s-0.166016 3 0.500977 7
c-14 -11.333 -24.5 -24 -31.5 -38s-10.5 -27 -10.5 -39c0 -13.333 3.5 -25.166 10.5 -35.499s16.167 -15.5 27.5 -15.5c8 0 16.333 2.33301 25 7c-6 12.667 -11 28.5 -15 47.5s-6 38.833 -6 59.5zM153.996 318.002c-2 1.33301 -3.00195 3.00098 -3.00195 5.00098
s1 3.33301 3 4c0.666992 0 1.33398 0.166992 2.00098 0.5s1.33398 0.5 2.00098 0.5s1.33398 0.333008 2.00098 1c1.33301 1.33301 3.16602 1.66602 5.49902 0.999023s3.5 -2.33398 3.5 -5.00098c0 -1.33301 -0.166992 -2.5 -0.5 -3.5s-0.5 -2.5 -0.5 -4.5
c0 -1.33301 -0.666992 -2.66602 -2 -3.99902s-3 -1.33301 -5 0zM216.994 394.003c-11.333 0 -20.668 -6.33301 -28.001 -19s-13.333 -26.667 -18 -42c21.333 9.33301 36.333 18.5 45 27.5s13 16.833 13 23.5c0 2.66699 -1.16699 5 -3.5 7s-5.16602 3 -8.49902 3z" />
    <glyph glyph-name="quotesingle" unicode="'" horiz-adv-x="181" 
d="M98 504c16 -8.66699 24.002 -20.001 24.002 -34.001c0 -10.667 -3.83301 -22.167 -11.5 -34.5s-16.167 -24 -25.5 -35s-18.666 -20.167 -27.999 -27.5s-15.333 -11 -18 -11c-4 0 -8.33301 1.83301 -13 5.5s-6.33398 8.83398 -5.00098 15.501
c8.66699 8 16.667 16.5 24 25.5s11 17.167 11 24.5c0 2.66699 -1 5 -3 7c-4 4.66699 -7.66699 9.16699 -11 13.5s-5 8.5 -5 12.5c0 11.333 4.16699 21 12.5 29s19.166 12 32.499 12c4 0 7.16699 -0.166992 9.5 -0.5s4.16602 -0.833008 5.49902 -1.5h-2z" />
    <glyph glyph-name="parenleft" unicode="(" 
d="M305 564c3.33301 0 6.83398 -1.1709 10.501 -3.50391s5.5 -5.5 5.5 -9.5c0 -3.33301 -1.16699 -6.16602 -3.5 -8.49902s-4.83301 -3.5 -7.5 -3.5c-26 -12.667 -52.167 -35.5 -78.5 -68.5s-50 -70.167 -71 -111.5s-38 -83.833 -51 -127.5s-19.5 -82.167 -19.5 -115.5
c0 -15.333 1.33301 -29.333 4 -42s7.66699 -21.667 15 -27c4 -4 6 -7.33301 6 -10c0 -3.33301 -2 -6.16602 -6 -8.49902s-7.66699 -3.5 -11 -3.5c-11.333 0 -21 3.83301 -29 11.5s-14.333 17 -19 28s-8 22 -10 33s-3 20.167 -3 27.5c0 26 3.66699 55 11 87
s17.166 64.333 29.499 97s27 64.334 44 95.001s35.167 57.834 54.5 81.501s39.5 42.667 60.5 57s41.5 21.5 61.5 21.5h7z" />
    <glyph glyph-name="parenright" unicode=")" horiz-adv-x="235" 
d="M-69 29c-4 0 -7.5 1.16992 -10.5 3.50293s-4.5 5.16602 -4.5 8.49902c0 2 1.16699 4.16699 3.5 6.5s4.83301 4.16602 7.5 5.49902h-1c17.333 7.33301 35 19.666 53 36.999s35.167 37.833 51.5 61.5s31.5 49.667 45.5 78s26.167 56.833 36.5 85.5s18.5 57 24.5 85
s9 53.333 9 76c0 14.667 -1.83301 28 -5.5 40s-8.16699 21.333 -13.5 28c-3.33301 1.33301 -5 2.83301 -5 4.5v6.5c0 8.66699 5.33301 13 16 13c12 0 21.833 -3.83301 29.5 -11.5s14 -17 19 -28s8.5 -22.167 10.5 -33.5s3 -20.666 3 -27.999c0 -26 -3.66699 -55 -11 -87
s-17.333 -64.167 -30 -96.5s-27.5 -63.833 -44.5 -94.5s-35.167 -57.834 -54.5 -81.501s-39.5 -42.667 -60.5 -57s-41.833 -21.5 -62.5 -21.5h-6z" />
    <glyph glyph-name="asterisk" unicode="*" horiz-adv-x="227" 
d="M122 445c-6.66699 0 -11.3359 0.996094 -14.0029 2.99609c-3.33301 -8 -10.333 -12 -21 -12c-4.66699 0 -9.16699 1.33301 -13.5 4s-7.16602 6.33398 -8.49902 11.001h-3c-6.66699 0 -12.167 2 -16.5 6s-6.5 8 -6.5 12s1.33301 7.66699 4 11c-8 4 -12 9.33301 -12 16
c0 4 1.16699 8 3.5 12s7.5 6.66699 15.5 8c-3.33301 2.66699 -5 6.66699 -5 12c0.666992 5.33301 3.16699 9.5 7.5 12.5s9.5 4.5 15.5 4.5c6.66699 0 11.334 -1.33301 14.001 -4c1.33301 3.33301 3.83301 6.33301 7.5 9s8.5 4 14.5 4c12.667 0 19.334 -4.66699 20.001 -14
c1.33301 0.666992 1.83301 0.833984 1.5 0.500977s0.166992 -0.5 1.5 -0.5c4.66699 0 9.66699 -2.16699 15 -6.5s8 -8.16602 8 -11.499c0 -4 -1.33301 -7.66699 -4 -11c8 -3.33301 12 -9 12 -17c0 -11.333 -6.66699 -17.666 -20 -18.999l6 -11
c0 -5.33301 -1.66699 -9.83301 -5 -13.5s-9 -5.5 -17 -5.5z" />
    <glyph glyph-name="plus" unicode="+" horiz-adv-x="289" 
d="M108 337c0 5.33301 2.16699 9.83301 6.5 13.5s9.5 5.5 15.5 5.5c6.66699 0 12.167 -1.83301 16.5 -5.5s6.5 -8.16699 6.5 -13.5v-60h57c6.66699 0 12.167 -1.83301 16.5 -5.5s6.5 -8.16699 6.5 -13.5s-2.16699 -9.66602 -6.5 -12.999s-9.83301 -5 -16.5 -5h-57v-62
c0 -4.66699 -2.16699 -8.66699 -6.5 -12s-9.83301 -5 -16.5 -5c-6 0 -11.167 1.66699 -15.5 5s-6.5 7.33301 -6.5 12v62h-57c-6.66699 0 -12.167 1.66699 -16.5 5s-6.5 7.66602 -6.5 12.999s2.16699 9.83301 6.5 13.5s9.83301 5.5 16.5 5.5h57v60z" />
    <glyph glyph-name="comma" unicode="," horiz-adv-x="161" 
d="M98 181c16 -6.66699 24 -17.665 24 -32.998c0 -10.667 -3.83301 -22.334 -11.5 -35.001s-16.167 -24.5 -25.5 -35.5s-18.666 -20.167 -27.999 -27.5s-15.333 -11 -18 -11c-4 0 -8.33301 1.83301 -13 5.5s-6.33398 8.5 -5.00098 14.5c8.66699 8 16.667 16.667 24 26
s11 17.666 11 24.999c0 2.66699 -1 5 -3 7c-4 4.66699 -7.66699 9.33398 -11 14.001s-5 9 -5 13c0 11.333 4.16699 20.666 12.5 27.999s18.833 11 31.5 11c6 0 11 -0.666992 15 -2h2z" />
    <glyph glyph-name="hyphen" unicode="-" horiz-adv-x="323" 
d="M242 250c6 0 11 -2 15 -6s6 -8 6 -12c0 -5.33301 -2 -9.83301 -6 -13.5s-9 -5.5 -15 -5.5h-187c-14.667 0 -22 6.33301 -22 19c0 4 1.83301 8 5.5 12s9.16699 6 16.5 6h187z" />
    <glyph glyph-name="period" unicode="." horiz-adv-x="143" 
d="M30 141c0 11.333 4 19.666 12 24.999s17.333 8 28 8c9.33301 0 18.666 -3.16699 27.999 -9.5s14 -15.5 14 -27.5c0 -9.33301 -4.16699 -17 -12.5 -23s-17.166 -9 -26.499 -9c-11.333 0 -21.333 2.83301 -30 8.5s-13 14.834 -13 27.501z" />
    <glyph glyph-name="slash" unicode="/" horiz-adv-x="254" 
d="M193 541c2.66699 5.33301 6.16699 9.83398 10.5 13.501s8.83301 5.5 13.5 5.5c5.33301 0 10.666 -1.83301 15.999 -5.5s8 -8.5 8 -14.5c0 -0.666992 -0.166992 -1.5 -0.5 -2.5s-0.5 -2.16699 -0.5 -3.5l-165 -473c-3.33301 -4 -7.16602 -7.5 -11.499 -10.5
s-8.5 -4.5 -12.5 -4.5c-6 0 -11 1.66699 -15 5s-6 7.66602 -6 12.999v3.5c0 1.66699 0.666992 4.5 2 8.5z" />
    <glyph glyph-name="colon" unicode=":" horiz-adv-x="164" 
d="M39 244c0 10.667 3.99902 18.665 11.999 23.998s17 8 27 8s19.667 -3.16699 29 -9.5s14 -15.166 14 -26.499c0 -9.33301 -4.16699 -17.166 -12.5 -23.499s-17.166 -9.5 -26.499 -9.5c-11.333 0 -21.333 3 -30 9s-13 15.333 -13 28zM38.999 98.998
c0 10.667 3.99902 18.665 11.999 23.998s17 8 27 8s19.667 -3.16699 29 -9.5s14 -15.166 14 -26.499c0 -9.33301 -4.16699 -17.166 -12.5 -23.499s-17.166 -9.5 -26.499 -9.5c-11.333 0 -21.333 3 -30 9s-13 15.333 -13 28z" />
    <glyph glyph-name="semicolon" unicode=";" horiz-adv-x="185" 
d="M108 221c16 -8.66699 24.001 -20.001 24.001 -34.001c0 -10.667 -3.83301 -22.167 -11.5 -34.5s-16.167 -24 -25.5 -35s-18.666 -20.167 -27.999 -27.5s-15.333 -11 -18 -11c-4 0 -8.33301 1.83301 -13 5.5s-6.33398 8.83398 -5.00098 15.501
c8.66699 8 16.667 16.5 24 25.5s11 17.167 11 24.5c0 2.66699 -1 5 -3 7c-4 4.66699 -7.66699 9.16699 -11 13.5s-5 8.5 -5 12.5c0 11.333 4.16699 21 12.5 29s19.166 12 32.499 12c5.33301 0 10 -0.666992 14 -2zM49.001 314.999c0 10.667 3.99902 18.665 11.999 23.998
s17 8 27 8s19.667 -3.16699 29 -9.5s14 -15.166 14 -26.499c0 -9.33301 -4.16699 -17.166 -12.5 -23.499s-17.166 -9.5 -26.499 -9.5c-11.333 0 -21.333 3 -30 9s-13 15.333 -13 28z" />
    <glyph glyph-name="less" unicode="&#x3c;" horiz-adv-x="237" 
d="M159 308l0.00195312 -1.00195c1.33301 1.33301 2.83301 2 4.5 2h4.5c5.33301 0 10.666 -1.66699 15.999 -5s8 -7.66602 8 -12.999c0 -3.33301 -3.33301 -7.5 -10 -12.5s-15 -10.167 -25 -15.5s-20.5 -10.5 -31.5 -15.5s-20.833 -8.83301 -29.5 -11.5
c6 -3.33301 9.66699 -5.16602 11 -5.49902l2 -0.5l0.5 0.5c0.333008 0.333008 2.16602 -0.166992 5.49902 -1.5l26.5 -12c9 -4 17.167 -8 24.5 -12s13.5 -8 18.5 -12s7.5 -7.66699 7.5 -11c0 -4.66699 -2.16699 -8.66699 -6.5 -12s-9.83301 -5 -16.5 -5
c-4 0 -7.33301 0.666992 -10 2v-1l-120 53c-9.33301 4.66699 -14 10.667 -14 18c0 3.33301 1.5 6.33301 4.5 9s6.16699 5 9.5 7z" />
    <glyph glyph-name="equal" unicode="=" horiz-adv-x="271" 
d="M189 302c7.33301 0 13 -2 17 -6s6 -8 6 -12c0 -12.667 -7.66699 -19 -23 -19h-133c-15.333 0 -23 6.33301 -23 19c0 4 1.66699 8 5 12s9.33301 6 18 6h133zM189 220c7.33301 0 13 -2.16699 17 -6.5s6 -8.83301 6 -13.5c0 -4 -2 -8.16699 -6 -12.5s-9.66699 -6.5 -17 -6.5
h-133c-8.66699 0 -14.667 2.16699 -18 6.5s-5 8.5 -5 12.5c0 4.66699 1.66699 9.16699 5 13.5s9.33301 6.5 18 6.5h133z" />
    <glyph glyph-name="greater" unicode="&#x3e;" horiz-adv-x="251" 
d="M173 251c3.33301 -2 6.50098 -4.33203 9.50098 -6.99902s4.5 -5.66699 4.5 -9c0 -7.33301 -4.66699 -13.333 -14 -18l-120 -53v1c-2.66699 -1.33301 -6 -2 -10 -2c-6.66699 0 -12.167 2 -16.5 6s-6.5 7.66699 -6.5 11s2.5 7 7.5 11s11.333 8.16699 19 12.5
s16 8.5 25 12.5l26.5 12l16 7l-28.5 12c-11 4.66699 -21.333 9.5 -31 14.5s-17.834 9.83301 -24.501 14.5s-10 9 -10 13c0 5.33301 2.16699 9.66602 6.5 12.999s9.83301 5 16.5 5c4 0 7.33301 -0.666992 10 -2v1z" />
    <glyph glyph-name="question" unicode="?" horiz-adv-x="278" 
d="M72 358c0 -14 2.33008 -25.6631 6.99707 -34.9961c2 -2 3 -4.66699 3 -8c0 -2 -1.5 -4.5 -4.5 -7.5s-7.16699 -4.5 -12.5 -4.5c-4.66699 0 -8.66699 2.33301 -12 7s-6.16602 10 -8.49902 16s-4 12.167 -5 18.5s-1.5 11.166 -1.5 14.499c0 14 2.83301 27.833 8.5 41.5
s13.5 26 23.5 37s21.5 19.833 34.5 26.5s27.167 10 42.5 10c24.667 0 46 -8 64 -24s27 -38 27 -66c0 -26 -7.16699 -48.333 -21.5 -67s-30.166 -36.667 -47.499 -54c-10.667 -10 -21.5 -21.167 -32.5 -33.5s-21 -26 -30 -41s-16.333 -32 -22 -51s-8.5 -39.833 -8.5 -62.5
v-13c0 -4.66699 0.333008 -9.33398 1 -14.001c-1.33301 -4.66699 -3.66602 -7.5 -6.99902 -8.5s-6.66602 -1.5 -9.99902 -1.5c-4.66699 0 -8.5 3.16699 -11.5 9.5s-5.33301 13.666 -7 21.999s-2.83398 16.333 -3.50098 24s-1 13.167 -1 16.5c0 21.333 2.66699 40.5 8 57.5
s12 32.5 20 46.5s17.167 26.833 27.5 38.5s20.5 22.5 30.5 32.5c15.333 15.333 28.833 30.666 40.5 45.999s17.5 32.666 17.5 51.999c0 15.333 -4.33301 29.666 -13 42.999s-19.667 20 -33 20c-8 0 -15.833 -2.66699 -23.5 -8s-14.5 -12.166 -20.5 -20.499
s-10.667 -17.666 -14 -27.999s-5 -20.833 -5 -31.5zM64.9971 44.0039c8 0 14.5 -2.83203 19.5 -8.49902s7.5 -11.5 7.5 -17.5c0 -6.66699 -2 -12.334 -6 -17.001s-11 -7 -21 -7c-8 0 -14.667 2.33301 -20 7s-8 11 -8 19c0 5.33301 1.5 10.333 4.5 15s9.16699 7.66699 18.5 9
h5z" />
    <glyph glyph-name="at" unicode="@" horiz-adv-x="413" 
d="M325 216c5.33301 0 6.6709 -2.66992 4.00391 -8.00293c-24 -36 -51.833 -63.333 -83.5 -82s-62.5 -28 -92.5 -28c-30.667 0 -56.834 10 -78.501 30s-32.5 50.333 -32.5 91c0 24.667 4.33301 49.834 13 75.501s21 49 37 70s35 38.167 57 51.5s46 20 72 20
c24 0 44.5 -7.66699 61.5 -23s25.5 -41.666 25.5 -78.999c0 -19.333 -2.83301 -39 -8.5 -59s-13.334 -38.167 -23.001 -54.5s-21 -29.666 -34 -39.999s-26.5 -15.5 -40.5 -15.5c-11.333 0 -19 3.16699 -23 9.5s-6 14.5 -6 24.5c0 7.33301 0.666992 15 2 23
s2.66602 15.333 3.99902 22c-2 -0.666992 -5.33301 -1 -10 -1c-12.667 0 -22 3.5 -28 10.5s-9 16.167 -9 27.5c0 7.33301 1.5 15 4.5 23s7.16699 15.333 12.5 22s11.833 12.167 19.5 16.5s16.5 6.5 26.5 6.5c8.66699 0 17 -2.33301 25 -7l1 2
c0.666992 2 2.33398 3 5.00098 3h38c4 0 5.33301 -2.33301 4 -7c-15.333 -27.333 -27.666 -54.333 -36.999 -81s-14 -46.667 -14 -60c0 -4 1 -6 3 -6c6 0 12.333 4.66699 19 14s12.834 20.833 18.501 34.5s10.167 28.5 13.5 44.5s5 30.667 5 44
c0 28 -4.33301 47.833 -13 59.5s-18.334 17.5 -29.001 17.5c-18 0 -35.333 -6.16699 -52 -18.5s-31.167 -28 -43.5 -47s-22.166 -40 -29.499 -63s-11 -44.833 -11 -65.5c0 -22.667 5.66699 -42 17 -58s29.666 -24 54.999 -24c17.333 0 37.166 6.5 59.499 19.5
s44.166 34.167 65.499 63.5c1.33301 1.33301 2.66602 2 3.99902 2h26zM208.005 315.997c-1.33301 0.666992 -2.33203 1.33398 -2.99902 2.00098s-1.66699 1 -3 1c-6.66699 0 -12.834 -4.33301 -18.501 -13s-8.5 -17.334 -8.5 -26.001c0 -7.33301 3.33301 -11 10 -11h3z" />
    <glyph glyph-name="A" unicode="A" horiz-adv-x="433" 
d="M37 163c-3.33301 0 -4.99316 1.66797 -4.99316 5.00098c2 22 6.33301 40.333 13 55s15.167 26.5 25.5 35.5s22.333 15.5 36 19.5s28.167 6.66699 43.5 8l58.5 121.5l78.5 166.5c4 8.66699 12.333 13 25 13c17.333 0 32.166 -5.16699 44.499 -15.5s22.333 -23 30 -38
s13.334 -30.667 17.001 -47s5.5 -30.5 5.5 -42.5c0 -26.667 -3.66699 -53.334 -11 -80.001s-16.333 -53.334 -27 -80.001c11.333 3.33301 22 7.5 32 12.5s18.667 12.167 26 21.5c1.33301 1.33301 2.66602 2 3.99902 2h22c5.33301 0 6.66602 -2 3.99902 -6
c-10.667 -22 -25 -38.167 -43 -48.5s-37.667 -16.833 -59 -19.5c-13.333 -32 -25.333 -62.167 -36 -90.5s-16 -53.166 -16 -74.499c0 -18 4 -30.833 12 -38.5s17.667 -11.5 29 -11.5c15.333 0 31.666 5.83301 48.999 17.5s30.333 27.167 39 46.5v-1
c1.33301 3.33301 2.83301 5.66602 4.5 6.99902s5.16699 2 10.5 2c3.33301 0 6.83301 -1.33301 10.5 -4s5.5 -6.33398 5.5 -11.001c-6 -13.333 -13.833 -25.333 -23.5 -36s-20.5 -19.667 -32.5 -27s-24.833 -13 -38.5 -17s-26.834 -6 -39.501 -6
c-32 0 -54.333 6.83301 -67 20.5s-19 32.167 -19 55.5s4.66699 49 14 77s20 58 32 90c-7.33301 0.666992 -15.5 1.33398 -24.5 2.00098s-17.167 1.66699 -24.5 3c-8 1.33301 -15.5 2.16602 -22.5 2.49902s-14.5 0.833008 -22.5 1.5
c-1.33301 -3.33301 -3 -6.16602 -5 -8.49902s-3.66699 -5.16602 -5 -8.49902l-43 -86.5l-53 -110.5c-2 -2 -3.33301 -3 -4 -3h-55c-2 0 -3.66699 0.666992 -5 2s-1.33301 3 0 5c9.33301 19.333 18.666 37.5 27.999 54.5l29 55.5l49 98
c-20.667 -3.33301 -36.834 -11 -48.501 -23s-18.834 -32 -21.501 -60c0 -3.33301 -1.66699 -5 -5 -5zM213.007 284.001l32 -1.99902c10.667 -1.33301 20.5 -2.16602 29.5 -2.49902s18.5 -0.833008 28.5 -1.5c12.667 33.333 24 66.166 34 98.499s15 61.166 15 86.499
c0 30.667 -8 54 -24 70z" />
    <glyph glyph-name="B" unicode="B" horiz-adv-x="411" 
d="M321 585c4.66699 0 6.33301 -2.33301 5 -7l-11 -24c16 -5.33301 31.167 -14 45.5 -26s21.5 -29 21.5 -51s-8 -42.5 -24 -61.5s-35.333 -33.167 -58 -42.5c19.333 -10.667 32.833 -25.5 40.5 -44.5s11.5 -41.167 11.5 -66.5c0 -27.333 -4.83301 -53.833 -14.5 -79.5
s-23.834 -48.167 -42.501 -67.5s-41.5 -34.833 -68.5 -46.5s-57.833 -17.5 -92.5 -17.5c-9.33301 0 -18 0.333008 -26 1s-16.667 1.66699 -26 3l-6 -14c-1.33301 -2 -3 -3 -5 -3h-49c-5.33301 0 -6.66602 2.33301 -3.99902 7l79.5 165.5l77.5 167.5l45.5 99l49.5 105
c2 2 3.66699 3 5 3h46zM294.999 266c0 22.667 -5.5 42.668 -16.5 60.001s-29.167 28.666 -54.5 33.999l-132 -283c4 -0.666992 8 -1.16699 12 -1.5s7.66699 -0.5 11 -0.5c25.333 0 49 5.33301 71 16s41 24.667 57 42s28.667 37.5 38 60.5s14 47.167 14 72.5z
M322.999 476.001c0 20.667 -8.33301 35.667 -25 45c-7.33301 -14.667 -14 -29.167 -20 -43.5s-12.667 -29.5 -20 -45.5l-20 -43c26 5.33301 46.667 16.833 62 34.5s23 35.167 23 52.5z" />
    <glyph glyph-name="C" unicode="C" horiz-adv-x="416" 
d="M430 271c-16 -20 -36.167 -43.499 -60.5 -70.499s-50.666 -52.833 -78.999 -77.5s-57.333 -45.5 -87 -62.5s-57.5 -25.5 -83.5 -25.5c-26.667 0 -48.167 9 -64.5 27s-24.5 45 -24.5 81c0 22 5.16699 48 15.5 78s24.333 61 42 93s38 63.833 61 95.5
s46.833 60.167 71.5 85.5s49.5 46.166 74.5 62.499s48.5 25.5 70.5 27.5c28.667 0 48.334 -8.33301 59.001 -25s16 -36.334 16 -59.001c0 -21.333 -3.16699 -42.666 -9.5 -63.999s-12.833 -38 -19.5 -50c-1.33301 -1.33301 -2.66602 -2 -3.99902 -2h-39
c-2.66699 0 -4.16699 1 -4.5 3s0.166992 3.66699 1.5 5c11.333 10.667 20.333 26.5 27 47.5s10 41.5 10 61.5c0 14.667 -2.33301 27.167 -7 37.5s-12 15.5 -22 15.5c-12 0 -26.667 -6.83301 -44 -20.5s-34.5 -29.5 -51.5 -47.5s-32.833 -36.167 -47.5 -54.5
s-25.334 -32.5 -32.001 -42.5c-8 -12 -18.333 -28.5 -31 -49.5s-24.834 -43.667 -36.501 -68s-21.834 -49 -30.501 -74s-13 -47.167 -13 -66.5c0 -24 4 -41.167 12 -51.5s18.333 -15.5 31 -15.5c18.667 0 41 8 67 24s52.333 35.833 79 59.5s52 48.667 76 75
s43.333 49.833 58 70.5c2 2 5.33301 3 10 3c8.66699 0 13 -4.33301 13 -13c0 -3.33301 -1.33301 -7.33301 -4 -12v-1z" />
    <glyph glyph-name="D" unicode="D" horiz-adv-x="474" 
d="M345 585c4.66699 0 5.99707 -2.33105 3.99707 -6.99805l-13 -26c32 -6 57.5 -22.667 76.5 -50s28.5 -63.666 28.5 -108.999c0 -50.667 -9.66699 -97.334 -29 -140.001s-44.666 -79.667 -75.999 -111s-66.666 -55.833 -105.999 -73.5s-79 -26.5 -119 -26.5
c-5.33301 0 -10 0.166992 -14 0.5s-8 0.833008 -12 1.5c0 -0.666992 -0.166992 -1 -0.5 -1s-0.5 -0.333008 -0.5 -1c-0.666992 -0.666992 -1 -1.33398 -1 -2.00098c-0.666992 -0.666992 -1 -1.33398 -1 -2.00098s-0.666992 -1 -2 -1h-50
c-5.33301 0 -6.66602 2.33301 -3.99902 7l15 32l59 121.5l59 120.5l62.5 126l68.5 138l3 3h52zM90.9971 69.002h7l-3 -7zM97.9971 69.002c34 1.33301 68 11.832 102 31.499s64.5 44.834 91.5 75.501s49 65.5 66 104.5s25.5 78.5 25.5 118.5
c0 30.667 -5.16699 57.5 -15.5 80.5s-25.5 37.833 -45.5 44.5l-104 -210.5l-102 -209.5z" />
    <glyph glyph-name="E" unicode="E" horiz-adv-x="375" 
d="M374 431c-5.33301 0 -6.66211 2.65918 -3.99512 7.99219c5.33301 8 10 18.333 14 31s6 25 6 37c0 11.333 -2.83301 21.833 -8.5 31.5s-15.167 14.5 -28.5 14.5c-10 0 -18.667 -3.66699 -26 -11s-13.333 -16.666 -18 -27.999s-8.16699 -23.666 -10.5 -36.999
s-3.5 -26.333 -3.5 -39c0 -13.333 0.833008 -24.833 2.5 -34.5s4.83398 -16.167 9.50098 -19.5c2.66699 -3.33301 3 -6 1 -8l-16 -15c-0.666992 -0.666992 -2.33398 -1 -5.00098 -1c-9.33301 2 -17.333 3 -24 3c-22 0 -41.5 -6.5 -58.5 -19.5s-31.333 -29.5 -43 -49.5
s-20.334 -41.667 -26.001 -65s-8.5 -45 -8.5 -65c0 -27.333 4.33301 -49.5 13 -66.5s22 -25.5 40 -25.5c12.667 0 24.667 3.66699 36 11s21.333 16.666 30 27.999s15.5 24.333 20.5 39s7.5 29.334 7.5 44.001s-2.83301 28.334 -8.5 41.001s-15.167 23.667 -28.5 33
c-4 2.66699 -4 5.33398 0 8.00098l33 28c2.66699 1.33301 4.66699 1.33301 6 0c16.667 -15.333 29 -32.166 37 -50.499s12 -37.166 12 -56.499c0 -20 -3.83301 -39.667 -11.5 -59s-18.334 -36.666 -32.001 -51.999s-29.834 -27.666 -48.501 -36.999s-39.334 -14 -62.001 -14
c-21.333 0 -39.5 3.83301 -54.5 11.5s-27 17.667 -36 30s-15.5 26 -19.5 41s-6 30.167 -6 45.5c0 26 5 51.833 15 77.5s23.667 49.334 41 71.001s37.666 39.667 60.999 54s48.333 23.166 75 26.499c-3.33301 6.66699 -6.33301 14.5 -9 23.5s-4 18.167 -4 27.5
c0 15.333 2.5 31.5 7.5 48.5s12.333 32.5 22 46.5s21.667 25.5 36 34.5s31.166 13.5 50.499 13.5c26 0 44.5 -8.33301 55.5 -25s16.5 -35.667 16.5 -57c0 -28.667 -7 -52.667 -21 -72c-1.33301 -1.33301 -2.66602 -2 -3.99902 -2z" />
    <glyph glyph-name="F" unicode="F" horiz-adv-x="295" 
d="M71 356c0.666992 2 2.33691 2.99902 5.00391 2.99902c7.33301 -0.666992 14.166 -1.16699 20.499 -1.5s13.166 -0.5 20.499 -0.5l85 183h-9c-21.333 0 -41.333 -1.16699 -60 -3.5s-35 -6.66602 -49 -12.999s-25.333 -15.166 -34 -26.499s-14 -26 -16 -44
c0 -2.66699 -1.66699 -4 -5 -4l-20 -1c-3.33301 0 -5 2 -5 6c2.66699 23.333 9.33398 42.333 20.001 57s24.167 26.167 40.5 34.5s34.833 14 55.5 17s42 4.5 64 4.5c14 0 28 -0.333008 42 -1s28 -1.66699 42 -3c24.667 -2 49 -3 73 -3c20.667 0 39 1.66699 55 5
s28 9.66602 36 18.999c1.33301 1.33301 2.66602 2 3.99902 2l39 -1c2 0 3.5 -0.833008 4.5 -2.5s0.833008 -3.5 -0.5 -5.5c-15.333 -19.333 -30.5 -32.166 -45.5 -38.499s-33.167 -9.5 -54.5 -9.5c-10 0 -21.167 0.5 -33.5 1.5s-25.5 2.16699 -39.5 3.5l-43 4l-42 -90.5
l-42 -90.5c23.333 2 44.166 6 62.499 12s32.833 15.333 43.5 28c1.33301 1.33301 2.66602 2 3.99902 2h22c4.66699 0 6 -2.33301 4 -7c-13.333 -24.667 -33 -41.834 -59 -51.501s-56.333 -15.167 -91 -16.5l-130 -284c-2 -2 -3.66699 -3 -5 -3h-52
c-2 0 -3.66699 0.666992 -5 2s-1.33301 3 0 5l129 280l-36 3c-2 0 -3.66699 0.833008 -5 2.5s-1.33301 3.16699 0 4.5z" />
    <glyph glyph-name="G" unicode="G" horiz-adv-x="404" 
d="M303 182c-6.66699 -18 -15.334 -37.501 -26.001 -58.501s-23 -40.667 -37 -59s-29.667 -33.666 -47 -45.999s-36 -18.5 -56 -18.5c-23.333 0 -41.166 7.5 -53.499 22.5s-18.5 33.167 -18.5 54.5c0 24.667 6.5 45.334 19.5 62.001s29.167 30 48.5 40
s39.833 17.167 61.5 21.5s41.167 6.5 58.5 6.5l17 42c-18.667 -13.333 -38.334 -23.833 -59.001 -31.5s-41.334 -11.5 -62.001 -11.5c-30 0 -55.333 9 -76 27s-31 46.333 -31 85c0 34 5.83301 67 17.5 99s27.334 60.5 47.001 85.5s42 45 67 60s50.833 22.5 77.5 22.5
c35.333 0 62.833 -10.5 82.5 -31.5s29.5 -48.5 29.5 -82.5c0 -16.667 -2.33301 -33.334 -7 -50.001c-1.33301 -2.66699 -2.66602 -4 -3.99902 -4h-43c-2 0 -3.66699 0.666992 -5 2s-1.33301 3 0 5c7.33301 16 11 34 11 54c0 19.333 -4.33301 36.833 -13 52.5
s-23 23.5 -43 23.5c-20.667 0 -40 -8 -58 -24s-33.833 -35.833 -47.5 -59.5s-24.5 -49 -32.5 -76s-12 -51.167 -12 -72.5c0 -25.333 3.83301 -45.833 11.5 -61.5s21.167 -23.5 40.5 -23.5c18.667 0 36.667 4.83301 54 14.5s33.166 22.5 47.499 38.5s27.166 34 38.499 54
s20.333 40.333 27 61c0.666992 2 2.33398 3 5.00098 3h50c4.66699 0 6.33398 -2.33301 5.00098 -7zM156 44.999c8.66699 6.66699 17 15.167 25 25.5s15.667 21.5 23 33.5s14.333 24.667 21 38s12.667 26 18 38c-15.333 -0.666992 -31.666 -3.16699 -48.999 -7.5
s-33.5 -10.666 -48.5 -18.999s-27.5 -18.833 -37.5 -31.5s-15 -27.334 -15 -44.001c0 -13.333 3.16699 -24.333 9.5 -33s14.166 -13 23.499 -13c8.66699 0 18.667 4.66699 30 14v-1z" />
    <glyph glyph-name="H" unicode="H" horiz-adv-x="488" 
d="M39 163c-3.33301 0 -5.00488 1.6709 -5.00488 5.00391c2 22.667 6.33301 41.334 13 56.001s15.334 26.5 26.001 35.5s23 15.5 37 19.5s29 6.33301 45 7l117 296c0.666992 2 2.33398 3 5.00098 3h50c4.66699 0 6.33398 -2.33301 5.00098 -7l-117 -294l35 -2
c12 -1.33301 23.833 -2.33301 35.5 -3s23.167 -1 34.5 -1h11l49.5 125.5l71.5 178.5c0.666992 2 2.33398 3 5.00098 3h50c4.66699 0 6.33398 -2.33301 5.00098 -7l-37.5 -91.5l-30.5 -76l-25.5 -63.5l-21.5 -55c12 5.33301 23.333 14 34 26
c1.33301 1.33301 2.66602 2 3.99902 2h22c5.33301 0 6.66602 -2 3.99902 -6c-8.66699 -18.667 -20 -32.834 -34 -42.501s-29 -16.834 -45 -21.501c-13.333 -32.667 -23.666 -58.834 -30.999 -78.501s-13 -35.5 -17 -47.5s-6.5 -21.167 -7.5 -27.5s-1.5 -12.166 -1.5 -17.499
c0 -18 3.83301 -30.667 11.5 -38s16.834 -11 27.501 -11c15.333 0 31.833 5.66699 49.5 17s31.167 26.666 40.5 45.999l-1 -1c2 6 7 9 15 9c11.333 0 17 -5 17 -15c-6 -13.333 -13.833 -25.333 -23.5 -36s-20.667 -19.667 -33 -27s-25.166 -13 -38.499 -17
s-26.333 -6 -39 -6c-23.333 0 -43.166 6.5 -59.499 19.5s-24.5 33.5 -24.5 61.5c0 6.66699 0.333008 13.167 1 19.5s2.66699 15.166 6 26.499s8.33301 26.166 15 44.499l28 73.5c-12 0 -24.333 0.5 -37 1.5s-25.334 2.16699 -38.001 3.5l-38 4l-15.5 -39l-15.5 -39l-53 -136
c-1.33301 -2 -3 -3 -5 -3h-52c-4.66699 0 -6.33398 2.33301 -5.00098 7l84 209c-20.667 -3.33301 -38 -10.833 -52 -22.5s-22.333 -32.167 -25 -61.5c0 -3.33301 -1.66699 -5 -5 -5z" />
    <glyph glyph-name="I" unicode="I" horiz-adv-x="416" 
d="M394 585c4.66699 0 6.33398 -2.32812 5.00098 -6.99512l-41 -101.5l-38 -91l-38.5 -90.5l-41.5 -98c14 -3.33301 27.333 -5.83301 40 -7.5s24.334 -2.5 35.001 -2.5c19.333 0 37.166 3.16699 53.499 9.5s32.5 17.166 48.5 32.499h-1c2 2 6.33301 3 13 3
c7.33301 0 11.666 -1.33301 12.999 -4s2 -6.33398 2 -11.001c0 -5.33301 -2.33301 -8 -7 -8c-20.667 -18.667 -41.334 -31.5 -62.001 -38.5s-40.667 -10.5 -60 -10.5c-16 0 -31 1.16699 -45 3.5s-27.667 5.16602 -41 8.49902c-6.66699 -15.333 -14.5 -31 -23.5 -47
s-19 -30.5 -30 -43.5s-23.167 -23.667 -36.5 -32s-28 -12.5 -44 -12.5c-22 0 -37.667 6.16699 -47 18.5s-14 27.166 -14 44.499s3.83301 32.666 11.5 45.999s17.5 24.5 29.5 33.5s25.833 15.833 41.5 20.5s31.5 7 47.5 7h9.5c3 0 6.16699 -0.333008 9.5 -1l111 266l45 110
c0.666992 2 2.33398 3 5.00098 3h50zM114 87.0049c12 11.333 22.834 25.668 32.501 43.001s18.167 34 25.5 50h-9c-18 0 -33.333 -2.66699 -46 -8s-23 -12 -31 -20s-14 -16.667 -18 -26s-6 -18 -6 -26c0 -10.667 2 -18.334 6 -23.001s9 -7 15 -7c4 0 8.66699 1.5 14 4.5
s10.666 7.16699 15.999 12.5h1z" />
    <glyph glyph-name="J" unicode="J" horiz-adv-x="411" 
d="M397 585c4.66699 0 6.33496 -2.33203 5.00195 -6.99902l-41 -101.5l-37.5 -91l-38 -90l-41.5 -97.5c14 -3.33301 27.167 -5.83301 39.5 -7.5s24.166 -2.5 35.499 -2.5c19.333 0 37.166 3.16699 53.499 9.5s32.5 17.166 48.5 32.499h-1c2 2 6.33301 3 13 3
c7.33301 0 11.666 -1.33301 12.999 -4s2 -6.33398 2 -11.001c0 -5.33301 -2.33301 -8 -7 -8c-20.667 -18.667 -41.334 -31.5 -62.001 -38.5s-40.667 -10.5 -60 -10.5c-16 0 -31 1.16699 -45 3.5s-27.667 5.16602 -41 8.49902c-6.66699 -15.333 -14.5 -31 -23.5 -47
s-19 -30.5 -30 -43.5s-23.167 -23.667 -36.5 -32s-28 -12.5 -44 -12.5c-22 0 -37.667 6.16699 -47 18.5s-14 27.166 -14 44.499s3.83301 32.666 11.5 45.999s17.5 24.5 29.5 33.5s25.833 15.833 41.5 20.5s31.5 7 47.5 7h9.5c3 0 6.16699 -0.333008 9.5 -1l85 203
c10.667 24.667 20.5 48.834 29.5 72.501s18.833 47.834 29.5 72.501c-3.33301 0 -6.16602 0.166992 -8.49902 0.5s-5.16602 0.5 -8.49902 0.5c-6.66699 0.666992 -13 1.16699 -19 1.5s-12 0.5 -18 0.5c-33.333 0 -59.5 -4.83301 -78.5 -14.5s-28.5 -29.167 -28.5 -58.5
c0 -5.33301 0.333008 -9.66602 1 -12.999c1.33301 -4 -0.333984 -6 -5.00098 -6l-43 -1c-3.33301 0 -5 1.66699 -5 5c2 24.667 6.16699 44.834 12.5 60.501s14.833 27.834 25.5 36.501s23.834 14.667 39.501 18s33.5 5 53.5 5c9.33301 0 19 -0.333008 29 -1
s20.667 -1.33398 32 -2.00098c6 0 12 -0.333008 18 -1s12 -1 18 -1h51zM118.001 88.001c12 11.333 22.834 25.668 32.501 43.001s18.167 34 25.5 50h-9c-18 0 -33.333 -2.66699 -46 -8s-23 -12 -31 -20s-14 -16.667 -18 -26s-6 -18 -6 -26c0 -10.667 2 -18.334 6 -23.001
s9 -7 15 -7c4 0 8.66699 1.5 14 4.5s10.666 7.16699 15.999 12.5h1z" />
    <glyph glyph-name="K" unicode="K" horiz-adv-x="442" 
d="M39 37c-2 0 -3.66504 0.669922 -4.99805 2.00293s-1.33301 3 0 5l111 233.5l144 304.5c2 2 3.33301 3 4 3h59c5.33301 0 7 -2.33301 5 -7l-104 -217c18.667 15.333 38.167 28.666 58.5 39.999s41.166 17 62.499 17c15.333 0 31.333 -3.66699 48 -11
c3.33301 -2 4.33301 -4.33301 3 -7l-12 -33c-0.666992 -2.66699 -3 -3.33398 -7 -2.00098c-14 6.66699 -29.333 10 -46 10c-9.33301 0 -20.666 -2 -33.999 -6s-26.5 -9.33301 -39.5 -16s-24.833 -14.334 -35.5 -23.001s-18.334 -17.334 -23.001 -26.001
c12 -3.33301 21.667 -8.66602 29 -15.999s13.166 -16.333 17.499 -27s7.16602 -22.334 8.49902 -35.001s2 -26 2 -40v-19c0 -7.33301 -0.333008 -13.666 -1 -18.999c0 -4.66699 -0.166992 -10.5 -0.5 -17.5s-0.5 -12.167 -0.5 -15.5c0 -13.333 1 -24.5 3 -33.5
s6.33301 -13.5 13 -13.5c10.667 0 20.5 7 29.5 21s13.5 29.667 13.5 47c0 3.33301 1.5 6.33301 4.5 9s7.16699 4 12.5 4c11.333 0 17 -7.66699 17 -23c0 -6.66699 -1.83301 -15 -5.5 -25s-9 -19.833 -16 -29.5s-16 -17.834 -27 -24.501s-23.833 -10 -38.5 -10
c-15.333 0 -27.166 4.16699 -35.499 12.5s-14.5 19.333 -18.5 33s-6.33301 28.834 -7 45.501s-1 33 -1 49c0 21.333 -1 40.833 -3 58.5s-6.66699 28.167 -14 31.5l-20 -43.5l-20 -43.5l-65 -140c-2 -2 -3.66699 -3 -5 -3h-61z" />
    <glyph glyph-name="L" unicode="L" horiz-adv-x="348" 
d="M77 68l-2.00098 3c0.666992 0 1.33398 0.333008 2.00098 1v-4zM76.999 72l6.5 6.5c3 3 6.5 7.83301 10.5 14.5c-11.333 -6 -17 -12.667 -17 -20v-1zM394.999 108c0 -2 -0.999023 -3.00391 -2.99902 -3.00391c-16.667 -9.33301 -36 -16 -58 -20s-44.333 -6 -67 -6
c-20.667 0 -40.667 1.33301 -60 4s-36.666 6.66699 -51.999 12c-12.667 -22 -25.334 -37.167 -38.001 -45.5s-24.334 -12.5 -35.001 -12.5s-19.167 3.33301 -25.5 10s-9.5 14.667 -9.5 24c0 11.333 4.83301 22.333 14.5 33s26.834 17.334 51.501 20.001
c20.667 40.667 42.834 88.334 66.501 143.001l70.5 167c11.333 25.333 22 50.5 32 75.5s20.333 49.167 31 72.5c2 2 3.66699 3 5 3h49c5.33301 0 7 -2.33301 5 -7l-39.5 -91l-41.5 -98l-60 -141.5c-20.667 -47 -41 -89.5 -61 -127.5
c12.667 -3.33301 26 -6.16602 40 -8.49902s29 -3.5 45 -3.5c21.333 0 43.166 2.66699 65.499 8s44.166 15 65.499 29c5.33301 2.66699 8 1.33398 8 -3.99902z" />
    <glyph glyph-name="M" unicode="M" horiz-adv-x="636" 
d="M23 37c-2 0 -3.66406 0.664062 -4.99707 1.99707s-1.33301 3 0 5l47 109.5l52 123.5l64.5 152.5l64.5 152.5c0.666992 2 2.33398 3 5.00098 3h61c4.66699 0 6.33398 -2.33301 5.00098 -7l-5 -11l-17 -41.5c-3.33301 -8.33301 -6.66602 -15.5 -9.99902 -21.5
c19.333 15.333 35.5 25.833 48.5 31.5s26.167 8.5 39.5 8.5c16 0 26.667 -5.83301 32 -17.5s8 -25.167 8 -40.5c0 -5.33301 -0.166992 -10.333 -0.5 -15s-0.833008 -9.33398 -1.5 -14.001c13.333 15.333 27.5 29.333 42.5 42s29.833 23.667 44.5 33s29 16.5 43 21.5
s26.667 7.5 38 7.5c15.333 0 26.833 -4.33301 34.5 -13s11.5 -22.667 11.5 -42c0 -17.333 -2.5 -36.166 -7.5 -56.499s-11.667 -41.333 -20 -63s-17.5 -43.5 -27.5 -65.5l-30 -65c-16.667 -34 -31.334 -65.167 -44.001 -93.5s-19 -50.833 -19 -67.5
c0 -18 9.33301 -27 28 -27c8.66699 0 17.167 2.16699 25.5 6.5s16 10.5 23 18.5s12.667 17.167 17 27.5s6.5 21.5 6.5 33.5c0 6.66699 1.66699 11.834 5 15.501s7.66602 5.5 12.999 5.5s9.66602 -1.83301 12.999 -5.5s5 -8.83398 5 -15.501
c0 -17.333 -3.83301 -33.166 -11.5 -47.499s-17.334 -26.666 -29.001 -36.999s-24.667 -18.333 -39 -24s-28.5 -8.5 -42.5 -8.5c-26 0 -44.333 6 -55 18s-16 28 -16 48c0 14 2.33301 29.667 7 47s10.667 35.5 18 54.5s15.666 38.5 24.999 58.5l28 60
c17.333 36.667 32.833 71.334 46.5 104.001s20.5 59 20.5 79c0 7.33301 -3 11 -9 11c-10 0 -23.333 -5.33301 -40 -16s-33.834 -24.167 -51.501 -40.5s-34 -33.833 -49 -52.5s-25.5 -36 -31.5 -52l-71 -190c-1.33301 -2 -3 -3 -5 -3h-61
c-4.66699 0 -6.33398 2.33301 -5.00098 7l50 121l27.5 65.5c7.66699 18.333 13.834 34.5 18.501 48.5s8 26.5 10 37.5s3 21.833 3 32.5c0 12.667 -3 19 -9 19s-13.5 -3.16699 -22.5 -9.5s-18 -13.5 -27 -21.5s-17 -15.667 -24 -23l-13.5 -14l1 1l-35 -82.5l-36 -83.5
l-35.5 -80l-31.5 -71l-15.5 -35l-15.5 -35c-1.33301 -2 -3 -3 -5 -3h-59z" />
    <glyph glyph-name="N" unicode="N" horiz-adv-x="469" 
d="M28 37c-2 0 -3.66309 0.664062 -4.99609 1.99707s-1.33301 3 0 5l228 538c0.666992 2 2.33398 3 5.00098 3h62c4.66699 0 6.33398 -2.33301 5.00098 -7l-33 -80c22 19.333 44.167 34.5 66.5 45.5s42.5 16.5 60.5 16.5c15.333 0 26.833 -4.33301 34.5 -13
s11.5 -22.667 11.5 -42c0 -17.333 -2.5 -36.166 -7.5 -56.499s-11.5 -41.333 -19.5 -63s-17.167 -43.5 -27.5 -65.5l-30.5 -64l-42.5 -93.5c-12.333 -28.333 -18.5 -50.833 -18.5 -67.5c0 -18 9.33301 -27 28 -27c8 0 16.333 2.16699 25 6.5s16.5 10.5 23.5 18.5
s12.667 17.167 17 27.5s6.5 21.5 6.5 33.5c0 6.66699 1.66699 11.834 5 15.501s7.66602 5.5 12.999 5.5c4.66699 0 8.66699 -1.83301 12 -5.5s5 -8.83398 5 -15.501c0 -17.333 -3.66699 -33.166 -11 -47.499s-16.833 -26.666 -28.5 -36.999s-24.667 -18.333 -39 -24
s-28.5 -8.5 -42.5 -8.5c-26.667 0 -45.334 6 -56.001 18s-16 28 -16 48c0 14 2.16699 29.667 6.5 47s10.166 35.5 17.499 54.5s15.666 38.5 24.999 58.5l28 60l25 53.5c8 17.667 15.167 34.5 21.5 50.5s11.333 30.667 15 44s5.5 25 5.5 35c0 7.33301 -3 11 -9 11
c-7.33301 0 -17 -3.33301 -29 -10s-24.833 -15.5 -38.5 -26.5s-27.334 -23.333 -41.001 -37s-25.834 -27.5 -36.501 -41.5l1 1l-41 -95l-37.5 -87l-38 -87l-41.5 -94c-1.33301 -2 -3 -3 -5 -3h-59z" />
    <glyph glyph-name="O" unicode="O" horiz-adv-x="413" 
d="M298 464h-3.00098c-2 1.33301 -2.66699 3.33301 -2 6s2.33398 4 5.00098 4v-10zM294.999 464c-4.66699 1.33301 -7.66504 3.33203 -8.99805 5.99902s-2 4.66699 -2 6c0 4 2 7.16699 6 9.5s8.66699 3.5 14 3.5c4 0 8.5 -0.666992 13.5 -2s10.833 -4.66602 17.5 -9.99902
c5.33301 9.33301 9.66602 19.166 12.999 29.499s5 19.5 5 27.5c0 12.667 -3.33301 19 -10 19c-15.333 0 -32.5 -7 -51.5 -21s-38.333 -32.667 -58 -56s-39 -50 -58 -80s-36 -61 -51 -93s-27 -64 -36 -96s-13.5 -61.333 -13.5 -88c0 -14.667 2.16699 -26.167 6.5 -34.5
s11.5 -12.5 21.5 -12.5c16.667 0 34.167 5.33301 52.5 16s36 24.667 53 42s33.167 37.333 48.5 60s28.666 46.167 39.999 70.5s20.333 48.5 27 72.5s10 46 10 66c0 15.333 -2.83301 28.833 -8.5 40.5s-15.5 19.834 -29.5 24.501h-1zM394.001 535.999
c0 -11.333 -3 -23.999 -9 -37.999s-16 -29.667 -30 -47c8 -16 12 -33.667 12 -53c0 -24.667 -3.83301 -50.667 -11.5 -78s-18.167 -54.333 -31.5 -81s-29 -52.167 -47 -76.5s-37 -45.833 -57 -64.5s-41 -33.5 -63 -44.5s-43.333 -16.5 -64 -16.5
c-28 0 -47.667 8.16699 -59 24.5s-17 38.166 -17 65.499c0 28.667 4.83301 60 14.5 94s22.667 68 39 102s35.333 66.833 57 98.5s44.334 59.5 68.001 83.5s47.667 43.333 72 58s47.5 22 69.5 22c17.333 0 31.166 -4.16699 41.499 -12.5s15.5 -20.5 15.5 -36.5z" />
    <glyph glyph-name="P" unicode="P" horiz-adv-x="456" 
d="M274 509v-1c-0.666992 0 -1.16699 -0.166992 -1.5 -0.5s-0.833008 -0.5 -1.5 -0.5zM360 536c-14.667 0 -29.666 -3.00098 -44.999 -9.00098s-29 -12.333 -41 -19l-42 -112.5l-45 -110.5c6.66699 -2.66699 13.167 -4.5 19.5 -5.5s12.166 -1.5 17.499 -1.5
c24 0 46.833 7.16699 68.5 21.5s40.667 31.833 57 52.5s29.333 42.834 39 66.501s14.5 44.5 14.5 62.5c0 21.333 -4.33301 35.833 -13 43.5s-18.667 11.5 -30 11.5zM26.001 36.999c-4.66699 0 -6.33398 2.33398 -5.00098 7.00098l113 284l53.5 136.5l46.5 117.5
c0.666992 2 2.33398 3 5.00098 3h57c5.33301 0 7 -2.33301 5 -7l-12 -32c13.333 6 27.666 11 42.999 15s30 6 44 6c23.333 0 43.333 -6 60 -18s25 -33.667 25 -65c0 -24.667 -6.16699 -50.834 -18.5 -78.501s-28.833 -53 -49.5 -76s-44.5 -42.167 -71.5 -57.5
s-55.5 -23 -85.5 -23c-9.33301 0 -19.333 0.833008 -30 2.5s-20.667 4.16699 -30 7.5l-33 -86l-24.5 -62.5l-28.5 -70.5c-1.33301 -2 -2.66602 -3 -3.99902 -3h-60z" />
    <glyph glyph-name="Q" unicode="Q" horiz-adv-x="371" 
d="M96 120c-1.33301 -2.66699 -1.33398 -3.33301 -0.000976562 -2l1 2c1.33301 2.66699 1.83301 4 1.5 4s-1.16602 -1.33301 -2.49902 -4zM341.999 44.001c0 -3.33301 -1.66895 -4.99414 -5.00195 -4.99414c-6 -0.666992 -12 -1.16699 -18 -1.5s-12 -0.5 -18 -0.5
c-26 0 -52.333 3.16699 -79 9.5s-55.667 17.166 -87 32.499c-8.66699 -14 -18.167 -26 -28.5 -36s-25.833 -15 -46.5 -15c-11.333 0 -20.166 3.33301 -26.499 10s-9.5 14.667 -9.5 24c0 11.333 5 22.166 15 32.499s25 15.5 45 15.5h7l5 8c2 2 3.33301 4 4 6
c-15.333 5.33301 -26.333 14.333 -33 27s-10 27 -10 43c0 23.333 3.33301 49.166 10 77.499s15.834 56.666 27.501 84.999s25.667 55.833 42 82.5s34 50.5 53 71.5s39 37.667 60 50s42.5 18.5 64.5 18.5c16 0 28 -4 36 -12s12 -18.667 12 -32c0 -8.66699 -2.5 -19 -7.5 -31
s-11.833 -24.333 -20.5 -37c9.33301 -14.667 14 -33.334 14 -56.001c0 -25.333 -5.66699 -52.833 -17 -82.5s-26 -58.167 -44 -85.5s-38.167 -51.833 -60.5 -73.5s-44.5 -36.5 -66.5 -44.5l-13 -21c23.333 -10 45 -17.167 65 -21.5s38.667 -6.5 56 -6.5c21.333 0 44 2 68 6
c4 1.33301 6 -0.333984 6 -5.00098v-33zM267.997 499.007c0 4.66699 1.66699 6.33105 5 4.99805c16 -2.66699 29 -7.66699 39 -15c4.66699 8 8.33398 16 11.001 24s4 14.667 4 20c0 10 -2.33301 15 -7 15c-11.333 0 -24.333 -6.16699 -39 -18.5s-29.667 -28.666 -45 -48.999
s-30.333 -43.333 -45 -69s-27.667 -51.834 -39 -78.501s-20.5 -52.5 -27.5 -77.5s-10.5 -47.167 -10.5 -66.5c0 -5.33301 0.333008 -10.166 1 -14.499s1.66699 -8.16602 3 -11.499l12 25c2 2 3.33301 3 4 3h49c4.66699 0 6 -2.33301 4 -7l-9 -17
c17.333 12 34.166 27.667 50.499 47s31 40.333 44 63s23.333 45.667 31 69s11.5 45 11.5 65c0 17.333 -3.33301 31.833 -10 43.5s-17.667 19.167 -33 22.5c-2.66699 0 -4 1.66699 -4 5v17zM83.9971 83.0039l-8.99902 -2c1.33301 4 2.66602 7 3.99902 9zM54.998 62.0039
c5.33301 0 12 6.33203 20 18.999c-15.333 -3.33301 -23 -8.66602 -23 -15.999c0 -2 1 -3 3 -3z" />
    <glyph glyph-name="R" unicode="R" horiz-adv-x="415" 
d="M21 37c-4.66699 0 -6.33105 2.33203 -4.99805 6.99902l41.5 105.5l42.5 113.5l59 154l65 165c0.666992 2 2.33398 3 5.00098 3h51c4 0 5.33301 -2 4 -6l-9 -27c11.333 6 22.5 10.333 33.5 13s22.167 4 33.5 4c21.333 0 39.666 -7 54.999 -21s23 -37 23 -69
c0 -18.667 -4 -38.5 -12 -59.5s-20.333 -40.333 -37 -58s-37.5 -32.667 -62.5 -45s-54.5 -19.5 -88.5 -21.5c24.667 -21.333 40 -44.666 46 -69.999s9 -50.333 9 -75c0 -5.33301 -0.166992 -10.666 -0.5 -15.999s-0.5 -10.666 -0.5 -15.999v-26
c0 -15.333 1.66699 -27.833 5 -37.5s11.666 -14.5 24.999 -14.5c9.33301 0 18.5 5.66699 27.5 17s13.5 25 13.5 41c0 6 1.66699 10.833 5 14.5s7 5.5 11 5.5s8 -1.83301 12 -5.5s6 -8.83398 6 -15.501c0 -13.333 -2.66699 -25.333 -8 -36s-12.333 -19.834 -21 -27.501
s-18.334 -13.667 -29.001 -18s-21 -6.5 -31 -6.5c-16.667 0 -29.667 3.83301 -39 11.5s-16.5 18 -21.5 31s-8.5 27.833 -10.5 44.5s-3.33301 33.667 -4 51c-0.666992 13.333 -1.66699 27 -3 41s-3.5 27.167 -6.5 39.5s-7.16699 23.5 -12.5 33.5s-12.333 17.667 -21 23
c-6.66699 -13.333 -12.5 -27.333 -17.5 -42s-10.167 -30.667 -15.5 -48c-7.33301 -19.333 -15.5 -42 -24.5 -68s-20.167 -54.667 -33.5 -86c-1.33301 -2 -3 -3 -5 -3h-55zM189.003 325.999c2 0 4.49902 -0.166992 7.49902 -0.5s5.16699 -0.5 6.5 -0.5
c20.667 0 40.834 4.16699 60.501 12.5s36.834 19.833 51.501 34.5s26.5 31.5 35.5 50.5s13.5 39.5 13.5 61.5c0 20 -3.5 34 -10.5 42s-15.833 12 -26.5 12c-11.333 0 -22.833 -2.66699 -34.5 -8s-22.834 -12.333 -33.501 -21z" />
    <glyph glyph-name="S" unicode="S" horiz-adv-x="315" 
d="M277 404c-2.66699 0 -4.33105 1.16406 -4.99805 3.49707s0 4.16602 2 5.49902c9.33301 8 16.166 18.333 20.499 31s6.5 25.667 6.5 39c0 15.333 -3.33301 29.166 -10 41.499s-16.667 18.5 -30 18.5c-10.667 0 -20.334 -7.16699 -29.001 -21.5s-13 -35.5 -13 -63.5
c0 -18.667 1.5 -37.667 4.5 -57l9.5 -59c3.33301 -19.333 6.33301 -38.666 9 -57.999s4 -38.666 4 -57.999c0 -24 -3 -47.167 -9 -69.5s-17.333 -43.5 -34 -63.5c-16 -21.333 -33.5 -36 -52.5 -44s-37.167 -12 -54.5 -12c-31.333 0 -54.166 8.33301 -68.499 25
s-21.5 37 -21.5 61c0 20 4.33301 38 13 54s20.167 30.333 34.5 43s30.666 23.5 48.999 32.5s37.166 16.167 56.499 21.5c4 0.666992 6 -1 6 -5l-3 -37c0 -3.33301 -1.66699 -5 -5 -5c-15.333 -0.666992 -30 -3.5 -44 -8.5s-26.667 -11.833 -38 -20.5
s-20.333 -19.334 -27 -32.001s-10 -26.667 -10 -42s4.16699 -28.166 12.5 -38.499s19.5 -15.5 33.5 -15.5c12.667 0 25.334 4 38.001 12s24 18.833 34 32.5s18.167 29.834 24.5 48.501s9.5 38.667 9.5 60s-1.66699 43 -5 65s-7 43.667 -11 65l-9.5 54.5
c-3 17.667 -4.5 34.167 -4.5 49.5c0 21.333 3 39.5 9 54.5s13.667 27.333 23 37s19.5 16.834 30.5 21.501s21.833 7 32.5 7c13.333 0 25.166 -2.83301 35.499 -8.5s19 -13 26 -22s12.333 -19.5 16 -31.5s5.5 -24.333 5.5 -37c0 -12 -1.83301 -24.167 -5.5 -36.5
s-9.16699 -24.166 -16.5 -35.499c-1.33301 -1.33301 -2.66602 -2 -3.99902 -2h-35z" />
    <glyph glyph-name="T" unicode="T" horiz-adv-x="321" 
d="M33 454c-3.33301 0 -5.00195 1.33105 -5.00195 3.99805c2 24.667 8.33301 44.834 19 60.501s24.5 27.834 41.5 36.501s36.333 14.667 58 18s44.834 5 69.501 5c16.667 0 33.334 -0.5 50.001 -1.5s33.667 -2.16699 51 -3.5c16 -1.33301 32 -2.33301 48 -3s31.667 -1 47 -1
c31.333 0 59 2.83301 83 8.5s41.667 16.167 53 31.5c1.33301 1.33301 2.66602 2 3.99902 2h47c4.66699 0 6 -2.33301 4 -7c-7.33301 -14 -16.666 -25.333 -27.999 -34s-24.333 -15.667 -39 -21s-30.834 -9 -48.501 -11s-36.167 -3 -55.5 -3
c-13.333 0 -26.166 0.333008 -38.499 1s-25.5 1.66699 -39.5 3l-82 -176l-62 -130l-47.5 -100.5c-14.333 -29.667 -28.5 -60.5 -42.5 -92.5c-2 -2 -3.66699 -3 -5 -3h-55c-5.33301 0 -6.66602 2.33301 -3.99902 7l46.5 95.5l55.5 118.5l134 284
c-14 1.33301 -27.667 2.33301 -41 3s-26.666 1 -39.999 1c-20.667 0 -39.834 -1.16699 -57.501 -3.5s-33.334 -6.83301 -47.001 -13.5s-24.667 -15.667 -33 -27s-13.5 -26 -15.5 -44c0 -2 -1.33301 -3 -4 -3z" />
    <glyph glyph-name="U" unicode="U" horiz-adv-x="465" 
d="M365 49c0 -2.66699 -0.998047 -4.33594 -2.99805 -5.00293c-8.66699 -3.33301 -16.667 -5.66602 -24 -6.99902s-14 -2 -20 -2c-17.333 0 -29.666 6 -36.999 18s-11 28.333 -11 49c0 15.333 1.83301 32.5 5.5 51.5s8.5 38.5 14.5 58.5s12.5 39.5 19.5 58.5
s13.833 36.5 20.5 52.5c-16.667 -23.333 -34.834 -47.333 -54.501 -72s-39.5 -47 -59.5 -67s-39.667 -36.5 -59 -49.5s-37.333 -19.5 -54 -19.5c-20 0 -34 5.33301 -42 16s-12 25.334 -12 44.001c0 24.667 5.66699 54.167 17 88.5s23.666 68.833 36.999 103.5l31.5 88
c9.66699 27.333 14.5 49.666 14.5 66.999c0 18.667 -7.33301 28 -22 28c-10 0 -20.5 -7.5 -31.5 -22.5s-17.833 -39.167 -20.5 -72.5c0 -3.33301 -1.66699 -6.16602 -5 -8.49902s-7.66602 -3.5 -12.999 -3.5c-3.33301 0 -6.83301 1.16699 -10.5 3.5s-5.5 5.5 -5.5 9.5
c1.33301 16.667 4 32.334 8 47.001s10 27.5 18 38.5s17.833 19.667 29.5 26s26.167 9.5 43.5 9.5c22 0 37.5 -6.33301 46.5 -19s13.5 -29 13.5 -49c0 -14 -1.66699 -29.333 -5 -46s-7.5 -34.167 -12.5 -52.5s-10.833 -36.833 -17.5 -55.5l-20 -54l-27.5 -79
c-8.33301 -24.667 -12.5 -43.334 -12.5 -56.001c0 -12 3.66699 -18 11 -18c12 0 27.333 8.16699 46 24.5s38.667 37.166 60 62.499s43 53.333 65 84l62 89c19.333 28.667 36.166 54.667 50.499 78l30.5 50c2.66699 4 6.66699 10.833 12 20.5s9.66602 18.167 12.999 25.5l3 3
h62c4.66699 0 6 -2.33301 4 -7c-23.333 -42 -46.333 -87.167 -69 -135.5s-43 -95.166 -61 -140.499s-32.5 -86.666 -43.5 -123.999s-16.5 -66 -16.5 -86c0 -15.333 3.33301 -23 10 -23c5.33301 0 10.333 1.33301 15 4c4.66699 2 7 0.666992 7 -4z" />
    <glyph glyph-name="V" unicode="V" horiz-adv-x="451" 
d="M539 557c4.66699 0 6.00391 -2.33105 4.00391 -6.99805c-12.667 -24 -28 -50.667 -46 -80s-37.833 -60 -59.5 -92s-44.667 -64 -69 -96s-49.166 -62.333 -74.499 -91s-50.5 -54.667 -75.5 -78s-49.167 -42 -72.5 -56c-22 -13.333 -40.667 -20 -56 -20
c-17.333 0 -29.833 4.83301 -37.5 14.5s-11.5 22.834 -11.5 39.501c0 14 2.16699 30 6.5 48s10.166 37 17.499 57l24 62.5l27 64.5l24.5 58.5c7.66699 19 14.5 37 20.5 54s10.833 32.5 14.5 46.5s5.5 26 5.5 36c0 18.667 -7.33301 28 -22 28s-27.834 -3.33301 -39.501 -10
s-21.834 -15.334 -30.501 -26.001s-15.5 -22.5 -20.5 -35.5s-7.83301 -25.833 -8.5 -38.5c-4.66699 -8.66699 -10.334 -13 -17.001 -13c-10.667 0 -16 3.66699 -16 11c0 24 4.66699 45 14 63s21.166 33 35.499 45s29.833 21 46.5 27s32 9 46 9c26 0 44.333 -7 55 -21
s16 -32.333 16 -55c0 -17.333 -2.66699 -36.833 -8 -58.5s-12.166 -44.167 -20.499 -67.5s-17.5 -47 -27.5 -71l-29 -69c-14.667 -33.333 -27.167 -63.333 -37.5 -90s-15.5 -46.334 -15.5 -59.001c0 -7.33301 2 -11 6 -11c5.33301 0 12.5 2.83301 21.5 8.5
s19.5 12.834 31.5 21.501c21.333 17.333 43.166 38.166 65.499 62.499s44.5 50.166 66.5 77.499s43.5 55.5 64.5 84.5s40.5 57.167 58.5 84.5l49 77c14.667 24 26.667 44.667 36 62c2 2 3.33301 3 4 3h34z" />
    <glyph glyph-name="W" unicode="W" horiz-adv-x="721" 
d="M484 430c4.66699 0 5.99707 -2.33301 3.99707 -7l-43.5 -92c-15.667 -34 -30.167 -67.333 -43.5 -100s-24.5 -62.5 -33.5 -89.5s-13.5 -46.5 -13.5 -58.5c0 -5.33301 0.666992 -8 2 -8c18.667 6 39.834 19.333 63.501 40s48.167 45.334 73.5 74.001s51 60.167 77 94.5
l74 101.5l63.5 94.5c19 29.667 34.5 54.834 46.5 75.501c1.33301 1.33301 2.66602 2 3.99902 2h35c4.66699 0 6 -2.33301 4 -7c-12.667 -24 -28 -50.667 -46 -80s-38 -60 -60 -92s-45.167 -64 -69.5 -96s-49.166 -62.333 -74.499 -91s-50.5 -54.667 -75.5 -78
s-49.167 -42 -72.5 -56c-11.333 -7.33301 -21.666 -12.5 -30.999 -15.5s-17.666 -4.5 -24.999 -4.5c-17.333 0 -29.666 4.83301 -36.999 14.5s-11 22.834 -11 39.501c0 19.333 4 42.166 12 68.499s18 54.5 30 84.5c-21.333 -26 -43.5 -51.5 -66.5 -76.5
s-45.5 -47.167 -67.5 -66.5s-43 -34.833 -63 -46.5s-37.333 -17.5 -52 -17.5c-17.333 0 -29.833 4.83301 -37.5 14.5s-11.5 22.834 -11.5 39.501c0 14 2.16699 30 6.5 48s10.166 37 17.499 57l24 62.5l27 64.5l24.5 58.5c7.66699 19 14.5 37 20.5 54s10.833 32.5 14.5 46.5
s5.5 26 5.5 36c0 18.667 -7.33301 28 -22 28s-27.834 -3.33301 -39.501 -10s-21.834 -15.334 -30.501 -26.001s-15.5 -22.5 -20.5 -35.5s-7.83301 -25.833 -8.5 -38.5c-4.66699 -8.66699 -10.334 -13 -17.001 -13c-10.667 0 -16 3.66699 -16 11c0 24 4.66699 45 14 63
s21.166 33 35.499 45s29.833 21 46.5 27s32 9 46 9c26 0 44.333 -7 55 -21s16 -32.333 16 -55c0 -17.333 -2.66699 -36.833 -8 -58.5s-12.166 -44.167 -20.499 -67.5s-17.5 -47 -27.5 -71l-29 -69c-14.667 -33.333 -27.167 -63.333 -37.5 -90s-15.5 -46.334 -15.5 -59.001
c0 -7.33301 2 -11 6 -11c5.33301 0 12.333 2.66699 21 8s19.334 12.666 32.001 21.999c20 15.333 40.333 33.833 61 55.5s41.334 45 62.001 70s40.667 51 60 78l56 79.5l-1 -1l15 39c0.666992 2 2.33398 3 5.00098 3h67z" />
    <glyph glyph-name="X" unicode="X" horiz-adv-x="634" 
d="M25 -3c-9.33301 0.666992 -13.998 4.66895 -13.998 12.002c0 9.33301 6.33301 14 19 14c9.33301 -1.33301 18.333 -2.33301 27 -3s16.667 -1 24 -1c44 0 83 9.16699 117 27.5s64.167 42.5 90.5 72.5s49.833 64 70.5 102s40 76.333 58 115c0 7.33301 -1 17.833 -3 31.5
s-4.83301 28.5 -8.5 44.5s-8 32.167 -13 48.5s-10.333 31.166 -16 44.499s-11.834 24.333 -18.501 33s-13.667 13 -21 13c-0.666992 0 -1.33398 -0.166992 -2.00098 -0.5s-1.66699 -0.5 -3 -0.5h-4c-4 0 -7.33301 0.5 -10 1.5s-4.66699 3.5 -6 7.5
c0 4.66699 1.5 8.16699 4.5 10.5s6.5 4 10.5 5s8 1.66699 12 2s7.33301 0.5 10 0.5c16 0 30 -4 42 -12s22.5 -18.833 31.5 -32.5s16.5 -29.834 22.5 -48.501s11.333 -38.667 16 -60c12.667 24.667 26.167 46.5 40.5 65.5s30.833 35 49.5 48s40.167 22.667 64.5 29
s53.5 9.5 87.5 9.5c7.33301 -4 11 -8.66699 11 -14c0 -3.33301 -1.5 -6.16602 -4.5 -8.49902s-6.16699 -3.5 -9.5 -3.5h-9c-27.333 0 -51.333 -6 -72 -18s-39.5 -28 -56.5 -48s-32.5 -43.167 -46.5 -69.5s-27.333 -53.833 -40 -82.5l7.5 -51
c3 -20 6.83301 -40.833 11.5 -62.5s10.5 -43.334 17.5 -65.001s15.5 -41.167 25.5 -58.5s21.667 -31.333 35 -42s28.666 -16 45.999 -16h4.5c1.66699 0 3.83398 0.333008 6.50098 1c0.666992 0 1.5 0.166992 2.5 0.5s1.83301 0.5 2.5 0.5c12 0 18 -4.33301 18 -13
c0 -4 -1.83301 -7 -5.5 -9s-7.83398 -3.5 -12.501 -4.5s-9.66699 -1.5 -15 -1.5h-12c-28 0 -52 6.16699 -72 18.5s-36.667 29 -50 50s-24.333 45.5 -33 73.5s-16 57.333 -22 88c-16.667 -34 -34.667 -66 -54 -96s-42 -56.333 -68 -79s-56.333 -40.667 -91 -54
s-76 -20 -124 -20c-11.333 0 -22.666 0.333008 -33.999 1s-23 2 -35 4z" />
    <glyph glyph-name="Y" unicode="Y" horiz-adv-x="459" 
d="M286 137c-8 -17.333 -17.4961 -36.5029 -28.4961 -57.5029s-23.5 -40.833 -37.5 -59.5s-29.5 -34.167 -46.5 -46.5s-35.5 -18.5 -55.5 -18.5c-22.667 0 -41.667 7.33301 -57 22s-23 33 -23 55c0 24.667 7 45.5 21 62.5s31.167 30.667 51.5 41s41.833 17.833 64.5 22.5
s42.667 7 60 7l29 64l21.5 49.5l19 44.5c6.33301 14.667 13.166 31.667 20.499 51c-16 -23.333 -32.833 -46 -50.5 -68s-36.5 -43.667 -56.5 -65l-25.5 -24.5c-9.66699 -9 -20.167 -17.5 -31.5 -25.5s-22.833 -14.667 -34.5 -20s-22.834 -8 -33.501 -8
c-16.667 0 -28.334 4.33301 -35.001 13s-10 20.667 -10 36c0 20.667 4.66699 45.334 14 74.001s19.666 58 30.999 88l28.5 80c9 26 13.5 47 13.5 63c0 19.333 -8.33301 29 -25 29c-9.33301 0 -18.5 -6.33301 -27.5 -19s-14.833 -34 -17.5 -64c0 -4 -2 -7 -6 -9s-8 -3 -12 -3
c-4.66699 0 -8.33398 1.33301 -11.001 4s-4 5.33398 -4 8.00098c0.666992 15.333 3 30 7 44s9.66699 26.167 17 36.5s16.666 18.5 27.999 24.5s25 9 41 9c24.667 0 41.834 -7 51.501 -21s14.5 -32 14.5 -54c0 -14.667 -1.83301 -31 -5.5 -49s-8.16699 -36.333 -13.5 -55
s-11.5 -37.334 -18.5 -56.001l-19.5 -52c-7.33301 -21.333 -14.166 -40 -20.499 -56s-9.5 -27.667 -9.5 -35c0 -2.66699 0.333008 -4 1 -4c7.33301 0 18.333 5.33301 33 16s31.167 25.334 49.5 44.001s38.166 40.667 59.499 66s41.833 52.333 61.5 81
s38.167 58.334 55.5 89.001s31.666 61 42.999 91c0.666992 2 2.33398 3 5.00098 3h48c4.66699 0 6.33398 -2.33301 5.00098 -7l-55 -142l-43 -110l-39 -94.5zM138.004 -0.00292969c16.667 14 32.501 33.833 47.501 59.5s28.167 50.834 39.5 75.501
c-15.333 -0.666992 -32.166 -3.16699 -50.499 -7.5s-35.333 -10.666 -51 -18.999s-28.834 -18.833 -39.501 -31.5s-16 -27.334 -16 -44.001c0 -14.667 4 -25.834 12 -33.501s17 -11.5 27 -11.5c11.333 0 21.666 4 30.999 12z" />
    <glyph glyph-name="Z" unicode="Z" horiz-adv-x="356" 
d="M457 132c1.33301 -2.66699 0.995117 -4.67285 -1.00488 -6.00586c-15.333 -11.333 -30 -19.333 -44 -24s-28 -7 -42 -7c-21.333 0 -41.833 4 -61.5 12s-40.167 17.333 -61.5 28l-42 20c-25.333 -43.333 -49.666 -73.666 -72.999 -90.999s-43.333 -26 -60 -26
c-19.333 0 -34.333 6.66699 -45 20s-16 29 -16 47c0 16.667 3.33301 31 10 43s15.334 22 26.001 30s22.834 14 36.501 18s27.834 6 42.501 6c7.33301 0 14.333 -0.333008 21 -1s13.334 -1.66699 20.001 -3c16 34.667 35.5 74.834 58.5 120.501l67.5 136.5l50 99
c-6 0.666992 -11.5 0.833984 -16.5 0.500977s-10.167 -0.5 -15.5 -0.5c-39.333 0 -71.333 -5.83301 -96 -17.5s-39.334 -35.5 -44.001 -71.5c0 -2.66699 -1.66699 -4 -5 -4l-34 -1c-3.33301 0 -5 1.66699 -5 5c2 24.667 8.83301 44.834 20.5 60.501s26.667 27.834 45 36.501
s39.333 14.667 63 18s48.834 5 75.501 5c26 0 53 -1 81 -3c2 0 3.5 -0.833008 4.5 -2.5s0.833008 -3.16699 -0.5 -4.5l-30 -58l-46 -91.5l-44.5 -90.5l-41 -83.5l-34.5 -71.5l19 -9v1c23.333 -11.333 45 -21 65 -29s39.667 -12 59 -12c24.667 0 49 8.66699 73 26
c2.66699 2.66699 5 2.33398 7 -0.999023zM84.9951 86.9941c9.33301 7.33301 19.498 17.667 30.498 31s23.5 31.333 37.5 54c-7.33301 2 -14.666 3 -21.999 3c-23.333 0 -43.833 -6 -61.5 -18s-26.5 -29.333 -26.5 -52c0 -19.333 6.33301 -29 19 -29
c6.66699 0 14.334 3.66699 23.001 11z" />
    <glyph glyph-name="bracketleft" unicode="[" horiz-adv-x="235" 
d="M295 574c5.33301 0 9.50098 -1.5 12.501 -4.5s4.5 -5.83301 4.5 -8.5c0 -5.33301 -3.5 -9 -10.5 -11s-14.167 -3 -21.5 -3c-1.33301 0 -2.5 0.166992 -3.5 0.5s-2.16699 0.5 -3.5 0.5h-2l-170 -490h19c4.66699 0 8.5 -1.5 11.5 -4.5s4.5 -5.83301 4.5 -8.5
c0 -8 -5.33301 -12 -16 -12h-73c-4 0 -7.33301 0.666992 -10 2s-3.33398 4 -2.00098 8l183 528c2 2 5.66699 3 11 3h66z" />
    <glyph glyph-name="backslash" unicode="\" horiz-adv-x="298" 
d="M236 73l-1.00098 -0.000976562c1.33301 -3.33301 2.16602 -5.5 2.49902 -6.5s0.5 -1.83301 0.5 -2.5c0 -5.33301 -2.33301 -9.66602 -7 -12.999s-9.66699 -5 -15 -5c-4 0 -8.16699 1.5 -12.5 4.5s-8.16602 6.5 -11.499 10.5l-162 470
c-1.33301 2 -2.16602 3.83301 -2.49902 5.5s-0.5 3.16699 -0.5 4.5c0 5.33301 2.33301 9.83301 7 13.5s9.66699 5.5 15 5.5c9.33301 0 17.333 -6.66699 24 -20z" />
    <glyph glyph-name="bracketright" unicode="]" horiz-adv-x="233" 
d="M-61 33c-7.33301 0 -11.8311 1 -13.498 3s-2.5 5 -2.5 9c0 5.33301 2.83301 8.83301 8.5 10.5s12.5 2.5 20.5 2.5h12l170 490h-19c-11.333 0 -17 4.33301 -17 13s5.66699 13 17 13h73c3.33301 0 6.16602 -1.16699 8.49902 -3.5s3.5 -4.83301 3.5 -7.5l-184 -528
c-2.66699 -1.33301 -6.33398 -2 -11.001 -2h-66z" />
    <glyph glyph-name="asciicircum" unicode="^" horiz-adv-x="249" 
d="M62 434c-2 -2 -4.00195 -3.66504 -6.00195 -4.99805s-5.33301 -2 -10 -2c-9.33301 0 -14.833 2.33301 -16.5 7s-2.5 8.66699 -2.5 12l54 112c1.33301 3.33301 3.83301 5.66602 7.5 6.99902s6.83398 2 9.50098 2c4.66699 0 8 -1 10 -3s4.66699 -5.33301 8 -10l54 -110
c0 -3.33301 -2.16699 -7 -6.5 -11s-8.16602 -6 -11.499 -6s-6.83301 1 -10.5 3s-6.16699 4 -7.5 6c-6 13.333 -11.833 25.666 -17.5 36.999l-18.5 37z" />
    <glyph glyph-name="underscore" unicode="_" horiz-adv-x="450" 
d="M314 -10c8 0 13.667 -2.16699 17 -6.5s5 -8.5 5 -12.5c0 -5.33301 -1.66699 -9.66602 -5 -12.999s-9 -5 -17 -5h-246c-8 0 -13.667 1.66699 -17 5s-5 7.66602 -5 12.999c0 4 1.66699 8.16699 5 12.5s9 6.5 17 6.5h246z" />
    <glyph glyph-name="grave" unicode="`" horiz-adv-x="181" 
d="M44 425c0 2 3.83105 5.33398 11.498 10.001s14.167 7 19.5 7c2 0 5.83301 -1.33301 11.5 -4s11.334 -5.83398 17.001 -9.50098s10.834 -7.83398 15.501 -12.501s7 -9 7 -13s-2.16699 -8 -6.5 -12s-10.833 -6 -19.5 -6c-1.33301 0 -5 1.16699 -11 3.5s-12.333 5.5 -19 9.5
s-12.667 8.33301 -18 13s-8 9.33398 -8 14.001z" />
    <glyph glyph-name="a" unicode="a" horiz-adv-x="217" 
d="M158 376c5.33301 0 7.00293 -2.00098 5.00293 -6.00098l-21 -43.5l-23.5 -50.5c-7.66699 -16.667 -14 -31.834 -19 -45.501s-7.5 -23.5 -7.5 -29.5c0 -2.66699 0.333008 -4 1 -4c4.66699 0 11.5 4.83301 20.5 14.5s19 21.834 30 36.501l34 47.5l32.5 47.5l-1 -1
c2 5.33301 6.33301 8 13 8c3.33301 0 6.16602 -1.33301 8.49902 -4s3.5 -6.66699 3.5 -12l-41.5 -64c-13.667 -20.667 -27.167 -39 -40.5 -55s-26.333 -28.833 -39 -38.5s-25.334 -14.5 -38.001 -14.5c-13.333 0 -22.333 4.16699 -27 12.5s-7 18.833 -7 31.5
c0 15.333 2 29 6 41c-12 -6 -22.667 -9 -32 -9c-14 0 -23.667 4.33301 -29 13s-8 18.667 -8 30c0 12 2.16699 24.167 6.5 36.5s10.5 23.833 18.5 34.5s17.5 19.334 28.5 26.001s23.167 10 36.5 10c7.33301 0 14.333 -1 21 -3s12.667 -5.66699 18 -11
c1.33301 1.33301 2.66602 2 3.99902 2h47zM28.0029 280.999c0 -7.33301 1.66699 -10.998 5 -10.998c6.66699 0 13.5 3.33301 20.5 10s13.5 14.5 19.5 23.5s11 17.667 15 26s6.33301 14.166 7 17.499c-1.33301 2.66699 -3.33301 5.16699 -6 7.5s-5.66699 3.5 -9 3.5
c-7.33301 -0.666992 -14.166 -3.83398 -20.499 -9.50098s-11.833 -12.5 -16.5 -20.5s-8.33398 -16.167 -11.001 -24.5s-4 -15.833 -4 -22.5z" />
    <glyph glyph-name="b" unicode="b" horiz-adv-x="238" 
d="M64 290c-5.33301 0 -10.832 -3.49902 -16.499 -10.499s-11.334 -15.5 -17.001 -25.5s-11 -20.833 -16 -32.5s-9.16699 -22.167 -12.5 -31.5c2.66699 -2 5.33398 -3 8.00098 -3c6.66699 0 13.667 3.5 21 10.5s13.666 15.333 18.999 25s9.83301 19.667 13.5 30
s5.5 19.166 5.5 26.499s-1.66699 11 -5 11zM230.001 342.001c1.33301 3.33301 3.16406 5.50293 5.49707 6.50293s4.83301 1.5 7.5 1.5c3.33301 0 6.83301 -1.16699 10.5 -3.5s5.5 -5.83301 5.5 -10.5c0 -4 -1.33301 -7.33301 -4 -10v1c-18 -26 -34.167 -47.333 -48.5 -64
s-27.833 -30.167 -40.5 -40.5s-25.334 -18.166 -38.001 -23.499s-26.667 -9.66602 -42 -12.999c-7.33301 -9.33301 -16.666 -15.833 -27.999 -19.5s-22.333 -5.5 -33 -5.5c-15.333 0 -27 3 -35 9h-15c-8.66699 0 -17.667 1 -27 3s-14 6.66699 -14 14l9 23l31 81.5
c11.333 29.667 23.833 59.667 37.5 90s28.334 59.666 44.001 87.999s32 53.666 49 75.999s34.5 40.166 52.5 53.499s36.667 20 56 20c18.667 0 33.334 -6 44.001 -18s16 -27.667 16 -47c0 -18 -5.5 -37.667 -16.5 -59s-26.333 -42.333 -46 -63s-42.834 -40 -69.501 -58
s-55.667 -32 -87 -42l-6 -15c0 -0.666992 -0.333008 -1.33398 -1 -2.00098s-1 -1.33398 -1 -2.00098c6.66699 3.33301 12.334 5.33301 17.001 6s9.66699 1 15 1c16.667 0 28.167 -4.5 34.5 -13.5s9.5 -19.833 9.5 -32.5c0 -20 -3.66699 -37 -11 -51
c16.667 7.33301 34.334 19.833 53.001 37.5s40.667 45.167 66 82.5v-1zM178.999 560.004c-10 -10 -20.168 -22.4961 -30.501 -37.4961s-20.333 -31 -30 -48s-19 -35 -28 -54l-25.5 -55.5c27.333 11.333 51.833 25.166 73.5 41.499s40 33.166 55 50.499
s26.333 34.666 34 51.999s11.5 32.666 11.5 45.999c0 11.333 -1.66699 19.5 -5 24.5s-6.66602 7.5 -9.99902 7.5c-7.33301 0 -15 -2.66699 -23 -8s-15 -11.333 -21 -18z" />
    <glyph glyph-name="c" unicode="c" horiz-adv-x="160" 
d="M67 271c-5.33301 -2.66699 -8.66895 -4 -10.002 -4c-11.333 0 -17 5 -17 15c0 1.33301 1.33301 4.33301 4 9s5.66699 11 9 19s5 16.667 5 26c0 5.33301 -1 8 -3 8c-4 0 -9 -4.5 -15 -13.5s-11.833 -20 -17.5 -33s-10.667 -26.833 -15 -41.5s-6.5 -27.667 -6.5 -39
c0 -16.667 5.33301 -25 16 -25c8 0 17.667 4 29 12s23.166 19 35.499 33s25 30.333 38 49s25.167 38.667 36.5 60c2.66699 2.66699 6 4 10 4c3.33301 0 6.33301 -1.33301 9 -4s4 -6 4 -10c0 -0.666992 -0.166992 -1.16699 -0.5 -1.5s-0.5 -1.16602 -0.5 -2.49902
c-17.333 -32.667 -34.166 -59.834 -50.499 -81.501s-31.666 -39 -45.999 -52s-28 -22.333 -41 -28s-24.833 -8.5 -35.5 -8.5c-19.333 0 -32.833 5.66699 -40.5 17s-11.5 25.666 -11.5 42.999c0 16 3 33.167 9 51.5s13.833 35.333 23.5 51s20.334 28.834 32.001 39.501
s23.5 16 35.5 16c12.667 0 21.5 -4 26.5 -12s7.5 -18 7.5 -30s-2.33301 -24.5 -7 -37.5s-8.66699 -22.5 -12 -28.5z" />
    <glyph glyph-name="d" unicode="d" horiz-adv-x="258" 
d="M251 343c3.33301 4.66699 7.33398 6.99805 12.001 6.99805c3.33301 0 6.66602 -1.33301 9.99902 -4s5 -5.33398 5 -8.00098c0 -3.33301 -0.666992 -5.66602 -2 -6.99902v1c-1.33301 -2 -3 -4.16699 -5 -6.5s-4.33301 -5.5 -7 -9.5l-36.5 -52
c-15 -21.333 -31.333 -42 -49 -62s-36 -37.333 -55 -52s-36.833 -22 -53.5 -22c-16 0 -26.833 5 -32.5 15s-8.5 20.667 -8.5 32c0 7.33301 0.666992 14.833 2 22.5s2.66602 14.167 3.99902 19.5c-6.66699 -3.33301 -13.334 -5.66602 -20.001 -6.99902s-11.667 -2 -15 -2
c-15.333 0 -26.333 4 -33 12s-10 18.667 -10 32c0 12 2.83301 25.167 8.5 39.5s13 27.5 22 39.5s19.5 22.167 31.5 30.5s24.667 12.5 38 12.5s25.666 -3.33301 36.999 -10c10.667 23.333 23.5 49.666 38.5 78.999s31.5 57 49.5 83s37.167 48 57.5 66s40.5 27 60.5 27
c11.333 0 20.833 -2 28.5 -6s14 -9.16699 19 -15.5s8.66699 -13.5 11 -21.5s3.5 -15.667 3.5 -23c0 -23.333 -7.16699 -47.166 -21.5 -71.499s-32.5 -46.666 -54.5 -66.999s-46.333 -38.166 -73 -53.499s-52.334 -25.666 -77.001 -30.999
c-2 -3.33301 -4.66699 -9.16602 -8 -17.499l-12 -29.5l-9.5 -25.5c-4.33301 -11.667 -8.66602 -24 -12.999 -37s-8.16602 -25.333 -11.499 -37s-5 -19.834 -5 -24.501c10 0.666992 22.833 8.16699 38.5 22.5s31.834 31.166 48.501 50.499s32.834 39.166 48.501 59.499z
M264.001 551.998c-18 -21.333 -36.834 -48.668 -56.501 -82.001s-38.167 -68.666 -55.5 -105.999c26 8.66699 49.833 21 71.5 37s40.334 33 56.001 51s27.667 36 36 54s12.5 33.333 12.5 46c0 11.333 -1.83301 19.333 -5.5 24s-7.5 7 -11.5 7c-14 0 -29.667 -10.333 -47 -31
zM12 236.996c8 0 16.167 4 24.5 12s15.666 17.167 21.999 27.5s11.5 20.5 15.5 30.5s6 17 6 21c-1.33301 9.33301 -4.66602 14 -9.99902 14c-6 0 -12.5 -4 -19.5 -12s-13.333 -17.333 -19 -28s-10.5 -21.667 -14.5 -33s-6 -20.333 -6 -27c0 -3.33301 0.333008 -5 1 -5z" />
    <glyph glyph-name="e" unicode="e" horiz-adv-x="160" 
d="M18 195c8 0 17.333 3.83398 28 11.501s22.167 18.167 34.5 31.5s24.833 28.833 37.5 46.5s24.667 36.834 36 57.501h-1c2 4.66699 6 7 12 7c3.33301 0 6.5 -0.833008 9.5 -2.5s4.5 -5.16699 4.5 -10.5c0 -2 -0.666992 -4.33301 -2 -7c-30 -55.333 -60.5 -97 -91.5 -125
s-57.833 -42 -80.5 -42c-19.333 0 -32.833 5.66699 -40.5 17s-11.5 25.666 -11.5 42.999c0 16 3 33.167 9 51.5s13.833 35.333 23.5 51s20.334 28.834 32.001 39.501s23.5 16 35.5 16c17.333 0 26 -8.33301 26 -25c0 -6.66699 -1.66699 -14.167 -5 -22.5s-8 -16.5 -14 -24.5
s-13.167 -15.5 -21.5 -22.5s-17.5 -12.5 -27.5 -16.5c-2.66699 -8.66699 -4.83398 -17.334 -6.50098 -26.001s-2.5 -16 -2.5 -22c0 -16.667 4.33301 -25.334 13 -26.001h3zM57 351.001h-1.99805c-5.33301 0 -11.833 -5.83301 -19.5 -17.5s-14.834 -25.834 -21.501 -42.501
c11.333 8 21.666 17.667 30.999 29s14 20 14 26c0 2.66699 -0.666992 4.33398 -2 5.00098z" />
    <glyph glyph-name="f" unicode="f" horiz-adv-x="137" 
d="M18 253c0.666992 0 1.33105 -0.167969 1.99805 -0.500977s1.33398 -0.5 2.00098 -0.5c8 0 17.5 3.83301 28.5 11.5s21.833 16.667 32.5 27s20.334 20.5 29.001 30.5l19 22c4 4 8 6 12 6c3.33301 0 6.83301 -1.5 10.5 -4.5s5.5 -7.83301 5.5 -14.5
c-6 -8.66699 -14.333 -19 -25 -31s-22.167 -23.333 -34.5 -34s-25.333 -19.834 -39 -27.501s-26.834 -11.5 -39.501 -11.5c-2.66699 0 -4.16699 -0.166992 -4.5 -0.5s-1.83301 -0.166016 -4.5 0.500977c0.666992 -3.33301 1 -6.66602 1 -9.99902v-13
c0 -17.333 -1.5 -36.833 -4.5 -58.5s-7.66699 -42.167 -14 -61.5s-14.5 -35.666 -24.5 -48.999s-22.333 -20 -37 -20c-9.33301 0 -17.166 3.83301 -23.499 11.5s-9.5 19.5 -9.5 35.5c0 12.667 1.33301 26.667 4 42s7.5 33.666 14.5 54.999s16.667 47 29 77
s28.166 65.667 47.499 107l30.5 60.5c10.333 19.667 20.833 37 31.5 52s21.334 27 32.001 36s20.667 13.5 30 13.5c3.33301 0 5.83301 -0.333008 7.5 -1s2.5 -2.66699 2.5 -6s-1 -7.33301 -3 -12s-5.66699 -12 -11 -22l-38 -81zM-50.0029 43.999
c3.33301 0.666992 7 5.32812 11 13.9951s7.66699 20 11 34s6.16602 29.833 8.49902 47.5s3.5 35.167 3.5 52.5c-4 -9.33301 -8 -20.166 -12 -32.499s-7.66699 -25.166 -11 -38.499s-6.16602 -26.166 -8.49902 -38.499s-3.5 -22.5 -3.5 -30.5
c0 -1.33301 0.166992 -2.66602 0.5 -3.99902s0.5 -2.66602 0.5 -3.99902z" />
    <glyph glyph-name="g" unicode="g" horiz-adv-x="224" 
d="M159 376c5.33301 0 7.00391 -2 5.00391 -6l-49 -109c10.667 6 20.167 12 28.5 18s16.166 12.167 23.499 18.5s15 13.333 23 21l26 25.5c2.66699 2.66699 6.66699 4 12 4c10 0 15 -4.33301 15 -13c0 -4 -1 -7 -3 -9c-10 -10 -20 -19.5 -30 -28.5s-20.5 -17.5 -31.5 -25.5
s-23.167 -16 -36.5 -24s-28.333 -16.333 -45 -25c-10.667 -22 -23.834 -47.833 -39.501 -77.5s-33.334 -58 -53.001 -85s-41 -49.833 -64 -68.5s-47.5 -28 -73.5 -28c-19.333 0 -33.5 6.66699 -42.5 20s-13.5 29.333 -13.5 48c0 22 6.16699 42.5 18.5 61.5
s29.166 36.5 50.499 52.5s45.833 30.833 73.5 44.5s57.167 26.834 88.5 39.501l5 13c-8.66699 -4.66699 -17.667 -7 -27 -7c-16 0 -27.333 4.66699 -34 14s-10 20.333 -10 33c0 14 2.83301 27 8.5 39s13 22.667 22 32s19 16.666 30 21.999s21.5 8 31.5 8
c14.667 0 27 -4 37 -12l1 2c1.33301 1.33301 3 2 5 2h48zM-107.996 10c12.667 10 25.3291 22.5 37.9961 37.5s24.834 31 36.501 48s22.334 34.167 32.001 51.5l26.5 48c-23.333 -8 -46.166 -17.5 -68.499 -28.5s-42.166 -23.333 -59.499 -37s-31.5 -28.5 -42.5 -44.5
s-16.5 -33.333 -16.5 -52c0 -9.33301 1.5 -18.333 4.5 -27s8.16699 -13 15.5 -13c5.33301 0 11 1.5 17 4.5s11.667 7.16699 17 12.5zM34.999 268c5.33301 0.666992 11.167 4.49902 17.5 11.499s12.166 14.833 17.499 23.5s9.83301 16.834 13.5 24.501s5.5 12.167 5.5 13.5
c0 8.66699 -3.66699 13 -11 13c-8 0 -15.167 -2.83301 -21.5 -8.5s-11.666 -12.5 -15.999 -20.5s-7.83301 -16.167 -10.5 -24.5s-4 -14.833 -4 -19.5c0 -8 3 -12.333 9 -13z" />
    <glyph glyph-name="h" unicode="h" horiz-adv-x="223" 
d="M-71 162c-4.66699 0 -6.33301 2.33691 -5 7.00391l58.5 154.5c20.333 53 42.166 101.333 65.499 145s48 79.5 74 107.5s53.667 42 83 42c18.667 0 33.5 -5.66699 44.5 -17s16.5 -27 16.5 -47c0 -18 -5.5 -37.833 -16.5 -59.5s-26.167 -42.834 -45.5 -63.501
s-42.333 -39.834 -69 -57.501s-56 -31.5 -88 -41.5l-12 -29c9.33301 6.66699 19 12 29 16s18.667 6 26 6c11.333 0 19.166 -2.5 23.499 -7.5s6.5 -11.833 6.5 -20.5c0 -9.33301 -1.83301 -19.5 -5.5 -30.5l-11.5 -33.5l-9.5 -25.5c-3 -7.66699 -4.5 -13.834 -4.5 -18.501
c0 -4 0.666992 -6 2 -6c4.66699 0 11.334 4.5 20.001 13.5s18.667 21 30 36s23.333 32.167 36 51.5l39 59l-1 -1c2 5.33301 6 8 12 8c4 0 7.83301 -1.33301 11.5 -4s5.5 -6 5.5 -10c0 -4.66699 -1 -8 -3 -10v1c-16 -25.333 -31.667 -49 -47 -71s-30 -41.333 -44 -58
s-27.5 -29.667 -40.5 -39s-25.167 -14 -36.5 -14c-14 0 -23.833 4.66699 -29.5 14s-8.5 19.666 -8.5 30.999s1.5 23 4.5 35s6.16699 23 9.5 33l7 25c-3.33301 -1.33301 -7.16602 -4.16602 -11.499 -8.49902s-8.83301 -9.33301 -13.5 -15s-9 -11.334 -13 -17.001
s-6.66699 -10.167 -8 -13.5l-24 -64c-1.33301 -2 -3 -3 -5 -3h-52zM184.001 571.004c-12.667 -9.33301 -24.666 -21.8281 -35.999 -37.4951s-22 -32.834 -32 -51.501s-19.667 -38.167 -29 -58.5l-26 -58.5c27.333 11.333 51.666 25.166 72.999 41.499
s39.5 33.166 54.5 50.499s26.333 34.666 34 51.999s11.5 32.666 11.5 45.999c0 10 -1.83301 17 -5.5 21s-8.16699 6 -13.5 6c-10 0 -20.333 -3.66699 -31 -11z" />
    <glyph glyph-name="i" unicode="i" horiz-adv-x="135" 
d="M61 376c5.33301 0 7.00098 -2 5.00098 -6l-17 -42l-19.5 -50.5c-6.33301 -17 -11.833 -32.833 -16.5 -47.5s-7.33398 -26 -8.00098 -34c4.66699 2.66699 12 8.83398 22 18.501s20.833 21.5 32.5 35.5l36 45c12.333 16 23.5 32 33.5 48c2.66699 4 6.33398 6 11.001 6
c3.33301 0 6.5 -1.83301 9.5 -5.5s4.5 -8.5 4.5 -14.5l-33.5 -47.5c-13.667 -19 -28.5 -37.333 -44.5 -55s-32 -32.834 -48 -45.501s-30.333 -19 -43 -19s-21.5 3.33301 -26.5 10s-7.5 15.667 -7.5 27c0 7.33301 1.83301 17.5 5.5 30.5s8 27 13 42s10.5 30.333 16.5 46
l17 42.5l6 14c1.33301 1.33301 2.66602 2 3.99902 2h48zM12.001 405c0 8 3.16602 13.998 9.49902 17.998s13.833 6 22.5 6c6.66699 0 13.167 -2.16699 19.5 -6.5s9.5 -11.166 9.5 -20.499c0 -7.33301 -2.66699 -13.166 -8 -17.499s-12 -6.5 -20 -6.5
c-9.33301 0 -17.166 2.5 -23.499 7.5s-9.5 11.5 -9.5 19.5z" />
    <glyph glyph-name="j" unicode="j" horiz-adv-x="152" 
d="M13 405c0 8 2.83203 14.001 8.49902 18.001s12.834 6 21.501 6c9.33301 0 16.833 -2.16699 22.5 -6.5s8.5 -10.833 8.5 -19.5c-1.33301 -16.667 -11 -25 -29 -25c-9.33301 0 -17 2.16699 -23 6.5s-9 11.166 -9 20.499zM-185.001 33.001c6 0 14.666 4.99805 25.999 14.998
c6.66699 6.66699 13.667 15.167 21 25.5l22 32.5l21 34c6.66699 11.333 12.667 22 18 32c-13.333 -9.33301 -26.666 -19.5 -39.999 -30.5s-25.5 -22.167 -36.5 -33.5s-20 -22.666 -27 -33.999s-10.5 -21.666 -10.5 -30.999c0 -6.66699 2 -10 6 -10zM60.998 375.999
c3.33301 0 4.66602 -2.00098 3.99902 -6.00098l-48 -126c26.667 13.333 50.334 27.833 71.001 43.5s41.334 36.167 62.001 61.5h8c3.33301 0 6.33301 -1.33301 9 -4s4 -5.66699 4 -9c0 -0.666992 -0.166992 -1.5 -0.5 -2.5s-0.5 -1.83301 -0.5 -2.5
c-10 -14 -22.167 -27.167 -36.5 -39.5s-29 -23.666 -44 -33.999s-29.333 -19.333 -43 -27s-24.834 -13.5 -33.501 -17.5c-1.33301 -1.33301 -2.5 -2 -3.5 -2s-2.16699 -0.333008 -3.5 -1s-2.33301 -1 -3 -1l-37.5 -69c-13.667 -24.667 -28.167 -47.5 -43.5 -68.5
s-31.333 -38.5 -48 -52.5s-33.334 -21 -50.001 -21c-15.333 0 -26.166 4.33301 -32.499 13s-9.5 18.667 -9.5 30c0 12 3.83301 25.333 11.5 40s18.5 29.834 32.5 45.501s31 31.167 51 46.5s42.667 29.666 68 42.999l31.5 79l31.5 79c1.33301 1.33301 3 2 5 2h48z" />
    <glyph glyph-name="k" unicode="k" horiz-adv-x="235" 
d="M99 337c-1.33301 0 -2.33301 -0.333008 -3 -1c0.666992 0.666992 1 1.66699 1 3c0 -1.33301 0.666992 -2 2 -2zM49 298c2 1.33301 4.16699 2.5 6.5 3.5s4.5 2.16699 6.5 3.5c-3.33301 -4 -5.33301 -8 -6 -12zM96 336c-3.33301 -1.33301 -8.5 -5 -15.5 -11
s-13.167 -12.667 -18.5 -20l21.5 16c7 5.33301 11.167 10.333 12.5 15zM197 576c-21.333 -14.667 -41.6689 -37 -61.002 -67s-36.666 -60.667 -51.999 -92c52.667 21.333 91.834 45 117.501 71s38.5 48.333 38.5 67c0 10 -2 17.5 -6 22.5s-8.66699 7.5 -14 7.5
c-6 0 -13.667 -3 -23 -9zM-68.0029 162c-4.66699 0 -6.33594 2.33496 -5.00293 7.00195l25.5 64.5l25.5 64.5l18 44c12 30.667 25.833 62.334 41.5 95.001s32.667 62.5 51 89.5s37.833 49 58.5 66s42 25.5 64 25.5c17.333 0 31.833 -5.83301 43.5 -17.5
s17.5 -26.834 17.5 -45.501c0 -12.667 -3.5 -26.334 -10.5 -41.001s-18.5 -29.667 -34.5 -45s-36.833 -30.333 -62.5 -45s-56.834 -28 -93.501 -40l-19 -42c11.333 10.667 21.833 18.167 31.5 22.5s17.167 6.5 22.5 6.5c9.33301 0 16 -2.66699 20 -8s6 -12 6 -20
c0 -6 -2.5 -12.667 -7.5 -20s-11.5 -14.5 -19.5 -21.5s-17 -13.333 -27 -19s-19.667 -9.5 -29 -11.5c0 -1.33301 -0.166992 -2.5 -0.5 -3.5s-0.5 -2.16699 -0.5 -3.5c0 -7.33301 0.5 -16.5 1.5 -27.5s2.83301 -21.667 5.5 -32s6.33398 -19.166 11.001 -26.499
s10.334 -11 17.001 -11c8.66699 0 18.167 4.16699 28.5 12.5s20.5 19 30.5 32s19.833 27 29.5 42l26.5 42.5l24.5 37.5c7 10.333 12.5 15.5 16.5 15.5c2.66699 0 5.33398 -1.16699 8.00098 -3.5s4 -5.5 4 -9.5c0 -0.666992 -0.166992 -1.33398 -0.5 -2.00098
s-0.5 -1.66699 -0.5 -3l-49 -79.5c-15.333 -23.667 -30.166 -43.834 -44.499 -60.501s-28.666 -29.5 -42.999 -38.5s-29.166 -13.5 -44.499 -13.5c-20.667 0 -36.834 5.5 -48.501 16.5s-18.834 24.833 -21.501 41.5l-13 -32c-1.33301 -2 -3 -3 -5 -3h-49z" />
    <glyph glyph-name="l" unicode="l" horiz-adv-x="177" 
d="M192 326c-16 -24 -33.0059 -45.8301 -51.0059 -65.4971s-35.5 -36.667 -52.5 -51s-33.167 -25.5 -48.5 -33.5s-28.666 -12 -39.999 -12s-20.333 3.66699 -27 11s-10 20 -10 38c0 18.667 3.66699 41.167 11 67.5s17.333 53.666 30 81.999s27.5 56.666 44.5 84.999
s34.833 53.666 53.5 75.999s37.834 40.333 57.501 54s38.834 20.5 57.501 20.5c14 0 26 -4 36 -12s15 -21.333 15 -40c0 -18 -6.66699 -35.667 -20 -53s-30 -34.166 -50 -50.499s-41.833 -31.666 -65.5 -45.999s-45.834 -26.833 -66.501 -37.5
c-1.33301 -3.33301 -2.66602 -7 -3.99902 -11s-3 -8.33301 -5 -13l-11 -27.5c-4 -10.333 -7.83301 -21 -11.5 -32s-6.66699 -21.667 -9 -32s-3.5 -19.5 -3.5 -27.5s2.33301 -12 7 -12c6.66699 0 15.834 4.16699 27.501 12.5s24.334 19.166 38.001 32.499
s27.167 28.166 40.5 44.499s25.333 32.833 36 49.5c2.66699 4 6.66699 6 12 6c2.66699 0 5.33398 -1.16699 8.00098 -3.5s4 -5.5 4 -9.5s-1 -7.33301 -3 -10zM199.994 552.003c-10 -8 -20.5 -17.834 -31.5 -29.501s-21.5 -24.5 -31.5 -38.5s-19.667 -28.333 -29 -43
s-17.333 -28.667 -24 -42c15.333 9.33301 31.833 20 49.5 32s34.167 24.5 49.5 37.5s28 26.333 38 40s15 26.834 15 39.501c0 8 -4.33301 12 -13 12c-8 0 -15.667 -2.66699 -23 -8z" />
    <glyph glyph-name="m" unicode="m" horiz-adv-x="320" 
d="M24 183c-2 0 -3.66406 0.667969 -4.99707 2.00098s-1.33301 3 0 5l21 46c10.667 21.333 19.5 40.166 26.5 56.499s10.5 27.5 10.5 33.5c0 2.66699 -0.333008 4 -1 4c-3.33301 0 -7.33301 -2.33301 -12 -7s-9.66699 -10.5 -15 -17.5s-10.666 -14.5 -15.999 -22.5
s-10 -15.333 -14 -22l1 1c-7.33301 -14.667 -14.833 -30.667 -22.5 -48s-14.5 -33.666 -20.5 -48.999c-1.33301 -2 -3 -3 -5 -3h-47c-4.66699 0 -6.33398 2.33301 -5.00098 7l22 51l29 66l25 56l16 32c1.33301 1.33301 2.66602 2 3.99902 2h44c5.33301 0 7 -2 5 -6l-12 -25
c13.333 12 26.333 18 39 18c14.667 0 24.834 -3.66699 30.501 -11s8.5 -16.333 8.5 -27c9.33301 10.667 19.5 19.5 30.5 26.5s22.167 10.5 33.5 10.5c13.333 0 22.5 -3.33301 27.5 -10s7.5 -15.334 7.5 -26.001c0 -8.66699 -1.66699 -18.334 -5 -29.001
s-7.33301 -21.667 -12 -33s-9.5 -22.166 -14.5 -32.499l-12.5 -26.5l-8 -17c-3.33301 -8 -5 -12.667 -5 -14c2.66699 0 6.33398 1.33301 11.001 4h-1c18.667 14 36.167 32 52.5 54s31.166 43.333 44.499 64l15 25c5.33301 8.66699 10.666 16 15.999 22
c3.33301 4.66699 8 7 14 7c3.33301 0 6.16602 -1 8.49902 -3s3.5 -6.66699 3.5 -14l-10.5 -14.5c-3.66699 -5 -7.16699 -10.167 -10.5 -15.5l-37 -55c-12.667 -18.667 -25.5 -35.5 -38.5 -50.5s-26.333 -27.333 -40 -37s-27.167 -14.5 -40.5 -14.5
c-10.667 0 -19.834 2.5 -27.501 7.5s-11.5 13.833 -11.5 26.5c0 10.667 3 23.5 9 38.5s12.667 30.5 20 46.5c4 8 8 16.5 12 25.5s7.33301 17.167 10 24.5c1.33301 4 2 6.33301 2 7c0 2 -0.333008 3 -1 3c-7.33301 0 -15.5 -5.66699 -24.5 -17s-18 -24.5 -27 -39.5
s-17.333 -30.5 -25 -46.5l-17.5 -37c-2 -2 -3.33301 -3 -4 -3z" />
    <glyph glyph-name="n" unicode="n" horiz-adv-x="222" 
d="M-78 162c-2 0 -3.66699 0.668945 -5 2.00195s-1.33301 3 0 5l17 36l19 40l29 63.5l29 65.5c1.33301 1.33301 2.66602 2 3.99902 2h49c5.33301 0 7 -2 5 -6l-10 -22c11.333 9.33301 24.333 14 39 14c13.333 0 22.5 -3.33301 27.5 -10s7.5 -15.334 7.5 -26.001
c0 -8 -1.5 -17 -4.5 -27s-6.5 -20.333 -10.5 -31s-8.5 -20.834 -13.5 -30.501l-13.5 -26.5h1l-11 -23c-3.33301 -8 -5 -12.667 -5 -14c2.66699 0 6.33398 1.33301 11.001 4h-1c18.667 14 36.167 32 52.5 54s31.166 43.333 44.499 64l16 25c5.33301 8.66699 10.333 16 15 22
c3.33301 4.66699 8 7 14 7c3.33301 0 6.16602 -1 8.49902 -3s3.5 -6.66699 3.5 -14l-10.5 -14.5c-3.66699 -5 -7.16699 -10.167 -10.5 -15.5l-37 -55c-12.667 -18.667 -25.5 -35.5 -38.5 -50.5s-26.167 -27.333 -39.5 -37s-26.666 -14.5 -39.999 -14.5
c-11.333 0 -20.833 2.5 -28.5 7.5s-11.5 13.833 -11.5 26.5c0 10.667 3.16699 23.5 9.5 38.5l20.5 46.5c8.66699 17.333 15.667 34 21 50c0 0.666992 0.166992 1.16699 0.5 1.5s0.5 0.833008 0.5 1.5s0.166992 1.16699 0.5 1.5s0.5 0.833008 0.5 1.5v1c0 2 -0.666992 3 -2 3
c-3.33301 0 -7.66602 -2.33301 -12.999 -7s-10.833 -10.5 -16.5 -17.5s-11.167 -14.167 -16.5 -21.5l-13 -18l1 1l-42 -97c-1.33301 -2 -3 -3 -5 -3h-48z" />
    <glyph glyph-name="o" unicode="o" horiz-adv-x="216" 
d="M46 297c0 11.333 1.83496 22.1689 5.50195 32.502s9.5 18.5 17.5 24.5c-10 -2.66699 -18.833 -8.33398 -26.5 -17.001s-14 -18.667 -19 -30s-8.83301 -23.166 -11.5 -35.499s-4 -23.833 -4 -34.5c0 -10 1.16699 -18.5 3.5 -25.5s6.16602 -10.5 11.499 -10.5
c4.66699 0 10.667 2.83301 18 8.5s15.666 15.167 24.999 28.5c-6.66699 7.33301 -11.667 16.166 -15 26.499s-5 21.166 -5 32.499zM209.002 342.003c2.66699 6 6.66797 9 12.001 9c3.33301 0 6.5 -1.33301 9.5 -4s4.5 -6.66699 4.5 -12c0 -2 -0.666992 -4.33301 -2 -7h1
c-5.33301 -11.333 -12.833 -23 -22.5 -35s-21 -23.167 -34 -33.5s-27 -18.833 -42 -25.5s-30.167 -10 -45.5 -10c-26.667 -41.333 -53.334 -62 -80.001 -62c-18.667 0 -32.167 6.16699 -40.5 18.5s-12.5 28.166 -12.5 47.499c0 16 2.66699 33.167 8 51.5
s13 35.166 23 50.499s22 28 36 38s29.667 15 47 15c6.66699 0 12.167 -1.16699 16.5 -3.5s6.5 -6.5 6.5 -12.5c0 -1.33301 -0.166992 -2.16602 -0.5 -2.49902s-0.5 -1.16602 -0.5 -2.49902h1c13.333 0 22.333 -3.33301 27 -10s7 -15.334 7 -26.001
s-2.66699 -23.167 -8 -37.5s-10.333 -26.166 -15 -35.499c18 2.66699 37.167 12.5 57.5 29.5s35.5 36.833 45.5 59.5h1zM76.0029 260.003l4.00098 8c1.33301 -4 2.66602 -6.66699 3.99902 -8h-8zM76.0039 296.003c0 -12.667 1.33398 -21.999 4.00098 -27.999
c3.33301 7.33301 6.66602 16.666 9.99902 27.999s5 21 5 29c0 5.33301 -0.666992 8 -2 8c-6 0 -10.333 -3.83301 -13 -11.5s-4 -16.167 -4 -25.5z" />
    <glyph glyph-name="p" unicode="p" horiz-adv-x="203" 
d="M11 249v-1v-1v2zM12 250c0 -1.33301 -0.333984 -1.99902 -1.00098 -1.99902c4 -8.66699 8.33301 -13 13 -13c5.33301 0 11 2.66699 17 8s11.333 11.666 16 18.999s8.5 15.333 11.5 24s4.5 16 4.5 22c0 7.33301 -2.66699 11 -8 11s-10.666 -3 -15.999 -9
s-10.5 -13 -15.5 -21s-9.33301 -15.833 -13 -23.5l-8.5 -17.5v2zM62.999 376.001c5.33301 0 7.00098 -1.99902 5.00098 -5.99902l-12 -26c7.33301 2.66699 14.666 4 21.999 4c16.667 0 28.167 -4.66699 34.5 -14s9.5 -20 9.5 -32c0 -10.667 -2.33301 -21.667 -7 -33
c14.667 7.33301 28.834 17.833 42.501 31.5s27.167 29.167 40.5 46.5c0.666992 0.666992 4 1 10 1c3.33301 0 7 -1.16699 11 -3.5s6 -5.83301 6 -10.5c0 -0.666992 -0.166992 -1.5 -0.5 -2.5s-0.5 -1.83301 -0.5 -2.5c-7.33301 -10 -15.5 -20.333 -24.5 -31
s-18.833 -20.834 -29.5 -30.501s-22.167 -18 -34.5 -25s-25.5 -11.5 -39.5 -13.5c-9.33301 -11.333 -19.833 -19.666 -31.5 -24.999s-23.167 -8 -34.5 -8c-8 0 -15.333 1.16699 -22 3.5s-11.667 6.16602 -15 11.499l-20 -38l-23.5 -43.5c-8.33301 -15 -17.5 -30 -27.5 -45
s-20.333 -29.167 -31 -42.5c-24 -30 -46.5 -50.833 -67.5 -62.5s-39.167 -17.5 -54.5 -17.5c-16.667 0 -29.834 4.66699 -39.501 14s-14.5 21.666 -14.5 36.999c0 22 6.5 41.167 19.5 57.5s29 30.333 48 42s39.167 21.334 60.5 29.001s40 13.5 56 17.5l8 1l1 1l102 213
c1.33301 1.33301 3 2 5 2h48zM-98 133.002l-11 -3l6 11zM-241 -6.99805c10.667 0 22.166 4.66602 34.499 13.999s24.333 20.833 36 34.5s22.834 28.5 33.501 44.5s20 30.667 28 44c-15.333 -4 -31.333 -9.33301 -48 -16s-32 -14.667 -46 -24s-25.5 -20.166 -34.5 -32.499
s-13.5 -26.833 -13.5 -43.5c0 -14 3.33301 -21 10 -21z" />
    <glyph glyph-name="q" unicode="q" horiz-adv-x="215" 
d="M95 358v1v-1zM156 376c4.66699 0 5.99805 -1.99902 3.99805 -5.99902c-12 -24 -24.167 -49.833 -36.5 -77.5l-35.5 -78.5c10.667 4 21.334 10.5 32.001 19.5s21.334 19.5 32.001 31.5s20.667 24.833 30 38.5l26 39.5v-1c2.66699 6 7.33398 9 14.001 9
c4 0 7.5 -1.66699 10.5 -5s4.5 -8.33301 4.5 -15c-10 -14.667 -21.167 -30 -33.5 -46s-25.5 -31 -39.5 -45s-28.5 -26.333 -43.5 -37s-29.5 -18 -43.5 -22l-7 -19c11.333 -25.333 19 -47.333 23 -66s6 -35.667 6 -51c0 -27.333 -5.66699 -48.333 -17 -63
s-25.333 -22 -42 -22c-14 0 -26.333 6.66699 -37 20s-16 35 -16 65c0 32 4.5 62 13.5 90s19.167 55.333 30.5 82l7 16c-9.33301 -4 -18.333 -6 -27 -6c-14 0 -24.5 4.66699 -31.5 14s-10.5 20.666 -10.5 33.999c0 12 2.5 24 7.5 36s11.833 22.833 20.5 32.5
s18.667 17.5 30 23.5s23 9 35 9c14.667 0 26.667 -4.33301 36 -13l6 11c1.33301 1.33301 2.66602 2 3.99902 2h48zM65.998 43.001c0 10 -1.16797 21.168 -3.50098 33.501s-5.16602 24.833 -8.49902 37.5c-3.33301 -12 -5.83301 -24 -7.5 -36s-2.5 -23.333 -2.5 -34
c0 -4.66699 0.166992 -10 0.5 -16s1 -11.667 2 -17s2.16699 -9.83301 3.5 -13.5s3 -5.5 5 -5.5s4.33301 4.66699 7 14s4 21.666 4 36.999zM37.9971 267.002c5.33301 4.66699 10.501 10.166 15.501 16.499s9.66699 12.833 14 19.5s8 12.834 11 18.501l6.5 12.5
c-1.33301 2.66699 -3.33301 5.66699 -6 9s-6 5 -10 5c-7.33301 0 -14 -3 -20 -9s-11.333 -13.333 -16 -22s-8.33398 -17.5 -11.001 -26.5s-4 -16.5 -4 -22.5c0 -6.66699 1.66699 -10 5 -10c2.66699 0 7.66699 3 15 9z" />
    <glyph glyph-name="r" unicode="r" horiz-adv-x="144" 
d="M144 341c2 4 5.33496 6 10.002 6c3.33301 0 6.16602 -0.833008 8.49902 -2.5s3.5 -4.83398 3.5 -9.50098c0 -1.33301 -0.333008 -3 -1 -5s-1.33398 -3.66699 -2.00098 -5l-35.5 -54.5c-13.667 -20.333 -27.834 -39.166 -42.501 -56.499s-29.334 -32 -44.001 -44
s-27.667 -18 -39 -18c-9.33301 0 -17 3.16699 -23 9.5s-9 14.5 -9 24.5s2.16699 21.833 6.5 35.5s8.83301 26.5 13.5 38.5c3.33301 7.33301 6.16602 14.5 8.49902 21.5s3.5 11.167 3.5 12.5c0 5.33301 -1.16699 10.666 -3.5 15.999s-4.83301 10.666 -7.5 15.999h1
c-3.33301 6 -6.16602 12 -8.49902 18s-3.5 12.333 -3.5 19c0 6 2.33301 12 7 18s12.667 9 24 9c9.33301 0 15.666 -3 18.999 -9s5 -12.667 5 -20c0 -6.66699 -0.333008 -11 -1 -13c10 -12.667 16.833 -22.667 20.5 -30s5.5 -14.666 5.5 -21.999c0 -6 -1 -12.333 -3 -19
s-5.66699 -15.667 -11 -27c-1.33301 -2 -3.16602 -5.83301 -5.49902 -11.5s-4.66602 -11.667 -6.99902 -18l-7 -19c-2.33301 -6.33301 -3.5 -11.166 -3.5 -14.499c4 2 10.167 7.16699 18.5 15.5s18 19.333 29 33s22.833 29.5 35.5 47.5s25.334 37.667 38.001 59v-1z" />
    <glyph glyph-name="s" unicode="s" horiz-adv-x="168" 
d="M48 353c-1.33301 0 -2.16797 -1.33203 -2.50098 -3.99902s-0.5 -5.66699 -0.5 -9c0.666992 2 1.33398 4.16699 2.00098 6.5s1 4.16602 1 5.49902v1zM39.998 333.001c1.33301 0.666992 2.16797 1.66797 2.50098 3.00098s1.16602 2.66602 2.49902 3.99902v-4v-6z
M162 343.002c2.66699 4 6.33398 6 11.001 6c3.33301 0 6.66602 -1.16699 9.99902 -3.5s5 -5.83301 5 -10.5c0 -0.666992 -0.166992 -1.5 -0.5 -2.5s-0.5 -2.16699 -0.5 -3.5c-14 -19.333 -30.667 -35 -50 -47s-40.666 -22.667 -63.999 -32
c2.66699 -7.33301 4.66699 -14.5 6 -21.5s2 -14.167 2 -21.5c0 -17.333 -6.5 -31.166 -19.5 -41.499s-26.167 -15.5 -39.5 -15.5c-11.333 0 -21.166 3.5 -29.499 10.5s-12.5 18.167 -12.5 33.5c0 10.667 3.5 21 10.5 31s15.167 18.667 24.5 26
c-5.33301 11.333 -10.666 24.666 -15.999 39.999s-8 29.666 -8 42.999c0 15.333 3.16699 28 9.5 38s17.5 15 33.5 15c14 0 24.167 -4 30.5 -12s9.5 -16.667 9.5 -26c0 -8.66699 -2 -16.5 -6 -23.5s-10.667 -12.167 -20 -15.5
c1.33301 -7.33301 3.16602 -14.166 5.49902 -20.499s4.83301 -11.5 7.5 -15.5c21.333 7.33301 40.166 16.5 56.499 27.5s31.166 24.833 44.499 41.5zM31 228.002l-6 -4l-2 6zM28 211.002c0 3.33301 -1.00098 7.66699 -3.00098 13
c-4.66699 -5.33301 -8.16699 -10.833 -10.5 -16.5s-3.5 -10.167 -3.5 -13.5c0 -8 1.66699 -12 5 -12c2.66699 0 5.33398 3 8.00098 9s4 12.667 4 20z" />
    <glyph glyph-name="t" unicode="t" horiz-adv-x="140" 
d="M-4 445c-9.33301 0 -14 3.99805 -14 11.998c0 3.33301 1.16699 6.33301 3.5 9s5.5 4 9.5 4h49l12 29c0 2 1.33301 3 4 3h45c4 0 5.33301 -2.33301 4 -7l-10 -25h35c3.33301 0 6.16602 -1.33301 8.49902 -4s3.5 -5.33398 3.5 -8.00098c0 -8.66699 -4.33301 -13 -13 -13
h-42l-13 -33l-24 -62c-8 -20.667 -15.167 -40.167 -21.5 -58.5s-11.5 -34.833 -15.5 -49.5s-6 -26.334 -6 -35.001s1.33301 -13 4 -13c6 0 14.5 5.33301 25.5 16s22.333 23.834 34 39.501s22.834 31.834 33.501 48.501s19 31 25 43c4.66699 6.66699 9.66699 10 15 10
c7.33301 0 11 -4 11 -12c0 -2 -0.666992 -4.33301 -2 -7c-6 -12 -15 -27.667 -27 -47s-25 -38.166 -39 -56.499s-28.667 -34.333 -44 -48s-29.666 -20.5 -42.999 -20.5c-14.667 0 -24.834 4.83301 -30.501 14.5s-8.5 22.167 -8.5 37.5c0 13.333 1.83301 28.333 5.5 45
s8.16699 33.834 13.5 51.501s11.333 35 18 52l18 46.5c2 6 4.5 12.167 7.5 18.5s5.5 12.833 7.5 19.5h-39z" />
    <glyph glyph-name="u" unicode="u" horiz-adv-x="225" 
d="M63 376c4.66699 0 5.99512 -1.99902 3.99512 -5.99902l-13 -26c-5.33301 -10.667 -10.333 -21.834 -15 -33.501s-8.66699 -23 -12 -34s-5 -19.5 -5 -25.5c0 -4 0.666992 -6 2 -6c2.66699 0 6.5 2 11.5 6s9.83301 8.5 14.5 13.5s8.83398 9.83301 12.501 14.5
s5.83398 7.66699 6.50098 9l-1 -1l40 87c1.33301 1.33301 3 2 5 2h48c5.33301 0 7 -2 5 -6l-21.5 -45l-24 -53c-7.66699 -17.333 -14.167 -33.166 -19.5 -47.499s-8 -24.5 -8 -30.5c21.333 3.33301 63 53 125 149c2.66699 4 6.33398 6 11.001 6
c3.33301 0 6.66602 -1.16699 9.99902 -3.5s5 -5.5 5 -9.5s-1.33301 -7.33301 -4 -10v1c-32 -50.667 -61.667 -91 -89 -121s-52.666 -45 -75.999 -45c-13.333 0 -22.666 3.83301 -27.999 11.5s-8 17.167 -8 28.5c0 3.33301 0.166992 6.83301 0.5 10.5
s0.833008 7.16699 1.5 10.5c-12 -7.33301 -24 -11 -36 -11c-13.333 0 -22.5 3.5 -27.5 10.5s-7.5 16.167 -7.5 27.5c0 9.33301 1.33301 19.333 4 30s5.83398 21.167 9.50098 31.5s7.5 20.166 11.5 29.499s7.66699 17.333 11 24l5 10c1.33301 1.33301 3 2 5 2h47z" />
    <glyph glyph-name="v" unicode="v" horiz-adv-x="178" 
d="M63 376c4 0 4.99707 -2.33105 2.99707 -6.99805c-8 -12 -16 -26.5 -24 -43.5s-15.5 -34 -22.5 -51s-12.667 -32.5 -17 -46.5s-6.83301 -24.333 -7.5 -31c2.66699 1.33301 7 5.16602 13 11.499s12.333 13.5 19 21.5l20 24.5l16 20.5c-5.33301 10 -8 19.667 -8 29
c0 15.333 4.83301 27.833 14.5 37.5s19.834 14.5 30.501 14.5c14.667 0 22 -7.33301 22 -22c0 -8 -2.5 -17.833 -7.5 -29.5s-9.83301 -20.834 -14.5 -27.501h3c6 0 12 1.83301 18 5.5s11.833 8.16699 17.5 13.5s11 11 16 17s9.5 11.667 13.5 17c10 13.333 17.333 20 22 20
c3.33301 0 6.33301 -1.16699 9 -3.5s4 -5.16602 4 -8.49902l-6 -12c-5.33301 -8 -11.333 -16.333 -18 -25s-14.167 -16.5 -22.5 -23.5s-17.166 -12.833 -26.499 -17.5s-19 -7 -29 -7c-3.33301 0 -6.16602 0.166992 -8.49902 0.5s-4.83301 0.833008 -7.5 1.5l-20.5 -27
c-8.33301 -10.667 -17.333 -20.834 -27 -30.501s-19.334 -18 -29.001 -25s-18.5 -10.5 -26.5 -10.5c-11.333 0 -19.166 3.33301 -23.499 10s-6.5 15.667 -6.5 27c0 12 2 25.5 6 40.5s8.5 29.5 13.5 43.5s9.83301 26.333 14.5 37s8 18 10 22l16 32
c1.33301 1.33301 2.33301 2 3 2h48zM78.9971 303.002c2.66699 6 5.33301 12.5 8 19.5s4 11.5 4 13.5l5 -5c-1.33301 -1.33301 -2.83301 -4.5 -4.5 -9.5s-2.5 -11.5 -2.5 -19.5z" />
    <glyph glyph-name="w" unicode="w" horiz-adv-x="303" 
d="M69 376c4.66699 0 5.99316 -2 3.99316 -6c-7.33301 -12 -14.666 -26.167 -21.999 -42.5s-14 -32.666 -20 -48.999s-10.833 -31.5 -14.5 -45.5s-5.5 -24.333 -5.5 -31c0 -3.33301 1 -5 3 -5c6 0 13.167 4.33301 21.5 13s16.833 19 25.5 31s16.667 24.667 24 38l18 33
l16 30c2 2 3.33301 3 4 3h43c4.66699 0 6 -2.33301 4 -7l-14.5 -29.5c-5.66699 -11.667 -10.834 -23.667 -15.501 -36s-8.66699 -23.833 -12 -34.5s-5 -19 -5 -25c0 -2 -0.333008 -3 -1 -3c2.66699 0.666992 6.33398 3.16699 11.001 7.5s9.83398 9.66602 15.501 15.999
s11.334 13.166 17.001 20.499s10.5 14.333 14.5 21c-4.66699 9.33301 -7 19.333 -7 30c0 11.333 3.16699 22.166 9.5 32.499s15.833 15.5 28.5 15.5c8 0 13.5 -2.33301 16.5 -7s4.5 -10.667 4.5 -18s-1.66699 -16 -5 -26s-6.66602 -18 -9.99902 -24h2
c6.66699 0 13.334 1.83301 20.001 5.5s13 8.16699 19 13.5s11.667 11 17 17s10 11.667 14 17l10.5 14c3 4 6.16699 6 9.5 6s6.33301 -0.833008 9 -2.5s4 -4.83398 4 -9.50098c0 -1.33301 -0.166992 -2.66602 -0.5 -3.99902s-1.5 -4 -3.5 -8
c-5.33301 -7.33301 -11.5 -15.333 -18.5 -24s-14.667 -16.667 -23 -24s-17.166 -13.5 -26.499 -18.5s-19 -7.5 -29 -7.5c-3.33301 0 -6.5 0.166992 -9.5 0.5s-6.16699 1.5 -9.5 3.5c-5.33301 -8 -11.5 -16.667 -18.5 -26s-14.667 -18 -23 -26s-17.166 -14.667 -26.499 -20
s-19 -8 -29 -8c-11.333 0 -19.333 3 -24 9s-7 13.333 -7 22c-10.667 -13.333 -21.5 -24.166 -32.5 -32.499s-24.167 -12.5 -39.5 -12.5c-29.333 0 -44 14.667 -44 44c0 9.33301 1.5 20.5 4.5 33.5s6.83301 26.833 11.5 41.5s10.167 29.834 16.5 45.501l19.5 46.5
c1.33301 1.33301 3 2 5 2h54zM204.993 327l-2 -2v2h2zM202.993 325c-3.33301 -4.66699 -5 -11 -5 -19zM192.993 292c1.33301 1.33301 2.16797 3.16797 2.50098 5.50098s1.16602 5.16602 2.49902 8.49902v-3c0 -4 0.666992 -8 2 -12z" />
    <glyph glyph-name="x" unicode="x" 
d="M176 365c-6 0 -13.501 -3.50391 -22.501 -10.5039s-18.833 -15.833 -29.5 -26.5s-21.334 -22.334 -32.001 -35.001s-20.334 -25 -29.001 -37v-1c0.666992 -6 1.66699 -13.833 3 -23.5s3 -19.167 5 -28.5s4.16699 -17.5 6.5 -24.5s5.16602 -10.5 8.49902 -10.5
c7.33301 0 23 15.167 47 45.5s53 73.5 87 129.5c5.33301 2.66699 8.66602 4 9.99902 4c8.66699 0 13 -5.33301 13 -16c-41.333 -67.333 -75.333 -116 -102 -146s-48.667 -45 -66 -45c-12.667 0 -23.834 6.33301 -33.501 19s-17.167 26.667 -22.5 42
c-15.333 -19.333 -31.666 -36.666 -48.999 -51.999s-36.666 -24 -57.999 -26c-6 0.666992 -9 4.33398 -9 11.001s3.33301 11.334 10 14.001c8 2 16.333 6.16699 25 12.5s17.334 13.833 26.001 22.5s17.167 18.167 25.5 28.5l23.5 29.5c0 1.33301 -0.166992 3 -0.5 5
s-0.5 3.66699 -0.5 5c-0.666992 8 -1.66699 18.333 -3 31s-3.33301 25 -6 37s-6.5 22.167 -11.5 30.5s-11.167 12.5 -18.5 12.5c-10.667 0 -16 4 -16 12c0 4.66699 4.16699 8.16699 12.5 10.5s14.5 3.5 18.5 3.5c11.333 0 20.833 -2.66699 28.5 -8
s14.334 -12.166 20.001 -20.499s10.167 -17.666 13.5 -27.999s6 -20.5 8 -30.5c18 23.333 37 43.666 57 60.999s40.333 26 61 26c4.66699 0 7.83398 -1.16699 9.50098 -3.5s2.5 -4.83301 2.5 -7.5c0 -3.33301 -1.16699 -6.16602 -3.5 -8.49902s-5.16602 -3.5 -8.49902 -3.5z
" />
    <glyph glyph-name="y" unicode="y" 
d="M165 376c5.33301 0 7.00391 -2.00098 5.00391 -6.00098l-48 -107c21.333 14 39.166 27 53.499 39s29.166 25.667 44.499 41c3.33301 3.33301 7.33301 5 12 5c3.33301 0 6.5 -1.33301 9.5 -4s4.5 -6 4.5 -10s-1.33301 -7 -4 -9c-20 -21.333 -41.167 -40.666 -63.5 -57.999
s-47.833 -32.666 -76.5 -45.999l-22 -45.5c-8.66699 -17.667 -18.834 -36 -30.501 -55s-24.334 -37.833 -38.001 -56.5s-28 -35.5 -43 -50.5s-30.5 -27.167 -46.5 -36.5s-32 -14 -48 -14c-24 0 -40.667 6.83301 -50 20.5s-14 29.5 -14 47.5c0.666992 26 10 49.5 28 70.5
s39.333 39.833 64 56.5s50.334 31 77.001 43s49.334 21.667 68.001 29l5 10c-8.66699 -6.66699 -16.667 -11.167 -24 -13.5s-14.333 -3.5 -21 -3.5c-12.667 0 -21.5 3.33301 -26.5 10s-7.5 15.667 -7.5 27c0 8.66699 1.5 18.667 4.5 30s6.66699 22.5 11 33.5
s8.66602 21 12.999 30s7.5 15.833 9.5 20.5c1.33301 1.33301 2.66602 2 3.99902 2h45c4.66699 0 6 -2 4 -6c-4.66699 -8.66699 -9.5 -18.334 -14.5 -29.001s-9.5 -21.167 -13.5 -31.5s-7.33301 -20 -10 -29s-4 -16.5 -4 -22.5c0 -3.33301 0.666992 -5 2 -5c6 0 13 4 21 12
s16 18 24 30s15.833 25.167 23.5 39.5l20.5 39.5c1.33301 1.33301 3 2 5 2h47zM41.0039 197.999l-11 -5l6 12zM-132.996 -4.00098c15.333 0 31 7.66797 47 23.001s31.333 33.5 46 54.5s28.167 42.667 40.5 65l29.5 54.5c-17.333 -7.33301 -36.833 -16.5 -58.5 -27.5
s-42.167 -23.333 -61.5 -37s-35.5 -28.834 -48.5 -45.501s-19.5 -34 -19.5 -52c0 -9.33301 2.33301 -17.5 7 -24.5s10.667 -10.5 18 -10.5z" />
    <glyph glyph-name="z" unicode="z" horiz-adv-x="222" 
d="M-89 0c14 8.66699 27.332 19.3311 39.999 31.998s24.334 26.334 35.001 41.001s19.834 29.834 27.501 45.501s14.167 30.5 19.5 44.5c-58.667 -23.333 -101.667 -47.833 -129 -73.5s-41 -52.5 -41 -80.5c0 -7.33301 1.66699 -12.5 5 -15.5s7.33301 -4.5 12 -4.5
c5.33301 0 10.666 1 15.999 3s10.333 4.66699 15 8zM-168.001 9.99707c0 25.333 7.50195 48.165 22.502 68.498s33.333 38 55 53s44.5 27.667 68.5 38s45 18.166 63 23.499c0.666992 4 1 8.66699 1 14v15c0 4.66699 -0.166992 9.83398 -0.5 15.501
s-1.16602 11.167 -2.49902 16.5c-8 -2 -16 -3 -24 -3c-10.667 0 -18.334 2.16699 -23.001 6.5s-7 9.83301 -7 16.5c0 11.333 5.5 20 16.5 26s22.167 9 33.5 9c4.66699 0 7.66699 -0.333008 9 -1c3.33301 4 7.33301 10.5 12 19.5s7 17.167 7 24.5c0 4.66699 -2.33301 7 -7 7
c-3.33301 0 -6.83301 -2 -10.5 -6s-8.16699 -8.66699 -13.5 -14c-10 -10 -17.667 -15 -23 -15c-4 0 -7.5 1 -10.5 3s-4.5 5 -4.5 9c0 9.33301 3 17.333 9 24s13 12 21 16s16.167 7 24.5 9s14.5 3 18.5 3c19.333 0 32.666 -3.5 39.999 -10.5s11 -16.167 11 -27.5
s-3.5 -23.166 -10.5 -35.499s-14.5 -23.166 -22.5 -32.499c5.33301 -8.66699 9 -18.167 11 -28.5s3.33301 -20.166 4 -29.499c22 14 42.667 30.833 62 50.5s36.666 42.5 51.999 68.5v-1c2.66699 6 7 9 13 9c8 0 12 -4.66699 12 -14
c0 -2.66699 -0.666992 -5.33398 -2 -8.00098c-19.333 -32 -39.666 -58.667 -60.999 -80s-47 -40 -77 -56c-6 -30.667 -16.833 -60.167 -32.5 -88.5s-33.834 -53.5 -54.501 -75.5s-42 -39.5 -64 -52.5s-42 -19.5 -60 -19.5c-15.333 0 -28.5 4 -39.5 12s-16.5 21.667 -16.5 41
zM11.001 277.996c1.33301 0 3.33301 0.666992 6 2c-2.66699 -0.666992 -4 -2 -4 -4zM31.001 287.996c0 -2.66699 0.333008 -3.99902 1 -3.99902c-3.33301 0 -8.33301 -1.33301 -15 -4c7.33301 3.33301 12 6.66602 14 9.99902v-2z" />
    <glyph glyph-name="braceleft" unicode="{" horiz-adv-x="210" 
d="M104 76c6.66699 -3.33301 9.99805 -7.33398 9.99805 -12.001c0 -7.33301 -5.33301 -11 -16 -11c-14 0 -25.667 2.33301 -35 7s-16.833 10.5 -22.5 17.5s-9.83398 14.667 -12.501 23s-4 16.5 -4 24.5c0 17.333 3.66699 36.333 11 57l22 60c4.66699 10.667 9 21.5 13 32.5
s7.33301 20.5 10 28.5c-7.33301 1.33301 -13.166 4.16602 -17.499 8.49902s-6.5 9.16602 -6.5 14.499c0 6.66699 3 13.334 9 20.001s13.667 10 23 10c4.66699 0 10.334 -1.33301 17.001 -4l11 28c8 17.333 16.833 35.5 26.5 54.5s20.5 36.5 32.5 52.5s25.333 29.333 40 40
s30.667 16 48 16c5.33301 0 11.166 -0.666992 17.499 -2s9.5 -5.66602 9.5 -12.999c0 -6.66699 -6.66699 -10 -20 -10c-9.33301 0 -18.166 -3.33301 -26.499 -10s-16.166 -15.5 -23.499 -26.5s-14.5 -23.333 -21.5 -37l-20.5 -41.5l-26 -50c-8 -16 -16.667 -28.667 -26 -38
v-3c0 -11.333 -2.5 -24.333 -7.5 -39s-11.167 -29.667 -18.5 -45c-8 -18.667 -15.5 -37.167 -22.5 -55.5s-10.5 -35.166 -10.5 -50.499c0 -22.667 11.667 -37.667 35 -45zM82.998 335.999l5 -5v-3c0 -0.666992 -0.666992 -1 -2 -1l-3 -4v13z" />
    <glyph glyph-name="bar" unicode="|" horiz-adv-x="143" 
d="M33 549c0 5.33301 2.16699 9.83301 6.5 13.5s9.83301 5.5 16.5 5.5c6 0 11.167 -1.83301 15.5 -5.5s6.5 -8.16699 6.5 -13.5v-502c0 -5.33301 -2.16699 -9.66602 -6.5 -12.999s-9.5 -5 -15.5 -5c-6.66699 0 -12.167 1.66699 -16.5 5s-6.5 7.66602 -6.5 12.999v502z" />
    <glyph glyph-name="braceright" unicode="}" horiz-adv-x="203" 
d="M94 519c-6.66699 2.66699 -9.99609 6.33008 -9.99609 10.9971c0 8.66699 7 13 21 13c25.333 -3.33301 43.333 -11.5 54 -24.5s16 -29.167 16 -48.5c0 -17.333 -3.83301 -37.166 -11.5 -59.499s-15.5 -43.166 -23.5 -62.499l-3 -9
c-1.33301 -3.33301 -2.5 -6.83301 -3.5 -10.5s-2.16699 -7.16699 -3.5 -10.5l-4 -12.5c-1.33301 -4.33301 -3 -8.16602 -5 -11.499c9.33301 -1.33301 15.166 -4.33301 17.499 -9s3.5 -10 3.5 -16c0 -6.66699 -3 -13 -9 -19s-13.333 -9 -22 -9
c-6.66699 0 -12.334 1 -17.001 3l-12 -27h1l-26.5 -55c-9.66699 -19.333 -20.5 -37 -32.5 -53s-25.333 -29.333 -40 -40s-31 -16 -49 -16c-5.33301 0 -11 0.5 -17 1.5s-9 4.83301 -9 11.5c0 6 1.66699 9.5 5 10.5s7.66602 1.5 12.999 1.5c8.66699 0 17.167 3.16699 25.5 9.5
s16.166 14.833 23.499 25.5s14.5 22.5 21.5 35.5l20.5 39.5l28 54c9.33301 17.333 18.333 31 27 41v2c0 11.333 2.5 23.833 7.5 37.5s10.833 28.5 17.5 44.5c8 18.667 15.333 37.5 22 56.5s10 35.833 10 50.5c0 10.667 -2.83301 20 -8.5 28s-14.167 13.667 -25.5 17h-2z
M115.004 269.996c0 -4 -1.33301 -6 -4 -6v4h1l3 5v-3z" />
    <glyph glyph-name="asciitilde" unicode="~" horiz-adv-x="275" 
d="M117 225c-14.667 4.66699 -25 7.00098 -31 7.00098c-2 0 -3.66699 -0.666992 -5 -2l-4 -4v1c-4 -5.33301 -9 -8 -15 -8c-3.33301 0 -7 1.5 -11 4.5s-6 5.83301 -6 8.5c0 7.33301 2.16699 13.333 6.5 18s9.16602 8.5 14.499 11.5s10.833 5.16699 16.5 6.5s9.5 2 11.5 2
c8.66699 0 16.834 -1.16699 24.501 -3.5s15.167 -5.16602 22.5 -8.49902c5.33301 -2.66699 10.166 -4.83398 14.499 -6.50098s7.83301 -2.5 10.5 -2.5l7 4c4.66699 2.66699 9.33398 4 14.001 4c3.33301 0 7 -1.33301 11 -4s6 -5.33398 6 -8.00098
c0 -5.33301 -2 -9.83301 -6 -13.5s-8.5 -6.5 -13.5 -8.5s-10.167 -3.5 -15.5 -4.5s-9 -1.5 -11 -1.5c-8 0 -15.5 0.833008 -22.5 2.5s-13.5 3.5 -19.5 5.5h1z" />
    <glyph glyph-name="quoteleft" unicode="&#x2018;" horiz-adv-x="218" 
d="M79 479c-9.33301 4 -15.835 9 -19.502 15s-5.5 12.667 -5.5 20c0 10 3.83301 21.333 11.5 34s16.334 24.334 26.001 35.001s19 19.667 28 27s15.167 11 18.5 11c4 0 8 -1.33301 12 -4s6 -6.33398 6 -11.001c0 -1.33301 -0.166992 -2.83301 -0.5 -4.5s-1.5 -3.5 -3.5 -5.5
v1c-7.33301 -7.33301 -14.333 -15.166 -21 -23.499s-10 -16.166 -10 -23.499c0 -4.66699 3 -9.33398 9 -14.001c6.66699 -6.66699 10 -12.667 10 -18c0 -11.333 -4.16699 -21 -12.5 -29s-19.166 -12 -32.499 -12c-3.33301 0 -6 0.166992 -8 0.5s-4.66699 1.16602 -8 2.49902
v-1z" />
    <glyph glyph-name="quoteright" unicode="&#x2019;" horiz-adv-x="184" 
d="M100 611c16 -8.66699 24.002 -19.6689 24.002 -33.002c0 -10.667 -3.83301 -22.334 -11.5 -35.001s-16.167 -24.5 -25.5 -35.5s-18.666 -20.167 -27.999 -27.5s-15.333 -11 -18 -11c-4 0 -8.33301 1.83301 -13 5.5s-6.33398 8.83398 -5.00098 15.501
c8.66699 8.66699 16.667 17.334 24 26.001s11 16.667 11 24c0 2.66699 -1 5 -3 7c-4 4.66699 -7.66699 9.33398 -11 14.001s-5 9 -5 13c0 10.667 4.16699 20 12.5 28s19.166 12 32.499 12c4 0 7.16699 -0.166992 9.5 -0.5s4.16602 -0.833008 5.49902 -1.5h-2z" />
    <glyph glyph-name="quotesinglbase" unicode="&#x201a;" horiz-adv-x="178" 
d="M108 150c16 -8.66699 24.001 -20.002 24.001 -34.002c0 -10.667 -3.83301 -22.167 -11.5 -34.5s-16.167 -24 -25.5 -35s-18.666 -20.167 -27.999 -27.5s-15.333 -11 -18 -11c-4 0 -8.33301 1.83301 -13 5.5s-6.33398 8.83398 -5.00098 15.501
c8.66699 8 16.667 16.5 24 25.5s11 17.167 11 24.5c0 2.66699 -1 5 -3 7c-4 4.66699 -7.66699 9.33398 -11 14.001s-5 8.66699 -5 12c0 11.333 4.16699 21 12.5 29s19.166 12 32.499 12c5.33301 0 10 -0.666992 14 -2z" />
    <glyph glyph-name="quotedblleft" unicode="&#x201c;" horiz-adv-x="275" 
d="M147 479c-9.33301 4 -15.8359 9 -19.5029 15s-5.5 12.667 -5.5 20c0 10 3.83301 21.333 11.5 34s16.5 24.334 26.5 35.001s19.5 19.667 28.5 27s15.167 11 18.5 11c4 0 8 -1.33301 12 -4s6 -6.33398 6 -11.001c0 -1.33301 -0.166992 -2.83301 -0.5 -4.5
s-1.5 -3.5 -3.5 -5.5v1c-7.33301 -7.33301 -14.333 -15.166 -21 -23.499s-10 -16.166 -10 -23.499c0 -4.66699 3 -9.33398 9 -14.001c6.66699 -6.66699 10 -12.667 10 -18c0 -11.333 -4.16699 -21 -12.5 -29s-19.166 -12 -32.499 -12
c-3.33301 0 -6.16602 0.166992 -8.49902 0.5s-5.16602 1.16602 -8.49902 2.49902v-1zM58.9971 479c-9.33301 4 -15.8369 9 -19.5039 15s-5.5 12.667 -5.5 20c0 10 3.83301 21.333 11.5 34s16.5 24.334 26.5 35.001s19.5 19.667 28.5 27s15.167 11 18.5 11s7 -1.33301 11 -4
s6 -6.33398 6 -11.001c0 -1.33301 -0.166992 -2.83301 -0.5 -4.5s-1.5 -3.5 -3.5 -5.5v1c-7.33301 -7.33301 -14.166 -15.166 -20.499 -23.499s-9.5 -16.166 -9.5 -23.499c0 -4.66699 3 -9.33398 9 -14.001c6.66699 -6.66699 10 -12.667 10 -18
c0 -11.333 -4.16699 -21 -12.5 -29s-19.166 -12 -32.499 -12c-3.33301 0 -6.16602 0.166992 -8.49902 0.5s-5.16602 1.16602 -8.49902 2.49902v-1z" />
    <glyph glyph-name="quotedblright" unicode="&#x201d;" horiz-adv-x="272" 
d="M103 611c8.66699 -4.66699 14.665 -9.50195 17.998 -14.502s5 -11.167 5 -18.5c0 -10.667 -3.83301 -22.334 -11.5 -35.001s-16.167 -24.5 -25.5 -35.5s-18.666 -20.167 -27.999 -27.5s-15.333 -11 -18 -11c-4 0 -8.16699 1.83301 -12.5 5.5
s-6.16602 8.83398 -5.49902 15.501c8.66699 8.66699 16.667 17.334 24 26.001s11 16.667 11 24c0 2.66699 -1 5 -3 7c-4 4.66699 -7.66699 9.33398 -11 14.001s-5 9 -5 13c0 10.667 4.33301 20 13 28s19.667 12 33 12c5.33301 0 10 -0.666992 14 -2zM190.998 610.998
c16 -8.66699 24.002 -19.665 24.002 -32.998c0 -10.667 -3.83301 -22.334 -11.5 -35.001s-16.334 -24.5 -26.001 -35.5s-19.167 -20.167 -28.5 -27.5s-15.333 -11 -18 -11c-4 0 -8 1.66699 -12 5s-6 7.66602 -6 12.999c0 2 0.333008 3.33301 1 4
c8.66699 8.66699 16.5 17.167 23.5 25.5s10.5 16.166 10.5 23.499c0 2.66699 -1 5 -3 7c-4 4.66699 -7.66699 9.33398 -11 14.001s-5 9 -5 13c0 10.667 4.16699 20 12.5 28s19.166 12 32.499 12c6 0 11 -0.666992 15 -2z" />
    <glyph glyph-name="quotedblbase" unicode="&#x201e;" horiz-adv-x="310" 
d="M109 150c8.66699 -4.66699 14.666 -9.66992 17.999 -15.0029s5 -11.666 5 -18.999c0 -10.667 -3.83301 -22.167 -11.5 -34.5s-16.167 -24 -25.5 -35s-18.666 -20.167 -27.999 -27.5s-15.333 -11 -18 -11c-4 0 -8.16699 1.83301 -12.5 5.5s-5.83301 8.83398 -4.5 15.501
c8 8 15.667 16.5 23 25.5s11 17.167 11 24.5c0 2.66699 -1 5 -3 7c-4 4.66699 -7.66699 9.33398 -11 14.001s-5 8.66699 -5 12c0 11.333 4.33301 21 13 29s19.667 12 33 12c5.33301 0 10 -0.666992 14 -2zM211.999 149.997c16 -8.66699 24.0029 -20.002 24.0029 -34.002
c0 -10.667 -3.83301 -22.167 -11.5 -34.5s-16.334 -24 -26.001 -35s-19.167 -20.167 -28.5 -27.5s-15.333 -11 -18 -11c-4 0 -8.33301 1.83301 -13 5.5s-6.33398 8.83398 -5.00098 15.501c8.66699 8 16.667 16.5 24 25.5s11 17.167 11 24.5c0 2.66699 -1 5 -3 7
c-4 4.66699 -7.66699 9.33398 -11 14.001s-5 8.66699 -5 12c0 11.333 4.16699 21 12.5 29s19.166 12 32.499 12c6 0 11 -0.666992 15 -2z" />
    <glyph glyph-name="a.001" unicode="&#xe000;" horiz-adv-x="217" 
d="M157 379c5.33301 0 7.00195 -2.33203 5.00195 -6.99902l-21 -44.5l-23.5 -50.5c-7.66699 -16.667 -14 -31.834 -19 -45.501s-7.5 -23.5 -7.5 -29.5c0 -2.66699 0.333008 -4 1 -4c4.66699 0 11.5 4.83301 20.5 14.5s19 21.834 30 36.501s22.333 30.667 34 48l32.5 48
l-1 -1c2 5.33301 6.33301 8 13 8c3.33301 0 6.33301 -1.33301 9 -4s4 -6.66699 4 -12l-41.5 -64.5c-13.667 -21 -27.334 -39.5 -41.001 -55.5s-27 -28.833 -40 -38.5s-25.833 -14.5 -38.5 -14.5s-21.334 4.16699 -26.001 12.5s-7 18.833 -7 31.5c0 16 2 29.667 6 41
c-12.667 -5.33301 -23.667 -8 -33 -8c-12.667 0 -21.667 3.66699 -27 11s-8.33301 16.666 -9 27.999v11.5c0 3 0.666992 6.83301 2 11.5c-56 -38 -106.833 -65.5 -152.5 -82.5s-85.5 -25.5 -119.5 -25.5c-27.333 0 -49.833 4.16699 -67.5 12.5s-31.167 20.166 -40.5 35.499
c-2.66699 4.66699 -4.16699 7.5 -4.5 8.5s-0.5 1.83301 -0.5 2.5c0 8 4 12 12 12c4.66699 0 8.66699 -2 12 -6c7.33301 -12 18.5 -21.5 33.5 -28.5s33.5 -10.5 55.5 -10.5c34.667 0 76.5 9.83301 125.5 29.5s103.167 51.5 162.5 95.5c8 12.667 18.333 23.334 31 32.001
s26 13 40 13c7.33301 0 14.5 -1 21.5 -3s13.167 -5.66699 18.5 -11c2 2 3.33301 3 4 3h47zM26.002 283.001c0 -8 1.99902 -11.998 5.99902 -11.998c6.66699 0 13.5 3.5 20.5 10.5s13.5 15 19.5 24s11 17.667 15 26s6.33301 14.166 7 17.499
c-1.33301 2.66699 -3.33301 5.16699 -6 7.5s-5.66699 3.5 -9 3.5c-7.33301 -0.666992 -14.166 -3.83398 -20.499 -9.50098s-12 -12.5 -17 -20.5s-8.83301 -16.167 -11.5 -24.5s-4 -15.833 -4 -22.5z" />
    <glyph glyph-name="b.001" unicode="&#xe001;" horiz-adv-x="238" 
d="M231 344c1.33301 3.33301 3.16992 5.49805 5.50293 6.49805s4.83301 1.5 7.5 1.5c3.33301 0 6.83301 -1.16699 10.5 -3.5s5.5 -5.83301 5.5 -10.5c0 -4 -1.33301 -7.33301 -4 -10v1c-18 -26 -34.167 -47.5 -48.5 -64.5s-28 -30.667 -41 -41
s-25.833 -18.166 -38.5 -23.499s-26.667 -9.66602 -42 -12.999c-7.33301 -9.33301 -16.666 -15.833 -27.999 -19.5s-22.666 -5.5 -33.999 -5.5c-7.33301 0 -14 0.666992 -20 2s-10.667 3.66602 -14 6.99902h-16c-8.66699 0 -17.667 1 -27 3s-14 6.66699 -14 14
c7.33301 20 15 39.333 23 58l23 56c1.33301 4.66699 2.66602 7.83398 3.99902 9.50098s2.66602 4.5 3.99902 8.5c-5.33301 -0.666992 -10.833 -1.16699 -16.5 -1.5s-11.5 -0.5 -17.5 -0.5c-21.333 0 -41.5 3.5 -60.5 10.5s-34.167 19.833 -45.5 38.5
c-2 4 -3.16699 6.5 -3.5 7.5s-0.5 2.16699 -0.5 3.5c0 7.33301 3.66699 11 11 11c2 0 4.16699 -0.666992 6.5 -2s4.16602 -2.33301 5.49902 -3c10 -13.333 23.167 -23.166 39.5 -29.499s33.166 -9.5 50.499 -9.5c6.66699 0 13.5 0.166992 20.5 0.5
s13.833 1.16602 20.5 2.49902c13.333 32 28.166 64.333 44.499 97s33.666 62.167 51.999 88.5s37.5 47.666 57.5 63.999s40.667 24.5 62 24.5c19.333 0 34.333 -6 45 -18s16 -27.667 16 -47c0 -18 -5.5 -37.667 -16.5 -59s-26.333 -42.5 -46 -63.5s-43 -40.5 -70 -58.5
s-56.167 -32 -87.5 -42l-6 -16c0 -0.666992 -0.166992 -1 -0.5 -1s-0.5 -0.333008 -0.5 -1l-1 -1c6.66699 2.66699 12.334 4.33398 17.001 5.00098s9.66699 1 15 1c16.667 0 28.167 -4.33301 34.5 -13s9.5 -19.667 9.5 -33c0 -19.333 -3.66699 -36.333 -11 -51
c16.667 7.33301 34.5 20 53.5 38s41.167 45.667 66.5 83v-1zM180.004 562.998c-21.333 -20.667 -42 -49.165 -62 -85.498s-38 -73.166 -54 -110.499c28 11.333 52.833 25.166 74.5 41.499s40 33.333 55 51s26.5 35.167 34.5 52.5s12 32.666 12 45.999
c0 12 -1.66699 20.5 -5 25.5s-7 7.5 -11 7.5c-7.33301 0 -14.833 -2.83301 -22.5 -8.5s-14.5 -11.834 -20.5 -18.501zM64.0039 292c-5.33301 0 -11.001 -3.50098 -17.001 -10.501s-11.833 -15.5 -17.5 -25.5s-11 -20.833 -16 -32.5s-9.16699 -22.5 -12.5 -32.5
c2.66699 -2 5.33398 -3 8.00098 -3c7.33301 0 14.5 3.5 21.5 10.5s13.333 15.333 19 25s10.167 19.834 13.5 30.501s5 19.667 5 27s-1.33301 11 -4 11z" />
    <glyph glyph-name="c.001" unicode="&#xe002;" horiz-adv-x="160" 
d="M66 272c-5.33301 -2.66699 -8.99805 -3.99805 -10.998 -3.99805c-10.667 0 -16 5.33301 -16 16c0 1.33301 1.33301 4.33301 4 9s5.5 11 8.5 19s4.5 16.667 4.5 26c0 5.33301 -1 8 -3 8c-3.33301 0 -8 -4.5 -14 -13.5s-12 -20.167 -18 -33.5s-11.167 -27.333 -15.5 -42
s-6.5 -27.667 -6.5 -39c0 -16.667 5.66699 -25 17 -25c8 0 17.667 4 29 12s23.166 19 35.499 33s25 30.333 38 49s25.167 39 36.5 61c2.66699 2.66699 6.33398 4 11.001 4c3.33301 0 6.33301 -1.33301 9 -4s4 -6 4 -10c0 -0.666992 -0.166992 -1.16699 -0.5 -1.5
s-0.5 -1.16602 -0.5 -2.49902c-18 -32.667 -35 -60 -51 -82s-31.333 -39.5 -46 -52.5s-28.5 -22.333 -41.5 -28s-25.167 -8.5 -36.5 -8.5c-18.667 0 -31.834 5.66699 -39.501 17s-11.5 26 -11.5 44c0 22 5.33301 45.667 16 71c-53.333 -36 -102.166 -61.833 -146.499 -77.5
s-82.833 -23.5 -115.5 -23.5c-26.667 0 -48.834 4.16699 -66.501 12.5s-31.167 20.166 -40.5 35.499c-2.66699 4.66699 -4.16699 7.5 -4.5 8.5s-0.5 1.83301 -0.5 2.5c0 8 4 12 12 12c4.66699 0 8.66699 -2 12 -6c7.33301 -12 18.5 -21.5 33.5 -28.5
s33.167 -10.5 54.5 -10.5c34.667 0 76.667 10 126 30s103.666 52 162.999 96c8.66699 10.667 18 19.5 28 26.5s19.333 10.5 28 10.5c13.333 0 22.5 -4.16699 27.5 -12.5s7.5 -18.5 7.5 -30.5c0 -12.667 -2.33301 -25.334 -7 -38.001s-8.66699 -22.334 -12 -29.001z" />
    <glyph glyph-name="d.001" unicode="&#xe003;" horiz-adv-x="258" 
d="M252 345c3.33301 4.66699 7.33789 7.00195 12.0049 7.00195c3.33301 0 6.66602 -1.33301 9.99902 -4s5 -5.33398 5 -8.00098c0 -3.33301 -0.666992 -5.66602 -2 -6.99902v1c-1.33301 -2 -3 -4.33301 -5 -7s-4.33301 -6 -7 -10l-36.5 -52c-15 -21.333 -31.5 -42 -49.5 -62
s-36.5 -37.333 -55.5 -52s-36.833 -22 -53.5 -22c-16 0 -26.833 5 -32.5 15s-8.5 20.667 -8.5 32c0 7.33301 0.666992 14.833 2 22.5s2.66602 14.167 3.99902 19.5c-6.66699 -3.33301 -13.334 -5.66602 -20.001 -6.99902s-12 -2 -16 -2
c-15.333 0 -26.166 4.16699 -32.499 12.5s-9.5 18.833 -9.5 31.5c0 12 2.66699 25.167 8 39.5s12.666 27.666 21.999 39.999s20 22.666 32 30.999s24.667 12.5 38 12.5s25.666 -3.33301 36.999 -10l10 19h-7c-22 0 -42.5 3.5 -61.5 10.5s-34.167 19.833 -45.5 38.5
c-2 4 -3.16699 6.66699 -3.5 8s-0.5 2.66602 -0.5 3.99902c0 7.33301 4 11 12 11c2 0 4.16699 -0.5 6.5 -1.5s4.16602 -2.16699 5.49902 -3.5c10 -13.333 23 -23.166 39 -29.499s32.667 -9.5 50 -9.5h8.5c2.33301 0 5.16602 0.333008 8.49902 1
c12 23.333 25.167 47.333 39.5 72s29.5 47 45.5 67s32.333 36.5 49 49.5s33.667 19.5 51 19.5c11.333 0 20.833 -2 28.5 -6s13.834 -9.16699 18.501 -15.5s8 -13.333 10 -21s3 -15.5 3 -23.5c-0.666992 -20 -7.16699 -38.667 -19.5 -56s-27.833 -33 -46.5 -47
s-39.667 -26.167 -63 -36.5s-46.333 -18.5 -69 -24.5c-2 -3.33301 -5 -9.83301 -9 -19.5s-8.5 -20 -13.5 -31l-14.5 -32c-4.66699 -10.333 -8 -18.5 -10 -24.5c-2 -5.33301 -5 -13.833 -9 -25.5l-13 -37c-4.66699 -13 -8.66699 -25.5 -12 -37.5s-5 -20.333 -5 -25
c6.66699 0.666992 14.667 4.5 24 11.5s19.5 15.667 30.5 26s22 22.166 33 35.499l33 40.5l30.5 39zM265.005 555.002l-24 -28.002c-6.66699 -8 -13 -16.5 -19 -25.5s-12.167 -19.5 -18.5 -31.5s-13.833 -27 -22.5 -45c52 16.667 89.667 36.334 113 59.001
s35 46.334 35 71.001c0 11.333 -1.66699 19.5 -5 24.5s-7 7.5 -11 7.5c-14 0 -30 -10.667 -48 -32zM12.0049 239c8 0 16.167 4 24.5 12s15.666 17.167 21.999 27.5s11.5 20.5 15.5 30.5s6 17 6 21c-1.33301 9.33301 -4.66602 14 -9.99902 14c-6 0 -12.5 -4 -19.5 -12
s-13.5 -17.5 -19.5 -28.5s-10.833 -22 -14.5 -33s-5.5 -19.833 -5.5 -26.5c0 -3.33301 0.333008 -5 1 -5z" />
    <glyph glyph-name="e.001" unicode="&#xe004;" horiz-adv-x="160" 
d="M17 196c8 0 17.5039 3.83496 28.5039 11.502s22.667 18.167 35 31.5s24.666 29 36.999 47s24.166 37.333 35.499 58h-1c2 4.66699 6.33301 7 13 7c3.33301 0 6.5 -0.833008 9.5 -2.5s4.5 -5.16699 4.5 -10.5c0 -2 -0.666992 -4.33301 -2 -7
c-30 -56 -60.833 -98 -92.5 -126s-58.834 -42 -81.501 -42c-18.667 0 -31.834 5.66699 -39.501 17s-11.5 26 -11.5 44c0 22 5.33301 45.667 16 71c-53.333 -36 -102.166 -61.833 -146.499 -77.5s-82.833 -23.5 -115.5 -23.5c-26.667 0 -48.834 4.16699 -66.501 12.5
s-31.167 20.166 -40.5 35.499c-2.66699 4.66699 -4.16699 7.5 -4.5 8.5s-0.5 1.83301 -0.5 2.5c0 8 4 12 12 12c4.66699 0 8.66699 -2 12 -6c7.33301 -12 18.5 -21.5 33.5 -28.5s33.167 -10.5 54.5 -10.5c34.667 0 76.667 10 126 30s103.666 52 162.999 96
c8.66699 10.667 18 19.5 28 26.5s19.333 10.5 28 10.5c18 0 27 -8.66699 27 -26c0 -6.66699 -1.83301 -14.167 -5.5 -22.5s-8.5 -16.5 -14.5 -24.5s-13.167 -15.667 -21.5 -23s-17.166 -13 -26.499 -17c-6.66699 -18.667 -10 -34.667 -10 -48
c0 -16.667 4.66699 -25.334 14 -26.001h3zM57.0039 351.002h-1.99805c-5.33301 0 -11.833 -5.83301 -19.5 -17.5s-14.834 -25.834 -21.501 -42.501c11.333 8 21.666 17.667 30.999 29s14 20 14 26c0 2.66699 -0.666992 4.33398 -2 5.00098z" />
    <glyph glyph-name="f.001" unicode="&#xe005;" horiz-adv-x="137" 
d="M17 254c0.666992 0 1.33594 -0.162109 2.00293 -0.495117s1.33398 -0.5 2.00098 -0.5c8 0 17.5 3.83301 28.5 11.5s21.833 16.667 32.5 27s20.334 20.5 29.001 30.5s15 17.667 19 23c4 4 8.33301 6 13 6c3.33301 0 6.83301 -1.5 10.5 -4.5s5.5 -7.83301 5.5 -14.5
c-6.66699 -8.66699 -15.334 -19 -26.001 -31s-22.167 -23.333 -34.5 -34s-25.333 -19.834 -39 -27.501s-26.834 -11.5 -39.501 -11.5c-2.66699 0 -4.16699 -0.333008 -4.5 -1s-1.83301 -0.333984 -4.5 0.999023c0.666992 -3.33301 1 -6.83301 1 -10.5v-13.5
c0 -17.333 -1.5 -36.833 -4.5 -58.5s-7.66699 -42.334 -14 -62.001s-14.666 -36.167 -24.999 -49.5s-22.833 -20 -37.5 -20c-9.33301 0 -17 4 -23 12s-9 19.667 -9 35c0 10.667 1.16699 23.167 3.5 37.5s6.16602 31 11.499 50s12.833 40.833 22.5 65.5s21.834 53 36.501 85
c-54.667 -38 -104.334 -65 -149.001 -81s-84 -24 -118 -24c-26.667 0 -48.834 4.16699 -66.501 12.5s-31.167 20.166 -40.5 35.499c-2.66699 4.66699 -4.16699 7.5 -4.5 8.5s-0.5 1.83301 -0.5 2.5c0 8 4 12 12 12c4.66699 0 8.66699 -2 12 -6
c7.33301 -12 18.5 -21.5 33.5 -28.5s33.167 -10.5 54.5 -10.5c35.333 0 77.166 9.66699 125.499 29s102.5 51.333 162.5 96c9.33301 20 19.333 39.833 30 59.5s21.5 37 32.5 52s21.667 27.167 32 36.5s20.166 14 29.499 14c3.33301 0 5.83301 -0.333008 7.5 -1
s2.5 -2.66699 2.5 -6s-1 -7.33301 -3 -12s-5.66699 -12.334 -11 -23.001l-38 -80zM-49.998 44.0049c3.33301 0.666992 7 5.32812 11 13.9951s7.66699 20 11 34s6.16602 29.833 8.49902 47.5s3.5 35.167 3.5 52.5c-4 -9.33301 -8 -20.166 -12 -32.499
s-7.66699 -25.166 -11 -38.499s-6.16602 -26.166 -8.49902 -38.499s-3.5 -22.5 -3.5 -30.5c0 -1.33301 0.166992 -2.66602 0.5 -3.99902s0.5 -2.66602 0.5 -3.99902z" />
    <glyph glyph-name="g.001" unicode="&#xe006;" horiz-adv-x="224" 
d="M159 379c5.33301 0 7.00098 -2.33008 5.00098 -6.99707l-49 -110c10.667 6.66699 20.167 13 28.5 19s16.166 12.167 23.499 18.5s15 13.333 23 21l26 25.5c2.66699 2.66699 6.66699 4 12 4c10.667 0 16 -4.33301 16 -13c0 -4 -1 -7 -3 -9c-10 -10 -20 -19.5 -30 -28.5
s-20.667 -17.667 -32 -26s-23.666 -16.5 -36.999 -24.5s-28.333 -16.333 -45 -25l-39.5 -78c-15.667 -30 -33.5 -58.5 -53.5 -85.5s-41.667 -49.833 -65 -68.5s-48 -28 -74 -28c-19.333 0 -33.5 6.66699 -42.5 20s-13.5 29.666 -13.5 48.999c0 22 6.33301 42.333 19 61
s29.667 36.167 51 52.5s46 31.5 74 45.5s57.667 27.333 89 40l5 13c-9.33301 -4.66699 -18.666 -7 -27.999 -7c-16 0 -27.333 4.5 -34 13.5s-10 20.167 -10 33.5c0 6.66699 0.333008 11.667 1 15c-56 -38 -106.333 -65.167 -151 -81.5s-84 -24.5 -118 -24.5
c-27.333 0 -49.833 4.16699 -67.5 12.5s-31.167 20.166 -40.5 35.499c-2.66699 4.66699 -4.16699 7.5 -4.5 8.5s-0.5 1.83301 -0.5 2.5c0 8 4 12 12 12c4.66699 0 8.66699 -2 12 -6c7.33301 -12 18.5 -21.5 33.5 -28.5s33.5 -10.5 55.5 -10.5
c34.667 0 76.5 9.83301 125.5 29.5s103.167 51.5 162.5 95.5c9.33301 12 20.666 21.833 33.999 29.5s26 11.5 38 11.5c7.33301 0 14.166 -0.833008 20.499 -2.5s12.166 -4.83398 17.499 -9.50098l1 2c0.666992 2 2.33398 3 5.00098 3h48zM-108.999 10.0029
c12.667 10 25.3311 22.667 37.998 38s24.834 31.5 36.501 48.5s22.5 34.167 32.5 51.5s18.667 33.333 26 48c-23.333 -8 -46.166 -17.5 -68.499 -28.5s-42.333 -23.333 -60 -37s-32 -28.5 -43 -44.5s-16.5 -33.333 -16.5 -52c0 -9.33301 1.5 -18.5 4.5 -27.5
s8.16699 -13.5 15.5 -13.5c10 0 21.667 5.66699 35 17zM33.998 269.003c5.33301 0.666992 11.165 4.50098 17.498 11.501s12.333 15 18 24s10.334 17.333 14.001 25s5.5 12.167 5.5 13.5c0 4.66699 -1.16699 8 -3.5 10s-5.16602 3 -8.49902 3
c-7.33301 0 -14.166 -2.83301 -20.499 -8.5s-11.833 -12.5 -16.5 -20.5s-8.33398 -16.167 -11.001 -24.5s-4 -14.833 -4 -19.5c0 -8.66699 3 -13.334 9 -14.001z" />
    <glyph glyph-name="h.001" unicode="&#xe007;" horiz-adv-x="223" 
d="M-72 163c-4.66699 0 -6.33203 2.33301 -4.99902 7l32 82.5c11.333 28.333 20.666 50.833 27.999 67.5c-5.33301 -0.666992 -10.333 -1 -15 -1h-15c-22 0 -42.5 3.5 -61.5 10.5s-34.167 19.5 -45.5 37.5c-2 4 -3.16699 6.66699 -3.5 8s-0.5 2.66602 -0.5 3.99902
c0 7.33301 3.66699 11 11 11c4.66699 0 8.66699 -1.66699 12 -5c10 -15.333 23.167 -25.833 39.5 -31.5s33.5 -8.5 51.5 -8.5c12.667 0 25 1 37 3c14 34 29 67.333 45 100s33 61.834 51 87.501s36.667 46.334 56 62.001s39.333 23.5 60 23.5
c19.333 0 34.5 -5.66699 45.5 -17s16.5 -27 16.5 -47c0 -18 -5.5 -37.833 -16.5 -59.5s-26.167 -43 -45.5 -64s-42.5 -40.333 -69.5 -58s-56.5 -31.5 -88.5 -41.5l-12 -29c9.33301 6 19 11.167 29 15.5s18.667 6.5 26 6.5c11.333 0 19.166 -2.66699 23.499 -8
s6.5 -12 6.5 -20c0 -9.33301 -1.83301 -19.666 -5.5 -30.999s-7.5 -22.333 -11.5 -33l-9.5 -26c-3 -8 -4.5 -14.333 -4.5 -19c0 -4 0.666992 -6 2 -6c4.66699 0 11.334 4.5 20.001 13.5s18.667 21 30 36s23.333 32.167 36 51.5l39 60l-1 -1c2 5.33301 6.33301 8 13 8
c4 0 7.83301 -1.33301 11.5 -4s5.5 -6 5.5 -10c0 -4.66699 -1 -8 -3 -10v1l-47 -71.5c-15.333 -22.333 -30.166 -41.666 -44.499 -57.999s-28 -29.333 -41 -39s-25.167 -14.5 -36.5 -14.5c-14 0 -23.833 4.66699 -29.5 14s-8.5 19.666 -8.5 30.999s1.5 23.166 4.5 35.499
s6.16699 23.166 9.5 32.499l7 26c-3.33301 -1.33301 -7.33301 -4.16602 -12 -8.49902s-9.33398 -9.33301 -14.001 -15s-9 -11.334 -13 -17.001s-6.66699 -10.167 -8 -13.5l-23 -65c-1.33301 -2 -3 -3 -5 -3h-53zM185.002 574
c-13.333 -9.33301 -25.666 -21.8311 -36.999 -37.498s-22 -32.834 -32 -51.501s-19.667 -38.167 -29 -58.5s-18 -40.166 -26 -59.499c27.333 11.333 51.666 25.166 72.999 41.499s39.5 33.333 54.5 51s26.5 35.167 34.5 52.5s12 32.666 12 45.999c0 10 -2 17.167 -6 21.5
s-8.66699 6.5 -14 6.5c-10 0 -20 -4 -30 -12z" />
    <glyph glyph-name="i.001" unicode="&#xe008;" horiz-adv-x="135" 
d="M60 379c5.33301 0 7.00098 -2.33008 5.00098 -6.99707c-5.33301 -11.333 -11.333 -25.333 -18 -42l-19.5 -50.5c-6.33301 -17 -11.666 -33 -15.999 -48s-6.83301 -26.5 -7.5 -34.5c4.66699 2.66699 12 9 22 19s20.833 21.833 32.5 35.5s23.667 28.667 36 45
s23.5 32.5 33.5 48.5c2.66699 4 6.33398 6 11.001 6c3.33301 0 6.66602 -1.83301 9.99902 -5.5s5 -8.5 5 -14.5l-34 -47.5c-14 -19 -29 -37.5 -45 -55.5s-32.167 -33.333 -48.5 -46s-30.833 -19 -43.5 -19c-12 0 -20.667 3.33301 -26 10s-8 15.667 -8 27
c0 10.667 2.83301 25.167 8.5 43.5s12.167 37.833 19.5 58.5c-56 -38 -106.667 -65.5 -152 -82.5s-85 -25.5 -119 -25.5c-26.667 0 -48.834 4.16699 -66.501 12.5s-31.167 20.166 -40.5 35.499c-2.66699 4.66699 -4.16699 7.5 -4.5 8.5s-0.5 1.83301 -0.5 2.5
c0 8 4 12 12 12c4.66699 0 8.66699 -2 12 -6c7.33301 -12 18.5 -21.5 33.5 -28.5s33.167 -10.5 54.5 -10.5c35.333 0 77.166 9.66699 125.499 29s102.5 51.333 162.5 96c1.33301 3.33301 2.83301 6.66602 4.5 9.99902s3.16699 6.66602 4.5 9.99902
c1.33301 2 2.16602 4 2.49902 6s0.833008 3.66699 1.5 5c0.666992 2 2.33398 3 5.00098 3h48zM11.001 407.003c0 8 3.16797 14.167 9.50098 18.5s13.5 6.5 21.5 6.5c7.33301 0 14.166 -2.33301 20.499 -7s9.5 -11.667 9.5 -21c0 -7.33301 -2.66699 -13 -8 -17
s-12.333 -6 -21 -6s-16.167 2.33301 -22.5 7s-9.5 11 -9.5 19z" />
    <glyph glyph-name="j.001" unicode="&#xe009;" horiz-adv-x="152" 
d="M60 379c4.66699 0 6.33203 -2.33203 4.99902 -6.99902l-48 -127c26.667 13.333 50.334 28 71.001 44s41.334 36.667 62.001 62h8c4 0 7.33301 -1.33301 10 -4s4 -5.66699 4 -9c0 -0.666992 -0.166992 -1.5 -0.5 -2.5s-0.5 -1.83301 -0.5 -2.5
c-10 -14 -22.333 -27.167 -37 -39.5s-29.5 -23.666 -44.5 -33.999s-29.333 -19.333 -43 -27l-33.5 -18.5c-1.33301 -1.33301 -2.5 -2 -3.5 -2s-2.16699 -0.333008 -3.5 -1s-2.66602 -1 -3.99902 -1l-37.5 -70c-13.667 -24.667 -28.167 -47.5 -43.5 -68.5
s-31.333 -38.5 -48 -52.5s-33.334 -21 -50.001 -21c-16 0 -27.167 4.33301 -33.5 13s-9.5 18.667 -9.5 30c0 25.333 14.5 54.166 43.5 86.499s69.167 62.166 120.5 89.499l17.5 41.5c5 11.667 10.5 26.167 16.5 43.5c-54 -36.667 -104.5 -63.834 -151.5 -81.501
s-87.167 -26.5 -120.5 -26.5c-26.667 0 -48.834 4.16699 -66.501 12.5s-31.167 20.166 -40.5 35.499c-2.66699 4.66699 -4.16699 7.5 -4.5 8.5s-0.5 1.83301 -0.5 2.5c0 8 4 12 12 12c4.66699 0 8.66699 -2 12 -6c7.33301 -12 18.5 -21.5 33.5 -28.5
s33.167 -10.5 54.5 -10.5c35.333 0 77.166 9.66699 125.499 29s102.5 51.333 162.5 96c2 4.66699 4.33301 9.83398 7 15.501s4.66699 10.834 6 15.501c0.666992 2 2.33398 3 5.00098 3h48zM-186.002 34.001c7.33301 0 15.666 4.66797 24.999 14.001
c6.66699 7.33301 13.834 16.166 21.501 26.499s15.167 21.166 22.5 32.499l21 34c6.66699 11.333 12.667 22 18 32c-13.333 -9.33301 -26.833 -19.5 -40.5 -30.5s-26 -22.333 -37 -34s-20 -23.167 -27 -34.5s-10.5 -21.666 -10.5 -30.999c0 -6 2.33301 -9 7 -9z
M12.998 407.002c0 8 2.83203 14.167 8.49902 18.5s12.834 6.5 21.501 6.5s16 -2.33301 22 -7s9 -11.334 9 -20.001c-0.666992 -7.33301 -3.66699 -13.166 -9 -17.499s-12 -6.5 -20 -6.5c-9.33301 0 -17 2 -23 6s-9 10.667 -9 20z" />
    <glyph glyph-name="k.001" unicode="&#xe00a;" horiz-adv-x="235" 
d="M-69 163c-4 0 -5.33203 2.33691 -3.99902 7.00391c20 56.667 37.167 102.667 51.5 138s23.166 56.333 26.499 63c-11.333 -2 -23.666 -3 -36.999 -3c-21.333 0 -41.5 3.66699 -60.5 11s-34.5 19.666 -46.5 36.999c-2 4 -3.16699 6.5 -3.5 7.5s-0.5 2.16699 -0.5 3.5
c0 8 4 12 12 12c2 0 4.16699 -0.666992 6.5 -2s4.16602 -2.66602 5.49902 -3.99902c10 -13.333 23.167 -23.166 39.5 -29.499s33.166 -9.5 50.499 -9.5c8 0 15.833 0.333008 23.5 1s15.5 1.66699 23.5 3c12 28 25.333 55.333 40 82s30.167 50.5 46.5 71.5
s33.333 37.833 51 50.5s36.167 19 55.5 19c18 0 32.833 -5.83301 44.5 -17.5s17.5 -26.834 17.5 -45.501c0 -12.667 -3.33301 -26.334 -10 -41.001s-17.834 -29.667 -33.501 -45s-36.167 -30.333 -61.5 -45s-56.333 -28.334 -93 -41.001l-9 -19
c-2 -4 -3.83301 -7.33301 -5.5 -10s-3.5 -7.33398 -5.5 -14.001c9.33301 9.33301 18.833 16.666 28.5 21.999s17.167 8 22.5 8c9.33301 0 16.166 -2.66699 20.499 -8s6.5 -12 6.5 -20c0 -6 -2.66699 -12.833 -8 -20.5s-12 -15 -20 -22s-17 -13.167 -27 -18.5
s-19.667 -9.33301 -29 -12c0 -1.33301 -0.166992 -2.5 -0.5 -3.5s-0.5 -2.16699 -0.5 -3.5c0 -7.33301 0.5 -16.5 1.5 -27.5s2.83301 -21.667 5.5 -32s6.33398 -19.166 11.001 -26.499s10.334 -11 17.001 -11c8.66699 0 18.167 4.33301 28.5 13s20.5 19.5 30.5 32.5
s19.833 27 29.5 42l27.5 42.5l24.5 37.5c7 10.333 12.5 15.5 16.5 15.5c2.66699 0 5.33398 -1.16699 8.00098 -3.5s4 -5.5 4 -9.5c0 -0.666992 -0.166992 -1.33398 -0.5 -2.00098s-0.5 -1.66699 -0.5 -3c-17.333 -30 -33.666 -56.833 -48.999 -80.5
s-30.333 -43.834 -45 -60.501s-29.167 -29.5 -43.5 -38.5s-29.5 -13.5 -45.5 -13.5c-20 0 -35.333 5.33301 -46 16s-17.334 24.334 -20.001 41.001l-11 -31c-1.33301 -2 -3 -3 -5 -3h-55zM198.001 580.004c-21.333 -15.333 -41.167 -37.999 -59.5 -67.999
s-34.833 -61 -49.5 -93c26.667 10.667 49.667 22.167 69 34.5s35.166 24.666 47.499 36.999s21.333 24.333 27 36s8.5 22.167 8.5 31.5c0 10.667 -2 18.5 -6 23.5s-9 7.5 -15 7.5c-5.33301 0 -12.666 -3 -21.999 -9zM99 339.005c-1.33301 0 -2.33301 -0.333008 -3 -1
c0.666992 0.666992 1 1.66699 1 3c0 -1.33301 0.666992 -2 2 -2zM49 300.005c2 1.33301 4.16699 2.5 6.5 3.5s4.5 2.16699 6.5 3.5c-3.33301 -4 -5.33301 -8 -6 -12zM96 338.005c-3.33301 -1.33301 -8.66699 -5.00195 -16 -11.002s-13.333 -12.667 -18 -20
c7.33301 4.66699 14.5 9.83398 21.5 15.501s11.167 10.834 12.5 15.501z" />
    <glyph glyph-name="l.001" unicode="&#xe00b;" horiz-adv-x="177" 
d="M193 328c-16.667 -24 -34.001 -46.0068 -52.001 -66.0068s-35.667 -37.167 -53 -51.5s-33.666 -25.666 -48.999 -33.999s-28.666 -12.5 -39.999 -12.5s-20.333 4 -27 12s-10 20.667 -10 38c0 12 2.33301 29.333 7 52s13 47.334 25 74.001c-17.333 -4 -36 -6 -56 -6
c-19.333 0 -38 2.83301 -56 8.5s-32.667 15.834 -44 30.501c-2.66699 5.33301 -4 8.33301 -4 9c0 8 4.33301 12 13 12c3.33301 0 6.66602 -1.66699 9.99902 -5c9.33301 -10.667 20.833 -18 34.5 -22s28.167 -6 43.5 -6c12 0 24.167 1 36.5 3s24.166 4.66699 35.499 8
c12.667 28.667 27 56.834 43 84.501s33 52.167 51 73.5s36.833 38.5 56.5 51.5s39.5 19.5 59.5 19.5c14.667 0 27 -3.83301 37 -11.5s15 -21.167 15 -40.5c0 -18 -6.66699 -35.833 -20 -53.5s-30.166 -34.667 -50.499 -51s-42.5 -31.666 -66.5 -45.999
s-46.333 -26.833 -67 -37.5l-8 -24l-11 -27.5c-4 -10.333 -7.83301 -21.166 -11.5 -32.499s-6.83398 -22.166 -9.50098 -32.499s-4 -19.5 -4 -27.5s2.33301 -12 7 -12c6.66699 0 16 4.16699 28 12.5s24.667 19.166 38 32.499s26.833 28.333 40.5 45
s25.834 33.334 36.501 50.001c2.66699 4 6.66699 6 12 6c3.33301 0 6.33301 -1.16699 9 -3.5s4 -5.5 4 -9.5s-1 -7.33301 -3 -10zM199.999 554.993c-10 -8 -20.499 -17.834 -31.499 -29.501s-21.5 -24.5 -31.5 -38.5s-19.667 -28.5 -29 -43.5s-17.333 -29.167 -24 -42.5
c15.333 9.33301 31.833 20 49.5 32s34.167 24.667 49.5 38s28.166 26.833 38.499 40.5s15.5 26.834 15.5 39.501c0 8 -4.66699 12 -14 12c-8 0 -15.667 -2.66699 -23 -8z" />
    <glyph glyph-name="m.001" unicode="&#xe00c;" horiz-adv-x="320" 
d="M22 184c-1.33301 0 -2.66504 0.667969 -3.99805 2.00098s-1.33301 3 0 5l21 47c10.667 21.333 19.5 40 26.5 56s10.5 27.333 10.5 34c0 2.66699 -0.333008 4 -1 4c-3.33301 0 -7.33301 -2.33301 -12 -7s-9.66699 -10.5 -15 -17.5s-10.666 -14.667 -15.999 -23l-14 -22.5
l1 1c-7.33301 -14 -14.833 -29.833 -22.5 -47.5l-21.5 -49.5c-1.33301 -2 -3 -3 -5 -3h-47c-4.66699 0 -6.33398 2.33301 -5.00098 7l27.5 62.5l30.5 68.5l13 29c-54 -37.333 -103.5 -64 -148.5 -80s-84.5 -24 -118.5 -24c-26.667 0 -49 4.16699 -67 12.5
s-31.667 19.833 -41 34.5c-2.66699 5.33301 -4.16699 8.5 -4.5 9.5s-0.5 1.83301 -0.5 2.5c0 8 4 12 12 12c4.66699 0 8.66699 -2 12 -6c7.33301 -12.667 18.5 -22.5 33.5 -29.5s33.5 -10.5 55.5 -10.5c35.333 0 77.333 9.83301 126 29.5s103.667 52.5 165 98.5h46
c5.33301 0 7 -2.33301 5 -7l-12 -25c13.333 12 26.333 18 39 18c14.667 0 24.834 -3.66699 30.501 -11s8.5 -16.666 8.5 -27.999c10 11.333 20.333 20.5 31 27.5s22 10.5 34 10.5c13.333 0 22.5 -3.33301 27.5 -10s7.5 -15.334 7.5 -26.001
c0 -8.66699 -1.66699 -18.334 -5 -29.001s-7.33301 -21.667 -12 -33s-9.5 -22.166 -14.5 -32.499l-13.5 -27.5l-8 -17c-3.33301 -8 -5 -12.667 -5 -14c2.66699 0 6.33398 1.33301 11.001 4h-1c19.333 14 37.166 32 53.499 54s31.166 43.667 44.499 65
c5.33301 8 10.5 16.333 15.5 25s10.167 16 15.5 22c3.33301 4.66699 8 7 14 7c3.33301 0 6.16602 -1 8.49902 -3s3.5 -6.66699 3.5 -14c-3.33301 -5.33301 -6.83301 -10.333 -10.5 -15s-7.16699 -9.66699 -10.5 -15l-37 -55.5c-12.667 -19 -25.5 -36 -38.5 -51
s-26.333 -27.333 -40 -37s-27.167 -14.5 -40.5 -14.5c-11.333 0 -20.833 2.5 -28.5 7.5s-11.5 13.833 -11.5 26.5c0 10.667 3.16699 23.667 9.5 39s13.166 30.666 20.499 45.999c4 8.66699 7.83301 17.5 11.5 26.5l9.5 23.5c1.33301 4 2 6.33301 2 7c0 2 -0.333008 3 -1 3
c-7.33301 0 -15.5 -5.66699 -24.5 -17s-18 -24.5 -27 -39.5s-17.333 -30.5 -25 -46.5l-17.5 -37c-2 -2 -3.33301 -3 -4 -3z" />
    <glyph glyph-name="n.001" unicode="&#xe00d;" horiz-adv-x="222" 
d="M-79 163c-2 0 -3.66406 0.667969 -4.99707 2.00098s-1.33301 3 0 5l73 160c-54.667 -37.333 -104.5 -64 -149.5 -80s-84.5 -24 -118.5 -24c-26.667 0 -48.834 4.16699 -66.501 12.5s-31.167 19.833 -40.5 34.5c-2.66699 5.33301 -4.16699 8.5 -4.5 9.5
s-0.5 1.83301 -0.5 2.5c0 8 4 12 12 12c4.66699 0 8.66699 -2 12 -6c14.667 -26.667 44 -40 88 -40c35.333 0 77.5 9.83301 126.5 29.5s103.833 52.5 164.5 98.5h52c4.66699 0 6 -2.33301 4 -7l-10 -22c11.333 9.33301 24.333 14 39 14c13.333 0 22.666 -3.33301 27.999 -10
s8 -15.334 8 -26.001c0 -8 -1.5 -17 -4.5 -27s-6.66699 -20.333 -11 -31s-9 -21 -14 -31l-13.5 -27h1l-11 -23c-3.33301 -8 -5 -12.667 -5 -14c2.66699 0 6.33398 1.33301 11.001 4h-1c19.333 14 37.166 32 53.499 54s31.166 43.667 44.499 65l16 25
c5.33301 8.66699 10.333 16 15 22c3.33301 4.66699 8 7 14 7c3.33301 0 6.16602 -1 8.49902 -3s3.5 -6.66699 3.5 -14c-3.33301 -5.33301 -6.83301 -10.333 -10.5 -15s-7.16699 -9.66699 -10.5 -15l-37 -55.5c-12.667 -19 -25.5 -36 -38.5 -51s-26.333 -27.333 -40 -37
s-27.167 -14.5 -40.5 -14.5c-11.333 0 -20.833 2.5 -28.5 7.5s-11.5 13.833 -11.5 26.5c0 10.667 3.16699 23.667 9.5 39s13.166 30.666 20.499 45.999c8.66699 18.667 15.667 35.334 21 50.001c0 0.666992 0.166992 1.16699 0.5 1.5s0.5 0.833008 0.5 1.5
s0.166992 1.16699 0.5 1.5s0.5 0.833008 0.5 1.5v1c0 2 -0.666992 3 -2 3c-3.33301 0 -7.66602 -2.33301 -12.999 -7s-10.833 -10.334 -16.5 -17.001s-11.167 -13.667 -16.5 -21s-9.66602 -13.666 -12.999 -18.999l1 1l-42 -97c-1.33301 -2 -3 -3 -5 -3h-48z" />
    <glyph glyph-name="o.001" unicode="&#xe00e;" horiz-adv-x="216" 
d="M45 299c0 10.667 1.83398 21.332 5.50098 31.999s9.16699 19 16.5 25c-10 -2.66699 -18.833 -8.33398 -26.5 -17.001s-14 -18.667 -19 -30s-8.83301 -23.166 -11.5 -35.499s-4 -23.833 -4 -34.5s1.16699 -19.5 3.5 -26.5s6.16602 -10.5 11.499 -10.5
s11.5 2.83301 18.5 8.5s15.167 15.5 24.5 29.5c-6 6.66699 -10.667 15.334 -14 26.001s-5 21.667 -5 33zM208.001 343.998c2.66699 6 6.6709 9.00488 12.0039 9.00488c3.33301 0 6.66602 -1.33301 9.99902 -4s5 -6.66699 5 -12c0 -2 -0.666992 -4.33301 -2 -7h1
c-5.33301 -11.333 -13 -23 -23 -35s-21.5 -23.167 -34.5 -33.5s-27 -18.833 -42 -25.5s-30.167 -10.334 -45.5 -11.001c-26.667 -41.333 -53.667 -62 -81 -62c-18 0 -31.333 6.33301 -40 19s-13 28.667 -13 48c0 10 0.833008 20.5 2.5 31.5s4.83398 22.167 9.50098 33.5
c-54.667 -38 -103.334 -64.333 -146.001 -79s-80.667 -22 -114 -22c-27.333 0 -49.833 4.16699 -67.5 12.5s-31.167 20.166 -40.5 35.499c-2.66699 4.66699 -4.16699 7.5 -4.5 8.5s-0.5 1.83301 -0.5 2.5c0 8 4 12 12 12c4.66699 0 8.66699 -2 12 -6
c7.33301 -12 18.5 -21.5 33.5 -28.5s33.5 -10.5 55.5 -10.5c34.667 0 76.5 10 125.5 30s103.167 52 162.5 96c10 13.333 21.5 23.166 34.5 29.499s26.167 9.5 39.5 9.5c7.33301 0 13.166 -1 17.499 -3s6.5 -6.33301 6.5 -13c0 -1.33301 -0.166992 -2.16602 -0.5 -2.49902
s-0.5 -1.16602 -0.5 -2.49902h1c13.333 0 22.5 -3.33301 27.5 -10s7.5 -15.334 7.5 -26.001s-2.83301 -23.334 -8.5 -38.001s-10.834 -26.667 -15.501 -36c8.66699 1.33301 18.167 4.66602 28.5 9.99902s20.166 12 29.499 20s18 17.167 26 27.5s14.333 21.166 19 32.499h1z
M75.0049 261.003l4.00098 8c1.33301 -4 2.66602 -6.66699 3.99902 -8h-8zM75.0059 298.003c0 -12 1.33398 -21.667 4.00098 -29c3.33301 7.33301 6.66602 16.833 9.99902 28.5s5 21.5 5 29.5c0 5.33301 -0.666992 8 -2 8c-6 0 -10.333 -3.83301 -13 -11.5
s-4 -16.167 -4 -25.5z" />
    <glyph glyph-name="p.001" unicode="&#xe00f;" horiz-adv-x="203" 
d="M63 379c5.33301 0 7.00195 -2.33301 5.00195 -7l-12 -26c7.33301 2.66699 14.666 4 21.999 4c17.333 0 29.166 -4.66699 35.499 -14s9.5 -20 9.5 -32c0 -6 -0.666992 -11.833 -2 -17.5s-3 -11.167 -5 -16.5c14 8 28 18.833 42 32.5s27.667 29.167 41 46.5
c0.666992 0.666992 3.66699 1 9 1c4 0 8 -1.16699 12 -3.5s6 -5.83301 6 -10.5c0 -0.666992 -0.166992 -1.5 -0.5 -2.5s-0.5 -1.83301 -0.5 -2.5c-7.33301 -10 -15.5 -20.333 -24.5 -31s-19 -20.834 -30 -30.501s-22.667 -18 -35 -25s-25.5 -11.5 -39.5 -13.5
c-9.33301 -11.333 -19.833 -19.833 -31.5 -25.5s-23.167 -8.5 -34.5 -8.5c-8 0 -15.5 1.16699 -22.5 3.5s-12.167 6.16602 -15.5 11.499c-5.33301 -11.333 -11.666 -24 -18.999 -38s-15.333 -28.5 -24 -43.5s-18 -30.167 -28 -45.5s-20.333 -29.666 -31 -42.999
c-24 -30 -46.5 -50.833 -67.5 -62.5s-39.167 -17.5 -54.5 -17.5c-17.333 0 -30.833 4.66699 -40.5 14s-14.5 21.666 -14.5 36.999c0 22 6.66699 41.333 20 58s29.5 30.834 48.5 42.501s39.167 21.334 60.5 29.001s40 13.5 56 17.5l8 1l1 1l66 137
c-56 -39.333 -105.833 -66.666 -149.5 -81.999s-82.5 -23 -116.5 -23c-27.333 0 -49.833 4.16699 -67.5 12.5s-31.167 20.166 -40.5 35.499c-2.66699 4.66699 -4.16699 7.5 -4.5 8.5s-0.5 1.83301 -0.5 2.5c0 8 4 12 12 12c4.66699 0 8.66699 -2 12 -6
c7.33301 -12 18.5 -21.5 33.5 -28.5s33.5 -10.5 55.5 -10.5c34.667 0 76.667 10 126 30s103.666 52 162.999 96l15 30c2 2 3.33301 3 4 3h48zM-98.998 134l-11 -3l6 11zM-242.998 -7c10.667 0 22.167 4.66699 34.5 14s24.333 21 36 35s23 29 34 45s20.5 30.667 28.5 44
c-15.333 -4.66699 -31.333 -10.167 -48 -16.5s-32 -14.166 -46 -23.499s-25.667 -20.333 -35 -33s-14 -27.334 -14 -44.001c0 -14 3.33301 -21 10 -21zM11.002 250v-1v-1v2zM12.002 251c0 -1.33301 -0.333984 -1.99902 -1.00098 -1.99902c4 -8 8.33301 -12 13 -12
c5.33301 0 11 2.66699 17 8s11.333 11.666 16 18.999s8.5 15.333 11.5 24s4.5 16 4.5 22c0 6.66699 -2.66699 10 -8 10s-10.666 -3 -15.999 -9s-10.5 -13 -15.5 -21s-9.33301 -15.833 -13 -23.5l-8.5 -17.5v2z" />
    <glyph glyph-name="q.001" unicode="&#xe010;" horiz-adv-x="215" 
d="M94 360v1v-1zM155 379c4.66699 0 5.99902 -2.33203 3.99902 -6.99902l-36.5 -78.5l-35.5 -78.5c10.667 4 21.5 10.667 32.5 20s21.833 20 32.5 32s20.667 24.833 30 38.5s17.666 26.834 24.999 39.501v-1c2.66699 6 7.33398 9 14.001 9c10.667 0 16 -6.66699 16 -20
c-10 -15.333 -21.333 -31 -34 -47s-26 -31 -40 -45s-28.5 -26.333 -43.5 -37s-29.5 -18 -43.5 -22l-8 -19c11.333 -25.333 19.166 -47.5 23.499 -66.5s6.5 -36.167 6.5 -51.5c0 -27.333 -5.83301 -48.333 -17.5 -63s-25.5 -22 -41.5 -22c-14.667 0 -27.167 6.66699 -37.5 20
s-15.5 35 -15.5 65c0 32 4.5 62.167 13.5 90.5s19.167 55.833 30.5 82.5l7 17c-9.33301 -4 -18.666 -6 -27.999 -6c-13.333 0 -23.666 4.5 -30.999 13.5s-11 20.167 -11 33.5c0 6.66699 0.666992 13.334 2 20.001c-54 -36.667 -102.833 -62.834 -146.5 -78.501
s-82.167 -23.5 -115.5 -23.5c-27.333 0 -49.833 4.16699 -67.5 12.5s-31.167 20.166 -40.5 35.499c-2.66699 4.66699 -4.16699 7.5 -4.5 8.5s-0.5 1.83301 -0.5 2.5c0 8 4 12 12 12c4.66699 0 8.66699 -2 12 -6c7.33301 -12 18.5 -21.5 33.5 -28.5s33.5 -10.5 55.5 -10.5
c34.667 0 76.667 10 126 30s103.666 52 162.999 96c8.66699 9.33301 18.834 17.166 30.501 23.499s23.167 9.5 34.5 9.5c13.333 0 25.333 -4.66699 36 -14l6 11c2 2 3.33301 3 4 3h48zM36.999 268.001c5.33301 4.66699 10.5029 10.333 15.5029 17l14 19.5
c4.33301 6.33301 8 12.333 11 18s5.16699 10.167 6.5 13.5c-1.33301 2.66699 -3.33301 5.66699 -6 9s-6.33398 5 -11.001 5c-6.66699 0 -13.167 -3 -19.5 -9s-11.833 -13.333 -16.5 -22s-8.33398 -17.667 -11.001 -27s-4 -17 -4 -23c0 -6.66699 1.66699 -10 5 -10
s8.66602 3 15.999 9zM64.002 43c0 10 -1 21.333 -3 34s-4.66699 25 -8 37c-3.33301 -11.333 -5.83301 -23.166 -7.5 -35.499s-2.5 -23.833 -2.5 -34.5c0 -4.66699 0.166992 -10 0.5 -16s1 -11.667 2 -17s2.16699 -9.83301 3.5 -13.5s3 -5.5 5 -5.5s4.16699 4.66699 6.5 14
s3.5 21.666 3.5 36.999z" />
    <glyph glyph-name="r.001" unicode="&#xe011;" horiz-adv-x="144" 
d="M137 344c2 4 5.33301 6 10 6c3.33301 0 6.33301 -0.833008 9 -2.5s4 -4.83398 4 -9.50098c0 -1.33301 -0.5 -3 -1.5 -5l-2.5 -5l-34.5 -55.5c-13 -20.333 -26.667 -39.333 -41 -57s-28.5 -32.5 -42.5 -44.5s-26.667 -18 -38 -18c-9.33301 0 -16.833 3.16699 -22.5 9.5
s-8.5 14.5 -8.5 24.5s2 22 6 36s8.33301 26.667 13 38c3.33301 8 6.16602 15.5 8.49902 22.5s3.5 11.167 3.5 12.5c0 6 -1.33301 12.333 -4 19c-59.333 -42 -113.5 -72.667 -162.5 -92s-91.5 -29 -127.5 -29c-26.667 0 -48.834 4.16699 -66.501 12.5
s-31.167 20.166 -40.5 35.499c-2.66699 4.66699 -4.16699 7.5 -4.5 8.5s-0.5 1.83301 -0.5 2.5c0 8 4 12 12 12c4.66699 0 8.66699 -2 12 -6c7.33301 -12 18.5 -21.5 33.5 -28.5s33.167 -10.5 54.5 -10.5c34.667 0 75.334 9 122.001 27s99.334 48.333 158.001 91l-5 10
c-2 4 -3 9.66699 -3 17c0 6 2.33301 12 7 18s13 9 25 9c9.33301 0 15.666 -2.83301 18.999 -8.5s5 -12.5 5 -20.5c0 -6.66699 -0.333008 -11 -1 -13c9.33301 -13.333 16 -23.5 20 -30.5s6 -14.167 6 -21.5c0 -6 -1.16699 -12.5 -3.5 -19.5s-6.16602 -16.167 -11.499 -27.5
c-0.666992 -2 -2.16699 -5.83301 -4.5 -11.5l-7.5 -18c-2.66699 -6.33301 -5 -12.666 -7 -18.999s-3 -11.166 -3 -14.499c8 4.66699 22.833 21 44.5 49s45.167 64 70.5 108v-1z" />
    <glyph glyph-name="s.001" unicode="&#xe012;" horiz-adv-x="168" 
d="M161 345c2.66699 4 6.66992 5.99609 12.0029 5.99609c3.33301 0 6.66602 -1.16699 9.99902 -3.5s5 -5.83301 5 -10.5c0 -0.666992 -0.166992 -1.5 -0.5 -2.5s-0.5 -2.16699 -0.5 -3.5c-14.667 -19.333 -31.5 -35.166 -50.5 -47.499s-40.5 -23.166 -64.5 -32.499
c5.33301 -14.667 8 -29 8 -43c0 -17.333 -6.5 -31.166 -19.5 -41.499s-26.167 -15.5 -39.5 -15.5c-11.333 0 -21.166 3.5 -29.499 10.5s-12.5 18.167 -12.5 33.5c0 10.667 3.33301 21 10 31s14.667 18.667 24 26c-3.33301 7.33301 -7.16602 16.333 -11.499 27
s-7.83301 21.667 -10.5 33c-58.667 -42 -111.834 -72.167 -159.501 -90.5s-89.5 -27.5 -125.5 -27.5c-26.667 0 -48.834 4.16699 -66.501 12.5s-31.167 20.166 -40.5 35.499c-2.66699 4.66699 -4.16699 7.5 -4.5 8.5s-0.5 1.83301 -0.5 2.5c0 8 4 12 12 12
c4.66699 0 8.66699 -2 12 -6c7.33301 -12 18.5 -21.5 33.5 -28.5s33.167 -10.5 54.5 -10.5c34 0 75 9.33301 123 28s101.333 49.334 160 92.001v2c1.33301 13.333 5.16602 24.5 11.499 33.5s17.166 13.5 32.499 13.5c13.333 0 23.333 -4 30 -12s10 -16.667 10 -26
c0 -8.66699 -2 -16.667 -6 -24s-10.667 -12.333 -20 -15c1.33301 -7.33301 3 -14.166 5 -20.499s4.33301 -11.833 7 -16.5c21.333 8 40.333 17.5 57 28.5s31.667 24.833 45 41.5zM30.0029 229.996l-6 -5l-2 7zM27.0029 211.996c0 3.33301 -1.00098 7.66699 -3.00098 13
c-5.33301 -5.33301 -9.16602 -10.833 -11.499 -16.5s-3.5 -10.167 -3.5 -13.5c0 -8 1.66699 -12 5 -12s6.33301 3 9 9s4 12.667 4 20zM47.002 354.997c-1.33301 0 -2.16797 -1.33203 -2.50098 -3.99902s-0.5 -5.66699 -0.5 -9c0.666992 2 1.33398 4.16699 2.00098 6.5
s1 4.16602 1 5.49902v1zM39 334.998c1.33301 0.666992 2.16797 1.66797 2.50098 3.00098s1.16602 2.66602 2.49902 3.99902v-4v-6z" />
    <glyph glyph-name="t.001" unicode="&#xe013;" horiz-adv-x="140" 
d="M-6 448c-9.33301 0 -13.9961 3.66895 -13.9961 11.002c0 3.33301 1.16699 6.33301 3.5 9s5.5 4 9.5 4h50l11 30c0.666992 2 2.33398 3 5.00098 3h45c4.66699 0 6.33398 -2.33301 5.00098 -7l-11 -26h35c3.33301 0 6.16602 -1.33301 8.49902 -4s3.5 -5.33398 3.5 -8.00098
c0 -3.33301 -1.16699 -6.16602 -3.5 -8.49902s-5.5 -3.5 -9.5 -3.5h-42l-13 -34l-24 -62c-8 -20.667 -15.167 -40.167 -21.5 -58.5s-11.5 -35 -15.5 -50s-6 -26.833 -6 -35.5s1.33301 -13 4 -13c6 0 14.5 5.5 25.5 16.5s22.5 24.167 34.5 39.5s23.333 31.5 34 48.5
s18.667 31.5 24 43.5c4.66699 6.66699 9.66699 10 15 10c8 0 12 -4 12 -12c0 -2 -0.666992 -4.33301 -2 -7c-6.66699 -12 -15.834 -27.667 -27.501 -47s-24.834 -38.333 -39.501 -57s-29.667 -34.834 -45 -48.501s-29.666 -20.5 -42.999 -20.5
c-14.667 0 -24.667 4.83301 -30 14.5s-8 22.167 -8 37.5c0 13.333 1.5 27.5 4.5 42.5s7.16699 31.167 12.5 48.5c-56.667 -39.333 -108 -67.5 -154 -84.5s-86.333 -25.5 -121 -25.5c-26.667 0 -48.834 4.16699 -66.501 12.5s-31.167 20.166 -40.5 35.499
c-2.66699 4.66699 -4.16699 7.5 -4.5 8.5s-0.5 1.83301 -0.5 2.5c0 8 4 12 12 12c4.66699 0 8.66699 -2 12 -6c7.33301 -12 18.5 -21.5 33.5 -28.5s33.167 -10.5 54.5 -10.5c35.333 0 77.166 9.66699 125.499 29s102.5 51.333 162.5 96c4 11.333 8.33301 22.833 13 34.5
l13 31.5c3.33301 9.33301 6.16602 16.5 8.49902 21.5s4.16602 10.167 5.49902 15.5h-40z" />
    <glyph glyph-name="u.001" unicode="&#xe014;" horiz-adv-x="225" 
d="M62 379c4 0 4.99609 -2.32812 2.99609 -6.99512l-12.5 -26c-5 -10.667 -10 -22 -15 -34s-9.16699 -23.333 -12.5 -34s-5 -19.334 -5 -26.001c0 -4 0.666992 -6 2 -6c3.33301 0 7.33301 2 12 6s9.33398 8.66699 14.001 14s8.83398 10.333 12.501 15
s5.83398 7.66699 6.50098 9l-1 -1l41 87c2 2 3.66699 3 5 3h48c5.33301 0 7 -2.33301 5 -7l-21.5 -45.5l-24 -53c-7.66699 -17.667 -14.167 -33.667 -19.5 -48s-8 -24.5 -8 -30.5c10 1.33301 25.667 14.666 47 39.999s47.333 62 78 110c2.66699 4 6.66699 6 12 6
c3.33301 0 6.66602 -1.16699 9.99902 -3.5s5 -5.5 5 -9.5s-1.33301 -7.33301 -4 -10v1c-32 -50.667 -61.833 -91.167 -89.5 -121.5s-53.5 -45.5 -77.5 -45.5c-13.333 0 -22.5 3.83301 -27.5 11.5s-7.5 17.167 -7.5 28.5c0 3.33301 0.166992 6.83301 0.5 10.5
s0.833008 7.16699 1.5 10.5c-12.667 -7.33301 -25 -11 -37 -11c-13.333 0 -22.5 3.5 -27.5 10.5s-7.5 16.167 -7.5 27.5c0 15.333 3.33301 32.333 10 51c-54.667 -36 -105.167 -62.833 -151.5 -80.5s-86.166 -26.5 -119.499 -26.5c-27.333 0 -49.833 4.16699 -67.5 12.5
s-31.167 20.166 -40.5 35.499c-2.66699 4.66699 -4.16699 7.5 -4.5 8.5s-0.5 1.83301 -0.5 2.5c0 8 4 12 12 12c4.66699 0 8.66699 -2 12 -6c7.33301 -12 18.5 -21.5 33.5 -28.5s33.5 -10.5 55.5 -10.5c35.333 0 77 9.66699 125 29s102 51.333 162 96
c1.33301 3.33301 3 6.66602 5 9.99902s3.66699 6.66602 5 9.99902l5 11c0.666992 2 2.33398 3 5.00098 3h48z" />
    <glyph glyph-name="v.001" unicode="&#xe015;" horiz-adv-x="178" 
d="M61 379c5.33301 0 6.66504 -2.66602 3.99805 -7.99902c-8 -12.667 -16 -27.5 -24 -44.5s-15.5 -34 -22.5 -51s-12.833 -32.5 -17.5 -46.5s-7.33398 -24.333 -8.00098 -31c2.66699 1.33301 7 5.16602 13 11.499l19.5 21.5c7 8 13.667 16.167 20 24.5s11.5 15.5 15.5 21.5
c-3.33301 5.33301 -5.33301 10.333 -6 15s-1 9.33398 -1 14.001c0 15.333 4.83301 27.833 14.5 37.5s19.834 14.5 30.501 14.5c15.333 0 23 -7.33301 23 -22c0 -8.66699 -2.66699 -18.667 -8 -30s-10.333 -20.333 -15 -27h3c6 0 12 1.83301 18 5.5s11.833 8.16699 17.5 13.5
s11.167 11 16.5 17s10 11.667 14 17c10 13.333 17.333 20 22 20c2.66699 0 5.33398 -1.16699 8.00098 -3.5s4 -5.16602 4 -8.49902l-6 -12c-4.66699 -8 -10.5 -16.333 -17.5 -25s-14.667 -16.667 -23 -24s-17.166 -13.333 -26.499 -18s-19 -7 -29 -7
c-3.33301 0 -6.16602 0.166992 -8.49902 0.5s-4.83301 0.833008 -7.5 1.5c-5.33301 -7.33301 -12.333 -16.166 -21 -26.499s-17.834 -20.5 -27.501 -30.5s-19.334 -18.5 -29.001 -25.5s-18.167 -10.5 -25.5 -10.5c-11.333 0 -19.166 3.33301 -23.499 10s-6.5 15.667 -6.5 27
c0 15.333 2.83301 32.166 8.5 50.499s11.5 35.166 17.5 50.499c-54 -36.667 -104.167 -63.667 -150.5 -81s-86.5 -26 -120.5 -26c-26.667 0 -48.834 4.16699 -66.501 12.5s-31.167 20.166 -40.5 35.499c-2.66699 4.66699 -4.16699 7.5 -4.5 8.5s-0.5 1.83301 -0.5 2.5
c0 8 4 12 12 12c4.66699 0 8.66699 -2 12 -6c7.33301 -12 18.5 -21.5 33.5 -28.5s33.167 -10.5 54.5 -10.5c34.667 0 76.834 10 126.501 30s104.167 52 163.5 96l14 30c2 2 3.33301 3 4 3h47zM77.999 305.001c2.66699 5.33301 5.33301 11.665 8 18.998s4 12 4 14l5 -5
c-1.33301 -1.33301 -2.83301 -4.66602 -4.5 -9.99902s-2.5 -11.666 -2.5 -18.999z" />
    <glyph glyph-name="w.001" unicode="&#xe016;" horiz-adv-x="303" 
d="M68 379c4.66699 0 5.99609 -2.33008 3.99609 -6.99707c-7.33301 -12 -14.666 -26.333 -21.999 -43s-14 -33 -20 -49s-10.833 -31 -14.5 -45s-5.5 -24.667 -5.5 -32c0 -3.33301 1 -5 3 -5c6 0 13.167 4.33301 21.5 13s16.666 19.167 24.999 31.5s16.333 25.166 24 38.499
l18.5 33l16 30c2 2 3.33301 3 4 3h43c4.66699 0 6 -2.33301 4 -7c-4 -8 -8.66699 -17.833 -14 -29.5s-10.5 -23.667 -15.5 -36s-9.16699 -24 -12.5 -35s-5 -19.5 -5 -25.5c0 -2 -0.333008 -3 -1 -3c2.66699 0.666992 6.33398 3.16699 11.001 7.5
s9.83398 9.66602 15.501 15.999s11.334 13.333 17.001 21s10.5 14.834 14.5 21.501c-4.66699 9.33301 -7 19.333 -7 30c0 11.333 3.16699 22.166 9.5 32.499s16.166 15.5 29.499 15.5s20 -8.33301 20 -25c0 -7.33301 -1.5 -16 -4.5 -26s-6.16699 -18 -9.5 -24h2
c6.66699 0 13.334 1.83301 20.001 5.5s13 8.16699 19 13.5s11.667 11 17 17s10 11.667 14 17l10.5 14c3 4 6.16699 6 9.5 6s6.33301 -0.833008 9 -2.5s4 -4.83398 4 -9.50098c0 -1.33301 -0.166992 -2.66602 -0.5 -3.99902s-1.5 -4 -3.5 -8l-18.5 -24.5
c-7 -9 -14.667 -17.167 -23 -24.5s-17.166 -13.5 -26.499 -18.5s-19 -7.5 -29 -7.5c-3.33301 0 -6.5 0.166992 -9.5 0.5s-6.16699 1.5 -9.5 3.5c-5.33301 -8 -11.666 -16.667 -18.999 -26s-15.166 -18 -23.499 -26s-17.166 -14.667 -26.499 -20s-19 -8 -29 -8
c-11.333 0 -19.333 3 -24 9s-7 13.333 -7 22c-10.667 -13.333 -21.667 -24.166 -33 -32.499s-24.333 -12.5 -39 -12.5c-30 0 -45 14.667 -45 44c0 10.667 1.66699 23 5 37s7.66602 28.667 12.999 44l5 14c-56.667 -40 -107.5 -68.167 -152.5 -84.5
s-84.833 -24.5 -119.5 -24.5c-26.667 0 -49 4.16699 -67 12.5s-31.667 20.166 -41 35.499c-2.66699 4.66699 -4.16699 7.5 -4.5 8.5s-0.5 1.83301 -0.5 2.5c0 8 4 12 12 12c4.66699 0 8.66699 -2 12 -6c7.33301 -12 18.666 -21.5 33.999 -28.5s33.666 -10.5 54.999 -10.5
c35.333 0 77 9.5 125 28.5s102.333 50.833 163 95.5c0.666992 2 1.66699 4.66699 3 8s4 8.66602 8 15.999l4 8c2 2 3.33301 3 4 3h54zM204.996 329.003c-1.33301 -1.33301 -2 -2.33301 -2 -3v3h2zM202.996 326.003c-3.33301 -4.66699 -5 -10.667 -5 -18zM191.996 294.003
c2 2.66699 4 7.33301 6 14v-3c0 -4 0.666992 -8 2 -12z" />
    <glyph glyph-name="x.001" unicode="&#xe017;" 
d="M176 367c-6 0 -13.6631 -3.50391 -22.9961 -10.5039s-19.166 -15.833 -29.499 -26.5s-20.833 -22.5 -31.5 -35.5s-20.334 -25.5 -29.001 -37.5v-1c0.666992 -5.33301 1.5 -13 2.5 -23s2.5 -19.667 4.5 -29s4.16699 -17.5 6.5 -24.5s5.16602 -10.5 8.49902 -10.5
c7.33301 0 23.166 15.333 47.499 46s53.5 74 87.5 130c5.33301 2.66699 8.66602 4 9.99902 4c8.66699 0 13 -5.33301 13 -16c-42 -68 -76.333 -117 -103 -147s-48.667 -45 -66 -45c-12.667 0 -23.834 6.33301 -33.501 19s-17.167 26.667 -22.5 42
c-15.333 -19.333 -31.833 -36.666 -49.5 -51.999s-36.834 -24.333 -57.501 -27c-3.33301 0.666992 -5.83301 2.16699 -7.5 4.5s-2.5 4.83301 -2.5 7.5c0 6.66699 3.66699 11.334 11 14.001c8 2 16.333 6.16699 25 12.5s17.334 14 26.001 23s17.167 18.5 25.5 28.5
s16.166 20 23.499 30c0 1.33301 -0.666992 4.66602 -2 9.99902c-1.33301 8.66699 -2.5 18.834 -3.5 30.501s-2.83301 22.834 -5.5 33.501c-60.667 -44 -115.834 -75.5 -165.501 -94.5s-92.5 -28.5 -128.5 -28.5c-27.333 0 -49.833 4.16699 -67.5 12.5
s-31.167 20.166 -40.5 35.499c-2.66699 4.66699 -4.16699 7.5 -4.5 8.5s-0.5 1.83301 -0.5 2.5c0 8 4 12 12 12c4.66699 0 8.66699 -2 12 -6c7.33301 -12 18.5 -21.5 33.5 -28.5s33.5 -10.5 55.5 -10.5c34.667 0 76.167 9.5 124.5 28.5s102.5 50.5 162.5 94.5
c-3.33301 7.33301 -7.83301 12.5 -13.5 15.5s-10.167 5.16699 -13.5 6.5s-6.16602 2.33301 -8.49902 3s-3.5 3.33398 -3.5 8.00098s4.33301 8.16699 13 10.5s15 3.5 19 3.5c11.333 0 20.833 -2.66699 28.5 -8s14.334 -12.166 20.001 -20.499s10.167 -17.666 13.5 -27.999
s6 -20.5 8 -30.5c18 23.333 37 43.666 57 60.999s40.667 26 62 26c8 0 12 -3.33301 12 -10c0 -8.66699 -4 -13 -12 -13z" />
    <glyph glyph-name="y.001" unicode="&#xe018;" 
d="M165 379c5.33301 0 7.00293 -2.33008 5.00293 -6.99707l-48 -108c21.333 14.667 39.166 28 53.499 40s29.166 25.667 44.499 41c3.33301 3.33301 7.33301 5 12 5c3.33301 0 6.66602 -1.33301 9.99902 -4s5 -6 5 -10s-1.33301 -7.33301 -4 -10v1
c-20 -21.333 -41.333 -40.833 -64 -58.5s-48.334 -33.167 -77.001 -46.5c-8.66699 -18.667 -21 -42.667 -37 -72s-34.167 -57.833 -54.5 -85.5s-42.333 -51.5 -66 -71.5s-47.834 -30 -72.501 -30c-24 0 -40.667 6.83301 -50 20.5s-14 29.834 -14 48.501
c0.666992 17.333 5.33398 33.666 14.001 48.999s19.667 29.5 33 42.5s28.5 25 45.5 36s34.333 21 52 30s34.667 17 51 24l43.5 18.5l5 10c-16.667 -12 -32 -18 -46 -18c-12.667 0 -21.5 3.5 -26.5 10.5s-7.5 15.833 -7.5 26.5c0 13.333 2 27 6 41
c-54.667 -36 -105.167 -63 -151.5 -81s-86.166 -27 -119.499 -27c-27.333 0 -49.833 4.16699 -67.5 12.5s-31.167 20.166 -40.5 35.499c-2.66699 4.66699 -4.16699 7.5 -4.5 8.5s-0.5 1.83301 -0.5 2.5c0 8 4 12 12 12c4.66699 0 8.66699 -2 12 -6
c7.33301 -12 18.5 -21.5 33.5 -28.5s33.5 -10.5 55.5 -10.5c35.333 0 77 9.66699 125 29s102.333 51.333 163 96c2.66699 6.66699 5.5 12.667 8.5 18s5.16699 9.66602 6.5 12.999c2 2 3.33301 3 4 3h46c4 0 5.33301 -2.33301 4 -7
c-4.66699 -8.66699 -9.5 -18.334 -14.5 -29.001s-9.66699 -21.167 -14 -31.5s-7.83301 -20.166 -10.5 -29.499s-4 -17 -4 -23c0 -3.33301 0.666992 -5 2 -5c6 0 13 4 21 12s16.167 18.167 24.5 30.5s16.333 25.666 24 39.999l20.5 39.5c2 2 3.66699 3 5 3h47z
M41.0029 199.003l-12 -5l6 12zM-134.997 -3.99707c15.333 0 31.001 7.66699 47.001 23s31.5 33.5 46.5 54.5s28.667 42.833 41 65.5l29.5 55c-17.333 -7.33301 -36.833 -16.5 -58.5 -27.5s-42.167 -23.333 -61.5 -37s-35.5 -28.834 -48.5 -45.501s-19.5 -34 -19.5 -52
c0 -9.33301 2.16699 -17.666 6.5 -24.999s10.166 -11 17.499 -11z" />
    <glyph glyph-name="z.001" unicode="&#xe019;" horiz-adv-x="222" 
d="M-170 10c0 25.333 7.50293 48.1758 22.5029 68.5088s33.5 38.166 55.5 53.499s45 28.166 69 38.499s45 18.166 63 23.499c0.666992 4 1.16699 8.66699 1.5 14s0.5 10.333 0.5 15c0 5.33301 -0.333008 10.666 -1 15.999s-1.66699 10.666 -3 15.999c-8 -2 -16 -3 -24 -3
c-10.667 0 -18.334 2.16699 -23.001 6.5s-7 9.83301 -7 16.5c0 11.333 5.5 20.166 16.5 26.499s22.167 9.5 33.5 9.5c4.66699 0 8 -0.333008 10 -1c3.33301 3.33301 7.33301 9.66602 12 18.999s7 17.666 7 24.999c0 4.66699 -2.33301 7 -7 7
c-2.66699 0 -6.5 -2.5 -11.5 -7.5l-15.5 -15.5v1c-5.33301 -6.66699 -10.333 -11 -15 -13c-66.667 -49.333 -125.5 -83.666 -176.5 -102.999s-94.5 -29 -130.5 -29c-27.333 0 -49.833 4.16699 -67.5 12.5s-31.167 20.166 -40.5 35.499
c-2.66699 4.66699 -4.16699 7.5 -4.5 8.5s-0.5 1.83301 -0.5 2.5c0 8 4 12 12 12c4.66699 0 8.66699 -2 12 -6c7.33301 -12 18.5 -21.5 33.5 -28.5s33.5 -10.5 55.5 -10.5c35.333 0 77 9.66699 125 29s102 51.333 162 96c7.33301 15.333 18.333 26.666 33 33.999
s27.667 11 39 11c19.333 0 32.833 -3.5 40.5 -10.5s11.5 -16.167 11.5 -27.5s-3.5 -23.166 -10.5 -35.499s-14.833 -23.166 -23.5 -32.499c5.33301 -9.33301 9.16602 -19 11.499 -29s3.83301 -20 4.5 -30c45.333 29.333 83.333 69.333 114 120v-1c2.66699 6 7 9 13 9
c8 0 12 -4.66699 12 -14c0 -2.66699 -0.666992 -5.33398 -2 -8.00098c-18.667 -32 -38.834 -58.833 -60.501 -80.5s-47.5 -40.5 -77.5 -56.5c-6 -30.667 -17 -60.334 -33 -89.001s-34.333 -54 -55 -76s-42.167 -39.5 -64.5 -52.5s-42.5 -19.5 -60.5 -19.5
c-15.333 0 -28.5 4 -39.5 12s-16.5 21.667 -16.5 41zM-89.9971 0.00976562c14 8.66699 27.3311 19.3301 39.998 31.9971s24.334 26.334 35.001 41.001s19.834 29.834 27.501 45.501s14.167 30.834 19.5 45.501c-58.667 -23.333 -101.834 -48 -129.501 -74
s-41.5 -53 -41.5 -81c0 -7.33301 1.66699 -12.5 5 -15.5s7.33301 -4.5 12 -4.5c5.33301 0 10.833 1 16.5 3s10.834 4.66699 15.501 8zM10.001 280.006c1.33301 0 3.33301 0.666992 6 2c-2.66699 -0.666992 -4 -2 -4 -4zM30.001 290.006
c0 -2.66699 0.333008 -3.99902 1 -3.99902c-3.33301 0 -8.33301 -1.33301 -15 -4c7.33301 3.33301 12 6.66602 14 9.99902v-2z" />
    <glyph glyph-name="a.002" unicode="&#xe01a;" horiz-adv-x="217" 
d="M159 379c5.33301 0 6.66504 -2.66699 3.99805 -8l-2 -4c-0.666992 -1.33301 -1.33398 -2.5 -2.00098 -3.5s-1 -1.83301 -1 -2.5h1l-20.5 -44.5l-21.5 -47.5c-6.66699 -15.333 -12.334 -29.333 -17.001 -42s-7 -21.334 -7 -26.001v-3c4.66699 0 11.834 5 21.501 15
s20 22.333 31 37l34 47.5l31.5 47.5c17.333 25.333 36.5 47.5 57.5 66.5s45.5 28.5 73.5 28.5c2.66699 0 6.83398 -0.166992 12.501 -0.5s11 -1.33301 16 -3s9.5 -3.66699 13.5 -6s6 -5.5 6 -9.5c0 -3.33301 -1.33301 -6.16602 -4 -8.49902s-5.66699 -3.5 -9 -3.5
c-7.33301 0 -14 1 -20 3h1c-2.66699 0.666992 -6.5 1.16699 -11.5 1.5s-7.5 0.833008 -7.5 1.5c-21.333 -1.33301 -40.166 -9.33301 -56.499 -24s-32.166 -33.667 -47.499 -57l-23 -33l-36 -53c-11.333 -16.667 -22.666 -31.334 -33.999 -44.001s-22.5 -22.667 -33.5 -30
s-22.167 -11 -33.5 -11c-12.667 0 -21.334 4.16699 -26.001 12.5s-7 18.833 -7 31.5c0 16 2 29.667 6 41c-12.667 -5.33301 -23.667 -8 -33 -8c-14 0 -23.5 4.16699 -28.5 12.5s-7.5 18.5 -7.5 30.5s2.16699 24.167 6.5 36.5s10.333 23.833 18 34.5s17 19.334 28 26.001
s23.167 10 36.5 10c7.33301 0 14.5 -1 21.5 -3s13.167 -5.66699 18.5 -11c2 2 3.33301 3 4 3h47zM27.999 283c0 -8 1.99902 -11.998 5.99902 -11.998c6 0 12.5 3.5 19.5 10.5s13.5 15 19.5 24s11.167 17.667 15.5 26s6.83301 14.166 7.5 17.499
c-1.33301 2.66699 -3.33301 5.16699 -6 7.5s-5.66699 3.5 -9 3.5c-7.33301 -0.666992 -14.166 -3.83398 -20.499 -9.50098s-12 -12.5 -17 -20.5s-8.83301 -16.167 -11.5 -24.5s-4 -15.833 -4 -22.5z" />
    <glyph glyph-name="b.002" unicode="&#xe01b;" horiz-adv-x="238" 
d="M232 345c8.66699 12.667 17.6709 24.6641 27.0039 35.9971s19.5 21.333 30.5 30s22.5 15.667 34.5 21s25 8 39 8c3.33301 0 7.66602 -0.333008 12.999 -1s10.5 -1.66699 15.5 -3s9.33301 -3.16602 13 -5.49902s5.5 -5.5 5.5 -9.5
c0 -3.33301 -1.33301 -6.16602 -4 -8.49902s-5.33398 -3.5 -8.00098 -3.5c-6.66699 0 -13 1 -19 3c-2 0 -5 0.666992 -9 2c-2 0.666992 -3.66699 1 -5 1c-22.667 0 -42.334 -8.5 -59.001 -25.5s-33 -37.167 -49 -60.5c-18.667 -26 -35.167 -47.333 -49.5 -64
s-27.833 -30.167 -40.5 -40.5s-25.334 -18.333 -38.001 -24s-26.667 -10.167 -42 -13.5c-7.33301 -9.33301 -16.666 -15.833 -27.999 -19.5s-22.666 -5.5 -33.999 -5.5c-15.333 0 -27 3 -35 9h-15c-8.66699 0 -17.667 1 -27 3s-14 6.66699 -14 14l9 23l31.5 82
c11.667 30 24.334 60.167 38.001 90.5s28.167 59.833 43.5 88.5s31.5 54.167 48.5 76.5s34.667 40.166 53 53.499s37.166 20 56.499 20s34.166 -6 44.499 -18s15.5 -27.667 15.5 -47c0 -18 -5.5 -37.667 -16.5 -59s-26.333 -42.5 -46 -63.5s-42.834 -40.5 -69.501 -58.5
s-56 -32 -88 -42l-5 -16c0 -0.666992 -0.166992 -1 -0.5 -1s-0.5 -0.333008 -0.5 -1l-1 -1c6 2.66699 11.5 4.33398 16.5 5.00098s10.167 1 15.5 1c16.667 0 28 -4.33301 34 -13s9 -19.667 9 -33c0 -9.33301 -0.666992 -18.166 -2 -26.499s-4 -16.5 -8 -24.5
c16.667 7.33301 34.5 20 53.5 38s41.167 45.667 66.5 83zM181.004 562.997c-21.333 -20.667 -42 -49.165 -62 -85.498s-38 -73.166 -54 -110.499c28 11.333 52.833 25.166 74.5 41.499s40 33.333 55 51s26.5 35.167 34.5 52.5s12 32.666 12 45.999
c0 12 -1.66699 20.5 -5 25.5s-7 7.5 -11 7.5c-7.33301 0 -15 -2.83301 -23 -8.5s-14.667 -11.834 -20 -18.501zM64.0039 291.999c-5.33301 0 -10.833 -3.50098 -16.5 -10.501s-11.334 -15.5 -17.001 -25.5s-11 -20.833 -16 -32.5s-9.16699 -22.5 -12.5 -32.5
c2.66699 -2 5.33398 -3 8.00098 -3c7.33301 0 14.5 3.5 21.5 10.5s13.333 15.333 19 25s10.167 19.834 13.5 30.501s5 19.667 5 27s-1.66699 11 -5 11z" />
    <glyph glyph-name="c.002" unicode="&#xe01c;" horiz-adv-x="160" 
d="M155 345c15.333 26 33.5 47.6689 54.5 65.002s45.167 26 72.5 26c3.33301 0 7.83301 -0.333008 13.5 -1s11.334 -1.66699 17.001 -3s10.5 -3.5 14.5 -6.5s6 -6.5 6 -10.5c0 -3.33301 -1.33301 -6.33301 -4 -9s-5.66699 -4 -9 -4c-8 0 -15 1 -21 3
c-2.66699 0 -6 0.666992 -10 2c-2 0.666992 -4 1 -6 1c-22 0 -41.333 -7 -58 -21s-32.334 -32.667 -47.001 -56c-38.667 -62 -71.834 -105.5 -99.501 -130.5s-52.167 -37.5 -73.5 -37.5c-19.333 0 -32.833 5.66699 -40.5 17s-11.5 25.666 -11.5 42.999c0 16 3 33.333 9 52
s13.833 36 23.5 52s20.334 29.333 32.001 40s23.5 16 35.5 16c13.333 0 22.5 -4.16699 27.5 -12.5s7.5 -18.5 7.5 -30.5c0 -8 -1 -16.167 -3 -24.5s-4.5 -16 -7.5 -23s-6.33301 -12.833 -10 -17.5s-7.16699 -7 -10.5 -7c-11.333 0 -17 5.33301 -17 16
c0 1.33301 1.33301 4.33301 4 9s5.66699 11 9 19s5 16.667 5 26c0 5.33301 -1 8 -3 8c-4 0 -9 -4.5 -15 -13.5s-12 -19.833 -18 -32.5s-11 -26.334 -15 -41.001s-6 -27.334 -6 -38.001c0 -16.667 5.66699 -25 17 -25c8 0 17.333 3.83301 28 11.5s22 18.334 34 32.001
s24.5 29.5 37.5 47.5s25.5 37.333 37.5 58z" />
    <glyph glyph-name="d.002" unicode="&#xe01d;" horiz-adv-x="258" 
d="M250 345c8 11.333 16.8359 22.5029 26.5029 33.5029s20 20.667 31 29s23 15 36 20s26.5 7.5 40.5 7.5c3.33301 0 7.66602 -0.166992 12.999 -0.5s10.5 -1.33301 15.5 -3s9.33301 -3.83398 13 -6.50098s5.5 -6 5.5 -10s-1.33301 -7.5 -4 -10.5s-5.66699 -4.5 -9 -4.5
c-8 0 -15 1 -21 3h1c-2.66699 0.666992 -6.5 1.16699 -11.5 1.5s-6.83301 0.833008 -5.5 1.5c-19.333 -0.666992 -37.166 -7.5 -53.499 -20.5s-32.5 -30.167 -48.5 -51.5l-14 -20c-10 -14.667 -22.833 -32.5 -38.5 -53.5s-32.5 -41.333 -50.5 -61
s-36.167 -36.334 -54.5 -50.001s-35.5 -20.5 -51.5 -20.5s-26.833 5 -32.5 15s-8.5 20.667 -8.5 32c0 7.33301 0.666992 14.833 2 22.5s2.66602 14.167 3.99902 19.5c-6.66699 -3.33301 -13.334 -5.66602 -20.001 -6.99902s-12 -2 -16 -2
c-15.333 0 -26.166 4.16699 -32.499 12.5s-9.5 18.833 -9.5 31.5c0 12 2.66699 25.167 8 39.5s12.666 27.666 21.999 39.999s20.166 22.666 32.499 30.999s25.166 12.5 38.499 12.5c12.667 0 24.667 -3.33301 36 -10c10.667 23.333 23.667 49.833 39 79.5s32 57.5 50 83.5
s37.167 48 57.5 66s40.5 27 60.5 27c11.333 0 21 -2 29 -6s14.5 -9.16699 19.5 -15.5s8.66699 -13.333 11 -21s3.5 -15.5 3.5 -23.5c0 -24 -7.16699 -48 -21.5 -72s-32.666 -46.333 -54.999 -67s-47 -38.667 -74 -54s-52.833 -25.666 -77.5 -30.999c-2 -4 -4.5 -10 -7.5 -18
s-6.83301 -17.667 -11.5 -29l-9.5 -25.5l-13.5 -37c-4.66699 -13 -8.66699 -25.5 -12 -37.5s-5 -20.333 -5 -25c10 0.666992 22.833 8.16699 38.5 22.5s31.667 31.166 48 50.499s32.333 39.333 48 60zM266.003 555.003c-18.667 -21.333 -37.833 -48.667 -57.5 -82
s-38.5 -69 -56.5 -107c26.667 8.66699 51 21.167 73 37.5s40.667 33.5 56 51.5s27.333 36 36 54s13 33.333 13 46c0 11.333 -1.83301 19.5 -5.5 24.5s-7.5 7.5 -11.5 7.5c-14 0 -29.667 -10.667 -47 -32zM12.0039 239.002c8 0 16.167 4 24.5 12s15.666 17.167 21.999 27.5
s11.5 20.5 15.5 30.5s6 17 6 21c-1.33301 9.33301 -4.66602 14 -9.99902 14c-6 0 -12.5 -4 -19.5 -12s-13.333 -17.5 -19 -28.5s-10.5 -22 -14.5 -33s-6 -19.833 -6 -26.5c0 -3.33301 0.333008 -5 1 -5z" />
    <glyph glyph-name="e.002" unicode="&#xe01e;" horiz-adv-x="160" 
d="M19 196c7.33301 0 16.3291 4.00098 26.9961 12.001s22 18.667 34 32s24.5 29.166 37.5 47.499s25.5 37.5 37.5 57.5c14.667 24.667 33 46.5 55 65.5s47.667 28.5 77 28.5c3.33301 0 7.5 -0.166992 12.5 -0.5s10 -1.16602 15 -2.49902s9.33301 -3.16602 13 -5.49902
s5.5 -5.83301 5.5 -10.5c0 -3.33301 -1.33301 -6.5 -4 -9.5s-5.66699 -4.5 -9 -4.5c-7.33301 0 -14 1 -20 3h1c-2.66699 0.666992 -6.5 1.16699 -11.5 1.5s-7.5 0.833008 -7.5 1.5c-22 -1.33301 -41.667 -9.5 -59 -24.5s-32.666 -34.167 -45.999 -57.5
c-34.667 -54 -66.167 -95.333 -94.5 -124s-54.166 -43 -77.499 -43c-19.333 0 -32.833 5.66699 -40.5 17s-11.5 25.666 -11.5 42.999c0 16 3 33.333 9 52s13.833 36 23.5 52s20.334 29.333 32.001 40s23.5 16 35.5 16c18 0 27 -8.66699 27 -26
c0 -6.66699 -1.83301 -14.167 -5.5 -22.5s-8.5 -16.5 -14.5 -24.5s-13.167 -15.667 -21.5 -23s-17.166 -13 -26.499 -17c-6.66699 -18.667 -10 -34.667 -10 -48c0 -16.667 4.66699 -25.334 14 -26.001h3zM56.9961 351.001h-1.99805c-5.33301 0 -11.833 -5.83301 -19.5 -17.5
s-14.834 -25.834 -21.501 -42.501c11.333 8 21.666 17.667 30.999 29s14 20 14 26c0 2.66699 -0.666992 4.33398 -2 5.00098z" />
    <glyph glyph-name="f.002" unicode="&#xe01f;" horiz-adv-x="137" 
d="M19 258c12 2 23.1631 5.83301 33.4961 11.5s20 12.5 29 20.5s17.667 17 26 27l24.5 30l27 34c9.33301 11.333 19.166 21.333 29.499 30s21.5 15.667 33.5 21s25.333 8 40 8c2.66699 0 6.66699 -0.166992 12 -0.5s10.5 -1.33301 15.5 -3s9.33301 -3.66699 13 -6
s5.5 -5.5 5.5 -9.5c0 -3.33301 -1.5 -7 -4.5 -11s-6.16699 -6 -9.5 -6c-2 0 -4 0.333008 -6 1c-1.33301 0.666992 -3 1 -5 1s-3.66699 0.333008 -5 1c-6.66699 1.33301 -11 2 -13 2c-11.333 0 -22 -2.5 -32 -7.5s-19.667 -11.5 -29 -19.5s-18.333 -17.167 -27 -27.5
s-17 -20.833 -25 -31.5l-28 -33.5c-9.33301 -11 -19.5 -21 -30.5 -30s-22.667 -16.333 -35 -22s-25.5 -8.5 -39.5 -8.5c-1.33301 0 -2.16602 -0.166992 -2.49902 -0.5s-1.5 -0.166016 -3.5 0.500977c0.666992 -3.33301 1 -7.33301 1 -12v-13
c0 -17.333 -1.5 -36.833 -4.5 -58.5s-7.66699 -42.334 -14 -62.001s-14.666 -36.167 -24.999 -49.5s-22.833 -20 -37.5 -20c-9.33301 0 -17.166 4 -23.499 12s-9.5 19.667 -9.5 35c0 12.667 1.33301 26.667 4 42s7.5 33.833 14.5 55.5s16.667 47.5 29 77.5s28.5 66 48.5 108
c9.33301 20.667 19.333 40.834 30 60.501s21.334 37 32.001 52s21.334 27.167 32.001 36.5s20.667 14 30 14c3.33301 0 5.83301 -0.333008 7.5 -1s2.5 -2.66699 2.5 -6s-1 -7.33301 -3 -12s-5.66699 -12.334 -11 -23.001l-38 -80zM-50.0039 44
c3.33301 0.666992 7 5.32812 11 13.9951s7.66699 20 11 34s6.16602 29.833 8.49902 47.5s3.5 35.167 3.5 52.5c-4 -9.33301 -8 -20.166 -12 -32.499s-7.66699 -25.166 -11 -38.499s-6.16602 -26.166 -8.49902 -38.499s-3.5 -22.5 -3.5 -30.5
c0 -1.33301 0.166992 -2.66602 0.5 -3.99902s0.5 -2.66602 0.5 -3.99902z" />
    <glyph glyph-name="g.002" unicode="&#xe020;" horiz-adv-x="220" 
d="M-154 -70c-19.333 0 -33.6689 6.83301 -43.002 20.5s-14 29.834 -14 48.501c0 22.667 6 43.334 18 62.001s28.333 36 49 52s45 30.833 73 44.5s58 26.834 90 39.501l7 9l5 10c-6 -3.33301 -12 -5.5 -18 -6.5s-11.667 -1.5 -17 -1.5c-14.667 0 -25.167 4 -31.5 12
s-9.5 18 -9.5 30s2.83301 25.333 8.5 40s13 28.167 22 40.5s19.333 22.666 31 30.999s23.834 12.5 36.501 12.5c6.66699 0 14.167 -0.833008 22.5 -2.5s15.166 -5.16699 20.499 -10.5l7 15c0.666992 2 2.33398 3 5.00098 3h48c5.33301 0 7 -2.33301 5 -7l-72 -159
c10 1.33301 21 2.5 33 3.5s24.667 1.5 38 1.5c16.667 0 33.667 -0.833008 51 -2.5s33.833 -4.33398 49.5 -8.00098s29.334 -8.5 41.001 -14.5s20.5 -13.333 26.5 -22c2 -4 3.16699 -6.5 3.5 -7.5s0.5 -2.16699 0.5 -3.5c0 -4 -1.66699 -7.16699 -5 -9.5
s-6.66602 -3.5 -9.99902 -3.5c-4.66699 0 -8.33398 2 -11.001 6c-5.33301 7.33301 -13 13.666 -23 18.999s-21.5 9.5 -34.5 12.5s-26.833 5.16699 -41.5 6.5s-29.334 2 -44.001 2c-17.333 0 -33.666 -0.666992 -48.999 -2s-28.333 -3.33301 -39 -6l-40.5 -76.5
c-15.667 -29 -33.167 -56.833 -52.5 -83.5s-40.5 -49.167 -63.5 -67.5s-47.167 -27.5 -72.5 -27.5zM-129.003 -24c13.333 10 26.333 22.668 39 38.001s24.667 31.666 36 48.999s22 34.666 32 51.999s18.667 33.333 26 48c-23.333 -8.66699 -46.166 -18.5 -68.499 -29.5
s-42.333 -23.167 -60 -36.5s-32 -28.166 -43 -44.499s-16.5 -33.833 -16.5 -52.5c0 -9.33301 1.66699 -18.333 5 -27s8.66602 -13 15.999 -13c10 0 21.333 5.33301 34 16zM10.9971 240.001c5.33301 0.666992 11.998 5.50195 19.998 14.502s15.667 18.833 23 29.5
s13.5 20.667 18.5 30s7.5 14.666 7.5 15.999c0 4.66699 -1.83301 8 -5.5 10s-7.16699 3 -10.5 3c-8 0 -15.667 -3.5 -23 -10.5s-13.666 -15.167 -18.999 -24.5s-9.66602 -19.333 -12.999 -30s-5 -19.334 -5 -26.001c0 -7.33301 2.33301 -11.333 7 -12z" />
    <glyph glyph-name="h.002" unicode="&#xe021;" horiz-adv-x="223" 
d="M-71 163c-4.66699 0 -6.3291 2.33691 -4.99609 7.00391l38 103c13.333 35.333 27.166 69.666 41.499 102.999s29.333 64.833 45 94.5s31.834 55.667 48.501 78s34.167 40 52.5 53s37.166 19.5 56.499 19.5s34.333 -5.66699 45 -17s16 -27 16 -47
c0 -18 -5.33301 -37.833 -16 -59.5s-25.834 -43 -45.501 -64s-43 -40.333 -70 -58s-56.5 -31.5 -88.5 -41.5l-11 -29c9.33301 6 19 11.167 29 15.5s18.667 6.5 26 6.5c11.333 0 19 -2.66699 23 -8s6 -12 6 -20c0 -9.33301 -1.66699 -19.666 -5 -30.999s-7 -22.333 -11 -33
l-9.5 -26c-3 -8 -4.5 -14.333 -4.5 -19c0 -4 0.666992 -6 2 -6c4 0 10.333 4.66699 19 14s18.667 21.666 30 36.999l36.5 51.5l39.5 58.5c8 12 16.667 23.5 26 34.5s19.666 21 30.999 30s23.333 16.167 36 21.5s26 8 40 8c2.66699 0 6.66699 -0.166992 12 -0.5
s10.333 -1 15 -2s8.83398 -2.83301 12.501 -5.5s5.5 -6 5.5 -10c0 -3.33301 -1.33301 -6.83301 -4 -10.5s-6 -5.5 -10 -5.5c-3.33301 0 -6.33301 0.166992 -9 0.5s-5.33398 0.833008 -8.00098 1.5c-6.66699 1.33301 -11.334 2 -14.001 2c-22 0 -41.667 -7.5 -59 -22.5
s-33.666 -34.167 -48.999 -57.5l-29 -42c-27.333 -40.667 -51.833 -74.334 -73.5 -101.001s-43.167 -40 -64.5 -40c-15.333 0 -25.666 4.5 -30.999 13.5s-8 19.5 -8 31.5c0 11.333 1.5 23.166 4.5 35.499s5.83301 23.166 8.5 32.499l7 26
c-2.66699 -1.33301 -6.33398 -4.16602 -11.001 -8.49902s-9.33398 -9.33301 -14.001 -15s-9 -11.334 -13 -17.001s-6.66699 -10.167 -8 -13.5l-24 -65c-1.33301 -2 -3 -3 -5 -3h-52zM185.005 574.004c-12.667 -9.33301 -24.668 -21.8301 -36.001 -37.4971
s-22.166 -32.834 -32.499 -51.501s-20 -38.167 -29 -58.5l-26.5 -59.5c27.333 11.333 51.833 25.166 73.5 41.499s40 33.333 55 51s26.5 35.167 34.5 52.5s12 32.666 12 45.999c0 10 -2 17.167 -6 21.5s-8.66699 6.5 -14 6.5c-10.667 0 -21 -4 -31 -12z" />
    <glyph glyph-name="i.002" unicode="&#xe022;" horiz-adv-x="135" 
d="M130 345c17.333 25.333 36.4961 47.5 57.4961 66.5s45.5 28.5 73.5 28.5c2.66699 0 6.83398 -0.166992 12.501 -0.5s11 -1.33301 16 -3s9.5 -3.66699 13.5 -6s6 -5.5 6 -9.5c0 -3.33301 -1.33301 -6.16602 -4 -8.49902s-5.66699 -3.5 -9 -3.5c-6.66699 0 -13 1 -19 3
c-2 0 -5 0.666992 -9 2c-2 0.666992 -3.66699 1 -5 1c-22 0 -41.5 -8.33301 -58.5 -25s-33.5 -36.667 -49.5 -60l-35 -47.5c-14 -19 -28.833 -37.333 -44.5 -55s-31.5 -32.834 -47.5 -45.501s-30.333 -19 -43 -19s-21.5 3.33301 -26.5 10s-7.5 15.667 -7.5 27
c0 8 1.83301 18.5 5.5 31.5s8.16699 27 13.5 42l17 46l17 42.5l6 14c2 2 3.33301 3 4 3h48c5.33301 0 7 -2.33301 5 -7c-5.33301 -11.333 -11.333 -25.333 -18 -42l-19.5 -50.5c-6.33301 -17 -11.666 -33 -15.999 -48s-6.83301 -26.5 -7.5 -34.5
c4.66699 2.66699 11.834 9 21.501 19s20.334 22 32.001 36s23.667 29.167 36 45.5zM12.9961 407c0 8 3.16797 14.167 9.50098 18.5s13.5 6.5 21.5 6.5c7.33301 0 14.166 -2.33301 20.499 -7s9.5 -11.667 9.5 -21c0 -7.33301 -2.66699 -13 -8 -17s-12.333 -6 -21 -6
s-16.167 2.33301 -22.5 7s-9.5 11 -9.5 19z" />
    <glyph glyph-name="j.002" unicode="&#xe023;" horiz-adv-x="152" 
d="M77 222c-13.333 0 -26.501 -1.49902 -39.501 -4.49902s-25.167 -6.83301 -36.5 -11.5l-38.5 -68.5c-13.667 -24.333 -28 -46.833 -43 -67.5s-30.667 -37.834 -47 -51.501s-32.833 -20.5 -49.5 -20.5c-15.333 0 -26.166 4.33301 -32.499 13s-9.5 18.667 -9.5 30
c0 25.333 14.5 54.166 43.5 86.499s69.167 62.166 120.5 89.499l31.5 79l31.5 80c0.666992 2 2.33398 3 5.00098 3h48c4.66699 0 6.33398 -2.33301 5.00098 -7l-52 -135c20.667 6 42.667 9 66 9c18 0 34.667 -2.66699 50 -8s28.666 -15 39.999 -29
c1.33301 -3.33301 2.16602 -5.66602 2.49902 -6.99902s0.5 -2.66602 0.5 -3.99902c0 -9.33301 -4.33301 -14 -13 -14c-3.33301 0 -7 2 -11 6c-9.33301 11.333 -20.5 19.5 -33.5 24.5s-25.833 7.5 -38.5 7.5zM-186.001 34.001c7.33301 0 15.999 4.66797 25.999 14.001
c6.66699 7.33301 13.834 16.166 21.501 26.499s15.167 21.166 22.5 32.499l21 34c6.66699 11.333 12.667 22 18 32c-13.333 -9.33301 -26.833 -19.5 -40.5 -30.5s-26 -22.333 -37 -34s-20 -23.167 -27 -34.5s-10.5 -21.666 -10.5 -30.999c0 -6 2 -9 6 -9zM13.998 407.002
c0 8 2.66699 14.168 8 18.501s12.333 6.5 21 6.5c9.33301 0 17 -2.33301 23 -7s9 -11.334 9 -20.001c-1.33301 -16 -11.333 -24 -30 -24c-20.667 0 -31 8.66699 -31 26z" />
    <glyph glyph-name="k.002" unicode="&#xe024;" horiz-adv-x="235" 
d="M184 271c17.333 26 36.668 48.334 58.001 67.001s46 28 74 28c2.66699 0 6.66699 -0.166992 12 -0.5s10.5 -1.33301 15.5 -3s9.5 -3.66699 13.5 -6s6 -5.5 6 -9.5c0 -3.33301 -1.33301 -6.16602 -4 -8.49902s-5.66699 -3.5 -9 -3.5c-6.66699 0 -13 1 -19 3
c-2 0 -5 0.666992 -9 2c-2 0.666992 -3.66699 1 -5 1c-22.667 0 -42.5 -8.33301 -59.5 -25s-33.5 -36.667 -49.5 -60c-25.333 -36 -48.833 -64.333 -70.5 -85s-44.5 -31 -68.5 -31c-20 0 -35.333 5.33301 -46 16s-17.334 24.334 -20.001 41.001l-12 -31
c-1.33301 -2 -3 -3 -5 -3h-54c-4.66699 0 -6.33398 2.33301 -5.00098 7l25.5 65l25.5 65l18 44c12 30.667 25.833 62.5 41.5 95.5s32.667 62.833 51 89.5s38 48.667 59 66s42.5 26 64.5 26c17.333 0 31.833 -5.83301 43.5 -17.5s17.5 -26.834 17.5 -45.501
c0 -12.667 -3.33301 -26.334 -10 -41.001s-17.667 -29.667 -33 -45s-35.666 -30.333 -60.999 -45s-56.333 -28.334 -93 -41.001l-10 -19c-2 -4 -3.83301 -7.33301 -5.5 -10s-3.5 -7.33398 -5.5 -14.001c10 9.33301 19.833 16.666 29.5 21.999s17.167 8 22.5 8
c8.66699 0 15.167 -2.66699 19.5 -8s6.5 -12 6.5 -20c0 -6 -2.5 -12.833 -7.5 -20.5s-11.5 -15 -19.5 -22s-17 -13.167 -27 -18.5s-20 -9.33301 -30 -12c0 -1.33301 -0.166992 -2.5 -0.5 -3.5s-0.5 -2.16699 -0.5 -3.5c0 -7.33301 0.5 -16.166 1.5 -26.499s3 -20.5 6 -30.5
s6.66699 -18.5 11 -25.5s10.166 -10.5 17.499 -10.5c6.66699 0 14.334 3.16699 23.001 9.5s17.5 14.333 26.5 24s17.833 20.334 26.5 32.001zM198.002 580.001c-20.667 -15.333 -40.333 -37.999 -59 -67.999s-35 -61 -49 -93c26.667 10.667 49.5 22.167 68.5 34.5
s34.667 24.666 47 36.999s21.5 24.333 27.5 36s9 22.167 9 31.5c0 10.667 -2 18.5 -6 23.5s-9 7.5 -15 7.5s-13.667 -3 -23 -9zM100.003 339.002c-1.33301 0 -2.33301 -0.333008 -3 -1c0.666992 0.666992 1 1.66699 1 3c0 -1.33301 0.666992 -2 2 -2zM49.0029 300.002
c2 1.33301 4.16699 2.5 6.5 3.5s4.5 2.16699 6.5 3.5c-3.33301 -4 -5.33301 -8 -6 -12zM97.0029 338.002c-3.33301 -1.33301 -8.66797 -5.00195 -16.001 -11.002s-13.666 -12.667 -18.999 -20c8 4.66699 15.5 9.83398 22.5 15.501s11.167 10.834 12.5 15.501z" />
    <glyph glyph-name="l.002" unicode="&#xe025;" horiz-adv-x="177" 
d="M294 335c5.33301 -2.66699 8.00391 -6.66992 8.00391 -12.0029c0 -6.66699 -4 -10 -12 -10c-2.66699 0 -5.33398 0.666992 -8.00098 2l-20 4c-6.66699 1.33301 -12.667 2 -18 2c-12.667 0 -24.5 -2.33301 -35.5 -7s-21.5 -10.667 -31.5 -18s-19.667 -15.666 -29 -24.999
l-27 -28l-20 -23c-39.333 -39.333 -72.666 -59 -99.999 -59c-11.333 0 -20.5 4.16699 -27.5 12.5s-10.5 21.5 -10.5 39.5c0 19.333 3.66699 42.333 11 69s17.333 54.5 30 83.5s27.5 57.5 44.5 85.5s34.833 53.167 53.5 75.5s38 40.333 58 54s39.333 20.5 58 20.5
c14 0 26 -3.83301 36 -11.5s15 -21.167 15 -40.5c0 -18 -6.5 -35.667 -19.5 -53s-29.167 -34 -48.5 -50s-40.833 -31.167 -64.5 -45.5s-45.834 -26.833 -66.501 -37.5c-1.33301 -3.33301 -3.33301 -6.66602 -6 -9.99902s-4.66699 -7.66602 -6 -12.999
c-3.33301 -8 -7 -17.333 -11 -28s-7.83301 -21.667 -11.5 -33s-6.83398 -22.5 -9.50098 -33.5s-4 -20.5 -4 -28.5c0 -7.33301 1.66699 -11 5 -11c7.33301 0 16.666 5 27.999 15s23.666 21.667 36.999 35l31.5 32.5c11 11 22.667 21 35 30s25 16.333 38 22s26.5 8.5 40.5 8.5
c18.667 0 37.667 -4.33301 57 -13v-1zM201.004 554.997c-10 -8 -20.499 -17.834 -31.499 -29.501s-21.667 -24.5 -32 -38.5s-20 -28.5 -29 -43.5s-16.833 -29.167 -23.5 -42.5c15.333 9.33301 31.833 20 49.5 32s34.167 24.667 49.5 38s28.166 26.833 38.499 40.5
s15.5 26.834 15.5 39.501c0 8 -4.66699 12 -14 12c-8 0 -15.667 -2.66699 -23 -8z" />
    <glyph glyph-name="m.002" unicode="&#xe026;" horiz-adv-x="320" 
d="M24 184c-2 0 -3.6709 0.666016 -5.00391 1.99902s-1.33301 3 0 5l22 47c10.667 21.333 19.334 40 26.001 56s10 27.333 10 34c0 2.66699 -0.333008 4 -1 4c-3.33301 0 -7.33301 -2.33301 -12 -7s-9.66699 -10.5 -15 -17.5s-10.666 -14.667 -15.999 -23l-14 -22.5l1 1
c-7.33301 -14 -14.666 -29.833 -21.999 -47.5l-21 -49.5c-1.33301 -2 -3 -3 -5 -3h-47c-4.66699 0 -6.33398 2.33301 -5.00098 7l22 51l29 66.5c10 23 18.667 41.833 26 56.5l15 32c2 2 3.33301 3 4 3h45c5.33301 0 7 -2.33301 5 -7l-12 -25
c6 5.33301 12.167 9.66602 18.5 12.999s13.166 5 20.499 5c14.667 0 24.834 -3.66699 30.501 -11s8.5 -16.666 8.5 -27.999c9.33301 11.333 19.5 20.5 30.5 27.5s22.5 10.5 34.5 10.5c12.667 0 21.5 -3.33301 26.5 -10s7.5 -15.334 7.5 -26.001
c0 -8.66699 -1.66699 -18.334 -5 -29.001s-7.16602 -21.667 -11.499 -33s-9 -22.166 -14 -32.499l-13.5 -27.5l-8 -17c-2.66699 -6 -4 -10.667 -4 -14v-1c2.66699 0 5.66699 1.66699 9 5c21.333 18 40.333 38.333 57 61s32.334 45.667 47.001 69l33.5 49.5
c11 15.667 22.833 29.5 35.5 41.5s26.167 21.5 40.5 28.5s30.833 10.5 49.5 10.5c2.66699 0 6.5 -0.166992 11.5 -0.5s10 -1.16602 15 -2.49902s9.16699 -3.16602 12.5 -5.49902s5 -5.5 5 -9.5c0 -3.33301 -1.16699 -6.16602 -3.5 -8.49902s-5.16602 -3.5 -8.49902 -3.5
c-6.66699 0 -13 1 -19 3h1c-2.66699 0.666992 -6.5 1.16699 -11.5 1.5s-7.5 0.833008 -7.5 1.5c-13.333 -0.666992 -26.333 -5.16699 -39 -13.5s-25 -19 -37 -32s-23.667 -27.5 -35 -43.5s-22.333 -32.333 -33 -49l-33 -48.5c-10.667 -15.667 -21.667 -29.5 -33 -41.5
s-22.833 -21.667 -34.5 -29s-23.834 -11 -36.501 -11c-11.333 0 -20.666 2.5 -27.999 7.5s-11 13.833 -11 26.5c0 10.667 3 23.667 9 39s12.667 30.666 20 45.999l12 26.5c4 9 7.33301 16.833 10 23.5c1.33301 4 2 6.33301 2 7c0 2 -0.333008 3 -1 3
c-7.33301 0 -15.5 -5.66699 -24.5 -17s-18 -24.5 -27 -39.5s-17.333 -30.5 -25 -46.5s-13.834 -28.333 -18.501 -37c-2 -2 -3.33301 -3 -4 -3z" />
    <glyph glyph-name="n.002" unicode="&#xe027;" horiz-adv-x="222" 
d="M218 345c18 25.333 37.1641 47.502 57.4971 66.502s44.166 28.5 71.499 28.5c2.66699 0 6.66699 -0.166992 12 -0.5s10.666 -1.33301 15.999 -3s9.83301 -3.66699 13.5 -6s5.5 -5.5 5.5 -9.5c0 -3.33301 -1.16699 -6.16602 -3.5 -8.49902s-5.16602 -3.5 -8.49902 -3.5
c-6.66699 0 -13 1 -19 3h1c-2.66699 0.666992 -6.5 1.16699 -11.5 1.5s-7.5 0.833008 -7.5 1.5c-13.333 -0.666992 -26.333 -5.16699 -39 -13.5s-25 -19 -37 -32s-23.667 -27.667 -35 -44l-34 -49.5l-32 -48c-10.667 -15.333 -21.5 -29 -32.5 -41s-22.5 -21.667 -34.5 -29
s-24.333 -11 -37 -11c-10.667 0 -19.834 2.5 -27.501 7.5s-11.5 13.833 -11.5 26.5c0 10.667 3 23.667 9 39s12.667 30.666 20 45.999l12 26c4 8.66699 7.33301 16.667 10 24c0 0.666992 0.166992 1.16699 0.5 1.5s0.5 0.833008 0.5 1.5s0.166992 1.16699 0.5 1.5
s0.5 0.833008 0.5 1.5v1c0 2 -0.666992 3 -2 3c-4 0 -8.66699 -2.33301 -14 -7s-10.666 -10.334 -15.999 -17.001l-16 -21c-5.33301 -7.33301 -9.66602 -13.666 -12.999 -18.999l1 1l-43 -97c-1.33301 -2 -2.66602 -3 -3.99902 -3h-49c-2 0 -3.66699 0.666992 -5 2
s-1.33301 3 0 5l79 174l8 17l-1 -1l8 16c0.666992 2 2.33398 3 5.00098 3h49c5.33301 0 7 -2.33301 5 -7l-11 -22c12.667 9.33301 26 14 40 14c13.333 0 22.5 -3.33301 27.5 -10s7.5 -15.334 7.5 -26.001c0 -8 -1.5 -17 -4.5 -27s-6.5 -20.333 -10.5 -31s-8.5 -21 -13.5 -31
l-13.5 -27h1l-11 -23c-3.33301 -8 -5 -12.667 -5 -14c2.66699 0 6.33398 1.33301 11.001 4h-1c21.333 16 40.5 35.667 57.5 59s32.833 46.666 47.5 69.999z" />
    <glyph glyph-name="o.002" unicode="&#xe028;" horiz-adv-x="216" 
d="M47 299c0 10.667 1.66797 21.332 5.00098 31.999s9 19 17 25c-10 -2.66699 -18.833 -8.33398 -26.5 -17.001s-14 -18.667 -19 -30s-8.83301 -23.166 -11.5 -35.499s-4 -23.833 -4 -34.5s1.16699 -19.5 3.5 -26.5s6.16602 -10.5 11.499 -10.5s11.5 2.83301 18.5 8.5
s15.167 15.5 24.5 29.5c-6.66699 6.66699 -11.5 15.334 -14.5 26.001s-4.5 21.667 -4.5 33zM364.001 404.998c6 -3.33301 9.00195 -7.33203 9.00195 -11.999c0 -3.33301 -1.33301 -6 -4 -8s-5.66699 -3 -9 -3h-7c-2.66699 0 -5 0.333008 -7 1c-5.33301 1.33301 -9 2 -11 2
c-22 0 -41.167 -8 -57.5 -24s-31.5 -33 -45.5 -51c-8 -10.667 -16.5 -21.167 -25.5 -31.5s-18.5 -19.5 -28.5 -27.5s-21 -14.5 -33 -19.5s-25.333 -7.5 -40 -7.5h-15c-27.333 -40.667 -54 -61 -80 -61c-18 0 -31.333 6.33301 -40 19s-13 28.667 -13 48
c0 16 2.66699 33.167 8 51.5s13 35.166 23 50.499s22 28 36 38s29.667 15 47 15c7.33301 0 13.166 -1 17.499 -3s6.5 -6.33301 6.5 -13c0 -1.33301 -0.166992 -2.16602 -0.5 -2.49902s-0.5 -1.16602 -0.5 -2.49902h1c12.667 0 21.5 -3.33301 26.5 -10
s7.5 -15.334 7.5 -26.001c0 -12 -2.83301 -25.333 -8.5 -40s-10.834 -26.334 -15.501 -35.001h2c20 0 37.833 7.5 53.5 22.5s30.834 31.833 45.501 50.5l25.5 31c8.33301 10 17.333 19 27 27s20.167 14.5 31.5 19.5s24 7.5 38 7.5c5.33301 0 11.166 -0.333008 17.499 -1
s12.5 -2 18.5 -4v-1zM77.0029 260.999l4.00098 8c1.33301 -4 2.66602 -6.66699 3.99902 -8h-8zM77.0039 297.999c0 -12 1.33398 -21.667 4.00098 -29c3.33301 7.33301 6.66602 16.833 9.99902 28.5s5 21.5 5 29.5c0 5.33301 -0.666992 8 -2 8
c-6 0 -10.333 -3.83301 -13 -11.5s-4 -16.167 -4 -25.5z" />
    <glyph glyph-name="p.002" unicode="&#xe029;" horiz-adv-x="203" 
d="M360 358c-3.33301 0 -5.66699 0.333008 -7 1c-12 3.33301 -21.667 5 -29 5c-22 0 -41.167 -6 -57.5 -18s-33.166 -25.667 -50.499 -41c-16 -16 -33.333 -31 -52 -45s-41 -23.667 -67 -29c-9.33301 -11.333 -19.833 -19.833 -31.5 -25.5s-23.167 -8.5 -34.5 -8.5
c-8 0 -15.5 1.16699 -22.5 3.5s-12.167 6.16602 -15.5 11.499c-5.33301 -11.333 -11.666 -24 -18.999 -38s-15.333 -28.5 -24 -43.5s-18 -30.167 -28 -45.5s-20.333 -29.666 -31 -42.999c-23.333 -29.333 -45.666 -50 -66.999 -62s-39.666 -18 -54.999 -18
c-17.333 0 -30.833 4.66699 -40.5 14s-14.5 21.666 -14.5 36.999c0 22 6.66699 41.333 20 58s29.5 30.834 48.5 42.501s39.167 21.334 60.5 29.001s40 13.5 56 17.5l8 1c0.666992 0 1 0.333008 1 1l103 214c2 2 3.66699 3 5 3h48c5.33301 0 7 -2.33301 5 -7l-12 -26
c7.33301 2.66699 14.666 4 21.999 4c17.333 0 29.166 -4.66699 35.499 -14s9.5 -20 9.5 -32c0 -10.667 -2.33301 -22.334 -7 -35.001c14 7.33301 26.833 15.833 38.5 25.5l35.5 29.5c19.333 17.333 38.666 32.666 57.999 45.999s42 20 68 20
c3.33301 0 8.16602 -0.333008 14.499 -1s12.5 -1.66699 18.5 -3s11.333 -3.33301 16 -6s7 -6 7 -10c0 -3.33301 -1.33301 -6.16602 -4 -8.49902s-5.66699 -3.5 -9 -3.5zM355.999 359h-3h3zM-242.001 -7c10.667 0 22.167 4.66699 34.5 14s24.333 21 36 35s23 29 34 45
s20.5 30.667 28.5 44c-15.333 -4.66699 -31.333 -10.167 -48 -16.5s-32 -14.166 -46 -23.499s-25.667 -20.333 -35 -33s-14 -27.334 -14 -44.001c0 -14 3.33301 -21 10 -21zM-103.001 142l-6 -11l11 3zM12.999 251c0 -1.33301 -0.333984 -1.99902 -1.00098 -1.99902
c4 -8 8.33301 -12 13 -12c5.33301 0 11 2.66699 17 8s11.333 11.666 16 18.999s8.5 15.333 11.5 24s4.5 16 4.5 22c0 6.66699 -2.66699 10 -8 10s-10.666 -3 -15.999 -9s-10.5 -13 -15.5 -21s-9.33301 -15.833 -13 -23.5l-8.5 -17.5v2zM11.998 248.001v1v1v-2z" />
    <glyph glyph-name="q.002" unicode="&#xe02a;" horiz-adv-x="215" 
d="M96 360v1v-1zM157 379c4.66699 0 5.99805 -2.33496 3.99805 -7.00195l-36.5 -78.5l-35.5 -78.5c19.333 8.66699 37.166 22.834 53.499 42.501l49.5 62.5l31 43.5c10.667 14.333 21.834 27.166 33.501 38.499s24.334 20.5 38.001 27.5s28.5 10.5 44.5 10.5
c3.33301 0 7.66602 -0.166992 12.999 -0.5s10.666 -1.33301 15.999 -3s10 -3.66699 14 -6s6 -5.5 6 -9.5c0 -3.33301 -1.33301 -6.16602 -4 -8.49902s-5.66699 -3.5 -9 -3.5c-8 0 -15 1 -21 3c-1.33301 0 -4 0.666992 -8 2c-2 0.666992 -3.66699 1 -5 1
c-22 0 -40.833 -8 -56.5 -24s-31.167 -36 -46.5 -60c-11.333 -16.667 -23.166 -33.167 -35.499 -49.5s-25.166 -31.166 -38.499 -44.499s-27.166 -24.833 -41.499 -34.5s-29.166 -16.5 -44.499 -20.5l-8 -19c11.333 -25.333 19.166 -47.5 23.499 -66.5
s6.5 -36.167 6.5 -51.5c0 -27.333 -5.83301 -48.333 -17.5 -63s-25.5 -22 -41.5 -22c-14.667 0 -27.334 6.66699 -38.001 20s-16 35 -16 65c0 32 4.66699 62.167 14 90.5s19.666 55.833 30.999 82.5l7 17c-9.33301 -4 -18.666 -6 -27.999 -6
c-13.333 0 -23.666 4.5 -30.999 13.5s-11 20.167 -11 33.5c0 12 2.5 24 7.5 36s11.833 23 20.5 33s18.667 18.167 30 24.5s23 9.5 35 9.5c14 0 26.333 -4.66699 37 -14l6 11c2 2 3.33301 3 4 3h48zM38.998 267.998c4.66699 4.66699 9.6709 10.333 15.0039 17
s10.166 13.167 14.499 19.5s8 12.333 11 18s5.16699 10.167 6.5 13.5c-1.33301 2.66699 -3.33301 5.66699 -6 9s-6.33398 5 -11.001 5c-6.66699 0 -13.167 -3 -19.5 -9s-11.833 -13.333 -16.5 -22s-8.33398 -17.667 -11.001 -27s-4 -17 -4 -23c0 -6.66699 1.66699 -10 5 -10
s8.66602 3 15.999 9zM66.002 42.9971c0 10 -1.16699 21.333 -3.5 34s-5.16602 25 -8.49902 37c-2.66699 -11.333 -4.83398 -23.166 -6.50098 -35.499s-2.5 -23.833 -2.5 -34.5c0 -4.66699 0.166992 -10 0.5 -16s1 -11.667 2 -17s2 -9.83301 3 -13.5s2.5 -5.5 4.5 -5.5
s4.33301 4.66699 7 14s4 21.666 4 36.999z" />
    <glyph glyph-name="r.002" unicode="&#xe02b;" horiz-adv-x="144" 
d="M139 345c16.667 25.333 36.166 46.8301 58.499 64.4971s47.5 26.5 75.5 26.5c3.33301 0 7.83301 -0.333008 13.5 -1s11.334 -1.66699 17.001 -3s10.5 -3.33301 14.5 -6s6 -6 6 -10c0 -3.33301 -1.16699 -6.16602 -3.5 -8.49902s-5.16602 -3.5 -8.49902 -3.5
c-8 0 -15 1 -21 3c-2.66699 0 -6 0.666992 -10 2c-2 0.666992 -4 1 -6 1c-23.333 0 -44 -7.5 -62 -22.5s-34.667 -34.167 -50 -57.5c-2.66699 -3.33301 -5.33398 -7 -8.00098 -11l-8 -12c-10 -16 -21.333 -33 -34 -51s-25.5 -34.667 -38.5 -50s-25.667 -28 -38 -38
s-23.833 -15 -34.5 -15c-9.33301 0 -17 3.16699 -23 9.5s-9 14.5 -9 24.5s2.16699 22 6.5 36s8.83301 26.667 13.5 38c3.33301 8 6.16602 15.5 8.49902 22.5s3.5 11.167 3.5 12.5c0 5.33301 -1.16699 10.666 -3.5 15.999s-4.83301 10.666 -7.5 15.999h1
c-3.33301 6 -6.16602 12 -8.49902 18s-3.5 12.333 -3.5 19c0 6 2.33301 12 7 18s13 9 25 9c9.33301 0 15.666 -2.83301 18.999 -8.5s5 -12.5 5 -20.5c0 -6.66699 -0.333008 -11 -1 -13c9.33301 -13.333 16 -23.5 20 -30.5s6 -14.167 6 -21.5c0 -6 -1.16699 -12.5 -3.5 -19.5
s-6.16602 -16.167 -11.499 -27.5c-1.33301 -2 -3 -5.83301 -5 -11.5s-4.33301 -11.667 -7 -18s-5 -12.666 -7 -18.999s-3 -11.166 -3 -14.499c7.33301 4.66699 21.5 21.334 42.5 50.001s45.167 64.334 72.5 107.001z" />
    <glyph glyph-name="s.002" unicode="&#xe02c;" horiz-adv-x="168" 
d="M163 345l27 33.9961c9.33301 11.333 19.5 21.5 30.5 30.5s22.833 16.167 35.5 21.5s26.334 8 41.001 8c2.66699 0 6.5 -0.166992 11.5 -0.5s10 -1.16602 15 -2.49902s9.16699 -3.16602 12.5 -5.49902s5 -5.5 5 -9.5c0 -3.33301 -1.33301 -6.16602 -4 -8.49902
s-5.66699 -3.5 -9 -3.5c-8 0 -14 1 -18 3h1c-2.66699 0.666992 -6.5 1.16699 -11.5 1.5s-6.83301 0.833008 -5.5 1.5c-20.667 -1.33301 -39.834 -10.5 -57.501 -27.5s-34.167 -36.167 -49.5 -57.5c-14 -18 -30.667 -33.333 -50 -46s-40.333 -23.667 -63 -33
c5.33301 -14.667 8 -29 8 -43c0 -8.66699 -1.83301 -16.5 -5.5 -23.5s-8.33398 -13 -14.001 -18s-12 -8.83301 -19 -11.5s-13.833 -4 -20.5 -4c-11.333 0 -21.333 3.5 -30 10.5s-13 18.167 -13 33.5c0 10.667 3.5 21 10.5 31s15.167 18.667 24.5 26
c-5.33301 11.333 -10.666 24.833 -15.999 40.5s-8 30.167 -8 43.5c0 15.333 3.16699 28 9.5 38s17.833 15 34.5 15c13.333 0 23.333 -4 30 -12s10 -16.667 10 -26c0 -8.66699 -2.16699 -16.667 -6.5 -24s-11.166 -12.333 -20.499 -15
c1.33301 -7.33301 3.16602 -14.166 5.49902 -20.499s4.83301 -11.833 7.5 -16.5c21.333 8 40.5 17.5 57.5 28.5s31.833 24.833 44.5 41.5zM32 229.996l-6 -5l-2 7zM29 211.996c0 3.33301 -1.00098 7.66699 -3.00098 13c-5.33301 -5.33301 -9.16602 -10.833 -11.499 -16.5
s-3.5 -10.167 -3.5 -13.5c0 -8 1.66699 -12 5 -12s6.33301 3 9 9s4 12.667 4 20zM47.999 354.997c-1.33301 0 -2 -1.33203 -2 -3.99902v-9c0 2 0.333008 4.16699 1 6.5s1 4.16602 1 5.49902v1zM40.999 334.998c1.33301 0.666992 2.16797 1.66797 2.50098 3.00098
s1.16602 2.66602 2.49902 3.99902v-4v-6z" />
    <glyph glyph-name="t.002" unicode="&#xe02d;" horiz-adv-x="140" 
d="M105 505c4.66699 0 6.33008 -2.33301 4.99707 -7l-38 -95.5c-12 -30.333 -22.5 -58.166 -31.5 -83.499s-16.167 -47.5 -21.5 -66.5s-8 -33.833 -8 -44.5c0 -8.66699 1.33301 -13 4 -13c6 0 14.5 5.5 25.5 16.5s22.5 24.167 34.5 39.5s23.333 31.5 34 48.5
s19 31.5 25 43.5c4.66699 6.66699 9.33398 10 14.001 10c8 0 12 -4 12 -12c0 -2 -0.666992 -4.33301 -2 -7c-6 -12 -15 -27.667 -27 -47s-25.167 -38.333 -39.5 -57s-29.166 -34.834 -44.499 -48.501s-30 -20.5 -44 -20.5s-23.833 4.83301 -29.5 14.5s-8.5 22.167 -8.5 37.5
c0 32 6.66699 66.667 20 104l49 131l23 58c0.666992 2 2.33398 3 5.00098 3zM-161.004 428c-3.33301 0 -5.00098 1.66699 -5.00098 5c2 23.333 7.66699 42.5 17 57.5s21.333 26.667 36 35s31.5 14 50.5 17s39.167 4.5 60.5 4.5c13.333 0 27.333 -0.5 42 -1.5
s29.334 -2.16699 44.001 -3.5s28.834 -2.33301 42.501 -3s27.167 -1 40.5 -1c25.333 0 48.166 2.66699 68.499 8s35.5 15.666 45.5 30.999c0 1.33301 1 2 3 2h19c5.33301 0 7 -2.33301 5 -7c-11.333 -26 -29.666 -43.333 -54.999 -52s-54 -13 -86 -13
c-14.667 0 -29.667 0.666992 -45 2l-47 4c-15.333 1.33301 -30.5 2.5 -45.5 3.5s-29.167 1.5 -42.5 1.5c-16.667 0 -32.334 -1.16699 -47.001 -3.5s-27.667 -6.66602 -39 -12.999s-20.5 -15 -27.5 -26s-11.167 -24.833 -12.5 -41.5c0 -3.33301 -1.66699 -5 -5 -5z" />
    <glyph glyph-name="u.002" unicode="&#xe02e;" horiz-adv-x="225" 
d="M220 345c17.333 26 36.4941 48.333 57.4941 67s45.167 28 72.5 28c2.66699 0 6.83398 -0.166992 12.501 -0.5s11 -1.33301 16 -3s9.5 -3.66699 13.5 -6s6 -5.5 6 -9.5c0 -3.33301 -1.33301 -6.16602 -4 -8.49902s-5.66699 -3.5 -9 -3.5l-18 3
c-6.66699 1.33301 -11.667 2 -15 2c-22 0 -41.833 -8 -59.5 -24s-34.5 -36 -50.5 -60l-48.5 -67.5c-15 -20.333 -29.167 -38 -42.5 -53s-26.333 -26.667 -39 -35s-25 -12.5 -37 -12.5c-13.333 0 -22.5 3.83301 -27.5 11.5s-7.5 17.167 -7.5 28.5
c0 3.33301 0.166992 6.83301 0.5 10.5s0.833008 7.16699 1.5 10.5c-12.667 -7.33301 -25 -11 -37 -11c-13.333 0 -22.5 3.5 -27.5 10.5s-7.5 16.167 -7.5 27.5c0 9.33301 1.33301 19.333 4 30s5.83398 21.334 9.50098 32.001s7.5 20.667 11.5 30s7.66699 17.333 11 24l5 10
c0.666992 2 2.33398 3 5.00098 3h47c4.66699 0 6 -2.33301 4 -7l-12.5 -26c-5 -10.667 -10 -22 -15 -34s-9.16699 -23.333 -12.5 -34s-5 -19.334 -5 -26.001c0 -4 0.666992 -6 2 -6c3.33301 0 7.33301 2 12 6s9.33398 8.66699 14.001 14s8.83398 10.333 12.501 15
s5.83398 7.66699 6.50098 9l-1 -1l41 87c2 2 3.66699 3 5 3h48c5.33301 0 7 -2.33301 5 -7l-21.5 -45.5l-24 -53c-7.66699 -17.667 -14.167 -33.667 -19.5 -48s-8 -24.5 -8 -30.5c10 1.33301 25.5 14.666 46.5 39.999s47.5 62 79.5 110z" />
    <glyph glyph-name="v.002" unicode="&#xe02f;" horiz-adv-x="178" 
d="M63 379c5.33301 0 6.66992 -2.66504 4.00293 -7.99805c-8 -12.667 -16 -27.5 -24 -44.5s-15.5 -34 -22.5 -51s-12.833 -32.5 -17.5 -46.5s-7.33398 -24.333 -8.00098 -31c2.66699 1.33301 7 5.16602 13 11.499s12.333 13.5 19 21.5l20 24.5
c6.66699 8.33301 12 15.5 16 21.5c-5.33301 10 -8 19.667 -8 29c0 15.333 5 27.833 15 37.5s20.333 14.5 31 14.5c14.667 0 22 -7.33301 22 -22c0 -8.66699 -2.5 -18.667 -7.5 -30s-9.83301 -20.333 -14.5 -27h3c6 0 12.667 2.5 20 7.5s14.5 11 21.5 18
s13.5 14.167 19.5 21.5s10.667 13.666 14 18.999c16.667 24.667 35.667 46.667 57 66s46 29 74 29c2.66699 0 6.66699 -0.166992 12 -0.5s10.666 -1.33301 15.999 -3s9.83301 -3.66699 13.5 -6s5.5 -5.5 5.5 -9.5c0 -3.33301 -1.33301 -6.16602 -4 -8.49902
s-5.66699 -3.5 -9 -3.5c-6.66699 0 -13 1 -19 3h1c-2 0.666992 -5.5 1.16699 -10.5 1.5s-7.5 0.833008 -7.5 1.5c-11.333 -0.666992 -21.5 -3.33398 -30.5 -8.00098s-17.5 -10.667 -25.5 -18s-15.667 -15.666 -23 -24.999l-22 -29c-7.33301 -10 -15 -19.833 -23 -29.5
s-16.167 -18.334 -24.5 -26.001s-17.333 -13.834 -27 -18.501s-19.834 -7 -30.501 -7c-3.33301 0 -6.16602 0.166992 -8.49902 0.5s-4.83301 0.833008 -7.5 1.5c-5.33301 -7.33301 -12.333 -16.166 -21 -26.499s-17.834 -20.5 -27.501 -30.5s-19.334 -18.5 -29.001 -25.5
s-18.5 -10.5 -26.5 -10.5c-11.333 0 -19.166 3.33301 -23.499 10s-6.5 15.667 -6.5 27c0 12 2 25.5 6 40.5s8.5 29.5 13.5 43.5s9.83301 26.5 14.5 37.5s8 18.5 10 22.5l16 32c2 2 3.33301 3 4 3h47zM80.0039 305.002c2.66699 5.33301 5.33301 11.665 8 18.998s4 12 4 14
l5 -5c-1.33301 -1.33301 -2.83301 -4.66602 -4.5 -9.99902s-2.5 -11.666 -2.5 -18.999z" />
    <glyph glyph-name="w.002" unicode="&#xe030;" horiz-adv-x="303" 
d="M70 379c4 0 5.32324 -2.33301 3.99023 -7c-7.33301 -12 -14.666 -26.333 -21.999 -43s-14 -33 -20 -49s-11 -31 -15 -45s-6 -24.667 -6 -32c0 -3.33301 1 -5 3 -5c6 0 13.167 4.33301 21.5 13s16.833 19.167 25.5 31.5s16.834 25.166 24.501 38.499l18.5 33l16 30
c2 2 3.33301 3 4 3h43c4.66699 0 6 -2.33301 4 -7l-14.5 -29.5c-5.66699 -11.667 -10.834 -23.667 -15.501 -36s-8.66699 -24 -12 -35s-5 -19.5 -5 -25.5c0 -2 -0.333008 -3 -1 -3c2.66699 0.666992 6.33398 3.16699 11.001 7.5s9.83398 9.66602 15.501 15.999
s11.334 13.333 17.001 21s10.5 14.834 14.5 21.501c-4.66699 9.33301 -7 19.333 -7 30c0 11.333 3.16699 22.166 9.5 32.499s16.166 15.5 29.499 15.5s20 -8.33301 20 -25c0 -7.33301 -1.66699 -16 -5 -26s-6.66602 -18 -9.99902 -24h2c7.33301 0 14.833 2.5 22.5 7.5
s15 11 22 18s13.167 14.167 18.5 21.5l13 18c8 11.333 16.667 22.666 26 33.999s19.5 21.5 30.5 30.5s23 16.167 36 21.5s26.5 8 40.5 8c3.33301 0 7.5 -0.166992 12.5 -0.5s10 -1.16602 15 -2.49902s9.33301 -3.16602 13 -5.49902s5.5 -5.5 5.5 -9.5
c0 -3.33301 -1.33301 -6.16602 -4 -8.49902s-5.66699 -3.5 -9 -3.5c-6.66699 0 -13 1 -19 3h1c-2.66699 0.666992 -6.5 1.16699 -11.5 1.5s-7.5 0.833008 -7.5 1.5c-21.333 -1.33301 -40.166 -10 -56.499 -26s-32.5 -35.667 -48.5 -59c-6 -8 -12.667 -16.333 -20 -25
s-15.166 -16.834 -23.499 -24.501s-17.166 -14 -26.499 -19s-18.666 -7.5 -27.999 -7.5c-3.33301 0 -6.33301 0.166992 -9 0.5s-5.66699 1.5 -9 3.5c-5.33301 -8 -11.666 -16.667 -18.999 -26s-15.166 -18 -23.499 -26s-17.333 -14.667 -27 -20s-19.167 -8 -28.5 -8
c-12 0 -20.333 3 -25 9s-7 13.333 -7 22c-10 -13.333 -20.667 -24.166 -32 -32.499s-24.333 -12.5 -39 -12.5c-30 0 -45 14.667 -45 44c0 9.33301 1.5 20.5 4.5 33.5s6.83301 26.833 11.5 41.5s10.167 30 16.5 46l19.5 47c2 2 3.66699 3 5 3h55zM206.99 329
c-1.33301 -1.33301 -2 -2.33301 -2 -3v3h2zM204.99 326c-3.33301 -4.66699 -5 -10.667 -5 -18zM193.99 294c2 2.66699 4 7.33301 6 14v-3c0 -4 0.666992 -8 2 -12z" />
    <glyph glyph-name="x.002" unicode="&#xe031;" 
d="M222 345c16.667 26 35.4971 48.3262 56.4971 66.9932s45.5 28 73.5 28c3.33301 0 7.66602 -0.166992 12.999 -0.5s10.666 -1.33301 15.999 -3s9.83301 -3.66699 13.5 -6s5.5 -5.5 5.5 -9.5c0 -3.33301 -1.33301 -6.16602 -4 -8.49902s-5.33398 -3.5 -8.00098 -3.5
c-6.66699 0 -13 1 -19 3h1c-2.66699 0.666992 -6.5 1.16699 -11.5 1.5s-7.5 0.833008 -7.5 1.5c-21.333 -1.33301 -40.333 -10 -57 -26s-32.667 -35.667 -48 -59c-45.333 -65.333 -80.666 -113.166 -105.999 -143.499s-46.666 -45.5 -63.999 -45.5
c-13.333 0 -24.666 6.33301 -33.999 19s-16.666 26.667 -21.999 42c-16 -19.333 -32.667 -36.666 -50 -51.999s-36.666 -24.333 -57.999 -27c-3.33301 0.666992 -5.83301 2.16699 -7.5 4.5s-2.5 4.83301 -2.5 7.5c0 6.66699 3.66699 11.334 11 14.001
c8 2 16.333 6.16699 25 12.5s17.334 14 26.001 23s17.334 18.5 26.001 28.5s16.667 20 24 30c0 1.33301 -0.166992 2.83301 -0.5 4.5s-0.5 3.16699 -0.5 4.5c-0.666992 8.66699 -1.66699 19.334 -3 32.001s-3.5 25 -6.5 37s-7 22.167 -12 30.5s-11.167 12.5 -18.5 12.5
c-10.667 0 -16 4 -16 12c0 4.66699 4.16699 8.16699 12.5 10.5s14.5 3.5 18.5 3.5c11.333 0 21 -2.66699 29 -8s14.667 -12.166 20 -20.499s9.66602 -17.666 12.999 -27.999s6 -20.5 8 -30.5c18.667 23.333 38 43.666 58 60.999s40.667 26 62 26
c7.33301 0 11 -3.33301 11 -10c0 -8.66699 -3.66699 -13 -11 -13s-15.5 -3.16699 -24.5 -9.5s-18.5 -14.666 -28.5 -24.999s-20.167 -22 -30.5 -35l-30.5 -39.5c0 -0.666992 0.166992 -1.16699 0.5 -1.5s0.5 -0.833008 0.5 -1.5c0.666992 -6 1.66699 -13.5 3 -22.5
s2.83301 -18 4.5 -27s3.66699 -16.667 6 -23s4.83301 -9.5 7.5 -9.5c7.33301 0 22.833 15 46.5 45s53.5 72.333 89.5 127z" />
    <glyph glyph-name="y.002" unicode="&#xe032;" 
d="M115 245c7.33301 1.33301 14.833 2.33496 22.5 3.00195s15.167 1 22.5 1c22 0 42.333 -3.5 61 -10.5s33.667 -19.167 45 -36.5c2 -4 3.16699 -6.5 3.5 -7.5s0.5 -2.16699 0.5 -3.5c0 -4 -1.5 -7.16699 -4.5 -9.5s-6.16699 -3.5 -9.5 -3.5
c-4.66699 0 -8.33398 2 -11.001 6c-10 15.333 -22.833 26 -38.5 32s-32.167 9 -49.5 9c-10 0 -19.667 -0.833008 -29 -2.5s-18.666 -3.5 -27.999 -5.5c-13.333 -26 -28.5 -53.833 -45.5 -83.5s-35.167 -57.167 -54.5 -82.5s-39.833 -46.333 -61.5 -63s-43.5 -25 -65.5 -25
c-24 0 -40.667 6.83301 -50 20.5s-14 29.834 -14 48.501c0.666992 17.333 5.33398 33.666 14.001 48.999s19.667 29.5 33 42.5s28.5 25 45.5 36s34.333 21 52 30s34.667 17 51 24l43.5 18.5l5 10c-16.667 -12 -32 -18 -46 -18c-12.667 0 -21.5 3.5 -26.5 10.5
s-7.5 15.833 -7.5 26.5c0 9.33301 1.5 19.666 4.5 30.999s6.66699 22.5 11 33.5s8.66602 21 12.999 30s7.5 15.833 9.5 20.5c2 2 3.33301 3 4 3h45c4.66699 0 6 -2.33301 4 -7c-4.66699 -8.66699 -9.5 -18.334 -14.5 -29.001s-9.5 -21.167 -13.5 -31.5
s-7.33301 -20.166 -10 -29.499s-4 -17 -4 -23c0 -3.33301 0.666992 -5 2 -5c6 0 13 4 21 12s16.167 18.167 24.5 30.5s16.333 25.666 24 39.999l20.5 39.5c2 2 3.66699 3 5 3h47c5.33301 0 7 -2.33301 5 -7zM42 199.002l-12 -5l6 12zM-134 -3.99805
c15.333 0 31.001 7.66699 47.001 23s31.5 33.5 46.5 54.5s28.667 42.833 41 65.5l29.5 55c-17.333 -7.33301 -36.833 -16.5 -58.5 -27.5s-42.167 -23.333 -61.5 -37s-35.5 -28.834 -48.5 -45.501s-19.5 -34 -19.5 -52c0 -9.33301 2.16699 -17.666 6.5 -24.999
s10.166 -11 17.499 -11z" />
    <glyph glyph-name="z.002" unicode="&#xe033;" horiz-adv-x="222" 
d="M-69 -34c-6.66699 -2.66699 -13.8281 -4.82617 -21.4951 -6.49316s-15.167 -2.5 -22.5 -2.5c-15.333 0 -28.5 4 -39.5 12s-16.5 21.667 -16.5 41c0 25.333 7.5 48.166 22.5 68.499s33.5 38.166 55.5 53.499s45 28.166 69 38.499s45 18.166 63 23.499
c1.33301 4 2 8.66699 2 14v15c0 5.33301 -0.333008 10.666 -1 15.999s-1.66699 10.666 -3 15.999c-8 -2 -16 -3 -24 -3c-10.667 0 -18.334 2.16699 -23.001 6.5s-7 9.83301 -7 16.5c0 11.333 5.5 20.166 16.5 26.499s22.167 9.5 33.5 9.5c4.66699 0 8 -0.333008 10 -1
c3.33301 3.33301 7.16602 9.66602 11.499 18.999s6.5 17.666 6.5 24.999c0 4.66699 -2 7 -6 7c-3.33301 0 -7 -2 -11 -6l-14 -14c-4.66699 -4.66699 -8.83398 -8.5 -12.501 -11.5s-7.16699 -4.5 -10.5 -4.5c-4 0 -7.5 1.16699 -10.5 3.5s-4.5 5.5 -4.5 9.5
c0 9.33301 3 17.333 9 24s13.167 12 21.5 16s16.5 7 24.5 9s14 3 18 3c19.333 0 32.833 -3.5 40.5 -10.5s11.5 -16.167 11.5 -27.5s-3.5 -23.166 -10.5 -35.499s-14.833 -23.166 -23.5 -32.499c4.66699 -8 8.5 -16.833 11.5 -26.5s4.5 -20.834 4.5 -33.501
c0 -3.33301 0.166992 -5.5 0.5 -6.5s0.166016 -3.5 -0.500977 -7.5c20 4 40 6 60 6c22 0 42.5 -3.5 61.5 -10.5s34.167 -19.167 45.5 -36.5l2.5 -7.5c0.333008 -1 0.5 -2.16699 0.5 -3.5c0 -4 -1.5 -7.16699 -4.5 -9.5s-6.16699 -3.5 -9.5 -3.5
c-4.66699 0 -8.33398 2 -11.001 6c-10 15.333 -22.833 25.833 -38.5 31.5s-32.167 8.5 -49.5 8.5c-18.667 0 -38.667 -2.66699 -60 -8c-4 -24 -11.833 -47.333 -23.5 -70s-25.5 -43.667 -41.5 -63s-33 -36.166 -51 -50.499s-35 -25.5 -51 -33.5zM-88.9941 0.0078125
c14 8.66699 27.3311 19.3301 39.998 31.9971s24.334 26.334 35.001 41.001s19.834 29.834 27.501 45.501s14.167 30.834 19.5 45.501c-58.667 -23.333 -101.834 -48 -129.501 -74s-41.5 -53 -41.5 -81c0 -7.33301 1.66699 -12.5 5 -15.5s7.33301 -4.5 12 -4.5
c5.33301 0 10.833 1 16.5 3s10.834 4.66699 15.501 8zM11.0039 280.004c1.33301 0 3.33301 0.666992 6 2c-2.66699 -0.666992 -4 -2 -4 -4zM31.0039 290.004c0 -2.66699 0.333008 -3.99902 1 -3.99902c-3.33301 0 -8.33301 -1.33301 -15 -4
c7.33301 3.33301 12 6.66602 14 9.99902v-2z" />
    <glyph glyph-name="a.003" unicode="&#xe034;" horiz-adv-x="217" 
d="M-321 169c10.667 18 21.6611 32.335 32.9941 43.002s23 18.667 35 24s24.5 9.16602 37.5 11.499s26.167 4.16602 39.5 5.49902s27 3.33301 41 6s28.333 7.33398 43 14.001s29.334 15.667 44.001 27s29.334 26.333 44.001 45c8 12.667 18.167 23.334 30.5 32.001
s25.833 13 40.5 13c16.667 0 29.667 -4.66699 39 -14c2 2 3.33301 3 4 3h47c5.33301 0 7 -2.33301 5 -7l-21 -44.5l-23 -50.5c-7.33301 -16.667 -13.666 -31.834 -18.999 -45.501s-8 -23.5 -8 -29.5c0 -2.66699 0.333008 -4 1 -4c4.66699 0 11.667 4.83301 21 14.5
s19.5 21.834 30.5 36.501s22.333 30.667 34 48l32.5 48l-1 -1c2 5.33301 6.33301 8 13 8c2.66699 0 5.33398 -1.33301 8.00098 -4s4 -6.66699 4 -12l-41.5 -64.5c-13.667 -21 -27.167 -39.5 -40.5 -55.5s-26.5 -28.833 -39.5 -38.5s-25.833 -14.5 -38.5 -14.5
c-13.333 0 -22.333 4.16699 -27 12.5s-7 18.833 -7 31.5c0 16 2 29.667 6 41c-12.667 -5.33301 -23.667 -8 -33 -8c-12.667 0 -21.667 3.66699 -27 11s-8.33301 16.666 -9 27.999c0 3.33301 -0.166992 4.16602 -0.5 2.49902s-0.166016 -0.833984 0.500977 2.49902
c-24.667 -21.333 -49.167 -35.166 -73.5 -41.499s-47.833 -10.833 -70.5 -13.5c-12.667 -1.33301 -25 -3 -37 -5s-23.5 -5.5 -34.5 -10.5s-21.667 -12.167 -32 -21.5s-20.166 -22 -29.499 -38c-2 -2 -5 -3 -9 -3c-9.33301 0 -14 4.66699 -14 14c0 2 0.333008 3.33301 1 4v-2
zM25.9941 283.002c0 -8 2.00098 -11.998 6.00098 -11.998c6.66699 0 13.5 3.5 20.5 10.5s13.5 15 19.5 24s11 17.667 15 26s6.33301 14.166 7 17.499c-1.33301 2.66699 -3.33301 5.16699 -6 7.5s-5.33398 3.5 -8.00098 3.5
c-7.33301 -0.666992 -14.333 -3.83398 -21 -9.50098s-12.5 -12.5 -17.5 -20.5s-8.83301 -16.167 -11.5 -24.5s-4 -15.833 -4 -22.5z" />
    <glyph glyph-name="b.003" unicode="&#xe035;" horiz-adv-x="238" 
d="M231 344c1.33301 3.33301 3.16602 5.50098 5.49902 6.50098s4.83301 1.5 7.5 1.5c3.33301 0 6.83301 -1.16699 10.5 -3.5s5.5 -5.83301 5.5 -10.5c0 -4 -1.33301 -7.33301 -4 -10v1c-18 -26 -34.167 -47.5 -48.5 -64.5s-28 -30.667 -41 -41
s-25.833 -18.166 -38.5 -23.499s-26.667 -9.66602 -42 -12.999c-7.33301 -9.33301 -16.666 -15.833 -27.999 -19.5s-22.666 -5.5 -33.999 -5.5c-15.333 0 -27 3 -35 9h-15c-8.66699 0 -17.667 1 -27 3s-14 6.66699 -14 14c6 16.667 12.167 32.5 18.5 47.5l19.5 45.5l9 21
l9 20c-13.333 0 -26.333 -0.833008 -39 -2.5s-25 -5.33398 -37 -11.001s-23.667 -13.5 -35 -23.5s-21.666 -23.333 -30.999 -40c-0.666992 -0.666992 -3 -1 -7 -1c-9.33301 0 -14 4.33301 -14 13c0 -0.666992 -0.333008 -1.33398 -1 -2.00098
s-0.666992 -0.333984 0 0.999023c10.667 19.333 22 34.666 34 45.999s24.5 20 37.5 26s26.333 10.167 40 12.5s27.167 4.5 40.5 6.5l20 3c14 32 29.167 64.167 45.5 96.5s33.666 61.5 51.999 87.5s37.333 47.167 57 63.5s40.167 24.5 61.5 24.5
c19.333 0 34.166 -6 44.499 -18s15.5 -27.667 15.5 -47c0 -18 -5.5 -37.667 -16.5 -59s-26.333 -42.5 -46 -63.5s-42.834 -40.5 -69.501 -58.5s-55.667 -32 -87 -42l-6 -16c0 -0.666992 -0.166992 -1 -0.5 -1s-0.5 -0.333008 -0.5 -1l-1 -1
c6.66699 2.66699 12.334 4.33398 17.001 5.00098s9.66699 1 15 1c16.667 0 28.167 -4.33301 34.5 -13s9.5 -19.667 9.5 -33c0 -19.333 -3.66699 -36.333 -11 -51c16.667 7.33301 34.5 20 53.5 38s41.167 45.667 66.5 83v-1zM180 563.001
c-21.333 -20.667 -42 -49.165 -62 -85.498s-38 -73.166 -54 -110.499c28 11.333 52.833 25.166 74.5 41.499s40 33.333 55 51s26.5 35.167 34.5 52.5s12 32.666 12 45.999c0 12 -1.66699 20.5 -5 25.5s-7 7.5 -11 7.5c-7.33301 0 -14.833 -2.83301 -22.5 -8.5
s-14.5 -11.834 -20.5 -18.501zM63 292.003c-5.33301 0 -10.833 -3.50098 -16.5 -10.501s-11.334 -15.5 -17.001 -25.5s-11 -20.833 -16 -32.5s-9.16699 -22.5 -12.5 -32.5c2.66699 -2 5.33398 -3 8.00098 -3c7.33301 0 14.5 3.5 21.5 10.5s13.333 15.333 19 25
s10.167 19.834 13.5 30.501s5 19.667 5 27s-1.66699 11 -5 11z" />
    <glyph glyph-name="c.003" unicode="&#xe036;" horiz-adv-x="160" 
d="M-321 169c10 18 20.6641 32.333 31.9971 43s23.166 18.667 35.499 24s25 9.16602 38 11.499s26.167 4.16602 39.5 5.49902c12.667 1.33301 26 3.16602 40 5.49902s28 6.33301 42 12s28.167 13.834 42.5 24.501s28.833 25.334 43.5 44.001v-1l5 9
c7.33301 10.667 15.833 19.334 25.5 26.001s19.5 10 29.5 10c12.667 0 21.5 -4.16699 26.5 -12.5s7.5 -18.5 7.5 -30.5c0 -8 -1 -16.167 -3 -24.5s-4.5 -16 -7.5 -23s-6.16699 -12.833 -9.5 -17.5s-6.66602 -7 -9.99902 -7c-11.333 0 -17 5.33301 -17 16
c0 1.33301 1.33301 4.33301 4 9s5.66699 11 9 19s5 16.667 5 26c0 5.33301 -1 8 -3 8c-4 0 -9 -4.5 -15 -13.5s-12 -20.167 -18 -33.5s-11.167 -27.333 -15.5 -42s-6.5 -27.667 -6.5 -39c0 -16.667 5.66699 -25 17 -25c8 0 17.667 4 29 12s23.333 19 36 33
s25.334 30.333 38.001 49s24.667 39 36 61c2.66699 2.66699 6.33398 4 11.001 4c3.33301 0 6.33301 -1.33301 9 -4s4 -6 4 -10c0 -0.666992 -0.166992 -1.16699 -0.5 -1.5s-0.5 -1.16602 -0.5 -2.49902c-18 -32.667 -35 -60 -51 -82s-31.333 -39.5 -46 -52.5
s-28.5 -22.333 -41.5 -28s-25.167 -8.5 -36.5 -8.5c-19.333 0 -32.833 5.66699 -40.5 17s-11.5 25.666 -11.5 42.999c0 15.333 2.33301 31 7 47c-21.333 -15.333 -42.666 -25.333 -63.999 -30s-41.666 -8.33398 -60.999 -11.001c-12 -1.33301 -24 -3.16602 -36 -5.49902
s-23.833 -6 -35.5 -11s-22.834 -12.333 -33.501 -22s-20.667 -22.5 -30 -38.5c-0.666992 -0.666992 -3 -1 -7 -1c-9.33301 0 -14 4.66699 -14 14c0 2 0.333008 3.33301 1 4v-2z" />
    <glyph glyph-name="d.003" unicode="&#xe037;" horiz-adv-x="258" 
d="M-44 343l-0.000976562 -2c0 -0.666992 -0.166992 -1 -0.5 -1s-0.166016 0.666992 0.500977 2v1zM251.999 345c1.33301 2 3.1748 3.66602 5.50781 4.99902s4.5 2 6.5 2c3.33301 0 6.66602 -1.33301 9.99902 -4s5 -5.33398 5 -8.00098
c0 -3.33301 -0.666992 -5.66602 -2 -6.99902v1c-1.33301 -2 -3 -4.33301 -5 -7s-4.33301 -6 -7 -10l-36.5 -52c-15 -21.333 -31.5 -42 -49.5 -62s-36.5 -37.333 -55.5 -52s-36.833 -22 -53.5 -22c-16 0 -26.833 5 -32.5 15s-8.5 20.667 -8.5 32
c0 7.33301 0.666992 14.833 2 22.5s2.66602 14.167 3.99902 19.5c-6.66699 -3.33301 -13.334 -5.66602 -20.001 -6.99902s-12 -2 -16 -2c-15.333 0 -26.166 4.16699 -32.499 12.5s-9.5 18.833 -9.5 31.5c0 12 2.66699 25.167 8 39.5s12.666 27.666 21.999 39.999
s20 22.666 32 30.999s24.667 12.5 38 12.5c14.667 0 26.667 -3.33301 36 -10c2.66699 4.66699 6 10.834 10 18.501s7.66699 14.167 11 19.5h-1v1l-23 -3h1c-10.667 -1.33301 -21 -3 -31 -5s-19.5 -5.5 -28.5 -10.5s-18 -11.833 -27 -20.5s-17.833 -20.334 -26.5 -35.001
c-2 -2 -4.66699 -3 -8 -3c-8 0 -12.667 4.66699 -14 14c10.667 18.667 21.667 33.5 33 44.5s23 19.5 35 25.5s24.167 10.167 36.5 12.5s25.166 4.5 38.499 6.5c5.33301 0.666992 10.166 1.33398 14.499 2.00098s9.16602 1.66699 14.499 3c12 22.667 24.667 44.667 38 66
s27.166 40 41.499 56s29.5 28.833 45.5 38.5s32.333 14.5 49 14.5c22.667 0 38.167 -5.16699 46.5 -15.5s12.5 -23.5 12.5 -39.5c0 -21.333 -5.33301 -39.666 -16 -54.999s-24.834 -28.5 -42.501 -39.5s-37.667 -20.167 -60 -27.5s-44.833 -13.666 -67.5 -18.999l-11 -23
l-17 -37l-17.5 -39.5l-13.5 -30.5c-2 -5.33301 -5 -13.833 -9 -25.5l-13 -37c-4.66699 -13 -8.66699 -25.5 -12 -37.5s-5 -20.333 -5 -25c6.66699 0.666992 14.667 4.5 24 11.5s19.5 15.667 30.5 26s22 22.166 33 35.499l33 40.5l30.5 39zM182.008 444.999l10 3l-5 -10z
M311.008 582.999c-10.667 0 -21.834 -5.00098 -33.501 -15.001s-23 -22.167 -34 -36.5s-21 -29.166 -30 -44.499s-16.167 -28.333 -21.5 -39c25.333 8 46.833 15.833 64.5 23.5s31.834 15.667 42.501 24s18.334 17.333 23.001 27s7 20.5 7 32.5
c0 10.667 -1.83301 18 -5.5 22s-7.83398 6 -12.501 6zM12.0078 238.998c8 0 15.999 4 23.999 12s15.333 17.167 22 27.5s12 20.5 16 30.5s6 17 6 21c-1.33301 9.33301 -4.66602 14 -9.99902 14c-6 0 -12.5 -4 -19.5 -12s-13.5 -17.5 -19.5 -28.5s-10.833 -22 -14.5 -33
s-5.5 -19.833 -5.5 -26.5c0 -3.33301 0.333008 -5 1 -5z" />
    <glyph glyph-name="e.003" unicode="&#xe038;" horiz-adv-x="160" 
d="M-321 169c10 18 20.668 32.334 32.001 43.001s23.166 18.667 35.499 24s25 9.16602 38 11.499s26.167 4.16602 39.5 5.49902c12.667 1.33301 26 3.16602 40 5.49902s28 6.33301 42 12s28.167 13.834 42.5 24.501s28.833 25.334 43.5 44.001v-1l5 9
c7.33301 10.667 15.833 19.334 25.5 26.001s19.5 10 29.5 10c17.333 0 26 -8.66699 26 -26c0 -6.66699 -1.66699 -14.167 -5 -22.5s-8 -16.5 -14 -24.5s-13.167 -15.667 -21.5 -23s-17.5 -13 -27.5 -17c-6.66699 -18.667 -10 -34.667 -10 -48
c-0 -7.33301 1.33301 -13.5 4 -18.5s7 -7.5 13 -7.5c8 0 17.5 3.83301 28.5 11.5s22.667 18.167 35 31.5s24.666 29 36.999 47s24.166 37.333 35.499 58h-1c2 4.66699 6.33301 7 13 7c3.33301 0 6.5 -0.833008 9.5 -2.5s4.5 -5.16699 4.5 -10.5
c0 -2 -0.666992 -4.33301 -2 -7c-30 -56 -60.667 -98 -92 -126s-58.666 -42 -81.999 -42c-19.333 0 -32.833 5.66699 -40.5 17s-11.5 25.666 -11.5 42.999c0 15.333 2.33301 31 7 47c-21.333 -15.333 -42.666 -25.333 -63.999 -30s-41.666 -8.33398 -60.999 -11.001
c-12 -1.33301 -24 -3.16602 -36 -5.49902s-23.833 -6 -35.5 -11s-22.834 -12.333 -33.501 -22s-20.667 -22.5 -30 -38.5c-0.666992 -0.666992 -3 -1 -7 -1c-9.33301 0 -14 4.66699 -14 14c0 2 0.333008 3.33301 1 4v-2zM57.001 351.001h-1.99805
c-5.33301 0 -11.833 -5.83301 -19.5 -17.5s-14.834 -25.834 -21.501 -42.501c11.333 8 21.666 17.667 30.999 29s14 20 14 26c0 2.66699 -0.666992 4.33398 -2 5.00098z" />
    <glyph glyph-name="f.003" unicode="&#xe039;" horiz-adv-x="137" 
d="M-321 169c13.333 24 27.8311 41.502 43.498 52.502s31.834 18.667 48.501 23s34 7.16602 52 8.49902s36.5 4.33301 55.5 9s38.167 13.167 57.5 25.5s39 31.5 59 57.5l-1 -1l30.5 60.5c10.333 19.667 21 37 32 52s21.667 27.167 32 36.5s20.5 14 30.5 14
c3.33301 0 5.83301 -0.333008 7.5 -1s2.5 -2.66699 2.5 -6s-1 -7.33301 -3 -12s-5.66699 -12.334 -11 -23.001l-39 -80c-10.667 -22 -20.334 -44 -29.001 -66s-18.667 -43.667 -30 -65c0.666992 0 1.33398 -0.166992 2.00098 -0.5s1.33398 -0.5 2.00098 -0.5
c11.333 0 23.666 5.16699 36.999 15.5s25.833 21.5 37.5 33.5s21.834 23.167 30.501 33.5s14.334 15.5 17.001 15.5c3.33301 0 6.83301 -1.5 10.5 -4.5s5.5 -7.83301 5.5 -14.5c-7.33301 -10 -16.5 -21 -27.5 -33s-23 -23.333 -36 -34s-26.5 -19.667 -40.5 -27
s-27.667 -11 -41 -11h-1c-0.666992 0 -1.33398 0.333008 -2.00098 1c0.666992 -3.33301 1 -6.83301 1 -10.5v-13.5c0 -17.333 -1.33301 -36.833 -4 -58.5s-7.33398 -42.334 -14.001 -62.001s-15.167 -36.167 -25.5 -49.5s-22.833 -20 -37.5 -20c-9.33301 0 -17 4 -23 12
s-9 19.667 -9 35c0 10.667 0.833008 22.334 2.5 35.001s4.83398 27.167 9.50098 43.5s11.167 35.333 19.5 57s18.833 47.167 31.5 76.5c-16.667 -14 -33 -23.833 -49 -29.5s-31.833 -9.5 -47.5 -11.5s-31 -3.66699 -46 -5s-29.5 -4 -43.5 -8s-27.333 -11 -40 -21
s-24.667 -24.667 -36 -44c-2 -2 -5 -3 -9 -3c-9.33301 0 -14 4.66699 -14 14c0 2 0.333008 3.33301 1 4v-2zM-50.002 44.002c3.33301 0.666992 7 5.32812 11 13.9951s7.66699 20 11 34s6.16602 29.833 8.49902 47.5s3.5 35.167 3.5 52.5c-4 -9.33301 -8 -20.166 -12 -32.499
s-7.66699 -25.166 -11 -38.499s-6.16602 -26.166 -8.49902 -38.499s-3.5 -22.5 -3.5 -30.5c0 -1.33301 0.166992 -2.66602 0.5 -3.99902s0.5 -2.66602 0.5 -3.99902z" />
    <glyph glyph-name="g.003" unicode="&#xe03a;" horiz-adv-x="224" 
d="M-321 169c10.667 18 21.6602 32.3359 32.9932 43.0029s23 18.667 35 24s24.5 9.16602 37.5 11.499s26.167 4.16602 39.5 5.49902s27 3.33301 41 6s28.333 7.33398 43 14.001s29.334 15.667 44.001 27s29.334 26.333 44.001 45c9.33301 12 20.5 21.833 33.5 29.5
s25.833 11.5 38.5 11.5c7.33301 0 14 -0.833008 20 -2.5s11.667 -4.83398 17 -9.50098l1 2c0.666992 2 2.33398 3 5.00098 3h48c5.33301 0 7 -2.33301 5 -7l-49 -110c10.667 6.66699 20.167 13 28.5 19s16.333 12.167 24 18.5s15.334 13.333 23.001 21l26.5 25.5
c2.66699 2.66699 6.33398 4 11.001 4c10.667 0 16 -4.33301 16 -13c0 -4 -1 -7 -3 -9c-10 -10 -20 -19.5 -30 -28.5s-20.667 -17.667 -32 -26s-23.666 -16.5 -36.999 -24.5s-28.333 -16.333 -45 -25l-39.5 -78c-15.667 -30 -33.5 -58.5 -53.5 -85.5
s-41.5 -49.833 -64.5 -68.5s-47.5 -28 -73.5 -28c-19.333 0 -33.666 6.66699 -42.999 20s-14 29.666 -14 48.999c0 22 6.33301 42.333 19 61s29.667 36.167 51 52.5s46 31.5 74 45.5s57.667 27.333 89 40l5 13c-9.33301 -4.66699 -18.666 -7 -27.999 -7
c-16 0 -27.333 4.33301 -34 13s-10 19.334 -10 32.001c-24.667 -21.333 -48.834 -35 -72.501 -41s-46.834 -10 -69.501 -12c-12.667 -1.33301 -25 -3 -37 -5s-23.833 -5.66699 -35.5 -11s-22.667 -12.833 -33 -22.5s-20.166 -22.834 -29.499 -39.501
c-0.666992 -0.666992 -3 -1 -7 -1c-9.33301 0 -14 4.66699 -14 14c0 2 0.333008 3.33301 1 4v-2zM-109.007 10.0029c13.333 10 26.334 22.667 39.001 38s24.667 31.5 36 48.5s22 34.167 32 51.5s18.667 33.333 26 48c-23.333 -8 -46.166 -17.5 -68.499 -28.5
s-42.333 -23.333 -60 -37s-32 -28.5 -43 -44.5s-16.5 -33.333 -16.5 -52c0 -9.33301 1.66699 -18.5 5 -27.5s8.66602 -13.5 15.999 -13.5c9.33301 0 20.666 5.66699 33.999 17zM33.9941 269.003c5.33301 0.666992 11.167 4.50098 17.5 11.501s12.333 15 18 24
s10.334 17.333 14.001 25s5.5 12.167 5.5 13.5c0 8.66699 -3.66699 13 -11 13c-8 0 -15.167 -2.83301 -21.5 -8.5s-11.833 -12.5 -16.5 -20.5s-8.33398 -16.167 -11.001 -24.5s-4 -14.833 -4 -19.5c0 -8.66699 3 -13.334 9 -14.001z" />
    <glyph glyph-name="h.003" unicode="&#xe03b;" horiz-adv-x="223" 
d="M-174 260l-0.000976562 -2c0 -0.666992 -0.166992 -1 -0.5 -1s-0.166016 0.666992 0.500977 2v1zM-72.001 163c-4.66699 0 -6.33301 2.33496 -5 7.00195l22 56.5l23 57.5l8 18.5l8 19.5l-29 -5c-10 -1.33301 -19.5 -3 -28.5 -5s-18 -5.33301 -27 -10
s-17.667 -11.167 -26 -19.5s-16.833 -19.833 -25.5 -34.5c-1.33301 -2 -4 -3 -8 -3c-8 0 -12.667 4.66699 -14 14c10 18.667 20.667 33.5 32 44.5s23 19.5 35 25.5s24.167 10.167 36.5 12.5s24.833 4.5 37.5 6.5c3.33301 0 6 0.333008 8 1l19 3c14 34 29.167 67 45.5 99
s33.333 60.667 51 86s36.167 45.666 55.5 60.999s39 23 59 23c19.333 0 34.5 -5.66699 45.5 -17s16.5 -27 16.5 -47c0 -18 -5.5 -37.833 -16.5 -59.5s-26.167 -43 -45.5 -64s-42.5 -40.333 -69.5 -58s-56.5 -31.5 -88.5 -41.5l-12 -29c9.33301 6 19 11.167 29 15.5
s18.667 6.5 26 6.5c11.333 0 19.166 -2.66699 23.499 -8s6.5 -12 6.5 -20c0 -9.33301 -1.83301 -19.666 -5.5 -30.999s-7.5 -22.333 -11.5 -33l-9.5 -26c-3 -8 -4.5 -14.333 -4.5 -19c0 -4 0.666992 -6 2 -6c4.66699 0 11.334 4.5 20.001 13.5s18.667 21 30 36
s23.333 32.167 36 51.5l39 60l-1 -1c2 5.33301 6.33301 8 13 8c4 0 7.83301 -1.33301 11.5 -4s5.5 -6 5.5 -10c0 -4.66699 -1 -8 -3 -10v1l-47 -71.5c-15.333 -22.333 -30.166 -41.666 -44.499 -57.999s-28 -29.333 -41 -39s-25.167 -14.5 -36.5 -14.5
c-14 0 -23.833 4.66699 -29.5 14s-8.5 19.666 -8.5 30.999s1.5 23.166 4.5 35.499s6.16699 23.166 9.5 32.499l7 26c-3.33301 -1.33301 -7.33301 -4.16602 -12 -8.49902s-9.33398 -9.33301 -14.001 -15s-9 -11.334 -13 -17.001s-6.66699 -10.167 -8 -13.5l-23 -65
c-1.33301 -2 -3 -3 -5 -3h-53zM185 574.002c-13.333 -9.33301 -25.668 -21.8301 -37.001 -37.4971s-22.166 -32.834 -32.499 -51.501s-20 -38.167 -29 -58.5l-26.5 -59.5c27.333 11.333 51.833 25.166 73.5 41.499s40 33.333 55 51s26.5 35.167 34.5 52.5
s12 32.666 12 45.999c0 10 -2 17.167 -6 21.5s-8.66699 6.5 -14 6.5c-10 0 -20 -4 -30 -12z" />
    </font>
</defs>
</svg>
